osu file format v14

[General]
AudioFilename: audio.mp3
AudioLeadIn: 0
PreviewTime: 145192
Countdown: 0
SampleSet: Soft
StackLeniency: 0.7
Mode: 0
LetterboxInBreaks: 0
WidescreenStoryboard: 1

[Editor]
Bookmarks: 18587,34485,62720,90929,113530,161530,195413
DistanceSpacing: 1
BeatDivisor: 8
GridSize: 8
TimelineZoom: 1.4

[Metadata]
Title:Koiki na Bye Bye
TitleUnicode:小粋なバイバイ
Artist:indigo la End
ArtistUnicode:indigo la End
Creator:FuJu
Version:Normal
Source:
Tags:airincat irohas mugiwarasekai some hero akito japanese pop jpop 濡れゆく私小説 Nureyuku Shishousetsu Gesu no Kiwami Otome. kawatani enon 川谷絵音
BeatmapID:3074347
BeatmapSetID:1487579

[Difficulty]
HPDrainRate:4
CircleSize:3
OverallDifficulty:4
ApproachRate:5
SliderMultiplier:1
SliderTickRate:1

[Events]
//Background and Video events
0,0,"67759389_p0.jpg",0,0
//Break Periods
2,113716,122374
2,141774,149021
//Storyboard Layer 0 (Background)
//Storyboard Layer 1 (Fail)
//Storyboard Layer 2 (Pass)
//Storyboard Layer 3 (Foreground)
//Storyboard Layer 4 (Overlay)
//Storyboard Sound Samples

[TimingPoints]
588,352.941176470588,4,2,1,20,1,0
10823,-100,4,2,1,40,0,0
11352,-100,4,2,1,60,0,0
11882,-95.2380952380952,4,2,1,60,0,0
34470,-105.263157894737,4,2,1,60,0,0
55823,-105.263157894737,4,2,1,70,0,0
78411,-285.714285714286,4,2,1,20,0,0
79646,-95.2380952380952,4,2,1,80,0,0
89529,348.837209302326,4,2,1,80,1,0
89529,-95.2380952380952,4,2,1,80,0,0
90924,352.941176470588,4,2,1,80,1,0
90924,-95.2380952380952,4,2,1,80,0,0
100806,324.324324324324,4,2,1,80,1,0
100806,-95.2380952380952,4,2,1,80,0,0
101278,324.324324324324,4,2,1,80,1,0
101641,377.358490566038,4,2,1,80,1,0
102207,365.853658536585,4,2,1,60,1,0
102207,-95.2380952380952,4,2,1,60,0,0
103633,352.941176470588,4,2,1,70,1,0
103633,-95.2380952380952,4,2,1,70,0,0
112633,329.67032967033,4,2,1,60,1,0
113516,352.941176470588,4,2,1,60,1,0
123574,-100,4,2,0,70,0,0
123927,-105.263157894737,4,2,1,70,0,0
124810,-105.263157894737,4,2,1,60,0,0
127280,-105.263157894737,4,2,0,60,0,0
127633,-105.263157894737,4,2,1,60,0,0
128692,-105.263157894737,4,2,0,60,0,0
129045,-105.263157894737,4,2,1,60,0,0
130104,-105.263157894737,4,2,0,60,0,0
130457,-105.263157894737,4,2,1,60,0,0
132927,-105.263157894737,4,2,0,60,0,0
133280,-105.263157894737,4,2,1,60,0,0
134339,-105.263157894737,4,2,0,60,0,0
134692,-105.263157894737,4,2,1,60,0,0
136104,-105.263157894737,4,2,1,70,0,0
138751,-105.263157894737,4,2,0,70,0,0
138927,-105.263157894737,4,2,1,70,0,0
141574,-105.263157894737,4,2,1,40,0,0
149515,-105.263157894737,4,2,1,60,0,0
149692,-105.263157894737,4,2,0,60,0,0
149780,-105.263157894737,4,2,1,60,0,0
149957,-105.263157894737,4,2,0,60,0,0
150045,-105.263157894737,4,2,1,60,0,0
150221,-86.9565217391304,4,2,1,80,0,0
172810,-95.2380952380952,4,2,1,85,0,0
189574,-95.2380952380952,4,2,1,90,0,0
195398,-95.2380952380952,4,2,1,40,0,0

[Colours]
Combo1 : 200,255,149
Combo2 : 255,255,149
Combo3 : 212,212,212
Combo4 : 149,202,255

[HitObjects]
461,84,11352,6,0,L|472:35,2,50,4|2|0,2:3|1:2|0:0,0:0:0:0:
418,115,11882,2,0,L|405:165,1,52.4999983978272,6|2,3:2|0:2,0:0:0:0:
371,207,12235,2,0,P|327:180|275:185,1,104.999996795654,2|0,1:2|3:2,0:0:0:0:
207,265,12940,2,0,L|155:255,1,52.4999983978272,2|2,1:2|0:2,0:0:0:0:
117,218,13293,2,0,L|126:166,1,52.4999983978272,2|2,3:2|0:2,0:0:0:0:
139,115,13646,1,2,1:2:0:0:
139,115,13823,1,2,0:2:0:0:
220,49,14176,1,2,3:2:0:0:
220,49,14352,2,0,L|271:57,1,52.4999983978272,2|2,1:2|0:2,0:0:0:0:
309,94,14705,6,0,L|360:85,1,52.4999983978272,2|2,3:2|0:2,0:0:0:0:
411,99,15058,2,0,P|444:136|434:186,1,104.999996795654,2|0,1:2|3:2,0:0:0:0:
364,265,15764,2,0,L|313:251,1,52.4999983978272,2|2,1:2|0:2,0:0:0:0:
269,280,16117,2,0,L|255:330,1,52.4999983978272,2|2,3:1|0:1,0:0:0:0:
211,359,16470,1,2,1:2:0:0:
211,359,16646,1,2,0:1:0:0:
114,316,16999,2,0,L|100:366,2,52.4999983978272,2|2|2,3:1|1:2|0:1,0:0:0:0:
70,286,17529,6,0,L|56:235,1,52.4999983978272,2|2,3:2|0:2,0:0:0:0:
67,183,17882,2,0,L|167:154,1,104.999996795654,2|0,1:2|3:2,0:0:0:0:
225,65,18587,2,0,L|277:75,1,52.4999983978272,2|2,1:2|0:2,0:0:0:0:
315,112,18940,2,0,L|306:164,1,52.4999983978272,2|2,3:2|0:2,0:0:0:0:
297,218,19293,1,2,1:2:0:0:
297,218,19470,2,0,L|310:322,1,104.999996795654,2|0,0:2|3:2,0:0:0:0:
320,373,19999,1,0,1:2:0:0:
421,344,20352,6,0,L|430:292,1,52.4999983978272,2|2,3:2|0:2,0:0:0:0:
501,215,20882,1,2,0:2:0:0:
501,215,21058,2,0,L|492:163,1,52.4999983978272,2|2,3:2|3:2,0:0:0:0:
476,112,21411,1,2,1:2:0:0:
385,58,21764,2,0,L|334:72,1,52.4999983978272,2|2,3:1|0:1,0:0:0:0:
283,86,22117,1,0,1:2:0:0:
283,86,22293,1,2,0:1:0:0:
178,93,22646,2,0,L|163:42,2,52.4999983978272,2|2|2,3:2|1:3|0:2,0:0:0:0:
196,142,23176,6,0,L|181:192,1,52.4999983978272,2|2,3:2|0:2,0:0:0:0:
137,222,23529,2,0,P|119:269|147:310,1,104.999996795654,2|0,1:2|3:2,0:0:0:0:
239,363,24235,2,0,L|290:354,1,52.4999983978272,2|2,1:2|0:2,0:0:0:0:
327,316,24587,2,0,L|318:264,1,52.4999983978272,2|2,3:2|0:2,0:0:0:0:
304,213,24940,1,2,1:2:0:0:
304,213,25117,1,2,0:2:0:0:
391,153,25470,1,2,3:2:0:0:
391,153,25646,2,0,L|382:101,1,52.4999983978272,2|2,1:2|0:2,0:0:0:0:
341,67,25999,6,0,L|289:75,1,52.4999983978272,2|2,3:2|0:2,0:0:0:0:
246,106,26352,2,0,B|195:117|203:72|148:80,1,104.999996795654,2|0,1:2|3:2,0:0:0:0:
78,158,27058,2,0,L|87:209,1,52.4999983978272,2|2,1:2|0:2,0:0:0:0:
123,247,27411,2,0,L|174:237,1,52.4999983978272,2|2,3:1|0:1,0:0:0:0:
224,254,27764,1,2,1:2:0:0:
224,254,27940,1,2,0:1:0:0:
311,311,28293,2,0,L|320:362,2,52.4999983978272,2|2|2,3:1|1:2|0:1,0:0:0:0:
352,278,28823,6,0,L|361:226,1,52.4999983978272,2|2,3:2|0:2,0:0:0:0:
405,199,29176,2,0,P|420:150|391:109,1,104.999996795654,2|0,1:2|3:2,0:0:0:0:
323,28,29882,2,0,L|271:39,1,52.4999983978272,2|2,1:2|0:2,0:0:0:0:
235,77,30235,2,0,L|246:128,1,52.4999983978272,2|2,3:2|0:2,0:0:0:0:
224,176,30587,1,2,1:2:0:0:
224,176,30764,2,0,L|245:278,1,104.999996795654,2|0,0:2|3:2,0:0:0:0:
262,328,31293,1,0,1:2:0:0:
362,357,31646,6,0,L|413:344,1,52.4999983978272,2|2,3:2|0:2,0:0:0:0:
465,254,32176,1,2,0:2:0:0:
465,254,32352,2,0,L|452:203,1,52.4999983978272,2|2,3:2|3:2,0:0:0:0:
431,154,32705,1,2,1:3:0:0:
355,81,33058,2,0,L|304:94,1,52.4999983978272,2|2,3:1|0:1,0:0:0:0:
253,78,33411,1,2,1:1:0:0:
253,78,33587,1,2,3:3:0:0:
202,170,33940,1,4,3:3:0:0:
202,170,34117,2,0,L|215:241,1,52.4999983978272,4|0,1:3|0:0,0:0:0:0:
242,257,34470,6,0,B|288:245|288:245|371:309,1,142.49999619484,6|2,3:2|0:2,0:0:0:0:
409,310,35176,2,0,P|440:275|431:230,1,94.9999974632264,2|2,3:2|1:2,0:0:0:0:
401,193,35705,2,0,L|433:47,1,142.49999619484,2|0,0:2|1:2,0:0:0:0:
293,16,36764,6,0,L|247:28,1,47.4999987316132,2|2,3:2|1:2,0:0:0:0:
217,64,37117,2,0,P|190:102|199:147,1,94.9999974632264,2|2,0:2|0:2,0:0:0:0:
236,178,37646,1,2,1:2:0:0:
186,259,37999,2,0,L|140:271,1,47.4999987316132,2|2,3:2|3:2,0:0:0:0:
93,281,38352,1,2,1:2:0:0:
93,281,38529,2,0,B|63:245|63:245|76:198,1,94.9999974632264,2|2,0:2|0:2,0:0:0:0:
107,162,39058,1,0,1:2:0:0:
190,46,39587,6,0,L|236:57,1,47.4999987316132,2|2,3:2|1:2,0:0:0:0:
272,86,39940,2,0,P|316:67|363:67,1,94.9999974632264,2|2,0:2|0:2,0:0:0:0:
406,89,40470,1,2,1:2:0:0:
445,175,40823,2,0,L|430:220,1,47.4999987316132,2|2,3:2|3:2,0:0:0:0:
419,265,41176,1,2,1:2:0:0:
419,265,41352,2,0,P|373:272|336:243,1,94.9999974632264,2|0,0:2|0:0,0:0:0:0:
312,202,41882,1,0,1:2:0:0:
213,98,42411,6,0,L|221:51,1,47.4999987316132,2|2,3:2|1:2,0:0:0:0:
257,19,42764,1,2,0:2:0:0:
331,78,43117,2,0,L|322:124,1,47.4999987316132,2|2,0:2|1:2,0:0:0:0:
293,162,43470,1,2,0:2:0:0:
218,220,43823,2,0,L|171:211,1,47.4999987316132,2|0,3:2|1:2,0:0:0:0:
127,229,44176,2,0,P|114:274|139:312,1,94.9999974632264,2|0,0:2|0:0,0:0:0:0:
180,335,44705,1,0,1:2:0:0:
272,355,45058,2,0,L|265:307,2,47.4999987316132,0|0|2,3:2|3:2|1:3,0:0:0:0:
314,383,45587,5,2,0:2:0:0:
314,383,45764,2,0,P|380:358|450:350,1,142.49999619484,2|2,3:2|0:2,0:0:0:0:
460,303,46470,2,0,P|482:310|505:315,2,47.4999987316132,2|2|2,3:2|3:2|1:2,0:0:0:0:
431,264,46999,1,2,0:2:0:0:
379,191,47352,1,2,0:2:0:0:
379,191,47529,2,0,P|341:163|294:163,1,94.9999974632264,2|0,1:2|3:2,0:0:0:0:
250,182,48058,2,0,L|261:228,1,47.4999987316132,2|2,3:2|1:2,0:0:0:0:
236,268,48411,1,2,0:2:0:0:
149,228,48764,6,0,L|127:135,1,94.9999974632264,2|2,0:2|0:2,0:0:0:0:
141,91,49293,1,2,3:2:0:0:
141,91,49470,2,0,L|187:81,1,47.4999987316132,2|2,3:2|1:2,0:0:0:0:
234,73,49823,1,2,0:2:0:0:
320,125,50176,1,2,0:2:0:0:
320,125,50352,2,0,L|329:171,1,47.4999987316132,2|2,1:2|0:2,0:0:0:0:
370,196,50705,2,0,L|360:242,1,47.4999987316132,2|2,3:2|3:2,0:0:0:0:
314,326,51235,1,2,0:2:0:0:
400,364,51587,6,0,P|443:346|490:338,1,94.9999974632264,2|0,0:2|0:0,0:0:0:0:
508,294,52117,1,0,3:2:0:0:
455,214,52470,1,0,1:2:0:0:
477,121,52823,2,0,L|464:75,1,47.4999987316132,2|0,3:2|0:0,0:0:0:0:
449,30,53176,1,0,1:2:0:0:
358,57,53529,1,0,3:2:0:0:
358,57,53705,2,0,L|311:47,1,47.4999987316132,2|2,3:2|1:2,0:0:0:0:
266,63,54058,1,2,0:2:0:0:
198,129,54411,6,0,L|151:119,1,47.4999987316132,2|2,0:2|1:2,0:0:0:0:
106,137,54764,2,0,P|77:172|85:218,1,94.9999974632264,2|2,0:2|3:2,0:0:0:0:
117,253,55293,1,2,1:2:0:0:
117,253,55470,1,2,0:2:0:0:
189,314,55823,2,0,L|235:305,1,47.4999987316132,8|0,0:3|1:2,0:0:0:0:
278,323,56176,2,0,P|313:293|309:247,1,94.9999974632264,2|4,3:3|0:3,0:0:0:0:
231,204,56882,5,2,0:2:0:0:
231,204,57058,2,0,P|196:174|200:128,1,94.9999974632264,2|2,3:3|1:2,0:0:0:0:
232,93,57587,1,2,0:2:0:0:
232,93,57764,1,2,3:2:0:0:
309,38,58117,2,0,L|355:47,1,47.4999987316132,2|2,1:2|0:2,0:0:0:0:
402,57,58470,1,2,3:2:0:0:
402,57,58646,2,0,L|377:159,1,94.9999974632264,2|0,0:2|0:0,0:0:0:0:
418,236,59352,6,0,L|406:282,1,47.4999987316132,2|2,3:2|1:2,0:0:0:0:
373,316,59705,2,0,L|281:289,1,94.9999974632264,2|2,0:2|0:2,0:0:0:0:
230,209,60411,2,0,L|138:235,1,94.9999974632264,2|2,0:2|3:2,0:0:0:0:
91,238,60940,1,2,1:2:0:0:
91,238,61117,2,0,L|61:130,1,94.9999974632264,2|2,0:2|0:2,0:0:0:0:
105,59,61823,1,2,0:2:0:0:
105,59,61999,2,0,L|151:66,1,47.4999987316132,2|2,3:2|3:2,0:0:0:0:
184,101,62352,1,0,1:2:0:0:
269,139,62705,6,0,P|310:114|356:110,1,94.9999974632264,2|2,3:3|1:2,0:0:0:0:
398,134,63235,1,2,0:2:0:0:
398,134,63411,1,2,3:2:0:0:
443,217,63764,2,0,L|427:262,1,47.4999987316132,2|2,1:2|0:2,0:0:0:0:
405,304,64117,1,2,3:2:0:0:
405,304,64293,2,0,L|296:276,1,94.9999974632264,2|0,0:2|0:0,0:0:0:0:
230,327,64999,1,2,3:2:0:0:
140,296,65352,6,0,P|112:259|121:214,1,94.9999974632264,2|2,0:2|0:2,0:0:0:0:
156,182,65882,1,2,1:2:0:0:
111,97,66235,2,0,L|65:110,2,47.4999987316132,2|2|2,3:2|3:2|1:2,0:0:0:0:
133,55,66764,1,2,0:2:0:0:
133,55,66940,2,0,L|226:72,1,94.9999974632264,2|2,3:3|1:2,0:0:0:0:
266,97,67470,1,2,0:2:0:0:
360,83,67823,2,0,L|382:25,1,47.4999987316132,2|0,3:2|1:2,0:0:0:0:
470,53,68352,6,0,L|438:142,1,94.9999974632264,2|2,3:3|1:2,0:0:0:0:
412,182,68882,1,2,0:2:0:0:
412,182,69058,2,0,P|446:213|441:259,1,94.9999974632264,2|2,3:2|1:2,0:0:0:0:
364,315,69764,1,2,3:2:0:0:
364,315,69940,2,0,B|320:327|300:299|313:280|284:252|242:270,1,142.49999619484,2|0,0:2|3:2,0:0:0:0:
204,297,70646,1,2,3:2:0:0:
127,240,70999,1,2,0:2:0:0:
184,164,71352,1,2,0:2:0:0:
108,106,71705,1,2,0:2:0:0:
108,106,71882,2,0,L|62:121,2,47.4999987316132,2|2|2,3:2|3:2|1:2,0:0:0:0:
139,70,72411,6,0,L|232:86,1,94.9999974632264,2|2,0:2|0:2,0:0:0:0:
325,67,73117,1,2,0:2:0:0:
325,67,73293,2,0,L|335:9,1,47.4999987316132,2|2,3:2|3:2,0:0:0:0:
376,2,73646,1,2,1:3:0:0:
376,2,73823,2,0,P|404:40|450:42,1,94.9999974632264,2|2,0:2|0:2,0:0:0:0:
492,19,74352,1,0,1:2:0:0:
511,116,74705,5,0,3:2:0:0:
511,116,74882,2,0,L|497:161,1,47.4999987316132,2|0,3:2|1:2,0:0:0:0:
473,201,75235,2,0,P|436:231|391:224,1,94.9999974632264,2|0,0:2|0:0,0:0:0:0:
350,199,75764,1,0,1:2:0:0:
270,146,76117,1,0,3:2:0:0:
270,146,76293,2,0,L|210:160,1,47.4999987316132,2|2,3:2|1:2,0:0:0:0:
178,172,76646,1,2,3:2:0:0:
178,172,76823,1,0,1:2:0:0:
209,261,77176,6,0,L|255:271,1,47.4999987316132,4|0,1:3|1:2,0:0:0:0:
274,315,77529,2,0,L|320:325,1,47.4999987316132,4|8,1:3|0:3,0:0:0:0:
351,362,77882,1,4,0:3:0:0:
351,362,78058,1,2,1:1:0:0:
382,86,79646,6,0,P|347:49|357:0,2,104.999996795654,6|2|0,3:2|1:2|3:2,0:0:0:0:
419,123,80529,2,0,L|405:173,1,52.4999983978272,2|2,0:2|1:2,0:0:0:0:
376,217,80882,2,0,L|274:189,1,104.999996795654,2|2,0:2|0:2,0:0:0:0:
172,165,81587,2,0,L|183:216,1,52.4999983978272,2|2,0:2|3:2,0:0:0:0:
221,252,81940,2,0,L|187:364,1,104.999996795654,2|2,0:2|0:2,0:0:0:0:
138,364,82470,6,0,P|88:370|59:329,1,104.999996795654,2|2,3:2|1:2,0:0:0:0:
29,233,83176,1,0,3:2:0:0:
29,233,83352,2,0,L|54:118,1,104.999996795654,2|2,0:2|0:2,0:0:0:0:
134,64,84058,1,2,0:2:0:0:
134,64,84235,2,0,L|184:78,1,52.4999983978272,2|2,1:2|0:2,0:0:0:0:
218,117,84587,2,0,L|268:102,1,52.4999983978272,2|2,3:2|0:2,0:0:0:0:
311,72,84940,2,0,L|361:86,1,52.4999983978272,2|2,1:2|0:2,0:0:0:0:
411,102,85293,6,0,P|431:147|405:190,2,104.999996795654,2|2|0,3:2|1:2|3:2,0:0:0:0:
444,60,86176,1,2,0:2:0:0:
356,1,86529,2,0,L|253:23,1,104.999996795654,2|2,0:2|0:2,0:0:0:0:
214,58,87058,2,0,L|162:46,1,52.4999983978272,2|0,1:2|0:0,0:0:0:0:
122,80,87411,2,0,L|70:68,1,52.4999983978272,2|0,3:2|0:0,0:0:0:0:
22,90,87764,1,2,1:2:0:0:
39,193,88117,5,0,3:2:0:0:
39,193,88293,2,0,L|141:216,1,104.999996795654,2|2,0:2|0:2,0:0:0:0:
180,251,88823,1,2,3:2:0:0:
180,251,88999,1,2,0:2:0:0:
287,272,89352,1,2,0:0:0:0:
287,272,89529,2,0,P|297:249|299:223,1,52.4999983978272,8|0,0:3|1:2,0:0:0:0:
247,124,90052,1,6,3:3:0:0:
316,45,90401,1,0,3:2:0:0:
316,45,90575,2,0,L|366:57,1,52.4999983978272,4|0,1:2|0:0,0:0:0:0:
411,84,90924,6,0,B|448:46|448:46|425:-1,2,104.999996795654,6|2|0,3:2|1:2|3:2,0:0:0:0:
445,123,91806,2,0,L|429:173,1,52.4999983978272,2|2,0:2|1:2,0:0:0:0:
445,222,92159,2,0,L|414:322,1,104.999996795654,2|2,0:2|0:2,0:0:0:0:
420,374,92688,1,2,1:2:0:0:
321,357,93041,1,2,3:2:0:0:
321,357,93218,2,0,P|287:320|236:317,1,104.999996795654,2|2,0:2|0:2,0:0:0:0:
188,342,93747,5,2,3:2:0:0:
98,287,94100,1,2,1:2:0:0:
153,199,94453,1,0,3:2:0:0:
153,199,94629,2,0,L|136:135,1,52.4999983978272,2|2,0:2|1:2,0:0:0:0:
155,98,94982,2,0,L|261:72,1,104.999996795654,2|2,0:2|0:2,0:0:0:0:
359,115,95688,1,2,0:2:0:0:
359,115,95865,2,0,L|385:221,1,104.999996795654,2|2,3:2|3:2,0:0:0:0:
402,266,96394,5,2,1:3:0:0:
402,266,96571,2,0,L|505:248,2,104.999996795654,2|2|0,3:2|1:2|3:2,0:0:0:0:
370,308,97453,1,2,0:2:0:0:
291,377,97806,2,0,P|259:336|270:287,1,104.999996795654,2|2,0:2|0:2,0:0:0:0:
249,238,98335,2,0,L|196:245,1,52.4999983978272,2|2,1:2|0:2,0:0:0:0:
151,217,98688,2,0,L|46:229,2,104.999996795654,2|2|0,3:2|1:2|3:2,0:0:0:0:
117,117,99747,6,0,L|169:109,1,52.4999983978272,2|0,1:2|0:0,0:0:0:0:
187,59,100100,2,0,L|239:51,1,52.4999983978272,2|0,3:2|0:0,0:0:0:0:
340,95,100629,1,2,0:2:0:0:
340,95,100806,2,0,L|344:147,1,52.4999983978272,2|2,1:2|1:2,0:0:0:0:
374,196,101130,1,2,1:2:0:0:
374,196,101278,1,6,3:2:0:0:
313,275,101641,1,2,3:2:0:0:
313,275,101829,2,0,L|264:261,1,50,6|2,1:2|0:2,0:0:0:0:
219,287,102207,6,0,L|204:337,1,52.4999983978272,6|2,3:2|0:2,0:0:0:0:
156,358,102572,2,0,P|122:319|72:323,1,104.999996795654,2|0,1:2|3:2,0:0:0:0:
11,237,103304,2,0,L|22:185,1,52.4999983978272,2|2,1:2|0:2,0:0:0:0:
59,163,103633,2,0,L|70:111,1,52.4999983978272,2|2,3:2|0:2,0:0:0:0:
112,81,103985,1,2,1:2:0:0:
112,81,104162,1,2,0:2:0:0:
203,133,104515,5,2,3:2:0:0:
203,133,104691,2,0,L|254:120,1,52.4999983978272,2|2,1:2|0:2,0:0:0:0:
292,85,105044,2,0,L|343:97,1,52.4999983978272,2|2,3:2|0:2,0:0:0:0:
394,85,105397,2,0,P|415:131|393:177,1,104.999996795654,2|0,1:2|3:2,0:0:0:0:
318,251,106103,2,0,L|267:238,1,52.4999983978272,2|2,1:2|0:2,0:0:0:0:
219,259,106456,2,0,L|206:309,1,52.4999983978272,2|2,3:1|0:1,0:0:0:0:
168,346,106809,1,2,1:2:0:0:
168,346,106985,1,2,0:1:0:0:
94,271,107338,1,2,3:1:0:0:
94,271,107515,2,0,L|106:220,1,52.4999983978272,2|2,1:2|0:1,0:0:0:0:
144,183,107868,6,0,L|195:195,1,52.4999983978272,2|2,3:2|0:2,0:0:0:0:
234,229,108221,2,0,P|278:202|330:201,1,104.999996795654,2|0,1:2|3:2,0:0:0:0:
421,149,108927,2,0,L|407:98,1,52.4999983978272,2|0,1:2|0:2,0:0:0:0:
366,64,109280,2,0,L|315:77,1,52.4999983978272,4|2,3:3|0:2,0:0:0:0:
272,108,109633,1,2,1:2:0:0:
272,108,109809,2,0,P|236:73|184:73,1,104.999996795654,2|0,0:2|3:2,0:0:0:0:
143,106,110338,1,0,1:2:0:0:
74,185,110691,5,2,1:3:0:0:
74,185,110868,2,0,P|83:236|92:288,1,104.999996795654,8|2,0:2|1:3,0:0:0:0:
127,327,111397,2,0,L|177:313,1,52.4999983978272,4|8,0:3|1:2,0:0:0:0:
211,273,111750,2,0,L|261:286,1,52.4999983978272,6|8,1:3|0:2,0:0:0:0:
303,319,112103,1,4,1:3:0:0:
256,192,112280,12,0,113516,0:0:0:0:
481,24,123574,6,0,L|421:42,1,50,2|2,3:2|3:2,0:0:0:0:
395,68,123927,2,0,L|410:161,1,94.9999974632264,6|2,3:2|1:2,0:0:0:0:
448,191,124457,2,0,L|438:237,1,47.4999987316132,10|10,1:2|1:2,0:0:0:0:
423,282,124810,1,6,3:2:0:0:
336,322,125163,1,8,0:3:0:0:
274,249,125516,2,0,L|283:202,2,47.4999987316132,2|0|8,3:2|3:2|0:3,0:0:0:0:
200,307,126221,1,2,3:2:0:0:
200,307,126398,2,0,P|160:251|189:190,1,142.49999619484,2|0,0:2|3:2,0:0:0:0:
116,129,127280,2,0,L|69:137,1,47.4999987316132,10|2,0:3|0:3,0:0:0:0:
27,160,127633,6,0,B|-9:216|24:263|50:238|79:281|56:329,1,189.999994926453,0|0,3:2|3:2,0:0:0:0:
149,348,128692,2,0,L|195:336,1,47.4999987316132,10|2,0:3|0:3,0:0:0:0:
230,305,129045,1,2,3:2:0:0:
230,305,129221,2,0,P|259:340|305:345,1,94.9999974632264,2|2,0:2|0:2,0:0:0:0:
349,325,129751,1,2,3:2:0:0:
349,325,129927,1,2,3:2:0:0:
411,253,130280,6,0,L|400:206,1,47.4999987316132,2|0,0:2|3:2,0:0:0:0:
366,172,130633,1,2,0:2:0:0:
366,172,130810,2,0,L|334:33,1,142.49999619484,8|0,0:3|3:2,0:0:0:0:
241,10,131692,1,2,0:2:0:0:
184,86,132045,1,2,0:2:0:0:
184,86,132221,2,0,L|201:179,1,94.9999974632264,8|0,0:3|3:2,0:0:0:0:
137,250,132927,2,0,L|91:264,1,47.4999987316132,10|2,0:3|0:3,0:0:0:0:
48,285,133280,6,0,B|107:299|107:299|147:358|147:358|204:369,1,189.999994926453,0|0,3:2|3:2,0:0:0:0:
289,327,134339,2,0,L|278:280,1,47.4999987316132,10|2,0:3|0:3,0:0:0:0:
301,239,134692,2,0,P|365:175|330:92,1,189.999994926453,0|2,3:2|3:3,0:0:0:0:
240,59,135751,2,0,L|194:72,1,47.4999987316132,2|2,1:2|0:2,0:0:0:0:
159,104,136104,2,0,L|183:195,1,94.9999974632264,6|2,3:2|1:2,0:0:0:0:
258,253,136810,2,0,L|245:298,1,47.4999987316132,2|2,3:2|3:2,0:0:0:0:
199,307,137163,2,0,L|186:352,1,47.4999987316132,2|2,1:2|0:2,0:0:0:0:
142,368,137516,5,2,3:2:0:0:
142,368,137692,2,0,P|110:334|114:288,1,94.9999974632264,2|0,0:2|0:0,0:0:0:0:
59,210,138398,2,0,L|68:163,1,47.4999987316132,2|2,3:2|1:3,0:0:0:0:
84,118,138751,1,2,0:3:0:0:
182,114,139104,1,2,0:2:0:0:
182,114,139280,2,0,L|172:160,1,47.4999987316132,2|2,1:2|0:2,0:0:0:0:
165,207,139633,1,2,3:2:0:0:
237,267,139986,5,2,1:3:0:0:
237,267,140163,2,0,P|282:249|329:245,2,94.9999974632264,2|2|2,0:2|0:2|0:2,0:0:0:0:
203,300,141045,2,0,L|210:346,1,47.4999987316132,2|0,3:2|3:2,0:0:0:0:
249,373,141398,1,2,1:3:0:0:
249,373,141574,1,2,0:2:0:0:
389,287,150221,6,0,P|438:316|491:337,2,115.000002193451,14|2|0,3:2|1:2|3:2,0:0:0:0:
332,301,151104,2,0,P|305:310|277:319,1,57.5000010967255,2|2,0:2|1:2,0:0:0:0:
227,347,151457,2,0,P|186:310|198:256,1,115.000002193451,2|2,0:2|0:2,0:0:0:0:
137,158,152163,2,0,P|110:148|82:139,1,57.5000010967255,2|2,0:2|3:2,0:0:0:0:
31,114,152515,2,0,P|50:59|61:3,1,115.000002193451,2|2,0:2|0:2,0:0:0:0:
120,0,153045,6,0,P|173:19|230:31,1,115.000002193451,2|2,3:2|1:2,0:0:0:0:
309,123,153751,1,0,3:2:0:0:
309,123,153927,2,0,P|291:177|278:233,1,115.000002193451,2|2,0:2|0:2,0:0:0:0:
323,345,154633,1,2,0:2:0:0:
323,345,154810,2,0,P|349:334|377:327,1,57.5000010967255,2|2,1:2|3:2,0:0:0:0:
416,284,155163,2,0,P|442:294|470:301,1,57.5000010967255,4|4,3:3|0:3,0:0:0:0:
505,255,155515,2,0,P|515:228|512:199,1,57.5000010967255,2|2,1:2|0:2,0:0:0:0:
468,160,155868,6,0,P|437:116|461:67,2,115.000002193451,2|2|0,3:2|1:2|3:2,0:0:0:0:
425,199,156751,1,2,0:2:0:0:
331,131,157104,2,0,P|275:147|218:153,1,115.000002193451,2|2,0:2|0:2,0:0:0:0:
165,176,157633,2,0,P|138:170|109:167,1,57.5000010967255,2|0,1:2|0:0,0:0:0:0:
58,194,157986,2,0,P|51:221|48:250,1,57.5000010967255,2|0,3:2|0:0,0:0:0:0:
56,307,158339,1,2,1:2:0:0:
163,362,158692,5,0,3:2:0:0:
163,362,158868,2,0,L|276:337,1,115.000002193451,2|2,0:2|0:2,0:0:0:0:
336,330,159398,1,2,3:2:0:0:
336,330,159574,1,2,0:2:0:0:
275,232,159927,2,0,P|288:176|297:119,1,115.000002193451,2|0,3:2|1:2,0:0:0:0:
230,25,160633,1,6,3:3:0:0:
132,83,160986,1,0,3:2:0:0:
132,83,161163,1,4,1:2:0:0:
110,195,161515,6,0,P|55:175|0:162,2,115.000002193451,6|2|0,3:2|1:2|3:2,0:0:0:0:
144,241,162398,2,0,P|172:234|199:226,1,57.5000010967255,2|2,0:2|1:2,0:0:0:0:
249,255,162751,2,0,P|302:277|353:303,1,115.000002193451,2|2,0:2|0:2,0:0:0:0:
407,282,163280,1,2,1:2:0:0:
370,178,163633,1,2,3:2:0:0:
370,178,163810,2,0,P|350:117|331:69,1,115.000002193451,2|2,0:2|0:2,0:0:0:0:
283,35,164339,6,0,P|235:62|231:117,1,115.000002193451,2|2,3:2|1:2,0:0:0:0:
158,206,165045,1,0,3:2:0:0:
158,206,165221,2,0,L|104:185,1,57.5000010967255,2|2,0:2|1:2,0:0:0:0:
47,197,165574,1,2,0:2:0:0:
10,306,165927,1,2,0:2:0:0:
111,359,166280,1,2,0:2:0:0:
111,359,166457,2,0,P|165:341|221:327,1,115.000002193451,2|2,3:2|3:2,0:0:0:0:
271,356,166986,5,2,1:3:0:0:
271,356,167163,1,2,3:2:0:0:
353,275,167515,1,2,1:2:0:0:
278,186,167868,1,0,3:2:0:0:
278,186,168045,2,0,P|288:160|295:132,1,57.5000010967255,2|0,0:2|1:2,0:0:0:0:
349,109,168398,2,0,P|402:129|458:144,1,115.000002193451,2|2,0:2|0:2,0:0:0:0:
489,192,168927,1,2,1:2:0:0:
395,258,169280,1,2,3:2:0:0:
420,370,169633,6,0,P|365:350|310:333,1,115.000002193451,2|0,1:2|3:2,0:0:0:0:
219,263,170339,1,2,1:2:0:0:
135,341,170692,2,0,P|92:304|92:248,1,115.000002193451,2|2,3:2|1:3,0:0:0:0:
169,163,171398,2,0,P|211:126|211:70,1,115.000002193451,4|10,1:3|1:2,0:0:0:0:
208,17,171927,1,6,3:3:0:0:
208,17,172104,2,0,P|244:59|300:62,1,115.000002193451,2|10,0:2|1:3,0:0:0:0:
386,139,172810,5,4,3:2:0:0:
386,139,172986,2,0,P|378:163|371:189,1,52.4999983978272,2|0,0:2|1:2,0:0:0:0:
327,217,173339,2,0,P|302:207|276:202,1,52.4999983978272,2|0,0:2|3:2,0:0:0:0:
227,224,173692,2,0,P|188:255|186:306,1,104.999996795654,2|0,0:2|0:0,0:0:0:0:
221,346,174221,1,0,3:2:0:0:
316,302,174574,1,2,1:1:0:0:
406,355,174927,1,2,3:1:0:0:
464,267,175280,2,0,L|449:216,1,52.4999983978272,0|0,1:2|0:0,0:0:0:0:
411,180,175633,5,0,3:2:0:0:
411,180,175810,2,0,L|430:131,1,52.4999983978272,2|0,0:2|1:2,0:0:0:0:
413,79,176163,1,2,0:2:0:0:
329,15,176515,2,0,P|284:33|228:44,1,104.999996795654,2|0,0:2|0:0,0:0:0:0:
178,28,177045,1,0,3:2:0:0:
106,102,177398,1,2,1:1:0:0:
165,188,177751,1,2,3:1:0:0:
98,269,178104,2,0,L|113:319,1,52.4999983978272,0|0,1:2|0:0,0:0:0:0:
154,350,178457,5,0,3:2:0:0:
154,350,178633,2,0,P|179:340|204:332,1,52.4999983978272,2|0,0:2|1:2,0:0:0:0:
242,296,178986,1,2,0:2:0:0:
333,347,179339,2,0,P|368:310|367:259,1,104.999996795654,2|0,0:2|0:0,0:0:0:0:
327,222,179868,1,0,3:2:0:0:
398,145,180221,1,2,1:1:0:0:
326,68,180574,1,2,3:1:0:0:
247,137,180927,2,0,L|197:119,1,52.4999983978272,0|0,1:2|0:0,0:0:0:0:
157,92,181280,5,0,3:2:0:0:
157,92,181457,2,0,P|114:118|108:169,1,104.999996795654,2|2,0:2|0:2,0:0:0:0:
23,231,182163,2,0,P|29:281|72:308,1,104.999996795654,4|4,0:3|0:3,0:0:0:0:
106,348,182692,1,4,3:3:0:0:
106,348,182868,2,0,P|130:338|155:331,1,52.4999983978272,0|0,1:2|1:2,0:0:0:0:
203,352,183221,1,2,3:3:0:0:
286,288,183574,1,0,3:2:0:0:
232,197,183927,5,8,0:2:0:0:
232,197,184104,1,4,3:2:0:0:
232,197,184280,2,0,P|240:173|247:147,1,52.4999983978272,2|0,0:2|1:2,0:0:0:0:
291,118,184633,1,2,0:2:0:0:
381,170,184986,2,0,P|431:154|482:143,1,104.999996795654,2|0,0:2|0:0,0:0:0:0:
510,188,185515,1,0,3:2:0:0:
510,188,185692,2,0,P|465:213|456:263,1,104.999996795654,2|2,0:1|0:1,0:0:0:0:
482,308,186221,1,0,3:2:0:0:
389,357,186574,2,0,P|367:349|338:342,1,52.4999983978272,0|0,1:2|0:0,0:0:0:0:
290,353,186927,5,0,3:2:0:0:
290,353,187104,2,0,P|282:331|275:302,1,52.4999983978272,2|0,0:2|1:2,0:0:0:0:
301,257,187457,1,2,0:2:0:0:
213,199,187810,2,0,P|172:231|121:231,1,104.999996795654,2|0,0:2|0:0,0:0:0:0:
92,186,188339,1,0,3:2:0:0:
92,186,188515,2,0,P|109:136|121:85,1,104.999996795654,2|2,0:1|0:1,0:0:0:0:
151,41,189045,2,0,P|175:50|200:58,1,52.4999983978272,0|2,3:2|1:1,0:0:0:0:
290,113,189574,6,0,P|341:112|381:80,1,104.999996795654,4|2,1:2|0:1,0:0:0:0:
436,101,190104,1,2,1:1:0:0:
436,101,190280,2,0,P|427:125|419:150,1,52.4999983978272,0|0,0:0|3:2,0:0:0:0:
448,194,190633,2,0,P|439:218|431:243,1,52.4999983978272,0|2,0:0|1:1,0:0:0:0:
345,305,191163,1,2,3:2:0:0:
345,305,191339,2,0,L|281:280,1,52.4999983978272,2|2,0:1|1:1,0:0:0:0:
258,247,191692,2,0,P|227:287|176:291,1,104.999996795654,0|4,0:0|3:3,0:0:0:0:
136,257,192221,1,4,1:3:0:0:
37,239,192574,5,2,1:3:0:0:
37,239,192751,2,0,P|37:188|76:156,1,104.999996795654,8|2,0:2|1:3,0:0:0:0:
129,158,193280,2,0,P|180:148|229:130,1,104.999996795654,4|8,0:3|3:3,0:0:0:0:
324,186,193986,1,2,1:2:0:0:
324,186,194162,2,0,P|348:176|373:168,1,52.4999983978272,10|4,1:2|0:3,0:0:0:0:
411,187,194515,1,6,3:1:0:0:
482,110,194868,1,2,3:1:0:0:
427,20,195221,1,2,0:1:0:0:
