osu file format v14

[General]
AudioFilename: audio.mp3
AudioLeadIn: 0
PreviewTime: 57118
Countdown: 0
SampleSet: Soft
StackLeniency: 0.6
Mode: 0
LetterboxInBreaks: 0
WidescreenStoryboard: 1

[Editor]
Bookmarks: 233,4300,8368,24639,40910,57182,73453,89724,105995,114131,122266,138538,146673,154809,154841,154872,154904,154936,154968,155031,155063,155095,155127,155158,155190,155222,155254,155285,155317,155349,155413,155444,155476,155508,155540,155571,155603,155635,155667,155699,155730,155762,155794,155826,155857,155889,155921,155985,156016,156048,156080,156112,156144,156175,156207,156239,156302,156334,156366,156430,156461,156493,156557,156588,156620,156652,156684,156747,156779,156811,156843,156874,156938,156970,157002,157033,157065,157097,157160,157192,157224,157256,157288,157351,157383,157415,157446,157478,157542,157574,157605,157637,157669,157701,157764,157796,157828,157860,157891,157955,157987,158019,158050,158114,158146,158177,158241,158273,158305,158336,158400,158432,158463,158495,158527,158559,158622,158654,158686,158718,158781,158813,158845,158877,158940,158972,159004,159035,159099,159131,159163,159226,159258,159290,159353,159385,159417,159480,159512,159544,159576,159639,159671,159703,159766,159798,159830,159894,159925,159957,160021,160052,160084,160148,160180,160211,160275,160307,160338,160370,160434,160466,160497,160561,160593,160624,160688,160720,160752,160815,160847,160910,160942,160974,161038,161069,161101,161133,161196,161228,161260,161324,161355,161387,161451,161482,161514,161546,161610,161641,161673,161737,161769,161800,161832,161896,161927,161959,162023,162055,162086,162118,162182,162213,162245,162309,162341,162372,162436,162468,162499,162563,162595,162627,162690,162722,162754,162817,162849,162881,162944,171080,187351,195487,203495
DistanceSpacing: 1
BeatDivisor: 2
GridSize: 32
TimelineZoom: 3.250001

[Metadata]
Title:Tsukuri Kake no Shinshou
TitleUnicode:ツクリカケノ心象
Artist:inabakumori
ArtistUnicode:稲葉曇
Creator:0ugi
Version:THAT_otaku's Advanced
Source:
Tags:himada jiysea that_otaku lecandy sagu kyuuchie An image in the making 歌愛ユキ Kaai Yuki Vocaloid アンチサイクロン Anticyclone inaba kumori japanese rock j-rock
BeatmapID:3965185
BeatmapSetID:1248914

[Difficulty]
HPDrainRate:3.7
CircleSize:4.1
OverallDifficulty:5.4
ApproachRate:6.2
SliderMultiplier:0.799999999999999
SliderTickRate:1

[Events]
//Background and Video events
0,0,"bac34aa8-7ed5-495f-82c6-74cf0ab27c2a.png",0,0
//Break Periods
2,155009,161924
//Storyboard Layer 0 (Background)
//Storyboard Layer 1 (Fail)
//Storyboard Layer 2 (Pass)
//Storyboard Layer 3 (Foreground)
//Storyboard Layer 4 (Overlay)
//Storyboard Sound Samples

[TimingPoints]
233,254.237288135593,4,2,1,50,1,0
4045,-100,4,2,1,69,0,0
24639,-100,4,2,1,63,0,0
57182,-90.9090909090909,4,2,1,76,0,1
73453,-90.9090909090909,4,2,1,69,0,0
73580,-100,4,2,1,69,0,0
89724,-100,4,2,1,63,0,0
114131,-100,4,2,1,63,0,1
115783,-100,4,2,1,63,0,0
116038,-100,4,2,1,63,0,1
117817,-100,4,2,1,63,0,0
118071,-100,4,2,1,63,0,1
122266,-100,4,2,1,63,0,0
171080,-90.9090909090909,4,2,1,76,0,1
187351,-90.9090909090909,4,2,1,69,0,0
187478,-100,4,2,1,69,0,0
195487,-100,4,2,1,63,0,0

[Colours]
Combo1 : 180,255,104
Combo2 : 94,174,255
Combo3 : 255,140,85
Combo4 : 255,134,194

[HitObjects]
29,48,234,5,2,2:0:0:0:
64,65,360,2,0,L|155:57,1,79.9999999999999,2|2,2:0|2:0,2:0:0:0:
171,28,742,2,0,L|260:35,1,79.9999999999999,2|2,2:0|2:0,2:0:0:0:
330,43,1250,5,2,2:0:0:0:
362,66,1377,2,0,L|369:159,1,79.9999999999999,2|2,2:0|2:0,2:0:0:0:
341,175,1758,2,0,L|252:168,1,79.9999999999999,2|2,2:0|2:0,2:0:0:0:
181,160,2267,5,2,2:0:0:0:
150,185,2394,2,0,L|142:275,1,79.9999999999999,2|2,2:0|2:0,2:0:0:0:
179,281,2774,2,0,L|186:370,1,79.9999999999999,2|2,2:0|2:0,2:0:0:0:
265,360,3283,5,2,2:0:0:0:
298,338,3410,2,0,L|393:331,1,79.9999999999999,2|2,2:0|2:0,2:0:0:0:
410,309,3792,2,0,L|417:220,1,79.9999999999999,2|4,2:0|3:0,2:0:0:0:
485,188,4300,5,8,3:2:0:0:
486,148,4427,2,0,B|456:134|456:134|391:141,1,79.9999999999999,8|8,3:2|3:2,2:0:0:0:
369,145,4809,1,8,3:2:0:0:
212,176,5317,5,8,3:2:0:0:
172,177,5444,2,0,B|158:147|158:147|165:82,1,79.9999999999999,8|8,3:2|3:2,2:0:0:0:
168,60,5826,1,8,3:2:0:0:
324,27,6334,5,8,3:2:0:0:
364,26,6461,2,0,B|378:56|378:56|371:121,1,79.9999999999999,8|8,3:2|3:2,2:0:0:0:
366,142,6843,1,8,3:2:0:0:
332,214,7097,1,8,3:2:0:0:
364,288,7351,5,2,0:3:0:0:
43,286,8368,5,6,3:2:0:0:
38,246,8494,2,0,P|81:253|129:238,1,79.9999999999999,2|2,0:0|0:0,0:0:0:0:
145,217,8876,2,0,B|148:195|148:195|137:164|137:164|138:128,1,79.9999999999999,2|10,3:2|0:2,0:0:0:0:
91,74,9384,5,2,3:2:0:0:
111,39,9511,2,0,L|204:32,1,79.9999999999999,2|2,0:2|0:0,0:0:0:0:
226,13,9894,1,2,3:2:0:0:
242,91,10148,1,10,0:2:0:0:
316,61,10401,5,2,3:2:0:0:
354,49,10528,2,0,B|339:72|339:72|349:132,1,79.9999999999999,2|2,0:0|0:0,0:0:0:0:
369,157,10910,2,0,L|364:243,1,79.9999999999999,2|10,3:2|0:2,0:0:0:0:
306,291,11419,5,2,3:2:0:0:
322,327,11546,2,0,P|359:325|409:349,1,79.9999999999999,2|2,0:0|0:0,0:0:0:0:
428,366,11927,1,2,3:2:0:0:
462,293,12182,1,10,0:2:0:0:
428,220,12436,5,2,3:2:0:0:
457,192,12563,2,0,B|460:170|460:170|449:139|449:139|450:103,1,79.9999999999999,2|2,0:0|0:0,0:0:0:0:
469,79,12944,2,0,B|444:66|444:66|380:86,1,79.9999999999999,2|10,3:2|0:2,0:0:0:0:
330,33,13452,5,2,3:2:0:0:
298,57,13579,2,0,L|305:150,1,79.9999999999999,2|2,0:0|0:0,0:0:0:0:
336,159,13961,1,2,3:2:0:0:
342,238,14216,1,10,0:2:0:0:
345,317,14469,5,2,3:2:0:0:
313,339,14597,2,0,P|276:346|260:312,1,79.9999999999999,2|2,0:0|0:0,0:0:0:0:
232,284,14978,2,0,P|192:282|154:294,1,79.9999999999999,2|10,3:2|0:2,0:0:0:0:
125,323,15360,2,0,P|119:298|120:268,1,40,10|10,0:2|0:0,2:0:0:0:
91,258,15614,2,0,B|99:239|99:239|84:163,1,79.9999999999999,2|10,3:1|0:0,0:0:0:0:
55,157,15995,2,0,L|62:68,1,79.9999999999999,2|2,3:1|3:1,0:0:0:0:
130,35,16504,5,6,3:2:0:0:
161,10,16631,2,0,B|180:18|180:18|256:3,1,79.9999999999999,2|2,0:0|0:0,0:0:0:0:
267,33,17012,2,0,B|267:57|267:57|256:88|256:88|259:110,1,79.9999999999999,2|10,3:2|0:2,0:0:0:0:
206,170,17520,5,2,3:2:0:0:
229,202,17648,2,0,P|212:235|175:228,1,79.9999999999999,2|2,0:0|0:0,0:0:0:0:
151,259,18029,1,2,3:2:0:0:
71,252,18283,1,10,0:2:0:0:
9,302,18537,5,2,3:2:0:0:
18,340,18664,2,0,B|41:355|41:355|101:345,1,79.9999999999999,2|2,0:0|0:0,0:0:0:0:
126,368,19046,2,0,P|164:359|203:366,1,79.9999999999999,2|10,3:2|0:2,0:0:0:0:
274,328,19555,5,2,3:2:0:0:
256,291,19682,2,0,B|253:269|253:269|264:238|264:238|263:213,1,79.9999999999999,2|2,0:0|0:0,0:0:0:0:
259,173,20063,1,2,3:2:0:0:
338,181,20317,1,10,0:2:0:0:
389,242,20572,5,6,3:2:0:0:
424,223,20699,2,0,P|462:214|501:221,1,79.9999999999999,2|2,0:0|0:0,0:0:0:0:
492,260,21080,2,0,B|476:309|476:309|489:334,1,79.9999999999999,2|10,3:2|0:2,0:0:0:0:
417,371,21588,5,2,3:2:0:0:
382,350,21716,2,0,B|343:349|343:349|300:366,1,79.9999999999999,2|2,0:0|0:0,0:0:0:0:
266,354,22097,1,2,3:2:0:0:
255,274,22351,1,10,0:2:0:0:
317,224,22605,5,2,3:2:0:0:
338,190,22732,2,0,B|335:168|335:168|346:137|346:137|345:112,1,79.9999999999999,2|2,0:0|0:0,0:0:0:0:
384,96,23114,2,0,P|423:93|461:105,1,79.9999999999999,2|10,3:2|0:2,0:0:0:0:
497,87,23496,2,0,P|495:67|490:47,1,40,10|10,0:2|0:2,2:0:0:0:
480,10,23749,2,0,L|391:3,1,79.9999999999999,2|10,3:1|0:0,0:0:0:0:
366,23,24131,2,0,B|347:31|347:31|271:16,1,79.9999999999999,2|2,3:1|3:1,0:0:0:0:
241,83,24639,5,4,3:1:0:0:
162,101,24894,2,0,L|171:196,1,79.9999999999999,0|0,3:0|3:0,0:0:0:0:
175,260,25402,2,0,L|80:252,1,79.9999999999999,0|2,3:0|3:2,0:0:0:0:
47,189,25910,2,0,P|54:149|51:109,2,79.9999999999999,0|2|2,3:0|3:2|3:2,0:0:0:0:
14,212,26546,1,8,0:0:0:0:
5,251,26673,1,0,3:0:0:0:
27,327,26927,2,0,B|77:283|134:331|134:331|190:381|245:341,1,240,0|2,3:0|3:2,0:0:0:0:
326,357,27944,5,0,3:0:0:0:
361,284,28199,2,0,L|354:204,1,79.9999999999999,2|2,3:2|3:2,2:0:0:0:
386,131,28707,2,0,P|423:128|478:140,1,79.9999999999999,0|0,3:0|3:0,0:0:0:0:
465,135,29978,5,0,3:0:0:0:
420,68,30233,2,0,L|340:74,1,79.9999999999999,2|2,3:2|3:2,0:0:0:0:
260,84,30741,2,0,P|262:44|255:4,2,79.9999999999999,0|0|0,3:0|3:0|3:0,2:0:0:0:
226,157,31504,6,0,L|239:204,1,40,0|0,3:0|1:0,2:0:0:0:
272,230,31758,2,0,P|340:196|404:238,2,160,2|2|4,3:2|3:2|3:1,0:0:0:0:
233,301,33029,6,0,P|193:303|153:296,1,79.9999999999999,0|0,3:0|3:0,0:0:0:0:
79,266,33538,2,0,L|85:186,1,79.9999999999999,0|2,3:0|3:2,0:0:0:0:
156,150,34046,1,0,3:0:0:0:
233,168,34300,2,0,P|235:128|228:88,1,79.9999999999999,2|2,3:2|3:2,0:0:0:0:
205,55,34682,5,8,0:0:0:0:
219,17,34809,2,0,L|278:11,1,40,0|0,3:0|1:0,2:0:0:0:
293,32,35063,2,0,P|409:1|510:68,1,240,0|2,3:0|3:2,0:0:0:0:
456,124,36080,5,0,3:2:0:0:
402,183,36335,2,0,L|409:263,1,79.9999999999999,2|2,3:2|3:2,2:0:0:0:
431,339,36843,2,0,P|394:336|339:348,1,79.9999999999999,0|0,3:0|3:0,0:0:0:0:
32,363,38113,5,0,3:0:0:0:
82,299,38368,2,0,P|84:259|77:219,1,79.9999999999999,2|2,3:2|3:2,2:0:0:0:
45,194,38749,1,0,0:0:0:0:
28,156,38876,2,0,P|26:116|33:76,2,79.9999999999999,0|0|0,3:0|3:0|3:0,2:0:0:0:
107,141,39640,5,0,3:0:0:0:
166,194,39894,2,0,B|202:226|244:191|244:191|285:154|325:183,1,160,2|10,3:2|0:0,2:0:0:0:
381,212,40656,1,2,3:2:0:0:
451,174,40910,5,4,3:2:0:0:
449,93,41165,2,0,P|468:59|452:23,1,79.9999999999999,8|2,0:0|3:2,2:0:0:0:
373,28,41673,2,0,P|359:14|341:21,2,40,8|0|2,0:0|0:0|3:2,0:0:0:0:
353,105,42182,6,0,B|320:129|320:129|273:108,1,79.9999999999999,8|0,0:0|3:0,2:0:0:0:
214,73,42690,1,10,0:0:0:0:
146,29,42944,2,0,B|125:41|125:41|123:66,1,40,2|2,3:2|0:0,0:0:0:0:
125,96,43199,1,8,0:0:0:0:
139,174,43453,2,0,P|105:193|69:177,1,79.9999999999999,2|10,3:2|0:0,0:0:0:0:
56,215,43834,1,0,0:0:0:0:
41,252,43961,6,0,B|47:291|47:291|42:292|42:292|51:338,1,79.9999999999999,2|8,3:1|0:0,2:0:0:0:
111,377,44470,2,0,B|144:353|144:353|191:374,1,79.9999999999999,2|2,3:1|1:1,0:0:0:0:
249,331,44978,5,0,3:0:0:0:
274,255,45232,2,0,B|270:237|270:237|288:224,2,40,10|0|2,0:0|3:0|3:2,2:0:0:0:
349,281,45741,2,0,P|383:300|419:284,1,79.9999999999999,10|2,0:0|3:2,2:0:0:0:
450,261,46122,1,2,0:0:0:0:
479,234,46249,6,0,B|469:195|469:195|464:196|464:196|454:150,1,79.9999999999999,8|2,0:0|3:2,2:0:0:0:
495,91,46758,1,10,0:0:0:0:
453,22,47012,1,2,3:2:0:0:
413,26,47139,1,2,0:0:0:0:
398,64,47266,6,0,P|317:98|267:46,1,160,10|10,0:0|0:0,2:0:0:0:
251,19,47902,1,0,2:0:0:0:
211,12,48029,2,0,B|195:13|195:13|183:34,1,40,2|0,3:2|3:0,0:0:0:0:
173,72,48283,2,0,P|111:116|45:80,1,160,10|8,0:0|0:0,2:0:0:0:
7,150,49045,5,4,3:1:0:0:
75,192,49300,2,0,B|99:225|99:225|78:272,1,79.9999999999999,8|2,0:0|3:2,0:0:0:0:
29,319,49809,2,0,B|16:301|16:301|-2:305,2,40,10|2|2,0:2|0:0|3:0,0:0:0:0:
97,360,50317,2,0,B|130:336|130:336|177:357,1,79.9999999999999,8|2,0:0|3:1,0:0:0:0:
211,286,50825,1,10,0:0:0:0:
179,212,51080,6,0,B|200:200|200:200|202:175,1,40,2|2,3:2|0:0,2:0:0:0:
197,144,51335,1,8,0:2:0:0:
228,71,51588,2,0,P|263:55|297:74,1,79.9999999999999,2|10,3:2|0:0,2:0:0:0:
356,127,52097,6,0,B|346:166|346:166|341:165|341:165|331:211,1,79.9999999999999,2|8,3:1|0:0,2:0:0:0:
309,230,52478,1,2,0:1:0:0:
289,265,52605,2,0,B|299:304|299:304|304:303|304:303|314:349,1,79.9999999999999,2|2,3:1|1:1,0:0:0:0:
377,381,53113,5,0,3:0:0:0:
446,341,53368,2,0,B|470:308|470:308|449:261,1,79.9999999999999,10|2,0:0|3:2,2:0:0:0:
395,217,53877,2,0,B|377:230|377:230|381:248,2,40,10|2|2,0:0|0:0|3:2,0:0:0:0:
461,171,54385,6,0,P|479:137|463:102,1,79.9999999999999,8|2,0:0|3:2,0:0:0:0:
430,79,54766,1,0,0:0:0:0:
393,96,54894,2,0,P|357:111|324:93,1,79.9999999999999,10|2,0:0|3:0,2:0:0:0:
254,51,55402,1,8,0:0:0:0:
200,110,55656,6,0,B|210:149|210:149|215:148|215:148|225:194,1,79.9999999999999,0|10,3:0|0:0,2:0:0:0:
233,220,56038,1,2,3:0:0:0:
247,257,56165,2,0,B|271:290|271:290|250:337,1,79.9999999999999,14|10,0:0|3:2,2:0:0:0:
215,333,56546,1,10,0:0:0:0:
199,369,56673,1,2,3:2:0:0:
121,351,56927,1,2,0:0:0:0:
92,273,57182,6,0,B|106:253|106:253|139:237|139:237|158:217,1,88.0000026855468,6|14,3:2|0:2,0:0:0:0:
225,161,57690,1,2,3:2:0:0:
292,104,57944,2,0,B|317:114|317:114|323:148,1,44.0000013427734,10|2,0:0|0:0,2:0:0:0:
336,172,58199,6,0,L|272:234,1,88.0000026855468,2|10,3:2|0:0,0:0:0:0:
336,294,58707,1,2,3:2:0:0:
408,343,58961,2,0,B|433:332|433:332|439:298,1,44.0000013427734,10|2,0:0|0:0,2:0:0:0:
434,272,59216,6,0,P|458:228|501:203,2,88.0000026855468,2|10|2,3:2|0:2|3:2,2:0:0:0:
370,211,59978,6,0,L|338:179,1,44.0000013427734,10|2,0:2|0:2,0:0:0:0:
305,149,60232,1,2,3:2:0:0:
371,90,60487,6,0,L|339:58,1,44.0000013427734,10|2,0:0|0:0,0:0:0:0:
307,28,60741,1,2,3:2:0:0:
223,58,60995,2,0,L|159:120,1,88.0000026855468,10|6,0:0|3:2,2:0:0:0:
298,337,62012,6,0,L|256:378,2,44.0000013427734,10|2|2,0:0|0:0|3:2,2:0:0:0:
386,343,62521,2,0,L|427:384,2,44.0000013427734,10|2|2,0:0|0:0|3:2,2:0:0:0:
383,255,63029,1,10,0:0:0:0:
448,196,63283,6,0,B|412:180|412:180|378:144,1,88.0000026855468,2|10,3:2|0:0,2:0:0:0:
407,110,63665,1,2,0:0:0:0:
434,76,63792,2,0,B|400:40|400:40|364:24,1,88.0000026855468,2|10,3:2|0:0,0:0:0:0:
324,6,64173,2,0,B|299:17|299:17|293:51,1,44.0000013427734,10|2,0:0|3:2,2:0:0:0:
264,115,64555,2,0,B|250:135|250:135|217:151|217:151|198:171,1,88.0000026855468,10|10,0:0|0:0,2:0:0:0:
172,206,64936,1,10,0:0:0:0:
143,239,65063,1,2,3:2:0:0:
77,179,65317,5,2,0:1:0:0:
134,112,65571,5,14,3:2:0:0:
191,44,65826,2,0,L|265:118,1,88.0000026855468,14|10,3:2|0:0,0:0:0:0:
286,137,66207,1,2,0:2:0:0:
315,169,66334,2,0,B|335:183|335:183|351:216|351:216|371:235,1,88.0000026855468,2|10,3:2|0:0,0:0:0:0:
298,285,66843,1,2,3:2:0:0:
224,334,67097,2,0,B|199:323|199:323|193:289,1,44.0000013427734,10|2,0:2|0:2,2:0:0:0:
170,270,67352,6,0,P|146:314|103:339,2,88.0000026855468,2|10|2,3:2|0:2|3:2,2:0:0:0:
107,208,68114,6,0,B|82:197|82:197|76:163,1,44.0000013427734,10|2,0:2|0:2,0:0:0:0:
44,153,68368,1,2,3:2:0:0:
42,65,68622,6,0,B|53:40|53:40|87:34,1,44.0000013427734,10|2,0:0|0:0,0:0:0:0:
106,12,68877,1,2,3:2:0:0:
191,29,69131,2,0,L|255:91,1,88.0000026855468,10|6,0:0|3:2,2:0:0:0:
302,354,70148,6,0,L|344:395,2,44.0000013427734,10|2|2,0:0|0:0|3:2,2:0:0:0:
237,294,70657,2,0,L|196:253,2,44.0000013427734,10|2|2,0:0|0:0|3:2,2:0:0:0:
174,355,71165,1,10,0:0:0:0:
93,318,71419,6,0,B|73:304|73:304|57:271|57:271|37:252,1,88.0000026855468,2|2,3:2|3:2,2:0:0:0:
64,217,71800,1,2,0:0:0:0:
91,183,71927,2,0,B|111:169|111:169|127:136|127:136|147:117,1,88.0000026855468,2|2,3:2|3:2,2:0:0:0:
180,88,72309,2,0,B|169:63|169:63|135:57,1,44.0000013427734,2|10,0:0|0:0,2:0:0:0:
76,16,72690,2,0,L|14:80,1,88.0000026855468,10|10,0:0|0:0,2:0:0:0:
13,123,73071,1,10,0:0:0:0:
15,167,73199,1,2,3:2:0:0:
18,254,73453,5,6,3:2:0:0:
52,274,73580,2,0,P|88:266|104:299,1,79.9999999999999,2|2,0:0|0:0,0:0:0:0:
115,338,73961,2,0,B|137:341|137:341|168:330|168:330|204:331,1,79.9999999999999,2|10,3:2|0:2,0:0:0:0:
258,376,74469,5,2,3:2:0:0:
290,353,74596,2,0,L|297:260,1,79.9999999999999,2|2,0:0|0:0,0:0:0:0:
299,233,74978,1,2,3:2:0:0:
378,225,75232,1,10,0:2:0:0:
445,182,75486,5,2,3:2:0:0:
474,212,75614,2,0,B|471:234|471:234|482:265|482:265|481:301,1,79.9999999999999,2|2,0:0|0:0,0:0:0:0:
472,328,75995,2,0,L|386:323,1,79.9999999999999,2|10,3:2|0:2,0:0:0:0:
320,358,76504,5,2,3:2:0:0:
284,342,76631,2,0,P|286:305|262:255,1,79.9999999999999,2|2,0:0|0:0,0:0:0:0:
243,235,77012,1,2,3:2:0:0:
231,155,77266,1,10,0:2:0:0:
281,92,77521,5,2,3:2:0:0:
261,58,77648,2,0,B|239:55|239:55|208:66|208:66|172:65,1,79.9999999999999,2|2,0:0|0:0,0:0:0:0:
149,86,78029,2,0,B|145:129|145:129|126:169,1,79.9999999999999,2|10,3:2|0:2,0:0:0:0:
49,160,78537,5,2,3:2:0:0:
11,145,78664,2,0,L|18:238,1,79.9999999999999,2|2,0:0|0:0,0:0:0:0:
19,264,79046,1,2,3:2:0:0:
85,307,79300,1,10,0:2:0:0:
142,249,79554,5,2,3:2:0:0:
177,230,79682,2,0,P|175:270|187:308,1,79.9999999999999,2|2,0:0|0:0,0:0:0:0:
208,341,80063,2,0,L|294:346,1,79.9999999999999,2|10,3:2|0:0,0:0:0:0:
328,348,80445,2,0,P|322:323|323:293,1,40,8|10,0:0|0:0,2:0:0:0:
337,272,80699,2,0,B|340:250|340:250|329:219|329:219|330:183,1,79.9999999999999,2|10,3:1|0:0,2:0:0:0:
333,154,81080,2,0,L|244:147,1,79.9999999999999,2|2,3:1|1:0,0:0:0:0:
53,133,81970,5,14,0:0:0:0:
13,140,82097,2,0,B|5:121|5:121|20:45,1,79.9999999999999,2|10,3:2|0:0,0:0:0:0:
89,29,82605,5,2,3:2:0:0:
120,53,82732,2,0,P|158:44|197:51,1,79.9999999999999,2|2,0:0|0:0,0:0:0:0:
230,75,83114,1,2,3:2:0:0:
201,149,83368,1,10,0:2:0:0:
237,220,83622,5,2,3:2:0:0:
258,253,83749,2,0,P|294:260|311:227,1,79.9999999999999,2|2,0:0|0:0,0:0:0:0:
346,206,84131,2,0,B|343:184|343:184|354:153|354:153|353:128,1,79.9999999999999,2|10,3:2|0:2,0:0:0:0:
344,48,84640,5,2,3:2:0:0:
380,32,84766,2,0,B|423:36|423:36|463:55,1,79.9999999999999,2|2,0:0|0:0,0:0:0:0:
472,88,85148,1,2,3:2:0:0:
424,151,85402,1,10,0:2:0:0:
421,231,85657,5,6,3:2:0:0:
451,261,85784,2,0,P|460:299|453:338,1,79.9999999999999,2|2,0:0|0:0,0:0:0:0:
422,364,86165,2,0,B|403:356|403:356|327:371,1,79.9999999999999,2|10,3:2|0:2,0:0:0:0:
265,375,86673,5,2,3:2:0:0:
244,340,86801,2,0,B|243:301|243:301|260:258,1,79.9999999999999,2|2,0:0|0:0,0:0:0:0:
281,230,87182,1,2,3:2:0:0:
272,150,87436,1,10,0:2:0:0:
263,71,87690,5,2,3:2:0:0:
278,34,87817,2,0,P|238:31|200:43,1,79.9999999999999,2|2,0:0|0:0,0:0:0:0:
169,70,88199,2,0,B|147:73|147:73|116:62|116:62|91:63,1,79.9999999999999,2|10,3:2|0:0,0:0:0:0:
53,77,88581,2,0,P|51:97|46:117,1,40,8|8,0:0|0:0,2:0:0:0:
24,149,88834,2,0,L|113:142,1,79.9999999999999,2|8,3:1|0:0,0:0:0:0:
130,172,89216,2,0,P|137:208|104:225,1,79.9999999999999,2|2,3:1|3:1,0:0:0:0:
63,294,89724,1,4,3:2:0:0:
102,363,89978,6,0,P|139:366|194:354,1,79.9999999999999,8|0,3:2|3:0,0:0:0:0:
253,325,90487,2,0,P|290:322|345:334,1,79.9999999999999,8|0,3:2|3:0,0:0:0:0:
397,283,90995,2,0,L|390:203,2,79.9999999999999,8|0|8,3:2|3:0|3:2,0:0:0:0:
456,336,91757,1,0,3:0:0:0:
502,271,92011,2,0,B|485:141|505:24,1,240,8|0,3:2|3:0,0:0:0:0:
424,18,93028,5,8,3:2:0:0:
354,58,93283,2,0,L|274:51,1,79.9999999999999,0|8,3:0|3:2,0:0:0:0:
194,44,93791,2,0,P|197:81|185:136,1,79.9999999999999,0|8,3:0|3:2,0:0:0:0:
189,123,95062,5,8,3:2:0:0:
121,166,95317,2,0,P|118:203|130:258,1,79.9999999999999,0|8,3:0|3:2,0:0:0:0:
189,292,95825,2,0,P|191:332|184:372,2,79.9999999999999,0|8|0,3:0|3:2|3:0,0:0:0:0:
261,256,96588,5,8,3:2:0:0:
327,300,96843,2,0,B|363:332|405:297|405:297|446:260|486:289,2,160,0|0|4,3:0|3:0|3:2,0:0:0:0:
257,259,98114,6,0,L|263:179,1,79.9999999999999,8|0,3:2|3:0,0:0:0:0:
265,139,98495,1,0,0:0:0:0:
267,99,98622,2,0,P|227:92|187:94,1,79.9999999999999,8|0,3:2|3:0,0:0:0:0:
113,64,99130,1,8,3:2:0:0:
82,138,99384,2,0,P|84:178|77:218,1,79.9999999999999,0|8,3:0|3:2,0:0:0:0:
54,250,99766,5,0,0:0:0:0:
73,285,99894,2,0,L|70:324,1,40,0|2,3:0|0:0,0:0:0:0:
105,347,100148,2,0,B|161:369|161:369|339:318,1,240,8|0,3:2|3:0,0:0:0:0:
407,288,101164,5,8,3:2:0:0:
480,254,101419,2,0,L|473:174,1,79.9999999999999,0|8,3:0|3:2,0:0:0:0:
454,96,101927,2,0,P|417:93|362:105,1,79.9999999999999,0|8,3:0|3:2,0:0:0:0:
59,42,103199,5,8,3:2:0:0:
103,108,103453,2,0,L|97:188,1,79.9999999999999,0|8,3:0|3:2,0:0:0:0:
136,257,103961,2,0,L|130:337,2,79.9999999999999,0|8|0,3:0|3:2|3:0,0:0:0:0:
205,217,104724,5,8,3:2:0:0:
275,254,104978,2,0,P|317:190|283:121,1,160,8|8,0:0|0:0,2:0:0:0:
315,48,105740,1,0,3:0:0:0:
394,40,105995,6,0,P|399:25|414:4,2,40,6|0|2,3:2|0:0|1:2,0:0:0:0:
449,98,106504,1,2,3:2:0:0:
412,169,106758,1,2,1:2:0:0:
332,169,107012,6,0,L|309:257,1,79.9999999999999,0|0,3:0|1:0,2:0:0:0:
343,271,107394,2,0,L|323:348,1,79.9999999999999,2|2,0:0|0:3,0:0:0:0:
284,358,107775,1,2,1:3:0:0:
252,333,107902,1,2,0:3:0:0:
132,346,108283,5,2,1:2:0:0:
56,374,108538,2,0,B|46:335|46:335|41:336|41:336|31:290,1,79.9999999999999,2|2,3:2|1:2,2:0:0:0:
11,225,109046,2,0,B|44:201|44:201|79:216,1,79.9999999999999,0|0,3:0|1:0,2:0:0:0:
115,235,109427,1,2,0:0:0:0:
151,253,109555,1,0,3:0:0:0:
219,211,109809,1,2,1:3:0:0:
207,131,110063,5,6,3:2:0:0:
170,146,110190,2,0,P|136:127|101:143,1,79.9999999999999,0|0,0:0|0:0,2:0:0:0:
64,159,110571,1,2,3:2:0:0:
16,94,110826,1,2,1:2:0:0:
56,24,111080,6,0,L|144:47,1,79.9999999999999,0|0,3:0|1:0,2:0:0:0:
158,12,111462,2,0,L|235:32,1,79.9999999999999,2|2,0:0|0:3,0:0:0:0:
242,71,111843,1,2,1:3:0:0:
203,141,112097,6,0,B|191:162|191:162|166:164,2,40,2|0|2,3:2|0:0|1:2,0:0:0:0:
278,166,112605,2,0,B|311:142|311:142|346:157,1,79.9999999999999,2|2,3:2|1:2,0:0:0:0:
419,192,113114,5,10,0:0:0:0:
454,173,113241,2,0,P|436:139|452:104,1,79.9999999999999,2|10,3:0|0:0,0:0:0:0:
450,63,113622,2,0,P|416:44|380:59,1,79.9999999999999,2|2,3:0|3:2,0:0:0:0:
320,111,114131,5,6,3:2:0:0:
252,68,114385,1,10,0:2:0:0:
177,108,114639,2,0,L|89:131,1,79.9999999999999,2|10,3:2|0:0,0:0:0:0:
21,145,115148,2,0,L|6:88,2,40,0|2|8,3:0|0:0|0:0,2:0:0:0:
28,184,115529,2,0,L|5:272,1,79.9999999999999,2|2,0:0|0:0,0:0:0:0:
34,291,115910,1,10,0:0:0:0:
66,316,116038,6,0,L|168:289,1,79.9999999999999,2|0,3:2|0:0,0:0:0:0:
182,285,116419,1,10,0:0:0:0:
260,267,116673,2,0,L|287:369,1,79.9999999999999,2|10,3:2|0:0,2:0:0:0:
359,330,117182,2,0,L|344:273,2,40,0|2|8,3:0|0:0|0:0,0:0:0:0:
390,355,117563,2,0,L|492:382,1,79.9999999999999,2|2,0:0|0:0,0:0:0:0:
494,300,118071,6,0,L|467:198,1,79.9999999999999,2|0,3:2|0:0,2:0:0:0:
463,184,118452,1,10,0:0:0:0:
439,107,118706,2,0,L|337:134,1,79.9999999999999,2|10,3:2|0:0,2:0:0:0:
283,146,119215,2,0,L|268:89,2,40,0|2|8,3:0|0:0|0:0,0:0:0:0:
290,185,119596,2,0,L|188:158,1,79.9999999999999,2|2,0:0|0:0,0:0:0:0:
173,155,119978,1,10,0:0:0:0:
95,134,120232,6,0,L|-7:107,1,79.9999999999999,2|10,3:2|0:0,0:0:0:0:
49,39,120741,2,0,L|151:12,1,79.9999999999999,2|10,3:2|0:0,0:0:0:0:
153,47,121122,2,0,L|255:74,1,79.9999999999999,10|10,0:0|0:0,0:0:0:0:
267,81,121504,1,0,3:0:0:0:
344,100,121758,5,8,0:3:0:0:
394,38,122012,1,6,0:3:0:0:
471,58,122266,5,2,0:1:0:0:
494,132,122521,2,0,B|470:165|470:165|491:212,1,79.9999999999999,2|2,3:0|3:0,0:0:0:0:
410,227,123029,1,2,3:0:0:0:
372,241,123156,2,0,P|353:275|369:311,1,79.9999999999999,10|2,0:0|3:0,0:0:0:0:
310,365,123665,2,0,P|293:353|275:346,1,40,10|2,0:0|3:2,2:0:0:0:
198,369,124046,1,10,0:0:0:0:
125,334,124300,6,0,L|52:354,2,59.9999999999999,10|10|10,0:0|0:0|0:0,2:0:0:0:
138,295,124809,5,2,3:0:0:0:
101,224,125063,1,2,3:0:0:0:
129,195,125190,2,0,B|168:201|168:201|169:196|169:196|215:205,1,79.9999999999999,10|2,0:0|3:0,0:0:0:0:
282,185,125699,2,0,P|294:168|301:150,1,40,8|8,0:0|0:3,2:0:0:0:
302,70,126080,1,4,0:3:0:0:
225,48,126334,5,2,3:0:0:0:
147,28,126588,2,0,P|113:47|77:31,1,79.9999999999999,2|2,3:0|3:0,0:0:0:0:
18,85,127096,1,2,3:0:0:0:
39,118,127224,2,0,B|33:157|33:157|38:158|38:158|29:204,1,79.9999999999999,10|2,0:0|3:0,0:0:0:0:
16,272,127732,2,0,B|28:293|28:293|53:295,1,40,10|2,0:0|3:1,2:0:0:0:
122,281,128113,1,2,3:1:0:0:
135,201,128368,5,10,0:0:0:0:
148,122,128622,2,0,B|183:106|183:106|216:130,1,79.9999999999999,2|2,3:0|3:0,0:0:0:0:
279,179,129130,1,2,3:0:0:0:
312,201,129257,2,0,P|293:235|309:271,1,79.9999999999999,10|2,0:0|3:0,0:0:0:0:
388,276,129766,2,0,B|409:288|409:288|411:313,1,40,10|8,0:0|0:3,2:0:0:0:
407,384,130147,1,4,0:3:0:0:
326,378,130402,5,2,0:1:0:0:
247,368,130656,2,0,B|208:362|208:362|207:367|207:367|161:358,1,79.9999999999999,2|2,3:0|3:0,0:0:0:0:
95,338,131164,1,2,3:0:0:0:
55,331,131292,2,0,B|39:296|39:296|63:263,1,79.9999999999999,10|2,0:0|3:0,0:0:0:0:
112,199,131800,2,0,P|124:182|131:164,1,40,10|2,0:0|3:2,2:0:0:0:
104,88,132181,1,10,0:0:0:0:
24,92,132436,6,0,L|15:45,2,40,10|2|10,0:0|0:0|0:0,2:0:0:0:
42,170,132944,5,2,3:0:0:0:
113,205,133198,1,2,3:0:0:0:
147,183,133326,2,0,B|182:167|182:167|215:191,1,79.9999999999999,10|2,0:0|3:0,0:0:0:0:
286,228,133834,2,0,P|298:211|305:193,1,40,8|8,0:0|0:3,2:0:0:0:
378,162,134215,1,4,0:3:0:0:
399,84,134470,5,2,3:0:0:0:
418,6,134724,2,0,P|384:25|348:9,1,79.9999999999999,2|2,3:0|3:0,0:0:0:0:
283,59,135231,1,2,3:0:0:0:
255,29,135360,2,0,B|216:35|216:35|215:30|215:30|169:39,1,79.9999999999999,10|2,0:0|3:0,0:0:0:0:
103,58,135868,2,0,B|82:70|82:70|80:95,1,40,8|2,0:0|3:1,2:0:0:0:
71,164,136248,1,2,3:1:0:0:
59,243,136504,5,10,0:0:0:0:
127,284,136757,2,0,B|151:317|151:317|130:364,1,79.9999999999999,2|2,3:0|3:0,0:0:0:0:
209,382,137265,1,2,3:0:0:0:
245,365,137394,2,0,P|264:331|248:295,1,79.9999999999999,8|8,0:0|0:0,2:0:0:0:
269,261,137775,5,2,3:0:0:0:
348,251,138029,2,0,L|390:285,1,40,8|8,0:1|0:1,0:0:0:0:
376,316,138283,2,0,L|418:350,1,40,8|8,0:1|0:1,0:0:0:0:
446,347,138538,5,4,3:2:0:0:
509,298,138792,1,0,3:0:0:0:
455,238,139046,2,0,P|452:201|464:146,1,79.9999999999999,0|0,3:0|3:0,0:0:0:0:
477,123,139427,1,0,0:0:0:0:
491,85,139555,2,0,P|454:88|399:76,1,79.9999999999999,2|0,3:0|3:0,0:0:0:0:
334,59,140063,6,0,L|325:154,1,79.9999999999999,2|0,3:0|3:0,0:0:0:0:
324,178,140444,1,8,0:0:0:0:
320,218,140572,1,2,3:0:0:0:
308,297,140826,2,0,P|235:246|159:258,1,160,0|2,3:0|3:0,2:0:0:0:
100,296,141588,1,2,3:0:0:0:
32,338,141843,2,0,P|10:228|-2:128,1,200,0|0,3:0|3:0,0:0:0:0:
2,100,142606,6,0,P|39:97|94:109,1,79.9999999999999,2|2,3:2|3:2,0:0:0:0:
147,147,143114,1,0,3:0:0:0:
223,124,143368,1,0,3:0:0:0:
242,46,143622,2,0,L|228:-6,2,40,2|2|2,3:0|0:3|3:2,2:0:0:0:
318,70,144131,2,0,L|398:63,1,79.9999999999999,2|0,3:0|3:0,0:0:0:0:
476,78,144640,6,0,P|478:38|471:-2,2,79.9999999999999,2|0|2,3:0|3:0|3:0,2:0:0:0:
461,157,145403,1,0,3:0:0:0:
381,155,145656,2,0,P|341:153|301:160,2,79.9999999999999,4|8|8,3:2|0:0|0:0,2:0:0:0:
379,235,146419,1,8,0:0:0:0:
439,287,146673,1,4,3:2:0:0:
406,359,146927,6,0,P|372:378|336:362,1,79.9999999999999,8|2,0:0|3:2,2:0:0:0:
289,297,147436,1,8,0:0:0:0:
217,331,147690,2,0,B|213:349|213:349|231:362,2,40,2|2|8,3:0|0:3|0:0,2:0:0:0:
191,254,148199,2,0,B|197:215|197:215|192:214|192:214|201:168,1,79.9999999999999,2|10,3:1|0:0,2:0:0:0:
214,100,148707,5,2,3:2:0:0:
179,27,148961,2,0,P|145:8|109:24,1,79.9999999999999,8|2,0:0|3:2,2:0:0:0:
47,73,149470,2,0,B|41:112|41:112|46:113|46:113|37:159,1,79.9999999999999,10|2,0:0|3:1,2:0:0:0:
34,187,149851,1,2,0:1:0:0:
28,226,149978,2,0,B|12:261|12:261|36:294,1,79.9999999999999,8|2,0:0|3:1,2:0:0:0:
100,342,150487,2,0,P|135:326|169:345,1,79.9999999999999,2|4,1:0|3:2,0:0:0:0:
243,374,150995,5,10,3:2:0:0:
317,344,151249,2,0,B|335:340|335:340|348:358,2,40,2|0|10,3:2|0:0|0:0,0:0:0:0:
279,273,151758,2,0,P|260:239|276:203,1,79.9999999999999,2|10,3:2|0:0,0:0:0:0:
349,173,152266,2,0,P|363:187|356:205,2,40,2|0|10,3:2|0:0|0:0,0:0:0:0:
349,92,152775,5,2,3:0:0:0:
278,54,153029,1,8,0:0:0:0:
218,106,153283,2,0,B|182:90|182:90|149:114,1,79.9999999999999,2|10,3:0|0:0,0:0:0:0:
118,140,153665,1,2,0:0:0:0:
86,164,153792,2,0,P|81:149|66:128,2,40,10|10|2,0:0|0:0|3:2,2:0:0:0:
80,203,154173,1,10,0:0:0:0:
5,297,154555,1,2,0:0:0:0:
23,374,154809,5,4,3:2:0:0:
92,309,162944,6,0,P|160:275|224:317,1,160,6|2,3:2|0:0,0:0:0:0:
293,357,163707,2,0,B|312:365|312:365|388:350,1,79.9999999999999,10|2,0:0|3:2,0:0:0:0:
420,291,164216,2,0,B|428:272|428:272|413:196,1,79.9999999999999,8|2,0:0|0:0,2:0:0:0:
361,155,164724,1,10,0:0:0:0:
378,76,164978,5,2,3:2:0:0:
138,59,165741,2,0,P|101:56|46:68,1,79.9999999999999,10|2,0:0|3:2,2:0:0:0:
18,132,166249,2,0,P|21:169|9:224,1,79.9999999999999,8|2,0:0|0:0,2:0:0:0:
71,266,166758,1,10,0:0:0:0:
50,343,167012,6,0,B|86:375|128:340|128:340|169:303|209:332,1,160,6|2,3:2|0:0,0:0:0:0:
272,345,167775,2,0,L|278:265,1,79.9999999999999,10|2,0:0|3:2,0:0:0:0:
233,198,168283,2,0,L|239:118,1,79.9999999999999,8|2,0:0|0:0,2:0:0:0:
291,57,168792,1,10,0:0:0:0:
370,65,169046,5,2,3:2:0:0:
422,125,169300,2,0,P|414:164|417:204,1,79.9999999999999,8|2,0:0|0:0,2:0:0:0:
464,269,169809,1,10,0:0:0:0:
434,344,170063,6,0,P|409:350|379:349,1,40,10|10,3:2|3:2,2:0:0:0:
356,340,170317,2,0,P|354:320|349:300,1,40,10|10,3:2|3:2,2:0:0:0:
314,280,170571,1,2,0:1:0:0:
208,133,171080,6,0,B|192:97|192:97|156:63,1,88.0000026855468,6|14,3:2|0:0,0:0:0:0:
95,0,171588,1,2,3:2:0:0:
26,54,171842,2,0,B|9:56|9:56|0:81,1,44.0000013427734,10|2,0:0|0:0,2:0:0:0:
28,115,172097,6,0,L|92:177,1,88.0000026855468,2|10,3:2|0:0,0:0:0:0:
156,235,172605,1,2,3:2:0:0:
221,293,172859,2,0,B|232:318|232:318|266:324,1,44.0000013427734,10|2,0:0|0:0,2:0:0:0:
292,322,173114,6,0,P|336:346|361:389,2,88.0000026855468,2|10|2,3:2|0:2|3:2,2:0:0:0:
323,239,173877,6,0,B|334:214|334:214|368:208,1,44.0000013427734,10|2,0:2|0:2,0:0:0:0:
389,192,174130,1,2,3:2:0:0:
404,105,174385,6,0,B|379:94|379:94|373:60,1,44.0000013427734,10|2,0:2|0:2,0:0:0:0:
355,38,174639,1,2,3:2:0:0:
268,55,174893,2,0,L|204:117,1,88.0000026855468,10|6,0:0|3:2,2:0:0:0:
67,342,175910,6,0,L|25:383,2,44.0000013427734,10|2|2,0:0|0:0|3:2,2:0:0:0:
30,261,176419,2,0,L|-11:302,2,44.0000013427734,10|2|2,0:0|0:0|3:2,2:0:0:0:
94,201,176927,1,10,0:0:0:0:
151,268,177182,6,0,B|165:288|165:288|198:304|198:304|217:324,1,88.0000026855468,2|10,3:2|0:0,2:0:0:0:
251,349,177563,1,2,0:0:0:0:
288,373,177690,2,0,B|308:359|308:359|324:326|324:326|344:307,1,88.0000026855468,2|10,3:2|0:0,0:0:0:0:
378,280,178071,2,0,B|375:263|375:263|350:252,1,44.0000013427734,10|2,0:0|3:2,2:0:0:0:
261,248,178453,2,0,L|197:186,1,88.0000026855468,2|10,3:2|0:0,2:0:0:0:
138,122,178961,1,10,0:0:0:0:
203,61,179215,5,2,3:1:0:0:
272,7,179469,5,14,3:2:0:0:
335,69,179724,1,6,3:2:0:0:
393,135,179978,2,0,B|404:160|404:160|438:166,1,44.0000013427734,14|2,0:0|0:0,2:0:0:0:
453,192,180232,2,0,B|473:178|473:178|489:145|489:145|509:126,1,88.0000026855468,6|10,3:2|0:0,0:0:0:0:
496,83,180614,1,2,0:0:0:0:
460,57,180741,1,2,3:2:0:0:
382,14,180995,2,0,B|371:39|371:39|337:45,1,44.0000013427734,10|2,0:0|0:0,2:0:0:0:
308,37,181249,6,0,P|237:95|166:172,1,176.000005371094,2|0,3:2|3:0,0:0:0:0:
126,226,182012,6,0,L|94:194,1,44.0000013427734,10|2,0:0|0:0,0:0:0:0:
62,165,182266,1,2,3:2:0:0:
52,77,182521,6,0,L|83:45,1,44.0000013427734,10|2,0:0|0:0,0:0:0:0:
116,14,182775,1,2,3:2:0:0:
203,25,183029,2,0,L|267:87,1,88.0000026855468,10|6,0:0|3:2,0:0:0:0:
390,319,184046,6,0,L|432:360,2,44.0000013427734,10|2|2,0:0|0:0|3:2,2:0:0:0:
427,238,184555,2,0,L|468:279,2,44.0000013427734,10|2|2,0:0|0:0|3:2,2:0:0:0:
363,178,185063,1,10,0:0:0:0:
291,126,185317,6,0,B|255:142|255:142|221:178,1,88.0000026855468,2|2,3:2|3:2,2:0:0:0:
187,205,185699,1,2,0:0:0:0:
159,240,185826,2,0,B|195:274|195:274|211:310,1,88.0000026855468,2|2,3:2|3:2,2:0:0:0:
220,351,186207,2,0,B|209:376|209:376|175:382,1,44.0000013427734,2|6,3:2|3:2,2:0:0:0:
104,373,186588,2,0,L|42:309,1,88.0000026855468,8|2,0:0|3:0,2:0:0:0:
53,222,187097,1,2,0:3:0:0:
68,135,187351,5,6,3:2:0:0:
101,156,187478,2,0,P|139:164|178:157,1,79.9999999999999,2|2,0:0|0:0,0:0:0:0:
215,140,187859,2,0,B|212:162|212:162|223:193|223:193|222:229,1,79.9999999999999,2|10,3:2|0:2,0:0:0:0:
212,297,188367,5,2,3:2:0:0:
239,326,188494,2,0,L|332:333,1,79.9999999999999,2|2,0:0|0:0,0:0:0:0:
359,333,188877,1,2,3:2:0:0:
370,253,189131,1,10,0:2:0:0:
330,183,189384,5,2,3:2:0:0:
348,147,189512,2,0,B|370:150|370:150|401:139|401:139|437:140,1,79.9999999999999,2|2,0:0|0:0,0:0:0:0:
463,124,189894,2,0,P|470:87|437:70,1,79.9999999999999,2|10,3:2|0:2,0:0:0:0:
366,35,190402,5,2,3:2:0:0:
330,17,190529,2,0,B|287:21|287:21|247:40,1,79.9999999999999,2|2,0:0|0:0,0:0:0:0:
220,58,190910,1,2,3:2:0:0:
140,50,191165,1,10,0:2:0:0:
60,43,191419,5,2,3:2:0:0:
41,81,191546,2,0,B|38:103|38:103|49:134|49:134|48:170,1,79.9999999999999,2|2,0:0|0:0,0:0:0:0:
44,198,191927,2,0,P|84:200|122:188,1,79.9999999999999,2|10,3:2|0:2,0:0:0:0:
186,141,192435,5,2,3:2:0:0:
224,129,192563,2,0,P|257:145|250:182,1,79.9999999999999,2|2,0:0|0:0,0:0:0:0:
233,218,192944,1,2,3:2:0:0:
229,298,193199,1,10,0:2:0:0:
222,377,193452,5,2,3:2:0:0:
182,367,193580,2,0,B|163:359|163:359|87:374,1,79.9999999999999,2|2,0:0|0:0,0:0:0:0:
66,381,193961,2,0,B|62:338|62:338|43:298,1,79.9999999999999,2|10,3:2|0:0,0:0:0:0:
3,236,194470,5,2,3:1:0:0:
30,207,194597,2,0,L|119:200,1,79.9999999999999,2|2,0:1|1:1,2:0:0:0:
144,220,194978,1,2,3:1:0:0:
220,244,195232,1,2,3:1:0:0:
282,193,195487,5,6,3:2:0:0:
318,208,195614,2,0,L|327:303,1,79.9999999999999,2|2,0:0|0:0,0:0:0:0:
357,314,195995,2,0,P|395:323|434:316,1,79.9999999999999,2|10,3:2|0:2,0:0:0:0:
500,269,196503,5,2,3:2:0:0:
473,238,196631,2,0,L|464:143,1,79.9999999999999,2|2,0:0|0:0,0:0:0:0:
439,127,197012,2,0,L|430:32,1,79.9999999999999,2|10,3:2|0:2,0:0:0:0:
360,10,197520,5,2,3:2:0:0:
328,35,197648,2,0,P|290:44|251:37,1,79.9999999999999,2|2,0:0|0:0,0:0:0:0:
213,21,198029,2,0,L|222:116,1,79.9999999999999,2|10,3:2|0:2,0:0:0:0:
228,180,198538,5,2,3:2:0:0:
197,205,198665,2,0,P|159:214|120:207,1,79.9999999999999,2|2,0:0|0:0,0:0:0:0:
83,189,199046,2,0,P|45:180|6:187,1,79.9999999999999,2|10,3:2|0:2,0:0:0:0:
15,266,199555,5,2,3:2:0:0:
51,282,199682,2,0,L|60:377,1,79.9999999999999,2|2,0:0|0:0,0:0:0:0:
96,375,200063,2,0,P|134:366|173:373,1,79.9999999999999,2|10,3:2|0:2,0:0:0:0:
252,357,200571,5,2,3:2:0:0:
279,327,200699,2,0,P|317:336|356:329,1,79.9999999999999,2|2,0:0|0:0,0:0:0:0:
389,351,201080,2,0,L|484:342,1,79.9999999999999,2|10,3:2|0:2,0:0:0:0:
508,273,201588,5,2,3:2:0:0:
477,246,201716,2,0,P|468:208|475:169,1,79.9999999999999,2|2,0:0|0:0,0:0:0:0:
494,133,202097,2,0,P|503:95|496:56,1,79.9999999999999,2|10,3:2|1:2,0:0:0:0:
466,27,202479,2,0,P|446:29|426:34,1,40,2|2,0:0|1:0,2:0:0:0:
395,58,202732,2,0,L|300:49,1,79.9999999999999,2|2,1:0|1:0,2:0:0:0:
285,77,203114,2,0,L|276:172,1,79.9999999999999,2|2,3:1|3:1,2:0:0:0:
256,192,203495,5,2,0:3:0:0:
