osu file format v14

[General]
AudioFilename: audio.mp3
AudioLeadIn: 0
PreviewTime: 57118
Countdown: 0
SampleSet: Soft
StackLeniency: 0.6
Mode: 0
LetterboxInBreaks: 0
WidescreenStoryboard: 1

[Editor]
Bookmarks: 233,4046,8368,24639,40910,57182,73453,89724,105995,122266,138538,154809,171080,187351,203495
DistanceSpacing: 1.1
BeatDivisor: 4
GridSize: 32
TimelineZoom: 3.85

[Metadata]
Title:Tsukuri Kake no Shinshou
TitleUnicode:ツクリカケノ心象
Artist:inabakumori
ArtistUnicode:稲葉曇
Creator:0ugi
Version:Sagu's Insane
Source:
Tags:himada jiysea that_otaku lecandy sagu kyuuchie An image in the making 歌愛ユキ Kaai Yuki Vocaloid アンチサイクロン Anticyclone inaba kumori japanese rock j-rock
BeatmapID:3949866
BeatmapSetID:1248914

[Difficulty]
HPDrainRate:4.8
CircleSize:3.8
OverallDifficulty:8
ApproachRate:9
SliderMultiplier:1.6
SliderTickRate:1

[Events]
//Background and Video events
0,0,"bac34aa8-7ed5-495f-82c6-74cf0ab27c2a.png",0,0
//Break Periods
//Storyboard Layer 0 (Background)
//Storyboard Layer 1 (Fail)
//Storyboard Layer 2 (Pass)
//Storyboard Layer 3 (Foreground)
//Storyboard Layer 4 (Overlay)
//Storyboard Sound Samples

[TimingPoints]
233,254.237288135593,4,2,1,50,1,0
4046,-125,4,2,1,69,0,0
8368,-100,4,2,1,69,0,0
24639,-125,4,2,1,63,0,0
40656,-166.666666666667,4,2,1,63,0,0
40910,-100,4,2,1,63,0,0
56927,-125,4,2,1,63,0,0
57182,-83.3333333333333,4,2,1,76,0,1
58897,-83.3333333333333,4,2,1,76,0,1
58961,-83.3333333333333,4,2,1,76,0,1
65190,-166.666666666667,4,2,1,76,0,1
65444,-166.666666666667,4,2,1,5,0,1
65571,-83.3333333333333,4,2,1,76,0,1
73453,-100,4,2,1,69,0,0
89724,-111.111111111111,4,2,1,63,0,0
94300,-125,4,2,1,63,0,0
94809,-142.857142857143,4,2,1,63,0,0
95063,-111.111111111111,4,2,1,63,0,0
102436,-125,4,2,1,63,0,0
102944,-142.857142857143,4,2,1,63,0,0
103199,-111.111111111111,4,2,1,63,0,0
105995,-125,4,2,1,63,0,0
113877,-166.666666666667,4,2,1,63,0,0
114131,-125,4,2,1,63,0,0
122266,-111.111111111111,4,2,1,63,0,0
138538,-125,4,2,1,63,0,0
146673,-100,4,2,1,63,0,0
154809,-166.666666666667,4,2,1,63,0,0
162944,-125,4,2,1,63,0,0
170571,-250,4,2,1,42,0,0
171080,-83.3333333333333,4,2,1,76,0,1
179216,-125,4,2,1,76,0,1
179470,-83.3333333333333,4,2,1,76,0,1
186906,-83.3333333333333,4,2,1,5,0,1
186970,-83.3333333333333,4,2,1,76,0,1
187033,-83.3333333333333,4,2,1,5,0,1
187097,-83.3333333333333,4,2,1,76,0,1
187160,-83.3333333333333,4,2,1,5,0,1
187224,-83.3333333333333,4,2,1,76,0,1
187288,-83.3333333333333,4,2,1,5,0,1
187351,-99.9999999999999,4,2,1,69,0,0
195487,-111.111111111111,4,2,1,63,0,0

[Colours]
Combo1 : 180,255,104
Combo2 : 94,174,255
Combo3 : 255,140,85
Combo4 : 255,134,194

[HitObjects]
260,218,4046,6,0,P|254:293|254:339,1,96,4|0,3:0|0:0,0:0:0:0:
254,327,4300,5,8,3:2:0:0:
121,377,4427,1,8,3:2:0:0:
82,274,4682,5,8,3:2:0:0:
167,299,4809,1,8,3:2:0:0:
260,218,5063,5,0,0:0:0:0:
260,218,5317,5,8,3:2:0:0:
393,268,5444,1,8,3:2:0:0:
432,165,5699,5,8,3:2:0:0:
347,190,5826,1,8,3:2:0:0:
254,109,6080,5,0,0:0:0:0:
254,109,6334,5,8,3:2:0:0:
121,159,6461,1,8,3:2:0:0:
82,56,6716,5,8,3:2:0:0:
167,81,6843,1,8,3:2:0:0:
260,0,7097,5,8,3:2:0:0:
260,218,7351,5,2,0:3:0:0:
260,218,8368,5,6,3:2:0:0:
260,218,8495,2,0,P|213:230|113:284,1,160,2|2,0:0|0:0,0:0:0:0:
70,355,8877,2,0,P|31:329|28:284,1,80,2|0,3:2|0:0,0:0:0:0:
63,220,9131,2,0,P|54:181|45:141,1,80,10|0,0:2|0:0,0:0:0:0:
0,43,9385,5,2,3:2:0:0:
0,43,9512,2,0,P|47:55|147:109,1,160,2|2,0:2|0:0,0:0:0:0:
187,183,9894,2,0,P|226:157|229:112,1,80,2|0,3:2|0:0,0:0:0:0:
203,45,10148,1,10,0:2:0:0:
203,45,10275,1,0,3:0:0:0:
382,0,10402,5,2,3:2:0:0:
382,0,10529,2,0,P|413:106|429:184,1,160,2|2,0:0|0:0,0:0:0:0:
512,150,10910,2,0,P|500:188|491:227,1,80,2|0,3:2|0:0,0:0:0:0:
395,241,11165,2,0,P|350:212|347:161,1,80,10|0,0:2|0:0,0:0:0:0:
321,104,11419,5,2,3:2:0:0:
321,104,11546,2,0,P|290:210|274:288,1,160,2|2,0:0|0:0,0:0:0:0:
191,254,11927,2,0,P|203:292|212:331,1,80,2|0,3:2|0:0,0:0:0:0:
308,345,12182,1,10,0:2:0:0:
308,345,12309,1,0,3:0:0:0:
248,176,12436,5,2,3:2:0:0:
248,176,12563,2,0,P|182:156|94:235,1,160,2|2,0:0|0:0,0:0:0:0:
58,272,12944,2,0,P|11:248|-2:200,1,80,2|0,3:2|0:0,0:0:0:0:
40,147,13199,2,0,B|32:109|32:109|34:104|34:104|17:41,1,80,10|0,0:2|0:0,0:0:0:0:
191,106,13453,5,2,3:2:0:0:
191,106,13580,2,0,P|257:86|345:165,1,160,2|2,0:0|0:0,0:0:0:0:
381,202,13961,2,0,P|428:178|441:130,1,80,2|0,3:2|0:0,0:0:0:0:
398,77,14216,1,10,0:2:0:0:
398,77,14343,1,0,3:0:0:0:
253,175,14470,5,2,3:2:0:0:
253,175,14597,2,0,P|269:238|289:335,1,160,2|2,0:0|0:0,0:0:0:0:
354,379,14978,2,0,P|376:325|352:287,1,80,2|0,3:2|0:0,0:0:0:0:
236,261,15232,1,10,0:2:0:0:
288,331,15360,1,10,0:2:0:0:
194,341,15487,6,0,P|140:349|98:356,1,80,10|2,0:0|3:1,0:0:0:0:
79,102,15868,2,0,P|39:107|0:114,1,80,10|2,0:0|3:1,0:0:0:0:
16,371,16249,2,0,B|30:303|58:334|77:235,1,120,2|0,3:1|0:0,0:0:0:0:
96,188,16504,5,6,3:2:0:0:
96,188,16631,2,0,B|126:127|130:70|130:70|168:38,1,160,2|2,0:0|0:0,0:0:0:0:
227,7,17012,2,0,P|265:29|267:91,1,80,2|0,3:2|0:0,0:0:0:0:
206,121,17266,2,0,P|252:136|297:153,1,80,10|0,0:2|0:0,0:0:0:0:
430,145,17521,5,2,3:2:0:0:
430,145,17648,2,0,B|400:206|396:263|396:263|358:295,1,160,2|2,0:0|0:0,0:0:0:0:
299,326,18029,2,0,P|261:304|259:242,1,80,2|0,3:2|0:0,0:0:0:0:
320,220,18283,1,10,0:2:0:0:
320,220,18410,1,0,3:0:0:0:
175,218,18538,5,2,3:2:0:0:
175,218,18665,2,0,P|96:188|10:169,1,160,2|2,0:0|0:0,0:0:0:0:
55,96,19046,2,0,P|97:115|104:174,1,80,2|0,3:2|0:0,0:0:0:0:
87,229,19300,2,0,B|96:268|96:268|99:270|99:270|107:318,1,80,10|0,0:2|0:0,0:0:0:0:
187,333,19555,5,2,3:2:0:0:
187,333,19682,2,0,P|266:303|352:284,1,160,2|2,0:0|0:0,0:0:0:0:
307,211,20063,2,0,P|265:230|258:289,1,80,2|0,3:2|0:0,0:0:0:0:
279,349,20317,1,10,0:2:0:0:
279,349,20444,1,0,3:0:0:0:
430,318,20571,5,6,3:2:0:0:
430,318,20699,2,0,L|400:151,1,160,2|2,0:0|0:0,0:0:0:0:
478,121,21080,2,0,L|494:28,1,80,2|0,3:2|0:0,0:0:0:0:
402,72,21334,2,0,B|364:87|364:87|308:61,1,80,10|0,0:2|0:0,0:0:0:0:
203,21,21588,5,2,3:2:0:0:
203,21,21716,2,0,L|233:188,1,160,2|2,0:0|0:0,0:0:0:0:
155,218,22097,2,0,L|139:311,1,80,2|0,3:2|0:0,0:0:0:0:
231,267,22351,1,10,0:2:0:0:
231,267,22478,1,0,3:0:0:0:
411,369,22605,5,2,3:2:0:0:
411,369,22732,2,0,P|359:380|326:279,1,160,2|2,0:0|0:0,0:0:0:0:
402,277,23114,2,0,P|395:233|390:174,1,80,2|0,3:2|0:0,0:0:0:0:
327,82,23368,1,10,0:2:0:0:
400,36,23495,1,10,0:2:0:0:
265,12,23622,6,0,P|211:4|169:-3,2,80,10|2|0,0:2|3:1|0:0,0:0:0:0:
229,180,24003,2,0,P|268:175|308:167,2,80,10|2|0,0:0|3:1|0:0,0:0:0:0:
193,91,24385,2,0,B|124:108|165:145|83:162,1,120,2|0,3:1|0:0,0:0:0:0:
87,167,24639,6,0,P|76:125|60:76,1,64,4|0,3:1|0:0,0:0:0:0:
97,255,24894,6,0,P|74:295|23:297,1,96,0|0,3:0|0:0,0:0:0:0:
18,292,25148,2,0,P|8:322|0:353,1,64,0|0,3:0|0:0,0:0:0:0:
187,284,25402,2,0,P|227:307|229:358,1,96,0|0,3:0|0:0,0:0:0:0:
224,363,25656,2,0,P|254:372|285:380,1,64,2|2,3:2|0:2,0:0:0:0:
140,355,25910,6,0,B|71:344|93:310|20:297,2,128,0|2|2,3:0|3:2|3:2,0:0:0:0:
187,284,26546,1,8,0:0:0:0:
119,224,26673,6,0,P|113:174|97:114,1,96,0|0,3:0|0:0,0:0:0:0:
94,120,26927,2,0,P|112:89|152:89,1,64,0|0,3:0|0:0,0:0:0:0:
205,159,27182,6,0,B|244:171|244:171|254:171|254:171|297:190,2,96,8|8|8,3:2|0:0|0:0,0:0:0:0:
303,277,27690,2,0,P|347:262|384:253,1,64,2|2,3:2|0:2,0:0:0:0:
486,372,27944,6,0,P|437:342|457:269,1,128,0|2,3:0|3:2,0:0:0:0:
512,232,28326,1,8,0:0:0:0:
417,146,28453,1,2,3:2:0:0:
499,152,28580,1,0,3:0:0:0:
384,220,28707,6,0,B|330:202|364:174|283:163,1,96,0|0,3:0|0:0,0:0:0:0:
295,162,28961,2,0,P|283:129|296:101,1,64,0|0,3:0|0:0,0:0:0:0:
390,56,29216,6,0,P|358:44|317:23,1,64,0|0,3:0|0:0,0:0:0:0:
206,115,29470,2,0,P|174:127|133:148,1,64,0|0,3:0|0:0,0:0:0:0:
35,107,29724,6,0,P|27:73|22:42,1,64,2|2,3:2|0:2,0:0:0:0:
115,65,29978,1,0,3:0:0:0:
71,182,30105,1,2,0:2:0:0:
197,207,30232,6,0,B|251:225|217:253|298:264,1,96,2|0,3:2|0:0,0:0:0:0:
286,264,30486,2,0,P|298:297|285:325,1,64,2|0,3:2|0:0,0:0:0:0:
128,265,30741,5,0,3:0:0:0:
27,252,30868,1,8,0:0:0:0:
27,252,30995,2,0,P|36:291|40:320,1,64,0|0,3:0|0:0,0:0:0:0:
190,380,31249,2,0,P|194:348|202:317,1,64,0|0,3:0|0:0,0:0:0:0:
287,181,31504,5,0,3:0:0:0:
405,257,31631,1,0,1:0:0:0:
412,251,31694,1,0,1:0:0:0:
420,244,31758,2,0,P|391:229|360:224,1,64,2|2,3:2|0:2,0:0:0:0:
212,199,32012,2,0,P|243:193|271:179,1,64,0|10,3:0|0:2,0:0:0:0:
402,61,32266,5,2,3:2:0:0:
402,61,32394,1,4,0:3:0:0:
337,120,32521,1,2,3:2:0:0:
337,120,32648,1,0,3:0:0:0:
423,153,32775,6,0,P|475:142|507:138,1,64,4|0,3:1|0:0,0:0:0:0:
499,267,33029,6,0,B|488:315|460:294|451:363,1,96,0|0,3:0|0:0,0:0:0:0:
453,359,33283,2,0,P|431:337|391:324,1,64,0|0,3:0|0:0,0:0:0:0:
282,377,33538,2,0,B|234:366|255:338|186:329,1,96,0|0,3:0|0:0,0:0:0:0:
190,331,33792,2,0,P|212:309|225:269,1,64,2|2,3:2|0:2,0:0:0:0:
417,238,34046,6,0,P|368:286|295:297,2,128,0|2|2,3:0|3:2|3:2,0:0:0:0:
286,218,34682,1,8,0:0:0:0:
155,194,34809,2,0,P|110:182|99:113,1,96,0|0,3:0|1:0,0:0:0:0:
99,128,35063,2,0,P|125:98|125:65,1,64,0|0,3:0|0:0,0:0:0:0:
90,0,35317,6,0,B|47:10|47:10|42:16|42:16|-22:32,2,96,8|8|8,3:2|0:0|0:0,0:0:0:0:
209,86,35826,2,0,L|288:65,1,64,2|2,3:2|0:2,0:0:0:0:
347,10,36080,6,0,P|412:12|426:72,1,128,0|2,3:2|3:2,0:0:0:0:
341,179,36461,1,8,0:0:0:0:
467,136,36588,1,2,3:2:0:0:
348,92,36716,1,0,3:0:0:0:
424,211,36843,6,0,B|432:268|458:243|467:326,1,96,0|0,3:0|0:0,0:0:0:0:
465,311,37097,2,0,P|423:324|409:363,1,64,0|0,3:0|0:0,0:0:0:0:
295,378,37351,6,0,P|304:332|317:306,1,64,0|0,3:0|0:0,0:0:0:0:
207,226,37605,2,0,P|198:180|185:154,1,64,8|0,0:0|0:0,0:0:0:0:
199,148,37796,5,0,1:0:0:0:
203,136,37860,2,0,L|272:149,1,64,2|2,3:2|0:2,0:0:0:0:
224,310,38114,1,0,3:0:0:0:
224,310,38241,1,2,3:2:0:0:
112,222,38368,6,0,L|125:291,1,64,2|0,3:2|3:2,0:0:0:0:
39,319,38622,2,0,L|26:388,1,64,2|0,3:2|0:0,0:0:0:0:
126,299,38877,5,0,3:0:0:0:
27,235,39004,1,8,0:0:0:0:
89,138,39131,2,0,P|98:105|111:68,1,64,0|0,3:0|0:0,0:0:0:0:
0,0,39385,2,0,P|10:30|18:61,1,64,0|0,3:0|0:0,0:0:0:0:
97,147,39639,5,0,3:0:0:0:
196,116,39766,1,8,0:0:0:0:
196,116,39830,1,8,0:0:0:0:
196,116,39894,1,2,3:2:0:0:
289,77,40021,5,10,0:0:0:0:
289,77,40084,1,8,0:0:0:0:
289,77,40148,2,0,L|298:42,2,32,8|8|2,0:3|0:3|3:2,0:0:0:0:
289,161,40402,5,10,0:0:0:0:
218,203,40529,1,8,0:0:0:0:
262,290,40656,6,0,B|261:310|261:310|255:329|255:329|252:331|252:331|244:348|244:348|246:367,1,71.9999978027344,2|0,3:2|0:0,0:0:0:0:
253,376,40910,6,0,P|293:367|349:357,1,80,4|0,3:2|0:0,0:0:0:0:
512,322,41165,5,8,0:0:0:0:
512,322,41292,1,2,3:2:0:0:
412,371,41419,2,0,P|425:317|435:284,2,80,2|0|8,3:2|0:0|0:0,0:0:0:0:
411,384,41800,1,0,0:0:0:0:
352,272,41927,2,0,P|347:232|339:193,1,80,2|0,3:2|0:0,0:0:0:0:
317,118,42182,5,8,0:0:0:0:
395,135,42309,1,2,3:2:0:0:
473,153,42436,1,0,3:0:0:0:
340,194,42690,6,0,B|300:209|300:209|275:237|275:237|208:258,1,120,10|0,0:0|0:0,0:0:0:0:
224,247,42944,6,0,L|144:221,1,80,2|2,3:2|0:0,0:0:0:0:
9,193,43199,1,8,0:0:0:0:
68,89,43326,1,2,3:2:0:0:
68,89,43453,2,0,L|90:180,1,80,2|0,3:2|0:0,0:0:0:0:
160,307,43707,2,0,L|138:398,1,80,10|0,0:0|0:0,0:0:0:0:
16,291,43961,6,0,P|53:303|78:335,2,80,2|2|8,3:1|0:1|0:0,0:0:0:0:
165,311,44343,1,2,0:1:0:0:
165,311,44470,2,0,P|203:301|225:269,1,80,2|0,3:1|0:0,0:0:0:0:
135,125,44724,2,0,B|132:161|132:161|124:168|124:168|108:242,1,120,2|0,1:1|0:0,0:0:0:0:
105,250,44978,5,0,3:0:0:0:
31,207,45105,1,0,0:0:0:0:
208,184,45232,2,0,L|287:173,2,80,10|0|2,0:0|3:0|3:2,0:0:0:0:
135,125,45614,2,0,L|55:114,2,80,0|10|2,0:0|0:0|0:0,0:0:0:0:
358,107,45995,6,0,L|376:29,2,80,2|2|8,3:2|0:0|0:0,0:0:0:0:
290,44,46377,1,2,3:2:0:0:
415,168,46504,2,0,P|470:171|497:108,1,120,2|0,3:2|0:0,0:0:0:0:
492,108,46758,6,0,P|454:70|471:14,1,80,10|0,0:0|0:0,0:0:0:0:
415,168,47012,2,0,B|408:193|408:193|435:273,1,80,2|2,3:2|0:0,0:0:0:0:
450,321,47266,5,10,0:0:0:0:
362,298,47394,1,0,3:0:0:0:
275,276,47521,2,0,B|282:301|282:301|255:381,1,80,2|0,3:2|0:0,0:0:0:0:
188,309,47775,6,0,P|150:271|167:215,1,80,10|0,0:0|0:0,0:0:0:0:
300,64,48029,2,0,B|293:89|293:89|320:169,1,80,2|0,3:2|3:0,0:0:0:0:
335,217,48283,5,10,0:0:0:0:
247,194,48411,1,0,3:0:0:0:
160,172,48538,2,0,B|167:197|167:197|140:277,1,80,2|2,3:2|3:2,0:0:0:0:
36,140,48792,2,0,B|29:115|29:115|56:35,1,80,8|2,0:0|3:2,0:0:0:0:
206,73,49046,6,0,L|128:93,1,80,4|0,3:1|0:0,0:0:0:0:
248,0,49300,6,0,P|282:17|291:55,1,80,8|2,0:0|3:2,0:0:0:0:
201,163,49555,1,2,3:2:0:0:
201,163,49682,1,0,0:0:0:0:
243,300,49809,2,0,L|228:379,1,80,10|2,0:2|0:0,0:0:0:0:
279,138,50063,6,0,L|331:145,2,40,2|0|2,3:0|0:0|0:3,0:0:0:0:
261,220,50317,5,8,0:0:0:0:
183,237,50444,1,2,3:1:0:0:
105,255,50571,1,2,3:1:0:0:
43,122,50826,6,0,B|29:74|29:74|14:59|14:59|2:10,1,120,10|0,0:0|0:0,0:0:0:0:
0,0,51080,6,0,P|49:-3|86:35,1,80,2|2,3:2|0:0,0:0:0:0:
118,171,51334,1,8,0:2:0:0:
118,171,51461,1,2,3:2:0:0:
210,103,51588,2,0,L|119:81,1,80,2|0,3:2|0:0,0:0:0:0:
84,256,51842,2,0,L|-7:278,1,80,10|0,0:0|0:0,0:0:0:0:
150,308,52097,6,0,P|184:327|202:361,2,80,2|2|8,3:1|0:1|0:0,0:0:0:0:
282,339,52479,1,2,0:1:0:0:
282,339,52605,2,0,P|316:319|334:285,1,80,2|0,3:1|0:0,0:0:0:0:
222,130,52860,2,0,B|230:183|230:183|241:197|241:197|251:248,1,120,2|0,1:1|0:0,0:0:0:0:
253,260,53114,5,0,3:0:0:0:
328,204,53241,1,0,0:0:0:0:
408,248,53368,2,0,L|500:269,1,80,10|0,0:0|3:0,0:0:0:0:
389,101,53622,2,0,L|311:118,1,80,2|0,3:2|0:0,0:0:0:0:
455,170,53877,2,0,B|469:104|495:135|513:56,1,120,10|0,0:0|0:0,0:0:0:0:
509,57,54131,6,0,P|472:41|455:-3,1,80,2|2,3:2|0:0,0:0:0:0:
301,106,54385,2,0,P|296:65|325:29,1,80,8|2,0:0|3:2,0:0:0:0:
399,91,54639,5,2,3:2:0:0:
449,164,54766,1,0,0:0:0:0:
358,181,54894,1,10,0:0:0:0:
408,254,55021,1,0,3:0:0:0:
317,271,55148,6,0,P|271:290|258:326,1,80,2|0,3:0|0:0,0:0:0:0:
178,366,55402,2,0,P|159:331|168:293,1,80,8|2,0:0|0:3,0:0:0:0:
379,338,55656,2,0,L|475:359,2,80,0|2|10,3:0|0:2|0:0,0:0:0:0:
309,384,56038,1,2,3:0:0:0:
239,233,56165,5,14,0:0:0:0:
156,275,56292,2,0,L|106:254,2,40,10|8|10,0:0|0:0|3:2,0:0:0:0:
221,147,56546,2,0,L|271:126,2,40,10|8|2,0:0|0:0|3:2,0:0:0:0:
76,60,56927,6,0,B|23:39|61:19|-15:0,1,96,2|0,0:0|0:0,0:0:0:0:
50,132,57182,6,0,P|102:111|176:103,1,95.9999970703126,6|0,3:2|0:0,0:0:0:0:
329,84,57436,1,14,0:2:0:0:
162,25,57563,1,0,0:0:0:0:
221,147,57690,2,0,P|235:83|259:23,1,95.9999970703126,2|0,3:2|0:0,0:0:0:0:
146,192,57944,2,0,P|160:237|170:284,1,95.9999970703126,10|2,0:0|0:0,0:0:0:0:
8,346,58199,6,0,P|-11:276|94:273,1,191.999994140625,2|10,3:2|0:0,0:0:0:0:
106,344,58580,1,2,0:0:0:0:
240,230,58707,2,0,P|295:211|350:187,1,95.9999970703126,2|0,3:2|0:0,0:0:0:0:
251,324,58961,1,10,0:0:0:0:
251,324,59088,1,2,0:0:0:0:
334,282,59216,6,0,L|348:380,1,95.9999970703126,2|2,3:2|0:2,0:0:0:0:
415,224,59470,2,0,L|429:322,1,95.9999970703126,10|2,0:2|0:2,0:0:0:0:
496,166,59724,2,0,L|510:264,1,95.9999970703126,2|2,3:2|0:2,0:0:0:0:
336,118,59978,5,10,0:2:0:0:
396,20,60105,1,2,0:2:0:0:
512,71,60232,2,0,L|384:112,1,95.9999970703126,2|0,3:2|0:0,0:0:0:0:
336,128,60487,5,10,0:0:0:0:
396,30,60614,1,2,0:0:0:0:
512,81,60741,2,0,L|384:122,1,95.9999970703126,2|0,3:2|0:0,0:0:0:0:
301,39,60995,2,0,L|173:-2,1,95.9999970703126,10|0,0:0|0:0,0:0:0:0:
243,130,61249,6,0,B|349:115|289:37|405:29,2,191.999994140625,6|10|2,3:2|3:2|3:2,0:0:0:0:
124,21,62012,5,10,0:0:0:0:
124,21,62139,1,2,0:0:0:0:
124,21,62266,2,0,L|153:112,1,95.9999970703126,2|0,3:2|0:0,0:0:0:0:
307,190,62521,1,10,0:0:0:0:
307,190,62648,1,2,0:0:0:0:
307,190,62775,2,0,L|277:281,1,95.9999970703126,2|0,3:2|0:0,0:0:0:0:
146,352,63029,2,0,P|90:327|91:270,1,95.9999970703126,10|2,0:0|0:0,0:0:0:0:
178,264,63283,6,0,B|286:270|224:357|343:354,1,191.999994140625,2|10,3:2|0:0,0:0:0:0:
496,290,63665,1,2,0:0:0:0:
426,366,63792,2,0,P|400:282|385:250,1,95.9999970703126,2|0,3:2|0:0,0:0:0:0:
353,131,64046,5,10,0:0:0:0:
353,131,64173,1,10,0:0:0:0:
246,187,64300,6,0,P|320:205|362:221,1,95.9999970703126,2|10,3:2|0:0,0:0:0:0:
183,123,64555,2,0,P|228:108|275:98,1,95.9999970703126,10|2,0:0|3:2,0:0:0:0:
114,184,64809,5,10,0:0:0:0:
111,174,64936,1,10,0:0:0:0:
40,221,65063,1,2,3:2:0:0:
33,133,65190,6,0,B|32:72|5:98|5:23,1,95.9999970703126,0|0,3:2|0:0,0:0:0:0:
18,36,65571,5,14,3:2:0:0:
195,113,65699,1,0,0:0:0:0:
131,0,65826,2,0,P|114:59|104:103,1,95.9999970703126,14|0,3:2|0:0,0:0:0:0:
57,225,66080,2,0,P|45:178|32:132,1,95.9999970703126,10|2,0:0|0:2,0:0:0:0:
205,199,66334,6,0,P|263:209|313:97,1,191.999994140625,2|10,3:2|0:0,0:0:0:0:
253,52,66716,1,2,0:0:0:0:
406,90,66843,2,0,P|463:107|514:128,1,95.9999970703126,2|0,3:2|0:0,0:0:0:0:
344,28,67097,1,10,0:2:0:0:
344,28,67224,1,2,0:2:0:0:
379,175,67351,6,0,L|281:189,1,95.9999970703126,2|2,3:2|0:2,0:0:0:0:
442,249,67605,2,0,L|344:263,1,95.9999970703126,10|2,0:2|0:2,0:0:0:0:
505,323,67860,2,0,L|407:337,1,95.9999970703126,2|2,3:2|0:2,0:0:0:0:
283,188,68114,5,10,0:2:0:0:
346,262,68241,1,2,0:2:0:0:
288,345,68368,2,0,P|244:293|253:250,1,95.9999970703126,2|0,3:2|0:0,0:0:0:0:
289,194,68622,5,10,0:0:0:0:
352,268,68749,1,2,0:0:0:0:
294,351,68876,2,0,P|250:299|259:256,1,95.9999970703126,2|0,3:2|0:0,0:0:0:0:
327,112,69131,2,0,P|320:65|284:35,1,95.9999970703126,10|0,0:0|0:0,0:0:0:0:
183,184,69385,6,0,B|163:301|126:232|106:356,2,191.999994140625,6|10|2,3:2|3:2|3:2,0:0:0:0:
21,265,70148,5,10,0:0:0:0:
21,265,70275,1,2,0:0:0:0:
21,265,70402,2,0,L|124:249,1,95.9999970703126,2|0,3:2|0:0,0:0:0:0:
152,100,70656,1,10,0:0:0:0:
152,100,70783,1,2,0:0:0:0:
152,100,70910,2,0,L|255:116,1,95.9999970703126,2|0,3:2|0:0,0:0:0:0:
383,180,71165,2,0,P|424:161|427:109,1,95.9999970703126,10|2,0:0|0:0,0:0:0:0:
308,14,71419,6,0,B|318:73|334:40|348:119,2,95.9999970703126,2|10|2,3:2|0:0|3:2,0:0:0:0:
300,181,71800,1,2,0:0:0:0:
429,114,71927,2,0,P|474:122|495:176,1,95.9999970703126,2|8,3:2|0:0,0:0:0:0:
451,230,72182,1,2,3:2:0:0:
494,298,72309,1,2,0:0:0:0:
400,355,72436,6,0,P|382:287|368:242,1,95.9999970703126,10|10,0:0|0:0,0:0:0:0:
190,288,72690,2,0,P|208:220|222:175,1,95.9999970703126,10|10,0:0|0:0,0:0:0:0:
289,279,72944,5,10,0:0:0:0:
195,371,73071,1,10,0:0:0:0:
76,292,73199,2,0,P|34:289|2:375,1,143.999995605469,2|0,3:2|0:0,0:0:0:0:
102,378,73453,5,6,3:2:0:0:
102,378,73580,2,0,P|111:306|129:201,1,160,2|2,0:0|0:0,0:0:0:0:
40,186,73961,2,0,P|36:146|24:107,1,80,2|0,3:2|0:0,0:0:0:0:
117,137,74216,2,0,P|156:135|185:160,1,80,10|0,0:2|0:0,0:0:0:0:
287,286,74470,5,2,3:2:0:0:
287,286,74597,2,0,P|278:214|260:109,1,160,2|2,0:0|0:0,0:0:0:0:
362,95,74978,2,0,P|365:55|377:16,1,80,2|0,3:2|0:0,0:0:0:0:
280,43,75232,1,10,0:2:0:0:
280,43,75360,1,0,3:0:0:0:
352,193,75487,5,2,3:2:0:0:
352,193,75614,2,0,P|406:167|515:149,1,160,2|2,0:0|0:0,0:0:0:0:
506,231,75995,2,0,P|452:216|442:186,1,80,2|0,3:2|0:0,0:0:0:0:
390,266,76249,2,0,P|376:316|367:360,1,80,10|0,0:2|0:0,0:0:0:0:
251,212,76504,5,2,3:2:0:0:
251,212,76631,2,0,P|197:186|88:168,1,160,2|2,0:0|0:0,0:0:0:0:
102,254,77012,2,0,P|156:239|166:209,1,80,2|0,3:2|0:0,0:0:0:0:
223,291,77266,1,10,0:2:0:0:
223,291,77394,1,0,3:0:0:0:
82,359,77521,5,2,3:2:0:0:
82,359,77648,2,0,B|68:294|68:294|44:272|44:272|22:197,1,160,2|2,0:0|0:0,0:0:0:0:
99,167,78029,2,0,L|119:75,1,80,2|0,3:2|0:0,0:0:0:0:
109,3,78283,2,0,P|61:11|46:58,1,80,10|0,0:2|0:0,0:0:0:0:
191,141,78538,5,2,3:2:0:0:
191,141,78665,2,0,B|256:127|256:127|278:103|278:103|353:81,1,160,2|2,0:0|0:0,0:0:0:0:
383,158,79046,2,0,L|475:178,1,80,2|0,3:2|0:0,0:0:0:0:
512,100,79300,1,10,0:2:0:0:
512,100,79427,1,0,3:0:0:0:
336,85,79555,5,2,3:2:0:0:
336,85,79682,2,0,P|356:177|363:263,1,160,2|2,0:0|0:0,0:0:0:0:
422,383,80063,2,0,P|431:344|444:306,1,80,2|0,3:2|0:0,0:0:0:0:
354,330,80317,1,10,0:0:0:0:
279,289,80444,1,8,0:0:0:0:
204,248,80571,6,0,P|232:220|271:210,2,80,10|2|0,0:0|3:1|3:0,0:0:0:0:
137,191,80953,2,0,P|99:179|71:151,2,80,10|2|0,0:0|3:1|3:0,0:0:0:0:
122,277,81334,2,0,P|131:315|120:353,1,80,2|2,1:0|0:1,0:0:0:0:
120,353,81970,5,14,0:0:0:0:
204,248,82097,2,0,P|247:265|256:330,1,80,2|0,3:2|0:0,0:0:0:0:
202,356,82351,2,0,P|248:371|293:388,1,80,10|0,0:0|0:0,0:0:0:0:
356,352,82605,5,2,3:2:0:0:
356,352,82732,2,0,B|375:328|375:328|377:257|430:169,1,160,2|2,0:0|0:0,0:0:0:0:
346,150,83114,2,0,P|303:167|294:232,1,80,2|0,3:2|0:0,0:0:0:0:
347,263,83368,1,10,0:2:0:0:
347,263,83495,1,0,3:0:0:0:
487,255,83622,5,2,3:2:0:0:
487,255,83749,2,0,P|507:189|428:101,1,160,2|2,0:0|0:0,0:0:0:0:
391,65,84130,2,0,P|415:18|463:5,1,80,2|0,3:2|0:0,0:0:0:0:
339,133,84385,2,0,B|301:125|301:125|296:127|296:127|233:110,1,80,10|0,0:2|0:0,0:0:0:0:
177,61,84639,5,2,3:2:0:0:
177,61,84766,2,0,P|157:127|236:215,1,160,2|2,0:0|0:0,0:0:0:0:
273,251,85147,2,0,P|249:298|201:311,1,80,2|0,3:2|0:0,0:0:0:0:
143,269,85402,1,10,0:2:0:0:
143,269,85529,1,0,3:0:0:0:
53,364,85656,5,6,3:2:0:0:
53,364,85783,2,0,P|35:288|6:205,1,160,2|2,0:0|0:0,0:0:0:0:
93,199,86165,2,0,P|106:149|121:108,1,80,2|0,3:2|0:0,0:0:0:0:
37,73,86419,2,0,P|56:39|95:33,1,80,10|0,0:2|0:0,0:0:0:0:
222,19,86673,5,2,3:2:0:0:
222,19,86800,2,0,P|240:95|269:178,1,160,2|2,0:0|0:0,0:0:0:0:
182,184,87182,2,0,P|169:234|154:275,1,80,2|0,3:2|0:0,0:0:0:0:
215,327,87436,1,10,0:2:0:0:
215,327,87563,1,0,3:0:0:0:
359,200,87690,5,2,3:2:0:0:
359,200,87817,2,0,P|430:199|444:291,1,160,2|2,0:0|0:0,0:0:0:0:
360,296,88199,2,0,P|317:276|279:266,1,80,2|0,3:2|0:0,0:0:0:0:
215,327,88453,1,10,0:0:0:0:
148,267,88580,1,8,0:0:0:0:
70,325,88707,6,0,P|62:271|55:229,2,80,8|2|0,0:0|3:1|0:0,0:0:0:0:
223,215,89088,2,0,P|230:175|235:136,2,80,8|2|0,0:0|3:1|0:0,0:0:0:0:
131,178,89470,2,8,B|114:109|77:150|60:68,1,120,2|0,3:1|0:0,0:0:0:0:
62,72,89724,6,0,P|103:60|141:45,1,71.9999978027344,4|0,3:2|0:0,0:0:0:0:
290,45,89978,6,0,P|215:15|222:-30,1,107.999996704102,8|0,3:2|0:0,0:0:0:0:
220,5,90232,2,0,P|212:53|210:88,1,71.9999978027344,0|0,3:0|0:0,0:0:0:0:
322,127,90487,2,0,P|397:97|390:52,1,107.999996704102,8|0,3:2|0:0,0:0:0:0:
392,87,90741,2,0,P|400:135|402:170,1,71.9999978027344,0|0,3:0|0:0,0:0:0:0:
236,168,90995,6,0,P|183:160|146:258,2,143.999995605469,8|0|8,3:2|3:0|3:2,0:0:0:0:
392,232,91758,6,0,B|461:248|418:261|509:277,1,107.999996704102,0|0,3:0|0:0,0:0:0:0:
509,274,92012,2,0,P|471:285|443:308,1,71.9999978027344,8|0,3:2|0:0,0:0:0:0:
331,301,92266,6,0,B|262:317|305:330|214:346,1,107.999996704102,0|0,3:0|0:0,0:0:0:0:
213,343,92520,2,0,P|250:354|278:377,1,71.9999978027344,8|0,3:2|0:0,0:0:0:0:
225,255,92775,5,0,3:0:0:0:
95,380,93029,6,0,B|77:327|77:327|64:312|64:312|37:235,2,143.999995605469,8|0|8,3:2|3:0|3:2,0:0:0:0:
134,257,93792,6,0,P|149:215|86:180,1,107.999996704102,0|0,3:0|0:0,0:0:0:0:
95,177,94046,2,0,P|62:150|72:111,1,71.9999978027344,8|0,3:2|0:0,0:0:0:0:
194,177,94300,6,0,P|207:140|151:109,1,96,0|0,3:0|0:0,0:0:0:0:
159,106,94554,2,0,P|130:82|138:48,1,64,8|0,3:2|0:0,0:0:0:0:
248,115,94809,6,0,P|260:79|207:50,1,83.9999974365235,0|0,3:0|0:0,0:0:0:0:
220,39,95063,6,0,P|261:28|294:17,1,71.9999978027344,8|0,3:2|0:0,0:0:0:0:
291,193,95317,2,0,P|332:204|365:215,1,71.9999978027344,0|0,3:0|0:0,0:0:0:0:
472,47,95571,2,0,P|418:33|399:96,1,107.999996704102,8|0,3:2|0:0,0:0:0:0:
396,86,95826,6,0,B|408:169|439:126|451:215,2,143.999995605469,0|8|0,3:0|3:2|3:0,0:0:0:0:
327,294,96588,5,8,3:2:0:0:
218,154,96843,6,0,P|263:166|274:235,1,107.999996704102,0|0,3:0|0:0,0:0:0:0:
271,228,97097,2,0,P|245:258|245:291,1,71.9999978027344,8|0,3:2|0:0,0:0:0:0:
340,374,97351,6,0,P|352:329|421:318,1,107.999996704102,0|0,3:0|0:0,0:0:0:0:
414,321,97605,2,0,P|444:347|477:347,1,71.9999978027344,8|0,3:2|0:0,0:0:0:0:
368,216,97860,5,4,3:2:0:0:
249,378,98114,6,0,P|194:346|125:331,1,107.999996704102,8|0,3:2|0:0,0:0:0:0:
140,337,98368,1,0,3:0:0:0:
248,276,98495,1,0,0:0:0:0:
186,183,98622,2,0,P|175:217|166:252,1,71.9999978027344,8|0,3:2|0:0,0:0:0:0:
53,336,98877,6,0,P|1:323|3:226,2,143.999995605469,0|8|0,3:0|3:2|3:0,0:0:0:0:
93,188,99639,2,0,P|55:176|4:154,1,71.9999978027344,8|0,3:2|0:0,0:0:0:0:
156,257,99894,6,0,B|205:245|183:216|255:207,1,107.999996704102,0|0,3:0|0:0,0:0:0:0:
262,203,100148,2,0,P|239:180|225:138,1,71.9999978027344,8|0,3:2|0:0,0:0:0:0:
245,19,100402,6,0,B|294:30|272:59|344:68,1,107.999996704102,0|0,3:0|0:0,0:0:0:0:
351,73,100656,2,0,P|328:95|314:137,1,71.9999978027344,8|0,3:2|0:0,0:0:0:0:
171,73,100910,5,0,3:0:0:0:
0,223,101165,6,0,B|58:235|58:235|65:243|65:243|148:257,2,143.999995605469,8|0|8,3:2|3:0|3:2,0:0:0:0:
167,337,101927,6,0,P|211:330|212:258,1,107.999996704102,0|0,3:0|0:0,0:0:0:0:
219,265,102182,2,0,P|227:223|266:213,1,71.9999978027344,8|0,3:2|0:0,0:0:0:0:
265,352,102436,6,0,P|303:346|304:282,1,96,0|0,3:0|0:0,0:0:0:0:
312,288,102690,2,0,P|319:251|353:242,1,64,8|0,3:2|0:0,0:0:0:0:
345,370,102944,6,0,P|382:363|383:303,1,83.9999974365235,0|0,3:0|0:0,0:0:0:0:
399,310,103199,6,0,P|437:322|479:343,1,71.9999978027344,8|0,3:2|0:0,0:0:0:0:
370,147,103453,2,0,P|332:159|290:180,1,71.9999978027344,0|0,3:0|0:0,0:0:0:0:
414,225,103707,2,0,P|468:208|450:139,1,107.999996704102,8|0,3:2|0:0,0:0:0:0:
458,149,103961,6,0,B|465:60|504:112|514:9,2,143.999995605469,0|8|0,3:0|3:2|3:0,0:0:0:0:
314,63,104724,6,0,P|360:50|406:33,1,71.9999978027344,8|8,3:2|0:0,0:0:0:0:
396,36,104915,1,8,0:0:0:0:
408,28,104978,1,8,0:0:0:0:
233,9,105105,2,0,P|208:1|182:-3,2,35.9999989013672,8|8|8,0:0|0:0|0:0,0:0:0:0:
311,68,105360,1,0,3:0:0:0:
225,154,105487,5,8,0:0:0:0:
277,226,105614,2,0,P|285:251|289:277,2,35.9999989013672,8|8|0,0:0|0:0|3:0,0:0:0:0:
191,312,105868,5,8,0:0:0:0:
68,265,105995,6,0,P|76:295|80:327,1,64,6|0,3:2|0:0,0:0:0:0:
209,155,106249,2,0,P|200:124|196:92,1,64,2|0,1:2|0:0,0:0:0:0:
56,163,106504,2,0,P|72:209|153:209,1,128,2|2,3:2|1:2,0:0:0:0:
195,289,106885,1,2,0:0:0:0:
289,193,107012,6,0,P|323:188|354:178,1,64,0|2,3:0|0:0,0:0:0:0:
429,155,107266,1,0,1:0:0:0:
349,267,107394,2,0,P|315:272|284:282,1,64,2|0,0:0|3:0,0:0:0:0:
437,295,107648,6,0,L|448:369,2,64,2|2|2,0:3|1:3|0:3,0:0:0:0:
481,220,108029,2,0,P|486:165|521:121,1,96,2|0,3:2|0:0,0:0:0:0:
512,111,108283,6,0,P|478:89|443:70,1,64,2|0,1:2|0:0,0:0:0:0:
330,27,108538,1,2,3:2:0:0:
414,9,108665,1,0,0:0:0:0:
326,40,108792,1,2,1:2:0:0:
370,118,108919,2,0,P|397:133|424:151,1,64,2|0,0:2|3:0,0:0:0:0:
217,138,109173,6,0,B|224:172|224:172|221:180|221:180|231:224,2,64,2|0|2,0:0|1:0|0:0,0:0:0:0:
235,41,109555,2,0,P|180:58|145:62,1,64,0|2,3:0|0:3,0:0:0:0:
298,133,109809,2,0,P|328:122|360:115,1,64,2|2,1:3|0:3,0:0:0:0:
130,136,110063,5,6,3:2:0:0:
85,214,110190,2,0,P|55:205|11:195,2,64,0|2|0,0:0|1:2|0:0,0:0:0:0:
42,121,110571,2,0,P|37:74|32:41,1,64,2|0,3:2|0:0,0:0:0:0:
213,153,110826,2,0,P|218:200|223:233,1,64,2|2,1:2|0:0,0:0:0:0:
35,321,111080,6,0,P|30:271|91:227,1,128,0|0,3:0|1:0,0:0:0:0:
110,365,111461,2,0,P|161:332|161:271,1,128,2|2,0:0|0:3,0:0:0:0:
92,233,111843,1,2,1:3:0:0:
167,277,111970,1,2,0:3:0:0:
242,321,112097,6,0,P|247:354|252:386,1,64,2|0,3:2|0:0,0:0:0:0:
302,256,112351,2,0,P|306:224|311:192,1,64,2|0,1:2|0:0,0:0:0:0:
206,140,112605,2,0,P|201:108|196:76,1,64,2|0,3:2|0:0,0:0:0:0:
324,0,112860,5,2,1:2:0:0:
293,104,112987,1,2,0:0:0:0:
379,74,113114,5,10,0:0:0:0:
512,124,113241,1,2,3:0:0:0:
379,83,113495,5,10,0:0:0:0:
512,133,113622,1,2,3:0:0:0:
281,192,113877,6,0,L|297:271,1,71.9999978027344,2|0,3:2|0:0,0:0:0:0:
300,281,114131,6,0,P|338:269|373:264,1,64,6|0,3:2|0:0,0:0:0:0:
464,377,114385,2,0,P|426:365|391:360,1,64,10|0,0:2|0:0,0:0:0:0:
449,276,114639,2,0,P|455:247|468:210,2,64,2|0|10,3:2|0:0|0:0,0:0:0:0:
448,288,115021,1,2,0:0:0:0:
448,133,115148,5,0,3:0:0:0:
377,181,115275,2,0,P|324:168|294:160,1,64,2|8,0:0|0:0,0:0:0:0:
195,152,115529,2,0,B|268:140|220:91|313:86,1,128,2|2,0:0|0:0,0:0:0:0:
161,7,115910,5,10,0:0:0:0:
161,7,116038,2,0,P|178:58|183:75,1,64,2|2,3:2|3:2,0:0:0:0:
22,164,116292,1,0,0:0:0:0:
22,164,116420,2,0,P|39:113|44:96,1,64,10|0,0:0|0:0,0:0:0:0:
15,3,116673,6,0,P|66:20|100:29,1,64,2|0,3:2|0:0,0:0:0:0:
180,145,116927,2,0,P|129:162|95:171,1,64,10|2,0:0|0:0,0:0:0:0:
19,265,117182,5,0,3:0:0:0:
154,240,117309,1,2,0:0:0:0:
35,180,117436,1,8,0:0:0:0:
98,304,117563,2,0,P|88:342|82:372,1,64,2|0,0:0|3:0,0:0:0:0:
267,329,117817,6,0,P|254:295|224:282,1,64,2|10,0:0|0:0,0:0:0:0:
179,345,118071,1,2,3:2:0:0:
283,344,118199,5,6,3:2:0:0:
310,236,118326,2,0,P|304:204|293:174,2,64,0|10|0,0:0|0:0|0:0,0:0:0:0:
328,95,118707,6,0,P|366:85|399:81,1,64,2|0,3:2|0:0,0:0:0:0:
211,203,118961,2,0,P|173:213|140:217,1,64,10|2,0:0|0:0,0:0:0:0:
228,108,119216,2,0,P|234:57|157:34,1,128,0|8,3:0|0:0,0:0:0:0:
99,72,119597,2,0,P|55:53|43:23,1,64,2|0,0:0|3:0,0:0:0:0:
149,140,119851,6,0,P|141:186|135:219,2,64,2|10|2,0:0|0:0|3:2,0:0:0:0:
242,117,120232,2,0,P|277:125|309:138,1,64,2|0,3:2|0:0,0:0:0:0:
375,18,120487,2,0,P|404:6|436:0,1,64,10|0,0:0|0:0,0:0:0:0:
293,44,120741,5,2,3:2:0:0:
485,150,120995,1,10,0:0:0:0:
393,103,121122,5,10,0:0:0:0:
393,103,121186,1,8,0:0:0:0:
393,103,121249,2,0,P|385:147|380:179,1,64,0|10,3:0|0:0,0:0:0:0:
227,203,121504,2,0,P|235:247|240:279,1,64,0|10,3:0|0:0,0:0:0:0:
335,251,121758,5,8,0:3:0:0:
342,260,121885,1,10,0:3:0:0:
491,361,122012,5,6,0:3:0:0:
484,370,122139,1,6,0:3:0:0:
439,250,122266,6,0,B|442:268|442:268|426:312|426:312|410:320|410:320|395:361|395:361|401:390,2,143.999995605469,2|2|2,0:1|3:0|3:0,0:0:0:0:
217,351,123029,2,0,B|165:329|165:329|177:349,1,71.9999978027344,2|10,3:0|0:0,0:0:0:0:
439,250,123410,1,2,3:0:0:0:
307,345,123665,1,10,0:0:0:0:
346,264,123792,2,0,B|340:232|340:232|335:222|335:222|327:181,2,71.9999978027344,2|2|10,3:2|3:2|0:0,0:0:0:0:
487,18,124300,6,0,B|511:28|511:28|435:57,2,107.999996704102,10|10|10,0:0|0:0|0:0,0:0:0:0:
365,7,124809,1,2,3:0:0:0:
479,176,125063,2,0,B|502:166|502:166|516:105,1,71.9999978027344,2|10,3:0|0:0,0:0:0:0:
307,345,125444,1,2,3:0:0:0:
404,137,125699,1,8,0:0:0:0:
365,215,125826,2,0,B|334:223|334:223|329:233|329:233|278:245,2,71.9999978027344,8|8|4,0:3|0:3|0:3,0:0:0:0:
439,250,126207,1,4,0:3:0:0:
439,250,126334,6,0,B|442:268|442:268|426:312|426:312|410:320|410:320|395:361|395:361|401:390,2,143.999995605469,2|2|2,3:0|3:0|3:0,0:0:0:0:
217,351,127097,2,0,B|165:329|165:329|177:349,1,71.9999978027344,2|10,3:0|0:0,0:0:0:0:
439,250,127478,1,2,3:0:0:0:
307,345,127733,1,10,0:0:0:0:
354,269,127860,2,0,B|348:237|348:237|343:227|343:227|335:186,2,71.9999978027344,2|2|2,3:1|3:1|3:1,0:0:0:0:
478,21,128368,6,0,B|502:31|502:31|419:63|419:63|375:48,2,143.999995605469,10|2|2,0:0|3:0|3:0,0:0:0:0:
479,176,129131,2,0,B|502:166|502:166|516:105,1,71.9999978027344,2|10,3:0|0:0,0:0:0:0:
307,345,129512,1,2,3:0:0:0:
404,137,129767,1,10,0:0:0:0:
365,215,129894,2,0,B|334:223|334:223|329:233|329:233|278:245,2,71.9999978027344,8|8|4,0:3|0:3|0:3,0:0:0:0:
439,250,130275,1,4,0:3:0:0:
251,175,130402,6,0,B|236:166|236:166|192:172|192:172|182:186|182:186|135:191|135:191|97:167,2,143.999995605469,2|2|2,0:1|3:0|3:0,0:0:0:0:
84,0,131165,2,0,B|69:-8|69:-8|87:64,1,71.9999978027344,2|10,3:0|0:0,0:0:0:0:
251,175,131546,1,2,3:0:0:0:
54,127,131800,1,10,0:0:0:0:
145,107,131927,2,0,B|177:100|177:100|180:93|180:93|233:77,2,71.9999978027344,2|2|10,3:2|3:2|0:0,0:0:0:0:
86,367,132436,6,0,B|88:362|88:362|81:333,4,35.9999989013672,10|2|2|2|10,0:0|0:0|0:0|0:0|0:0,0:0:0:0:
81,257,132817,1,8,0:0:0:0:
18,209,132944,1,2,3:0:0:0:
298,348,133199,2,0,B|284:327|284:327|223:315,1,71.9999978027344,2|10,3:0|0:0,0:0:0:0:
54,127,133580,1,2,3:0:0:0:
170,363,133834,1,8,0:0:0:0:
156,284,133961,2,0,B|166:257|166:257|174:254|174:254|186:222,2,71.9999978027344,8|8|4,0:3|0:3|0:3,0:0:0:0:
251,175,134343,1,4,0:3:0:0:
251,175,134470,6,0,B|236:166|236:166|192:172|192:172|182:186|182:186|135:191|135:191|97:167,2,143.999995605469,2|2|2,3:0|3:0|3:0,0:0:0:0:
84,0,135233,2,0,B|69:-8|69:-8|87:64,1,71.9999978027344,2|10,3:0|0:0,0:0:0:0:
251,175,135614,1,2,3:0:0:0:
54,127,135868,1,8,0:0:0:0:
145,107,135995,2,0,B|177:100|177:100|180:93|180:93|233:77,2,71.9999978027344,2|2|2,3:1|3:1|3:1,0:0:0:0:
86,367,136504,6,0,B|80:346|80:346|-8:319|-8:319|25:307,2,143.999995605469,10|2|2,0:0|3:0|3:0,0:0:0:0:
298,348,137267,2,0,B|284:327|284:327|223:315,1,71.9999978027344,2|8,3:0|0:0,0:0:0:0:
54,127,137648,2,0,B|68:148|68:148|129:160,1,71.9999978027344,8|2,0:0|3:0,0:0:0:0:
156,284,138029,6,0,B|166:257|166:257|174:254|174:254|186:222,3,71.9999978027344,8|8|8|8,0:1|0:1|0:1|0:1,0:0:0:0:
251,175,138538,5,4,3:2:0:0:
134,55,138792,6,0,P|95:48|43:25,1,64,0|0,3:0|0:0,0:0:0:0:
214,0,139046,2,0,P|278:28|239:112,1,128,0|0,3:0|3:0,0:0:0:0:
194,116,139427,1,0,0:0:0:0:
289,85,139555,6,0,L|378:106,1,64,2|2,3:0|0:3,0:0:0:0:
408,157,139809,5,0,3:0:0:0:
431,81,139936,1,2,0:3:0:0:
454,5,140063,1,2,3:0:0:0:
486,139,140317,6,0,B|493:168|493:168|500:173|500:173|507:211,1,64,0|8,3:0|0:0,0:0:0:0:
446,257,140571,6,0,P|404:239|372:235,1,64,2|2,3:0|1:3,0:0:0:0:
315,353,140826,2,0,P|283:360|255:374,1,64,0|2,3:0|0:3,0:0:0:0:
252,202,141080,6,0,P|294:218|297:264,1,96,10|8,0:0|0:0,0:0:0:0:
291,274,141334,1,0,0:0:0:0:
380,234,141461,1,8,0:0:0:0:
407,323,141588,6,0,P|394:364|391:404,1,64,2|0,3:0|0:0,0:0:0:0:
206,309,141843,2,0,P|200:277|190:247,1,64,0|2,3:0|0:3,0:0:0:0:
329,168,142097,5,2,3:0:0:0:
278,106,142224,1,8,0:0:0:0:
347,64,142351,2,0,B|388:77|388:77|393:89|393:89|443:100,1,96,2|0,3:0|0:0,0:0:0:0:
448,99,142605,2,0,B|487:69|487:69|467:23,1,96,2|0,3:2|0:0,0:0:0:0:
456,18,142860,6,0,L|377:-6,2,64,2|0|0,3:2|0:0|3:0,0:0:0:0:
337,58,143241,2,0,L|275:76,2,64,0|0|0,0:0|3:0|0:0,0:0:0:0:
197,39,143622,6,0,L|186:116,2,64,2|2|2,3:0|0:3|3:2,0:0:0:0:
257,154,144004,1,2,0:3:0:0:
113,55,144131,2,0,P|75:58|48:119,1,96,2|0,3:0|0:0,0:0:0:0:
48,115,144385,6,0,L|59:192,1,64,0|0,3:0|0:0,0:0:0:0:
121,226,144639,2,0,B|144:205|144:205|139:172,1,64,2|8,3:0|0:0,0:0:0:0:
98,305,144893,5,0,3:0:0:0:
175,288,145021,1,2,0:3:0:0:
251,273,145148,1,2,3:0:0:0:
282,131,145275,5,2,0:0:0:0:
282,131,145338,1,0,0:0:0:0:
282,131,145402,2,0,L|294:215,1,64,0|8,3:0|0:0,0:0:0:0:
357,246,145656,2,0,B|382:222|382:222|377:187,1,64,4|8,3:2|0:0,0:0:0:0:
320,335,145910,5,8,0:0:0:0:
406,317,146038,1,8,0:0:0:0:
489,300,146165,1,8,0:0:0:0:
374,176,146292,1,8,0:0:0:0:
369,162,146546,5,8,0:0:0:0:
427,7,146673,2,0,P|412:44|403:83,1,80,4|0,3:2|0:0,0:0:0:0:
280,169,146927,6,0,P|237:124|246:90,1,80,8|2,0:0|3:2,0:0:0:0:
318,97,147182,1,2,3:2:0:0:
318,97,147309,1,0,0:0:0:0:
174,51,147436,2,0,L|95:66,1,80,8|0,0:0|0:0,0:0:0:0:
338,16,147690,6,0,L|383:23,2,40,2|0|2,3:0|0:0|0:3,0:0:0:0:
254,33,147944,5,8,0:0:0:0:
237,111,148071,1,2,3:1:0:0:
219,189,148198,1,2,3:1:0:0:
332,247,148453,6,0,B|344:292|344:292|336:315|336:315|346:368,1,120,10|0,0:0|0:0,0:0:0:0:
337,357,148707,6,0,P|299:336|245:339,1,80,2|2,3:2|0:2,0:0:0:0:
101,375,148961,1,8,0:0:0:0:
101,375,149088,1,2,0:0:0:0:
199,268,149216,2,0,L|177:366,1,80,2|0,3:2|0:0,0:0:0:0:
52,236,149470,2,0,L|34:157,1,80,10|0,0:0|0:0,0:0:0:0:
110,291,149724,6,0,P|48:306|31:341,2,80,2|2|8,3:1|0:1|0:0,0:0:0:0:
209,188,150105,1,2,0:1:0:0:
209,188,150232,2,0,P|178:213|139:214,1,80,2|0,3:1|0:0,0:0:0:0:
41,76,150487,2,0,B|83:92|83:92|100:116|100:116|147:129,1,120,2|0,1:0|0:0,0:0:0:0:
154,129,150741,5,4,3:2:0:0:
237,80,150868,1,0,0:0:0:0:
171,21,150995,2,0,L|79:0,1,80,10|0,3:2|3:2,0:0:0:0:
226,192,151249,2,0,L|304:175,1,80,2|0,3:2|0:0,0:0:0:0:
112,288,151504,2,0,P|44:269|54:201,1,120,10|0,0:0|0:0,0:0:0:0:
45,235,151758,6,0,P|34:269|18:318,1,80,2|2,3:2|0:0,0:0:0:0:
196,308,152012,2,0,P|207:342|223:391,1,80,10|2,0:0|3:2,0:0:0:0:
85,371,152266,5,2,3:2:0:0:
120,287,152394,1,0,0:0:0:0:
207,310,152521,1,10,0:0:0:0:
256,233,152649,1,0,3:0:0:0:
342,272,152775,6,0,P|376:241|368:196,1,80,2|2,3:0|0:3,0:0:0:0:
450,149,153029,2,0,P|482:170|487:209,1,80,8|2,0:0|0:3,0:0:0:0:
295,157,153283,2,0,L|199:136,2,80,2|2|10,3:0|0:0|0:0,0:0:0:0:
371,102,153665,1,2,0:0:0:0:
425,300,153792,5,10,0:0:0:0:
476,225,153919,2,0,L|526:246,2,40,10|8|2,0:0|0:0|3:2,0:0:0:0:
496,368,154173,2,0,L|446:389,2,40,10|0|0,0:0|0:0|0:0,0:0:0:0:
330,296,154555,6,0,B|294:284|282:263|294:258|275:233|224:225,1,120,2|0,0:0|0:0,0:0:0:0:
208,231,154809,6,0,L|145:245,2,47.9999985351563,4|0|8,3:2|3:0|0:0,0:0:0:0:
107,301,155190,2,0,B|69:269|69:269|83:224,1,95.9999970703126,0|0,3:0|3:0,0:0:0:0:
139,166,155571,2,0,L|158:105,1,47.9999985351563,8|0,0:0|0:0,0:0:0:0:
99,11,155826,6,0,P|75:0|33:8,2,47.9999985351563,0|0|8,3:0|3:0|0:0,0:0:0:0:
83,89,156207,1,0,3:0:0:0:
182,41,156461,5,0,3:0:0:0:
182,41,156588,2,0,L|246:25,1,47.9999985351563,8|0,0:0|0:0,0:0:0:0:
321,8,156843,6,0,P|312:30|308:54,2,47.9999985351563,0|0|8,3:0|3:0|0:0,0:0:0:0:
243,109,157224,2,0,P|253:145|266:215,1,95.9999970703126,0|0,3:0|3:0,0:0:0:0:
227,275,157605,6,0,L|284:290,1,47.9999985351563,8|0,0:0|0:0,0:0:0:0:
301,363,157860,2,0,L|358:348,1,47.9999985351563,0|0,3:0|3:0,0:0:0:0:
230,281,158114,6,0,L|287:296,1,47.9999985351563,8|0,0:0|3:0,0:0:0:0:
304,369,158369,2,0,L|361:354,1,47.9999985351563,0|0,0:0|3:0,0:0:0:0:
473,324,158622,5,8,0:0:0:0:
473,324,158749,1,0,3:0:0:0:
387,276,158877,6,0,L|406:214,2,47.9999985351563,4|0|8,3:1|3:0|0:0,0:0:0:0:
482,237,159258,2,0,B|512:202|512:202|498:150,1,95.9999970703126,0|0,3:0|3:0,0:0:0:0:
419,153,159639,2,0,L|408:106,1,47.9999985351563,8|0,0:0|0:0,0:0:0:0:
510,21,159894,6,0,P|507:38|475:75,2,47.9999985351563,0|0|8,3:0|3:0|0:0,0:0:0:0:
431,11,160275,1,0,3:0:0:0:
322,137,160529,5,0,3:0:0:0:
322,137,160656,2,0,L|256:121,1,47.9999985351563,8|0,0:0|0:0,0:0:0:0:
199,23,160910,6,0,L|210:84,1,47.9999985351563,0|0,3:0|3:0,0:0:0:0:
159,131,161165,2,0,L|148:192,2,47.9999985351563,8|0|0,0:0|3:0|0:0,0:0:0:0:
327,214,161673,6,0,L|278:230,1,47.9999985351563,8|0,0:0|0:0,0:0:0:0:
196,249,161927,5,0,3:0:0:0:
196,249,162055,1,0,3:0:0:0:
252,307,162182,1,8,0:0:0:0:
252,307,162309,1,0,3:0:0:0:
216,379,162436,2,0,L|165:366,1,47.9999985351563,0|0,0:0|3:0,0:0:0:0:
127,299,162690,2,0,L|76:312,1,47.9999985351563,8|0,0:0|3:0,0:0:0:0:
20,384,162944,6,0,P|7:343|-11:300,2,64,6|2|8,3:2|3:2|0:0,0:0:0:0:
36,243,163326,1,2,3:2:0:0:
36,243,163453,2,0,P|52:177|64:141,1,96,2|0,0:0|0:0,0:0:0:0:
62,140,163707,2,0,L|-9:157,1,64,10|0,0:0|0:0,0:0:0:0:
139,217,163961,6,0,P|179:225|218:243,2,64,2|2|8,3:2|3:2|0:0,0:0:0:0:
253,162,164343,2,0,P|283:150|314:145,2,64,2|2|0,3:2|0:0|3:0,0:0:0:0:
174,134,164724,1,10,0:0:0:0:
174,134,164851,1,0,0:0:0:0:
241,71,164978,6,0,P|252:31|258:-9,2,64,2|2|8,3:2|3:2|0:0,0:0:0:0:
340,15,165360,1,2,3:2:0:0:
340,15,165487,2,0,P|385:33|450:69,1,96,2|0,0:0|0:0,0:0:0:0:
439,62,165741,6,0,P|451:18|464:-5,1,64,10|0,0:0|0:0,0:0:0:0:
344,157,165995,2,0,P|332:113|319:90,1,64,2|2,3:2|3:2,0:0:0:0:
449,69,166249,6,0,P|461:25|474:2,1,64,8|2,0:0|3:2,0:0:0:0:
354,164,166503,2,0,P|342:120|329:97,1,64,2|0,0:0|3:0,0:0:0:0:
441,154,166758,6,0,P|477:176|477:214,1,64,10|0,0:0|3:0,0:0:0:0:
456,274,167012,6,0,P|422:285|382:302,2,64,6|2|8,3:2|3:2|0:0,0:0:0:0:
332,243,167394,1,2,3:2:0:0:
332,243,167521,2,0,P|291:236|219:213,1,96,2|0,0:0|0:0,0:0:0:0:
220,226,167775,6,0,P|229:267|233:303,1,64,10|0,0:0|0:0,0:0:0:0:
169,339,168029,2,0,P|131:335|109:280,1,96,2|0,3:2|0:0,0:0:0:0:
116,277,168283,6,0,P|125:236|129:200,1,64,8|2,0:0|3:2,0:0:0:0:
65,164,168537,2,0,P|27:168|5:223,1,96,2|0,0:0|0:0,0:0:0:0:
6,230,168792,6,0,P|17:269|23:294,2,64,10|0|2,0:0|0:0|3:2,0:0:0:0:
3,216,169173,1,2,3:2:0:0:
152,123,169300,2,0,P|163:84|169:59,2,64,8|2|2,0:0|3:2|0:0,0:0:0:0:
149,137,169681,1,0,3:0:0:0:
69,67,169809,6,0,P|115:57|175:37,1,96,10|0,0:0|0:0,0:0:0:0:
173,49,170063,5,10,3:2:0:0:
232,148,170190,1,10,3:2:0:0:
130,216,170317,5,10,3:2:0:0:
189,315,170444,1,10,3:2:0:0:
87,383,170571,6,0,P|62:370|19:364,1,64,2|2,0:1|0:1,0:0:0:0:
468,251,171080,6,0,P|414:263|342:290,1,95.9999970703126,6|0,3:2|0:0,0:0:0:0:
189,315,171334,1,14,0:0:0:0:
356,358,171461,1,0,0:0:0:0:
297,236,171588,2,0,P|283:300|259:360,1,95.9999970703126,2|0,3:2|0:0,0:0:0:0:
372,191,171842,2,0,P|358:146|348:99,1,95.9999970703126,10|2,0:0|0:0,0:0:0:0:
512,40,172097,6,0,P|531:110|426:113,1,191.999994140625,2|10,3:2|0:0,0:0:0:0:
411,45,172478,1,2,0:0:0:0:
273,148,172605,2,0,P|218:167|163:191,1,95.9999970703126,2|0,3:2|0:0,0:0:0:0:
267,61,172859,1,10,0:0:0:0:
267,61,172986,1,2,0:0:0:0:
162,0,173114,6,0,L|175:95,1,95.9999970703126,2|2,3:2|0:2,0:0:0:0:
81,58,173368,2,0,L|94:153,1,95.9999970703126,10|2,0:2|0:2,0:0:0:0:
0,116,173622,2,0,L|13:211,1,95.9999970703126,2|2,3:2|0:2,0:0:0:0:
176,345,173877,5,10,0:2:0:0:
116,247,174004,1,2,0:2:0:0:
0,298,174131,2,0,L|128:339,1,95.9999970703126,2|0,3:2|0:0,0:0:0:0:
176,355,174386,5,10,0:2:0:0:
116,257,174513,1,2,0:2:0:0:
0,308,174640,2,0,L|128:349,1,95.9999970703126,2|0,3:2|0:0,0:0:0:0:
211,266,174894,2,0,L|339:225,1,95.9999970703126,10|0,0:0|0:0,0:0:0:0:
278,360,175148,6,0,B|176:341|218:274|114:265,2,191.999994140625,6|10|2,3:2|3:2|3:2,0:0:0:0:
191,172,175910,5,10,0:0:0:0:
191,172,176037,1,2,0:0:0:0:
191,172,176165,2,0,L|215:286,1,95.9999970703126,2|0,3:2|0:0,0:0:0:0:
383,291,176419,1,10,0:0:0:0:
383,291,176546,1,2,0:0:0:0:
383,291,176674,2,0,L|359:405,1,95.9999970703126,2|0,3:2|0:0,0:0:0:0:
310,198,176927,2,0,P|339:162|395:163,1,95.9999970703126,10|2,0:0|0:0,0:0:0:0:
486,184,177182,6,0,B|390:158|443:97|331:73,1,191.999994140625,2|10,3:2|0:0,0:0:0:0:
163,136,177564,1,2,0:0:0:0:
220,12,177691,2,0,P|248:90|260:131,1,95.9999970703126,2|0,3:2|0:0,0:0:0:0:
289,277,177945,5,10,0:0:0:0:
289,277,178072,1,10,0:0:0:0:
217,208,178199,2,0,P|276:194|334:171,1,95.9999970703126,2|10,3:2|0:0,0:0:0:0:
113,272,178453,2,0,P|158:287|205:297,1,95.9999970703126,2|2,3:2|0:0,0:0:0:0:
11,330,178707,5,10,0:0:0:0:
7,316,178834,1,10,0:0:0:0:
38,225,178961,1,10,0:0:0:0:
39,213,179088,1,8,0:3:0:0:
71,125,179216,6,0,B|126:123|116:92|178:96,1,96,2|0,3:1|0:0,0:0:0:0:
174,95,179470,6,0,P|193:39|218:-15,1,95.9999970703126,14|0,3:2|0:0,0:0:0:0:
142,196,179724,2,0,P|160:240|175:285,1,95.9999970703126,6|0,3:2|0:0,0:0:0:0:
262,107,179978,1,14,0:0:0:0:
105,33,180105,1,2,0:0:0:0:
237,208,180232,6,0,P|316:189|366:183,1,95.9999970703126,6|0,3:2|0:0,0:0:0:0:
393,42,180487,2,0,P|314:23|264:17,1,95.9999970703126,10|2,0:0|0:0,0:0:0:0:
411,232,180741,2,0,P|461:214|455:137,1,95.9999970703126,2|0,3:2|0:0,0:0:0:0:
483,8,180995,1,10,0:0:0:0:
483,8,181122,1,2,0:0:0:0:
404,134,181249,6,0,B|409:203|444:239|446:202|481:267|487:315,2,191.999994140625,2|8|0,3:2|0:0|3:0,0:0:0:0:
265,374,182012,5,10,0:0:0:0:
183,330,182139,1,2,0:0:0:0:
275,380,182266,2,0,L|385:355,1,95.9999970703126,2|0,3:2|0:0,0:0:0:0:
253,250,182521,5,10,0:0:0:0:
335,206,182648,1,2,0:0:0:0:
243,256,182775,2,0,L|133:231,1,95.9999970703126,2|0,3:2|0:0,0:0:0:0:
264,151,183029,6,0,B|261:94|234:125|228:38,1,95.9999970703126,10|0,0:0|3:0,0:0:0:0:
282,0,183283,6,0,P|269:64|139:85,2,191.999994140625,6|10|2,3:2|0:0|3:2,0:0:0:0:
49,4,184046,5,10,0:0:0:0:
49,4,184173,1,2,0:0:0:0:
49,4,184300,2,0,L|65:107,1,95.9999970703126,2|0,3:2|0:0,0:0:0:0:
191,183,184554,1,10,0:0:0:0:
191,183,184681,1,2,0:0:0:0:
191,183,184808,2,0,L|175:286,1,95.9999970703126,2|0,3:2|0:0,0:0:0:0:
65,372,185063,2,0,P|19:366|0:325,1,95.9999970703126,10|2,0:0|0:0,0:0:0:0:
103,203,185317,6,0,B|93:144|77:177|66:115,2,95.9999970703126,2|10|2,3:2|0:0|3:2,0:0:0:0:
79,288,185698,1,2,0:0:0:0:
257,321,185825,2,0,P|233:357|168:340,1,95.9999970703126,2|8,3:2|0:0,0:0:0:0:
181,263,186080,1,2,3:2:0:0:
283,239,186207,1,2,3:2:0:0:
365,292,186334,6,0,P|376:338|390:384,1,95.9999970703126,6|10,3:2|0:0,0:0:0:0:
216,170,186588,2,0,P|229:123|241:77,1,95.9999970703126,8|8,0:0|0:0,0:0:0:0:
428,62,186843,6,0,L|486:46,1,47.9999985351563,2|0,3:0|0:0,0:0:0:0:
425,51,186970,2,0,L|483:35,1,47.9999985351563,2|0,0:3|0:0,0:0:0:0:
422,40,187097,2,0,L|480:24,1,47.9999985351563,2|0,0:3|0:0,0:0:0:0:
419,29,187224,2,0,L|477:13,1,47.9999985351563,2|0,0:3|0:0,0:0:0:0:
482,132,187351,5,6,3:2:0:0:
482,132,187478,2,0,B|417:118|417:118|395:94|395:94|320:72,1,160,2|2,0:0|0:0,0:0:0:0:
294,153,187859,2,0,L|202:173,1,80,2|0,3:2|0:0,0:0:0:0:
163,101,188113,2,0,B|132:125|132:125|123:170,1,80,10|0,0:2|0:0,0:0:0:0:
110,255,188368,5,2,3:2:0:0:
110,255,188495,2,0,B|175:269|175:269|197:293|197:293|272:315,1,160,2|2,0:0|0:0,0:0:0:0:
298,234,188876,2,0,L|390:214,1,80,2|0,3:2|0:0,0:0:0:0:
430,287,189131,1,10,0:2:0:0:
430,287,189258,1,0,3:0:0:0:
359,358,189385,5,2,3:2:0:0:
359,358,189512,2,0,P|335:293|409:201,1,160,2|2,0:0|0:0,0:0:0:0:
444,163,189893,2,0,P|417:117|368:106,1,80,2|0,3:2|0:0,0:0:0:0:
319,151,190148,2,0,B|280:144|280:144|275:147|275:147|211:133,1,80,10|0,0:2|0:0,0:0:0:0:
161,90,190402,5,2,3:2:0:0:
161,90,190529,2,0,P|141:156|220:244,1,160,2|2,0:0|0:0,0:0:0:0:
257,280,190910,2,0,P|233:327|185:340,1,80,2|0,3:2|0:0,0:0:0:0:
132,297,191165,1,10,0:2:0:0:
132,297,191292,1,0,3:0:0:0:
58,380,191419,5,2,3:2:0:0:
58,380,191546,2,0,P|40:304|11:221,1,160,2|2,0:0|0:0,0:0:0:0:
98,215,191928,2,0,P|111:165|126:124,1,80,2|0,3:2|0:0,0:0:0:0:
42,89,192182,2,0,P|61:55|100:49,1,80,10|0,0:2|0:0,0:0:0:0:
227,35,192436,5,2,3:2:0:0:
227,35,192563,2,0,P|245:111|274:194,1,160,2|2,0:0|0:0,0:0:0:0:
187,200,192945,2,0,P|174:250|159:291,1,80,2|0,3:2|0:0,0:0:0:0:
220,343,193199,1,10,0:2:0:0:
220,343,193326,1,0,3:0:0:0:
336,327,193453,5,2,3:2:0:0:
336,327,193580,2,0,P|410:325|430:253,1,160,2|2,0:0|0:0,0:0:0:0:
344,244,193962,2,0,P|355:205|372:169,1,80,2|0,3:2|0:0,0:0:0:0:
434,104,194216,1,10,0:0:0:0:
367,44,194343,1,8,0:0:0:0:
278,85,194470,6,0,P|250:57|211:47,2,80,2|2|8,3:1|0:1|0:0,0:0:0:0:
216,213,194852,2,0,P|254:201|282:173,2,80,2|2|8,1:1|3:1|0:0,0:0:0:0:
135,95,195232,2,0,P|126:133|136:172,1,80,2|0,3:1|3:2,0:0:0:0:
185,315,195487,6,0,P|139:328|98:356,2,71.9999978027344,6|2|8,3:2|0:0|0:0,0:0:0:0:
84,259,195868,2,0,P|38:246|-3:218,1,71.9999978027344,2|2,0:0|3:2,0:0:0:0:
264,375,196249,6,0,P|307:375|341:300,1,107.999996704102,10|0,0:2|0:0,0:0:0:0:
347,316,196504,6,0,P|360:270|388:229,2,71.9999978027344,2|2|8,3:2|0:0|0:0,0:0:0:0:
291,215,196885,2,0,P|278:169|250:128,1,71.9999978027344,2|2,0:0|3:2,0:0:0:0:
500,56,197266,5,10,0:2:0:0:
500,56,197394,1,0,3:0:0:0:
439,129,197521,6,0,P|393:142|352:170,2,71.9999978027344,2|2|8,3:2|0:0|0:0,0:0:0:0:
338,73,197902,2,0,P|292:60|251:32,1,71.9999978027344,2|2,0:0|3:2,0:0:0:0:
194,229,198283,6,0,P|151:229|117:154,1,107.999996704102,10|0,0:2|0:0,0:0:0:0:
119,167,198538,6,0,P|106:121|78:80,2,71.9999978027344,2|2|8,3:2|0:0|0:0,0:0:0:0:
175,66,198919,2,0,P|188:20|216:-21,1,71.9999978027344,2|2,0:0|3:2,0:0:0:0:
297,219,199300,5,10,0:2:0:0:
297,219,199427,1,0,3:0:0:0:
382,267,199555,6,0,L|482:236,2,71.9999978027344,2|2|8,3:2|0:0|0:0,0:0:0:0:
326,345,199936,2,0,L|226:314,1,71.9999978027344,2|2,0:0|3:2,0:0:0:0:
35,300,200317,6,0,B|62:321|62:321|156:288,1,107.999996704102,10|0,0:2|0:0,0:0:0:0:
156,288,200571,6,0,L|187:388,2,71.9999978027344,2|2|8,3:2|0:0|0:0,0:0:0:0:
78,232,200952,2,0,L|109:132,1,71.9999978027344,2|2,0:0|3:2,0:0:0:0:
220,28,201334,5,10,0:2:0:0:
220,28,201461,1,0,3:0:0:0:
135,76,201589,6,0,L|35:45,2,71.9999978027344,2|2|8,3:2|0:0|0:0,0:0:0:0:
191,154,201970,2,0,L|291:123,1,71.9999978027344,2|2,0:0|3:2,0:0:0:0:
482,109,202351,6,0,B|455:130|455:130|361:97,1,107.999996704102,10|0,1:2|0:0,0:0:0:0:
361,97,202605,5,2,1:0:0:0:
304,212,202732,1,2,1:0:0:0:
304,212,202796,1,0,1:0:0:0:
304,212,202860,1,0,3:0:0:0:
419,269,202987,1,2,1:0:0:0:
362,384,203114,6,0,L|328:290,1,71.9999978027344,2|8,3:1|0:0,0:0:0:0:
500,231,203368,1,2,3:1:0:0:
500,231,203495,2,0,L|517:184,1,35.9999989013672,2|0,0:3|0:0,0:0:0:0:
