osu file format v14

[General]
AudioFilename: audio.mp3
AudioLeadIn: 0
PreviewTime:57118
Countdown: 0
SampleSet: Soft
StackLeniency: 0.6
Mode: 0
LetterboxInBreaks: 0
WidescreenStoryboard: 1

[Editor]
Bookmarks:233,8368,24639,40910,57182,73453,89724,105995,122266,138538,154809,171080,187351,203495
DistanceSpacing: 1.3
BeatDivisor: 4
GridSize: 32
TimelineZoom: 4.45

[Metadata]
Title:Tsukuri Kake no Shinshou
TitleUnicode:ツクリカケノ心象
Artist:inabakumori
ArtistUnicode:稲葉曇
Creator:0ugi
Version:LeCandy's Extra
Source:
Tags:himada jiysea that_otaku lecandy sagu kyuuchie An image in the making 歌愛ユキ Kaai Yuki Vocaloid アンチサイクロン Anticyclone inaba kumori japanese rock j-rock
BeatmapID:3752605
BeatmapSetID:1248914

[Difficulty]
HPDrainRate:5
CircleSize:4
OverallDifficulty:8.8
ApproachRate:9.2
SliderMultiplier:1.6
SliderTickRate:1

[Events]
//Background and Video events
0,0,"bac34aa8-7ed5-495f-82c6-74cf0ab27c2a.png",0,0
//Break Periods
//Storyboard Layer 0 (Background)
//Storyboard Layer 1 (Fail)
//Storyboard Layer 2 (Pass)
//Storyboard Layer 3 (Foreground)
//Storyboard Layer 4 (Overlay)
//Storyboard Sound Samples

[TimingPoints]
233,254.237288135593,4,2,1,50,1,0
4046,-166.666666666667,4,2,1,69,0,0
4300,-111.111111111111,4,2,1,69,0,0
8368,-100,4,2,1,69,0,0
24639,-142.857142857143,4,2,1,63,0,0
57182,-83.3333333333333,4,2,1,76,0,0
73199,-166.666666666667,4,2,1,76,0,0
73453,-90.9090909090909,4,2,1,69,0,0
73961,-100,4,2,1,69,0,0
89724,-142.857142857143,4,2,1,63,0,0
113877,-250,4,2,1,63,0,0
114131,-142.857142857143,4,2,1,63,0,0
122266,-142.857142857143,4,2,1,63,0,0
138538,-166.666666666667,4,2,1,63,0,0
146673,-142.857142857143,4,2,1,63,0,0
154809,-200,4,2,1,63,0,0
162944,-166.666666666667,4,2,1,63,0,0
170063,-66.6666666666667,4,2,1,63,0,0
170571,-66.6666666666667,4,2,1,42,0,0
171080,-83.3333333333333,4,2,1,76,0,0
187351,-100,4,2,1,69,0,0
195487,-100,4,2,1,63,0,0

[Colours]
Combo1 : 180,255,104
Combo2 : 94,174,255
Combo3 : 255,140,85
Combo4 : 255,134,194

[HitObjects]
302,77,4046,6,0,B|286:43|286:43|305:14,1,71.9999978027344,4|0,3:0|0:0,0:0:0:0:
323,9,4300,5,8,3:2:0:0:
510,83,4427,2,0,P|453:74|399:67,1,107.999996704102,8|0,3:2|0:0,0:0:0:0:
381,65,4682,5,8,3:2:0:0:
193,20,4809,2,0,P|121:31|50:41,1,143.999995605469,8|0,3:2|0:0,0:0:0:0:
218,151,5317,5,8,3:2:0:0:
129,118,5444,2,0,P|134:156|140:203,1,71.9999978027344,8|0,3:2|0:0,0:0:0:0:
297,301,5699,5,8,3:2:0:0:
391,240,5826,2,0,P|381:309|371:384,1,143.999995605469,8|0,3:2|0:0,0:0:0:0:
467,328,6334,5,8,3:2:0:0:
305,215,6461,1,8,3:2:0:0:
300,206,6716,5,8,3:2:0:0:
177,324,6843,1,8,3:2:0:0:
409,223,7097,1,8,3:2:0:0:
257,33,7351,5,2,0:3:0:0:
45,68,8368,5,6,3:2:0:0:
45,68,8495,1,2,0:0:0:0:
213,112,8749,5,2,0:0:0:0:
45,68,8877,2,0,P|52:117|60:196,1,120,2|0,3:2|0:0,0:0:0:0:
137,156,9131,2,0,P|134:119|127:77,1,80,10|0,0:2|0:0,0:0:0:0:
310,9,9385,5,2,3:2:0:0:
310,9,9512,1,2,0:2:0:0:
462,99,9766,5,2,0:0:0:0:
310,9,9894,2,0,P|303:58|295:137,1,120,2|0,3:2|0:0,0:0:0:0:
377,118,10148,2,0,P|380:78|386:38,1,80,10|0,0:2|3:0,0:0:0:0:
439,195,10402,5,2,3:2:0:0:
362,231,10529,2,0,B|317:268|317:268|349:323,1,120,2|0,0:0|0:0,0:0:0:0:
366,336,10783,1,2,0:0:0:0:
178,350,10910,2,0,P|216:340|255:330,1,80,2|0,3:2|0:0,0:0:0:0:
434,284,11165,2,0,P|472:273|511:264,1,80,10|0,0:2|0:0,0:0:0:0:
230,243,11419,5,2,3:2:0:0:
230,243,11546,2,0,P|151:237|98:180,1,160,2|2,0:0|0:0,0:0:0:0:
0,305,11927,2,0,P|0:262|36:229,1,80,2|0,3:2|0:0,0:0:0:0:
98,180,12182,1,10,0:2:0:0:
98,180,12309,1,0,3:0:0:0:
58,13,12436,5,2,3:2:0:0:
58,13,12563,1,2,0:0:0:0:
207,117,12817,5,2,0:0:0:0:
17,102,12944,2,0,P|76:94|134:80,1,120,2|0,3:2|0:0,0:0:0:0:
207,117,13199,2,0,P|245:107|285:102,1,80,10|0,0:2|0:0,0:0:0:0:
453,2,13453,5,2,3:2:0:0:
453,2,13580,1,2,0:0:0:0:
353,144,13834,5,2,0:0:0:0:
512,94,13961,2,0,P|453:86|395:72,1,120,2|0,3:2|0:0,0:0:0:0:
337,15,14216,2,0,P|299:5|259:0,1,80,10|0,0:2|3:0,0:0:0:0:
182,255,14470,5,2,3:2:0:0:
257,215,14597,2,0,B|270:267|270:267|227:328|273:391,1,160,2|2,0:0|0:0,0:0:0:0:
176,254,14978,2,0,P|136:247|97:237,1,80,2|0,3:2|0:0,0:0:0:0:
335,330,15232,2,0,P|373:320|413:313,1,80,10|10,0:2|0:2,0:0:0:0:
466,239,15487,5,10,0:0:0:0:
394,189,15614,1,2,3:1:0:0:
159,104,15868,5,10,0:0:0:0:
80,154,15995,1,2,3:1:0:0:
249,4,16249,6,0,B|259:42|259:42|240:68|240:68|250:115,1,120,2|0,3:1|0:0,0:0:0:0:
315,217,16504,6,0,P|237:199|137:185,1,160,6|8,3:2|0:2,0:0:0:0:
78,52,16885,1,2,0:0:0:0:
18,101,17012,2,0,B|-10:73|-10:73|0:33,1,80,2|0,3:2|0:0,0:0:0:0:
158,68,17266,2,0,B|167:28|167:28|139:0,1,80,10|0,0:2|0:0,0:0:0:0:
100,132,17521,5,2,3:2:0:0:
100,132,17648,1,2,0:0:0:0:
149,272,17902,5,2,0:0:0:0:
0,197,18029,2,0,P|41:207|90:215,1,80,2|0,3:2|0:0,0:0:0:0:
172,185,18283,1,10,0:2:0:0:
172,185,18410,1,0,3:0:0:0:
346,138,18538,5,2,3:2:0:0:
346,138,18665,1,2,0:0:0:0:
370,58,18919,5,2,0:0:0:0:
504,106,19046,2,0,P|464:112|425:122,1,80,2|0,3:2|0:0,0:0:0:0:
266,11,19300,2,0,B|256:49|256:49|282:80,1,80,10|0,0:2|0:0,0:0:0:0:
491,200,19555,5,2,3:2:0:0:
413,219,19682,2,0,P|354:229|295:243,1,120,2|0,0:0|0:0,0:0:0:0:
274,252,19936,1,2,0:0:0:0:
166,153,20063,2,0,P|122:145|87:136,1,80,2|0,3:2|0:0,0:0:0:0:
25,184,20317,1,10,0:2:0:0:
25,184,20444,1,0,3:0:0:0:
176,50,20571,5,6,3:2:0:0:
176,50,20699,1,2,0:0:0:0:
330,126,20953,5,2,0:0:0:0:
256,37,21080,2,0,B|264:71|264:71|224:115|261:169,1,120,2|0,3:2|0:0,0:0:0:0:
210,221,21334,2,0,P|167:233|118:251,1,80,10|0,0:2|0:0,0:0:0:0:
303,384,21588,5,2,3:2:0:0:
303,384,21716,1,2,0:0:0:0:
202,309,21970,5,2,0:0:0:0:
376,347,22097,2,0,P|433:364|489:384,1,120,2|0,3:2|0:0,0:0:0:0:
512,367,22351,2,0,B|528:329|528:329|498:304,1,80,10|0,0:2|3:0,0:0:0:0:
356,190,22605,5,2,3:2:0:0:
419,140,22732,2,0,P|434:75|445:7,1,120,2|0,0:0|0:0,0:0:0:0:
446,3,22987,1,2,0:0:0:0:
343,112,23114,2,0,B|313:87|313:87|329:49,1,80,2|0,3:2|0:0,0:0:0:0:
438,220,23368,5,10,0:2:0:0:
438,220,23495,1,10,0:2:0:0:
501,167,23622,5,10,0:2:0:0:
410,296,23749,1,2,3:1:0:0:
188,174,24004,5,10,0:0:0:0:
218,262,24131,1,2,3:1:0:0:
134,287,24258,1,0,0:0:0:0:
107,203,24385,1,2,3:1:0:0:
107,203,24512,1,0,3:0:0:0:
0,292,24639,6,0,P|26:301|55:313,1,55.9999982910157,4|0,3:1|0:0,0:0:0:0:
6,301,24894,2,0,P|32:310|61:322,1,55.9999982910157,0|0,3:0|0:0,0:0:0:0:
172,356,25148,6,0,P|146:365|117:377,1,55.9999982910157,0|0,3:0|0:0,0:0:0:0:
166,365,25403,2,0,P|140:374|111:386,1,55.9999982910157,0|0,3:0|0:0,0:0:0:0:
245,292,25656,6,0,P|250:265|253:237,1,55.9999982910157,2|2,3:2|0:2,0:0:0:0:
252,300,25910,2,0,P|258:268|262:234,1,55.9999982910157,0|2,3:0|0:2,0:0:0:0:
340,356,26164,6,0,P|366:365|395:377,1,55.9999982910157,2|0,3:2|0:0,0:0:0:0:
346,365,26419,2,0,P|372:374|401:386,1,55.9999982910157,2|8,3:2|0:0,0:0:0:0:
512,292,26673,6,0,P|486:301|457:313,1,55.9999982910157,0|0,3:0|0:0,0:0:0:0:
506,301,26928,2,0,P|480:310|451:322,1,55.9999982910157,0|0,3:0|0:0,0:0:0:0:
379,271,27182,5,8,3:2:0:0:
406,162,27372,5,8,0:0:0:0:
433,53,27563,5,8,0:0:0:0:
346,87,27690,5,2,3:2:0:0:
346,87,27817,2,0,P|318:94|273:107,1,55.9999982910157,2|0,0:2|3:0,0:0:0:0:
169,30,28071,1,2,0:2:0:0:
169,30,28198,2,0,P|196:37|242:50,1,55.9999982910157,2|8,3:2|0:0,0:0:0:0:
297,0,28453,1,2,3:2:0:0:
297,0,28580,1,0,3:0:0:0:
213,132,28707,6,0,P|220:157|227:194,1,55.9999982910157,0|0,3:0|0:0,0:0:0:0:
205,138,28961,2,0,P|212:163|219:200,1,55.9999982910157,0|0,3:0|0:0,0:0:0:0:
297,239,29216,6,0,P|290:264|283:301,1,55.9999982910157,0|0,3:0|0:0,0:0:0:0:
305,245,29470,2,0,P|298:270|291:307,1,55.9999982910157,0|0,3:0|0:0,0:0:0:0:
345,370,29724,5,2,3:2:0:0:
345,370,29851,2,0,P|371:377|399:383,1,55.9999982910157,2|0,0:2|3:0,0:0:0:0:
212,313,30105,1,2,0:2:0:0:
212,313,30232,2,0,P|185:320|157:327,1,55.9999982910157,2|0,3:2|0:0,0:0:0:0:
72,380,30487,2,0,B|83:362|83:362|56:310|105:262,1,111.999996582031,2|0,3:2|3:0,0:0:0:0:
0,113,30868,6,0,B|44:147|44:147|98:134,1,111.999996582031,8|0,0:0|0:0,0:0:0:0:
59,61,31249,2,0,P|64:33|71:6,1,55.9999982910157,0|0,3:0|0:0,0:0:0:0:
43,146,31504,2,0,P|35:173|30:200,1,55.9999982910157,0|0,3:0|1:0,0:0:0:0:
34,216,31694,1,0,1:0:0:0:
40,231,31758,6,0,P|84:204|152:215,1,111.999996582031,2|0,3:2|3:0,0:0:0:0:
305,337,32139,1,10,0:2:0:0:
305,337,32266,2,0,P|273:328|239:321,1,55.9999982910157,2|4,3:2|0:3,0:0:0:0:
365,230,32521,1,2,3:2:0:0:
358,220,32648,1,0,3:0:0:0:
298,73,32775,6,0,P|292:46|288:18,1,55.9999982910157,4|0,3:1|0:0,0:0:0:0:
305,69,33029,2,0,P|299:41|295:13,1,55.9999982910157,0|0,3:0|0:0,0:0:0:0:
201,114,33283,6,0,P|207:87|211:59,1,55.9999982910157,0|0,3:0|0:0,0:0:0:0:
194,110,33537,2,0,P|200:82|204:54,1,55.9999982910157,0|0,3:0|0:0,0:0:0:0:
101,170,33792,6,0,P|73:175|46:182,1,55.9999982910157,2|2,3:2|0:2,0:0:0:0:
95,180,34046,2,0,P|67:185|40:192,1,55.9999982910157,0|2,3:0|0:2,0:0:0:0:
57,99,34300,6,0,P|85:94|112:87,1,55.9999982910157,2|0,3:2|0:0,0:0:0:0:
63,89,34554,2,0,P|91:84|118:77,1,55.9999982910157,2|8,3:2|0:0,0:0:0:0:
70,266,34809,6,0,P|98:271|125:278,1,55.9999982910157,0|0,3:0|1:0,0:0:0:0:
76,276,35063,2,0,P|104:281|131:288,1,55.9999982910157,0|0,3:0|0:0,0:0:0:0:
207,231,35317,5,8,3:2:0:0:
253,127,35508,5,8,0:0:0:0:
299,24,35699,5,8,0:0:0:0:
379,66,35826,5,2,3:2:0:0:
379,66,35953,2,0,P|406:59|433:54,1,55.9999982910157,2|0,0:2|3:2,0:0:0:0:
382,153,36207,1,2,0:2:0:0:
382,153,36334,2,0,P|354:158|327:165,1,55.9999982910157,2|8,3:2|0:0,0:0:0:0:
433,228,36588,1,2,3:2:0:0:
433,228,36716,1,0,3:0:0:0:
304,327,36843,6,0,P|298:354|293:383,1,55.9999982910157,0|0,3:0|0:0,0:0:0:0:
312,324,37097,2,0,P|306:351|301:380,1,55.9999982910157,0|0,3:0|0:0,0:0:0:0:
202,277,37351,6,0,P|208:304|213:333,1,55.9999982910157,0|0,3:0|0:0,0:0:0:0:
194,274,37605,2,0,P|200:301|205:330,1,55.9999982910157,8|0,0:0|0:0,0:0:0:0:
306,237,37860,5,2,3:2:0:0:
306,237,37987,2,0,P|339:244|370:255,1,55.9999982910157,2|0,0:2|3:0,0:0:0:0:
209,172,38241,1,2,3:2:0:0:
209,172,38368,2,0,P|182:180|154:185,1,55.9999982910157,2|0,3:2|3:2,0:0:0:0:
270,98,38622,2,0,P|272:70|278:42,1,55.9999982910157,2|0,3:2|0:0,0:0:0:0:
160,77,38877,5,0,3:0:0:0:
91,113,39004,1,8,0:0:0:0:
37,56,39131,2,0,P|34:28|28:0,1,55.9999982910157,0|0,3:0|0:0,0:0:0:0:
8,182,39385,2,0,P|2:154|0:126,1,55.9999982910157,0|0,3:0|0:0,0:0:0:0:
64,245,39639,1,0,3:0:0:0:
0,335,39766,6,0,P|2:321|4:307,2,27.9999991455078,8|8|2,0:0|0:0|3:2,0:0:0:0:
81,384,40021,2,0,P|83:370|85:356,2,27.9999991455078,10|8|8,0:0|0:0|0:3,0:0:0:0:
160,307,40275,5,2,3:2:0:0:
237,355,40402,1,10,0:0:0:0:
311,317,40529,1,8,0:0:0:0:
311,317,40656,2,0,P|305:289|301:261,1,55.9999982910157,2|0,3:2|0:0,0:0:0:0:
234,68,40910,6,0,B|269:23|269:23|320:48,1,111.999996582031,4|8,3:2|0:0,0:0:0:0:
237,160,41292,1,2,3:2:0:0:
237,160,41419,2,0,P|209:152|182:147,1,55.9999982910157,2|0,3:2|0:0,0:0:0:0:
137,86,41673,1,8,0:0:0:0:
137,86,41800,1,0,0:0:0:0:
37,1,41927,6,0,P|63:8|91:13,1,55.9999982910157,2|0,3:2|0:0,0:0:0:0:
137,86,42182,1,8,0:0:0:0:
137,86,42309,1,2,3:2:0:0:
54,147,42436,2,0,P|65:198|73:276,1,111.999996582031,0|10,3:0|0:0,0:0:0:0:
72,257,42817,1,0,0:0:0:0:
141,294,42944,5,2,3:2:0:0:
209,269,43071,1,2,0:0:0:0:
303,355,43326,5,2,3:2:0:0:
371,378,43453,1,2,3:2:0:0:
438,316,43707,5,10,0:0:0:0:
438,316,43834,1,0,0:0:0:0:
341,244,43961,5,2,3:1:0:0:
341,244,44088,2,0,P|346:271|351:298,1,55.9999982910157,2|8,0:1|0:0,0:0:0:0:
495,204,44343,1,2,0:1:0:0:
495,204,44470,2,0,P|489:176|484:149,1,55.9999982910157,2|0,3:1|0:0,0:0:0:0:
419,237,44724,2,0,P|411:195|402:154,1,83.9999974365235,2|0,1:1|0:0,0:0:0:0:
439,88,44978,5,0,3:0:0:0:
439,88,45105,1,0,0:0:0:0:
511,0,45232,2,0,P|484:6|457:11,1,55.9999982910157,10|0,0:0|3:0,0:0:0:0:
356,83,45487,2,0,B|315:74|315:74|322:30,1,83.9999974365235,2|0,3:2|0:0,0:0:0:0:
322,32,45741,2,0,P|294:38|267:43,1,55.9999982910157,10|2,0:0|0:0,0:0:0:0:
184,3,45995,5,2,3:2:0:0:
184,3,46122,1,2,0:0:0:0:
3,80,46377,5,2,3:2:0:0:
3,80,46504,1,2,3:2:0:0:
131,193,46758,5,10,0:0:0:0:
131,193,46885,1,0,0:0:0:0:
86,70,47012,6,0,P|78:97|73:124,1,55.9999982910157,2|2,3:2|0:0,0:0:0:0:
161,109,47266,2,0,P|166:81|173:54,1,55.9999982910157,10|0,0:0|3:0,0:0:0:0:
131,193,47521,2,0,P|76:205|22:220,1,111.999996582031,2|10,3:2|0:0,0:0:0:0:
251,323,48029,5,2,3:2:0:0:
251,323,48156,1,0,3:0:0:0:
319,279,48283,2,0,P|345:286|373:292,1,55.9999982910157,10|0,0:0|3:0,0:0:0:0:
251,323,48538,5,2,3:2:0:0:
251,323,48665,1,2,3:2:0:0:
180,368,48792,2,0,P|153:360|125:354,1,55.9999982910157,8|2,0:0|3:2,0:0:0:0:
247,232,49046,6,0,B|251:211|251:211|212:172|242:118,1,111.999996582031,4|8,3:1|0:0,0:0:0:0:
193,59,49427,1,2,3:2:0:0:
193,59,49555,2,0,P|167:63|129:70,1,55.9999982910157,2|0,3:2|0:0,0:0:0:0:
318,160,49809,1,10,0:2:0:0:
318,160,49937,2,0,P|344:164|382:171,1,55.9999982910157,2|2,0:0|3:0,0:0:0:0:
453,140,50190,5,2,0:3:0:0:
393,248,50444,5,2,3:1:0:0:
393,248,50571,1,2,3:1:0:0:
268,79,50826,2,0,P|272:51|277:23,1,55.9999982910157,10|0,0:0|0:0,0:0:0:0:
356,29,51080,5,2,3:2:0:0:
344,100,51207,1,2,0:0:0:0:
201,0,51461,5,2,3:2:0:0:
189,71,51589,1,2,3:2:0:0:
262,169,51843,5,10,0:0:0:0:
173,208,52097,5,2,3:1:0:0:
173,208,52224,2,0,P|168:180|163:149,1,55.9999982910157,2|8,0:1|0:0,0:0:0:0:
345,246,52478,1,2,0:1:0:0:
345,246,52605,2,0,P|350:218|355:187,1,55.9999982910157,2|0,3:1|0:0,0:0:0:0:
242,279,52860,1,2,1:1:0:0:
242,279,52987,1,0,0:0:0:0:
295,373,53114,6,0,B|322:376|322:376|330:350,1,55.9999982910157,0|0,3:0|0:0,0:0:0:0:
152,309,53368,1,10,0:0:0:0:
152,309,53622,2,0,B|111:315|111:315|98:275,1,83.9999974365235,2|0,3:2|0:0,0:0:0:0:
97,274,53877,2,0,P|68:268|32:263,1,55.9999982910157,10|2,0:0|0:0,0:0:0:0:
181,103,54131,5,2,3:2:0:0:
181,103,54258,1,2,0:0:0:0:
46,179,54512,5,2,3:2:0:0:
46,179,54639,1,2,3:2:0:0:
2,42,54894,5,10,0:0:0:0:
2,42,55021,1,0,3:0:0:0:
96,109,55148,6,0,P|90:81|84:54,1,55.9999982910157,2|0,3:0|0:0,0:0:0:0:
181,103,55402,2,0,P|186:130|192:157,1,55.9999982910157,8|2,0:0|0:3,0:0:0:0:
378,44,55656,2,0,P|372:71|367:98,1,55.9999982910157,0|2,3:0|0:2,0:0:0:0:
453,70,55910,2,0,P|459:44|467:14,1,55.9999982910157,10|2,0:0|3:0,0:0:0:0:
419,178,56165,5,14,0:0:0:0:
419,178,56292,1,10,0:0:0:0:
349,265,56419,5,10,3:2:0:0:
247,250,56546,1,10,0:0:0:0:
174,340,56673,1,2,3:2:0:0:
254,28,57182,6,0,P|242:99|239:170,1,143.999995605469,6|0,3:2|0:0,0:0:0:0:
165,83,57436,2,0,B|128:47|128:47|154:-4,1,95.9999970703126,14|0,0:2|0:0,0:0:0:0:
319,121,57690,2,0,B|355:156|355:156|329:208,1,95.9999970703126,2|0,3:2|0:0,0:0:0:0:
168,298,57944,5,10,0:0:0:0:
168,298,58071,1,2,0:0:0:0:
114,228,58198,2,0,P|66:225|18:217,1,95.9999970703126,2|0,3:2|0:0,0:0:0:0:
338,282,58453,5,10,0:0:0:0:
338,282,58580,1,2,0:0:0:0:
383,353,58707,2,0,P|430:355|478:363,1,95.9999970703126,2|0,3:2|0:0,0:0:0:0:
512,278,58961,2,0,P|464:275|416:267,1,95.9999970703126,10|2,0:0|0:0,0:0:0:0:
282,333,59216,5,2,3:2:0:0:
282,333,59343,1,2,0:2:0:0:
267,237,59470,5,10,0:2:0:0:
267,237,59597,1,2,0:2:0:0:
253,148,59724,5,2,3:2:0:0:
253,148,59851,1,2,0:2:0:0:
187,218,59978,5,10,0:2:0:0:
347,264,60105,1,2,0:2:0:0:
180,211,60232,2,0,P|132:217|85:225,1,95.9999970703126,2|0,3:2|0:0,0:0:0:0:
339,172,60487,5,10,0:0:0:0:
207,299,60614,1,2,0:0:0:0:
345,165,60741,2,0,P|392:171|439:179,1,95.9999970703126,2|0,3:2|0:0,0:0:0:0:
268,238,60995,1,10,0:0:0:0:
268,238,61122,1,0,0:0:0:0:
314,41,61249,6,0,B|288:34|288:34|246:100|175:73,1,143.999995605469,6|0,3:2|0:0,0:0:0:0:
213,0,61504,2,0,P|233:64|250:164,1,143.999995605469,10|0,3:2|0:0,0:0:0:0:
197,212,61758,2,0,B|231:204|251:167|251:167|301:186|301:186|308:208,1,143.999995605469,2|0,3:2|0:0,0:0:0:0:
371,266,62012,5,10,0:0:0:0:
371,266,62139,1,2,0:0:0:0:
262,377,62266,2,0,P|305:359|356:344,1,95.9999970703126,2|0,3:2|0:0,0:0:0:0:
399,117,62521,5,10,0:0:0:0:
399,117,62648,1,2,0:0:0:0:
512,236,62775,2,0,P|469:218|418:203,1,95.9999970703126,2|0,3:2|0:0,0:0:0:0:
313,83,63029,2,0,B|300:36|300:36|339:8,1,95.9999970703126,10|2,0:0|0:0,0:0:0:0:
330,170,63283,5,2,3:2:0:0:
330,170,63410,1,2,0:0:0:0:
125,239,63538,5,10,0:0:0:0:
219,125,63665,1,2,0:0:0:0:
107,54,63792,2,0,P|121:108|128:154,1,95.9999970703126,2|0,3:2|0:0,0:0:0:0:
256,239,64046,1,10,0:0:0:0:
182,311,64173,1,10,0:0:0:0:
182,311,64237,1,0,0:0:0:0:
182,311,64300,6,0,B|161:354|161:354|198:384,1,95.9999970703126,2|10,3:2|0:0,0:0:0:0:
313,384,64491,1,0,0:0:0:0:
313,384,64555,2,0,B|351:354|351:354|330:311,1,95.9999970703126,10|2,0:0|3:2,0:0:0:0:
188,195,64809,5,10,0:0:0:0:
307,122,64936,1,10,0:0:0:0:
216,53,65063,1,2,3:2:0:0:
281,0,65190,1,0,3:2:0:0:
22,106,65571,6,0,B|59:110|88:80|88:80|168:124,1,143.999995605469,14|0,3:2|0:0,0:0:0:0:
93,177,65826,2,0,P|46:188|0:200,1,95.9999970703126,14|0,3:2|0:0,0:0:0:0:
137,257,66080,5,10,0:0:0:0:
137,257,66207,1,2,0:2:0:0:
72,325,66334,2,0,P|118:336|165:348,1,95.9999970703126,2|0,3:2|0:0,0:0:0:0:
342,227,66588,5,10,0:0:0:0:
342,227,66715,1,2,0:0:0:0:
431,292,66842,2,0,P|384:303|337:315,1,95.9999970703126,2|0,3:2|0:0,0:0:0:0:
244,384,67097,2,0,P|251:334|258:279,1,95.9999970703126,10|2,0:2|0:2,0:0:0:0:
184,172,67351,5,2,3:2:0:0:
184,172,67478,1,2,0:2:0:0:
275,145,67605,5,10,0:2:0:0:
275,145,67732,1,2,0:2:0:0:
365,121,67860,5,2,3:2:0:0:
365,121,67987,1,2,0:2:0:0:
218,91,68114,5,10,0:2:0:0:
340,193,68241,1,2,0:2:0:0:
210,96,68368,2,0,B|173:67|173:67|196:24,1,95.9999970703126,2|0,3:2|0:0,0:0:0:0:
287,66,68622,5,10,0:0:0:0:
240,223,68749,1,2,0:0:0:0:
295,71,68876,2,0,B|319:29|319:29|282:0,1,95.9999970703126,2|0,3:2|0:0,0:0:0:0:
274,152,69131,1,10,0:0:0:0:
274,152,69258,1,0,0:0:0:0:
126,332,69385,6,0,P|197:343|266:361,1,143.999995605469,6|0,3:2|0:0,0:0:0:0:
351,382,69639,2,0,B|367:323|367:323|324:279|324:279|277:300,1,143.999995605469,10|0,3:2|0:0,0:0:0:0:
232,235,69894,2,0,B|186:214|186:214|211:157|211:157|243:150,1,143.999995605469,2|0,3:2|0:0,0:0:0:0:
252,57,70148,5,10,0:0:0:0:
252,57,70275,1,2,0:0:0:0:
153,84,70402,2,0,P|101:65|43:49,1,95.9999970703126,2|0,3:2|0:0,0:0:0:0:
278,160,70656,5,10,0:0:0:0:
278,160,70783,1,2,0:0:0:0:
351,204,70910,2,0,P|403:185|461:169,1,95.9999970703126,2|0,3:2|0:0,0:0:0:0:
512,86,71165,2,0,B|455:70|455:70|493:105,1,95.9999970703126,10|2,0:0|0:0,0:0:0:0:
421,273,71419,5,2,3:2:0:0:
421,273,71546,1,10,0:0:0:0:
443,191,71673,5,2,3:2:0:0:
324,302,71800,1,2,0:0:0:0:
485,368,71927,2,0,P|438:358|391:355,1,95.9999970703126,2|8,3:2|0:0,0:0:0:0:
29,316,72182,2,0,P|76:318|123:328,1,95.9999970703126,2|2,3:2|0:0,0:0:0:0:
296,384,72436,5,10,0:0:0:0:
233,326,72563,1,10,0:0:0:0:
220,320,72627,1,8,0:0:0:0:
212,331,72690,1,10,0:0:0:0:
273,246,72817,1,10,0:0:0:0:
159,131,72944,2,0,P|115:151|69:165,1,95.9999970703126,10|10,0:0|0:0,0:0:0:0:
257,17,73199,6,0,P|256:46|256:71,1,47.9999985351563,2|0,3:2|3:0,0:0:0:0:
501,94,73453,5,6,3:2:0:0:
501,94,73580,1,2,0:0:0:0:
347,306,73834,5,2,0:0:0:0:
438,159,73961,2,0,P|382:173|360:227,1,120,2|0,3:2|0:0,0:0:0:0:
428,280,74216,2,0,P|467:286|506:296,1,80,10|0,0:2|0:0,0:0:0:0:
280,255,74470,5,2,3:2:0:0:
280,255,74597,1,2,0:0:0:0:
91,384,74851,5,2,0:0:0:0:
273,353,74978,2,0,P|214:338|155:329,1,120,2|0,3:2|0:0,0:0:0:0:
78,295,75233,2,0,P|75:255|69:215,1,80,10|0,0:2|3:0,0:0:0:0:
33,25,75487,5,2,3:2:0:0:
0,99,75614,2,0,B|51:128|51:128|94:84,1,120,2|0,0:0|0:0,0:0:0:0:
105,69,75868,1,2,0:0:0:0:
262,157,75995,2,0,P|267:117|274:78,1,80,2|0,3:2|0:0,0:0:0:0:
202,0,76249,2,0,P|196:39|189:78,1,80,10|0,0:2|0:0,0:0:0:0:
360,48,76504,5,2,3:2:0:0:
360,48,76631,2,0,B|436:23|436:23|472:60|532:42,1,160,2|2,0:0|0:0,0:0:0:0:
446,122,77012,2,0,P|424:154|427:193,1,80,2|0,3:2|0:0,0:0:0:0:
496,246,77266,2,0,P|480:282|462:339,1,80,10|0,0:2|3:0,0:0:0:0:
302,379,77521,5,2,3:2:0:0:
302,379,77648,1,2,0:0:0:0:
424,286,77902,5,2,0:0:0:0:
302,379,78029,2,0,B|318:322|318:322|270:283,1,120,2|0,3:2|0:0,0:0:0:0:
222,350,78284,2,0,P|182:357|145:371,1,80,10|0,0:2|0:0,0:0:0:0:
41,180,78538,5,2,3:2:0:0:
41,180,78665,1,2,0:0:0:0:
135,32,78919,5,2,0:0:0:0:
0,83,79046,2,0,P|63:96|122:117,1,120,2|0,3:2|0:0,0:0:0:0:
181,165,79300,2,0,B|206:134|206:134|192:96,1,80,10|0,0:2|3:0,0:0:0:0:
477,79,79555,5,2,3:2:0:0:
432,150,79682,2,0,B|393:155|367:125|367:125|267:163,1,160,2|2,0:0|0:0,0:0:0:0:
276,76,80063,2,0,P|263:40|250:-11,1,80,2|0,3:2|0:0,0:0:0:0:
354,217,80317,2,0,P|340:254|330:293,1,80,10|8,0:0|0:0,0:0:0:0:
152,381,80572,5,10,0:0:0:0:
241,341,80699,1,2,3:1:0:0:
239,327,80762,1,0,3:0:0:0:
228,333,80826,1,0,3:0:0:0:
166,267,80953,5,10,0:0:0:0:
320,372,81080,1,2,3:1:0:0:
171,259,81207,1,0,3:0:0:0:
41,319,81334,1,2,1:0:0:0:
41,319,81970,5,14,0:0:0:0:
138,145,82097,2,0,P|130:99|125:55,1,80,2|0,3:2|0:0,0:0:0:0:
51,95,82351,2,0,P|59:141|64:185,1,80,10|0,0:0|0:0,0:0:0:0:
237,243,82606,5,2,3:2:0:0:
237,243,82733,1,2,0:0:0:0:
419,171,82987,5,2,0:0:0:0:
483,229,83114,2,0,P|475:275|470:319,1,80,2|0,3:2|0:0,0:0:0:0:
339,206,83368,1,10,0:2:0:0:
339,206,83495,1,0,3:0:0:0:
134,288,83623,5,2,3:2:0:0:
134,288,83750,1,2,0:0:0:0:
79,78,84004,5,2,0:0:0:0:
157,92,84131,2,0,P|157:52|137:19,1,80,2|0,3:2|0:0,0:0:0:0:
20,131,84385,2,0,P|0:97|0:58,1,80,10|0,0:2|0:0,0:0:0:0:
250,90,84640,5,2,3:2:0:0:
250,90,84767,2,0,P|309:96|367:112,1,120,2|0,0:0|0:0,0:0:0:0:
378,120,85021,1,2,0:0:0:0:
480,16,85148,2,0,P|439:11|400:0,1,80,2|0,3:2|0:0,0:0:0:0:
473,141,85402,1,10,0:2:0:0:
473,141,85529,1,0,3:0:0:0:
344,287,85656,5,6,3:2:0:0:
344,287,85784,1,2,0:0:0:0:
482,378,86038,5,2,0:0:0:0:
394,222,86165,2,0,B|437:263|437:263|419:320,1,120,2|0,3:2|0:0,0:0:0:0:
359,369,86419,2,0,P|319:372|281:384,1,80,10|0,0:2|0:0,0:0:0:0:
150,227,86673,5,2,3:2:0:0:
150,227,86801,1,2,0:0:0:0:
2,313,87055,5,2,0:0:0:0:
67,381,87182,2,0,B|71:354|92:336|92:336|78:265,1,120,2|0,3:2|0:0,0:0:0:0:
173,312,87436,2,0,P|210:299|250:296,1,80,10|0,0:2|3:0,0:0:0:0:
421,88,87690,5,2,3:2:0:0:
491,140,87817,2,0,P|481:196|427:219,1,120,2|0,0:0|0:0,0:0:0:0:
417,214,88072,1,2,0:0:0:0:
335,295,88199,2,0,P|331:257|321:216,1,80,2|0,3:2|0:0,0:0:0:0:
247,105,88453,5,10,0:0:0:0:
247,105,88580,1,8,0:0:0:0:
147,61,88707,5,8,0:0:0:0:
364,145,88834,1,2,3:1:0:0:
319,71,89088,5,8,0:0:0:0:
168,140,89216,1,2,3:1:0:0:
327,78,89343,1,0,0:0:0:0:
161,149,89470,2,8,P|122:140|82:135,1,80,2|0,3:1|3:0,0:0:0:0:
0,63,89724,6,0,P|3:35|9:4,1,55.9999982910157,4|0,3:2|0:0,0:0:0:0:
7,54,89979,2,0,P|9:27|15:0,1,55.9999982910157,8|0,3:2|0:0,0:0:0:0:
89,126,90232,6,0,P|91:99|97:72,1,55.9999982910157,0|0,3:0|0:0,0:0:0:0:
82,135,90487,2,0,P|85:107|91:76,1,55.9999982910157,8|0,3:2|0:0,0:0:0:0:
249,54,90741,6,0,P|241:27|235:0,1,55.9999982910157,0|0,3:0|0:0,0:0:0:0:
242,62,90995,2,0,P|232:30|225:-2,1,55.9999982910157,8|0,3:2|0:0,0:0:0:0:
364,138,91249,6,0,P|354:106|347:73,1,55.9999982910157,0|0,3:0|0:0,0:0:0:0:
370,129,91504,2,0,P|362:102|356:75,1,55.9999982910157,8|0,3:2|0:0,0:0:0:0:
455,205,91758,6,0,P|461:178|469:151,1,55.9999982910157,0|0,3:0|0:0,0:0:0:0:
462,216,92012,2,0,P|467:188|474:161,1,55.9999982910157,8|0,3:2|0:0,0:0:0:0:
266,281,92266,6,0,P|260:253|253:226,1,55.9999982910157,0|0,3:0|0:0,0:0:0:0:
272,270,92520,2,0,P|265:242|257:215,1,55.9999982910157,8|0,3:2|0:0,0:0:0:0:
407,353,92775,5,0,3:0:0:0:
407,353,93029,2,0,B|426:360|426:360|464:328|511:342,2,111.999996582031,8|0|8,3:2|3:0|3:2,0:0:0:0:
291,360,93792,6,0,P|249:353|208:343,1,83.9999974365235,0|0,3:0|0:0,0:0:0:0:
144,384,94046,2,0,B|125:365|125:365|128:336,1,55.9999982910157,8|0,3:2|0:0,0:0:0:0:
212,160,94300,6,0,P|253:153|294:143,1,83.9999974365235,0|0,3:0|0:0,0:0:0:0:
356,193,94554,2,0,B|375:174|375:174|371:145,1,55.9999982910157,8|0,3:2|0:0,0:0:0:0:
255,10,94809,5,0,3:0:0:0:
255,10,95063,2,0,B|237:20|237:20|194:-10|146:12,2,111.999996582031,8|0|8,3:2|3:0|3:2,0:0:0:0:
58,152,95826,6,0,B|21:111|21:111|47:59,1,111.999996582031,0|8,3:0|3:2,0:0:0:0:
182,85,96334,2,0,P|154:90|127:95,1,55.9999982910157,0|0,3:0|0:0,0:0:0:0:
0,224,96588,1,8,3:2:0:0:
0,224,96843,2,0,B|36:264|36:264|10:316,1,111.999996582031,0|8,3:0|3:2,0:0:0:0:
74,384,97351,2,0,P|128:370|183:362,1,111.999996582031,0|8,3:0|3:2,0:0:0:0:
502,307,97860,5,4,3:2:0:0:
440,250,98114,2,0,P|385:263|330:271,1,111.999996582031,8|0,3:2|3:0,0:0:0:0:
257,324,98495,1,0,0:0:0:0:
257,324,98622,2,0,P|252:296|246:269,1,55.9999982910157,8|0,3:2|0:0,0:0:0:0:
280,185,98877,6,0,B|283:167|283:167|237:142|248:81,2,111.999996582031,0|8|0,3:0|3:2|3:0,0:0:0:0:
468,8,99639,1,8,3:2:0:0:
504,76,99766,1,0,0:0:0:0:
439,121,99894,2,0,P|383:107|326:99,1,111.999996582031,0|8,3:0|3:2,0:0:0:0:
64,63,100402,2,0,P|119:54|173:41,1,111.999996582031,0|8,3:0|3:2,0:0:0:0:
252,1,100910,1,0,3:0:0:0:
126,181,101165,6,0,P|135:221|141:263,1,83.9999974365235,8|0,3:2|0:0,0:0:0:0:
140,279,101419,1,0,3:0:0:0:
376,197,101673,6,0,P|366:156|360:114,1,83.9999974365235,8|0,3:2|0:0,0:0:0:0:
361,99,101927,1,0,3:0:0:0:
255,192,102182,1,8,3:2:0:0:
407,285,102436,5,0,3:0:0:0:
407,285,102690,1,8,3:2:0:0:
309,377,102944,5,0,3:0:0:0:
309,377,103199,2,0,P|254:363|198:358,2,111.999996582031,8|0|8,3:2|3:0|3:2,0:0:0:0:
117,378,103961,2,0,B|87:327|87:327|122:288,1,111.999996582031,0|8,3:0|3:2,0:0:0:0:
366,188,104470,2,0,B|401:149|401:149|371:98,1,111.999996582031,0|8,3:0|3:2,0:0:0:0:
242,20,104851,6,0,P|246:33|248:47,2,27.9999991455078,8|8|8,0:0|0:0|0:0,0:0:0:0:
298,133,105105,2,0,P|284:130|270:126,1,27.9999991455078,8|8,0:0|0:0,0:0:0:0:
205,174,105232,2,0,P|177:180|150:185,1,55.9999982910157,8|0,0:0|3:0,0:0:0:0:
320,291,105487,2,0,P|347:296|375:303,1,55.9999982910157,8|8,0:0|0:0,0:0:0:0:
374,303,105677,1,8,0:0:0:0:
374,303,105741,1,0,3:0:0:0:
260,238,105868,1,8,0:0:0:0:
179,352,105995,6,0,P|124:366|72:384,1,111.999996582031,6|2,3:2|1:2,0:0:0:0:
445,289,106504,1,2,3:2:0:0:
415,113,106758,5,2,1:2:0:0:
492,87,106885,2,0,B|513:141|513:141|468:175,1,111.999996582031,2|2,0:0|0:0,0:0:0:0:
288,62,107394,2,0,P|323:52|368:39,1,83.9999974365235,2|0,0:0|0:0,0:0:0:0:
379,35,107648,1,2,0:3:0:0:
198,114,107775,2,0,P|173:107|143:98,1,55.9999982910157,2|2,1:3|0:3,0:0:0:0:
0,162,108029,6,0,B|-21:108|-21:108|22:75,1,111.999996582031,2|2,3:2|1:2,0:0:0:0:
129,373,108538,1,2,3:2:0:0:
84,181,108792,5,2,1:2:0:0:
148,289,108919,2,0,P|93:273|38:254,1,111.999996582031,2|2,0:2|0:0,0:0:0:0:
233,340,109300,1,0,1:0:0:0:
233,340,109427,1,2,0:0:0:0:
306,275,109555,2,0,P|329:259|352:244,1,55.9999982910157,0|2,3:0|0:3,0:0:0:0:
329,370,109809,2,0,P|356:374|384:379,1,55.9999982910157,2|2,1:3|0:3,0:0:0:0:
477,165,110063,6,0,B|471:146|471:146|515:107|485:46,1,111.999996582031,6|2,3:2|1:2,0:0:0:0:
232,182,110571,1,2,3:2:0:0:
404,82,110826,5,2,1:2:0:0:
341,31,110953,2,0,P|284:48|227:63,1,111.999996582031,2|2,0:0|0:0,0:0:0:0:
407,205,111461,2,0,P|361:191|315:179,1,83.9999974365235,2|0,0:0|0:0,0:0:0:0:
315,179,111716,1,2,0:3:0:0:
195,111,111843,2,0,P|167:118|141:126,1,55.9999982910157,2|2,1:3|0:3,0:0:0:0:
254,5,112097,6,0,B|295:44|295:44|275:96,1,111.999996582031,2|2,3:2|1:2,0:0:0:0:
69,23,112605,1,2,3:2:0:0:
1,60,112860,1,2,1:2:0:0:
1,60,112987,1,2,0:0:0:0:
56,291,113114,5,10,0:0:0:0:
133,256,113241,1,2,3:0:0:0:
445,337,113495,5,10,0:0:0:0:
372,295,113622,1,2,3:0:0:0:
274,384,113877,6,0,P|271:358|266:329,1,48,2|0,3:2|0:0,0:0:0:0:
253,259,114131,5,6,3:2:0:0:
263,252,114258,1,0,0:0:0:0:
236,55,114385,5,10,0:2:0:0:
226,48,114512,1,0,0:0:0:0:
288,164,114639,2,0,P|246:155|205:145,1,83.9999974365235,2|0,3:2|0:0,0:0:0:0:
137,108,114894,2,0,P|132:80|126:53,1,55.9999982910157,10|2,0:0|0:0,0:0:0:0:
19,190,115148,2,0,P|24:162|30:135,1,55.9999982910157,0|2,3:0|0:0,0:0:0:0:
124,194,115402,1,8,0:0:0:0:
0,306,115529,2,0,P|54:292|109:281,1,111.999996582031,2|2,0:0|0:0,0:0:0:0:
189,334,115910,1,10,0:0:0:0:
189,334,116038,1,2,3:2:0:0:
367,234,116165,6,0,P|360:261|356:288,1,55.9999982910157,2|0,3:2|0:0,0:0:0:0:
430,341,116419,2,0,P|434:313|440:286,1,55.9999982910157,10|0,0:0|0:0,0:0:0:0:
288,384,116673,2,0,P|278:328|265:274,1,111.999996582031,2|10,3:2|0:0,0:0:0:0:
243,191,117055,1,2,0:0:0:0:
367,21,117309,5,2,0:0:0:0:
415,76,117436,1,8,0:0:0:0:
479,43,117563,1,2,0:0:0:0:
281,68,117817,2,0,P|227:60|165:45,1,111.999996582031,2|2,0:0|3:2,0:0:0:0:
80,28,118199,5,6,3:2:0:0:
88,21,118326,1,0,0:0:0:0:
8,106,118453,5,10,0:0:0:0:
0,99,118580,1,0,0:0:0:0:
155,197,118707,5,2,3:2:0:0:
163,190,118834,1,0,0:0:0:0:
16,341,118961,5,10,0:0:0:0:
24,334,119088,2,0,P|51:328|78:322,1,55.9999982910157,2|0,0:0|3:0,0:0:0:0:
174,278,119343,2,0,P|168:305|162:332,1,55.9999982910157,2|8,0:0|0:0,0:0:0:0:
235,379,119597,2,0,P|262:373|289:367,1,55.9999982910157,2|0,0:0|3:0,0:0:0:0:
369,384,119851,1,2,0:0:0:0:
414,322,119978,1,10,0:0:0:0:
341,299,120105,1,2,3:2:0:0:
491,302,120232,6,0,P|498:275|507:248,1,55.9999982910157,2|0,3:2|0:0,0:0:0:0:
384,177,120487,2,0,P|392:203|400:230,1,55.9999982910157,10|0,0:0|0:0,0:0:0:0:
512,126,120741,2,0,P|460:112|404:95,1,111.999996582031,2|10,3:2|0:0,0:0:0:0:
250,1,121122,1,10,0:0:0:0:
338,64,121249,1,0,3:0:0:0:
338,64,121377,6,0,P|333:85|328:112,1,27.9999991455078,10|0,0:0|0:0,0:0:0:0:
206,129,121504,1,0,3:0:0:0:
206,129,121631,6,0,P|211:150|216:177,1,27.9999991455078,10|0,0:0|0:0,0:0:0:0:
305,209,121758,1,8,0:3:0:0:
305,209,121885,6,0,P|301:222|298:236,1,27.9999991455078,10|0,0:3|0:0,0:0:0:0:
311,211,122012,2,0,P|324:207|337:202,1,27.9999991455078,6|0,0:3|0:0,0:0:0:0:
309,204,122139,2,0,P|298:194|288:184,1,27.9999991455078,6|2,0:3|0:1,0:0:0:0:
242,281,122266,1,2,0:1:0:0:
242,281,122521,6,0,B|235:303|235:303|277:342|249:401,1,111.999996582031,2|2,3:0|3:0,0:0:0:0:
313,224,123029,1,2,3:0:0:0:
313,224,123156,1,10,0:0:0:0:
179,357,123410,2,0,P|122:366|55:380,1,111.999996582031,2|10,3:0|0:0,0:0:0:0:
0,338,123792,5,2,3:2:0:0:
126,190,123919,1,2,3:2:0:0:
126,190,124046,2,0,P|98:183|71:176,1,55.9999982910157,10|0,0:0|0:0,0:0:0:0:
65,0,124300,5,10,0:0:0:0:
131,57,124491,5,10,0:0:0:0:
215,29,124682,5,10,0:0:0:0:
383,75,124809,6,0,P|437:62|492:47,1,111.999996582031,2|2,3:0|3:0,0:0:0:0:
324,135,125190,2,0,B|284:95|284:95|304:43,1,111.999996582031,10|2,0:0|3:0,0:0:0:0:
456,189,125699,5,8,0:0:0:0:
307,320,125826,1,8,0:3:0:0:
380,344,125953,1,8,0:3:0:0:
380,344,126080,2,0,P|407:337|434:330,1,55.9999982910157,4|4,0:3|0:3,0:0:0:0:
129,313,126334,6,0,P|73:300|18:286,2,111.999996582031,2|2|2,3:0|3:0|3:0,0:0:0:0:
316,375,127097,1,2,3:0:0:0:
316,375,127224,2,0,P|310:347|306:319,1,55.9999982910157,10|0,0:0|0:0,0:0:0:0:
193,384,127478,2,0,P|203:328|213:273,1,111.999996582031,2|10,3:0|0:0,0:0:0:0:
277,209,127860,5,2,3:1:0:0:
277,209,127987,1,2,3:1:0:0:
177,25,128114,5,2,3:1:0:0:
177,25,128241,1,2,3:1:0:0:
268,0,128368,6,0,P|260:42|252:98,1,83.9999974365235,10|0,0:0|0:0,0:0:0:0:
179,121,128622,2,0,P|152:129|126:139,1,55.9999982910157,2|0,3:0|0:0,0:0:0:0:
341,56,128877,2,0,P|366:66|393:74,1,55.9999982910157,2|0,3:0|0:0,0:0:0:0:
369,153,129131,1,2,3:0:0:0:
369,153,129258,2,0,P|342:142|316:135,1,55.9999982910157,10|0,0:0|0:0,0:0:0:0:
277,209,129512,6,0,P|285:251|298:339,1,111.999996582031,2|10,3:0|0:0,0:0:0:0:
222,368,129894,1,8,0:3:0:0:
222,368,130021,1,8,0:3:0:0:
142,344,130148,1,4,0:3:0:0:
142,344,130275,1,4,0:3:0:0:
78,384,130402,5,2,0:1:0:0:
106,118,130656,2,0,P|53:97|0:79,1,111.999996582031,2|2,3:0|3:0,0:0:0:0:
168,55,131165,1,2,3:0:0:0:
168,55,131292,1,10,0:0:0:0:
87,220,131546,6,0,P|133:204|207:175,1,111.999996582031,2|10,3:0|0:0,0:0:0:0:
283,253,131927,1,2,3:2:0:0:
283,253,132055,1,2,3:2:0:0:
393,178,132182,2,0,P|367:169|340:160,1,55.9999982910157,10|0,0:0|0:0,0:0:0:0:
260,134,132436,1,10,0:0:0:0:
260,134,132499,2,0,P|257:118|253:99,3,27.9999991455078,2|2|2|10,0:0|0:0|0:0|0:0,0:0:0:0:
330,55,132817,1,8,0:0:0:0:
330,55,132944,6,0,P|334:31|339:-2,1,55.9999982910157,2|0,3:0|0:0,0:0:0:0:
413,90,133199,1,2,3:0:0:0:
413,90,133326,2,0,P|417:62|421:34,1,55.9999982910157,10|0,0:0|0:0,0:0:0:0:
116,123,133580,2,0,P|108:72|97:5,1,111.999996582031,2|8,3:0|0:0,0:0:0:0:
193,56,133961,5,8,0:3:0:0:
193,56,134088,1,8,0:3:0:0:
281,165,134216,2,0,P|254:157|226:151,1,55.9999982910157,4|4,0:3|0:3,0:0:0:0:
21,331,134470,5,2,3:0:0:0:
21,331,134724,2,0,P|47:323|75:317,1,55.9999982910157,2|0,3:0|0:0,0:0:0:0:
153,198,134978,2,0,P|145:224|139:252,1,55.9999982910157,2|0,3:0|0:0,0:0:0:0:
300,325,135232,1,2,3:0:0:0:
300,325,135360,2,0,P|307:351|313:379,1,55.9999982910157,10|0,0:0|0:0,0:0:0:0:
469,227,135614,2,0,P|414:239|360:254,1,111.999996582031,2|8,3:0|0:0,0:0:0:0:
211,297,135995,5,2,3:1:0:0:
301,189,136122,1,2,3:1:0:0:
218,303,136249,1,2,3:1:0:0:
106,165,136504,5,10,0:0:0:0:
106,165,136758,2,0,P|85:160|46:152,1,55.9999982910157,2|0,3:0|0:0,0:0:0:0:
133,12,137012,2,0,P|106:6|79:0,1,55.9999982910157,2|0,3:0|0:0,0:0:0:0:
142,91,137266,1,2,3:0:0:0:
10,63,137394,2,0,P|37:69|64:74,1,55.9999982910157,8|0,0:0|0:0,0:0:0:0:
312,53,137648,5,8,0:0:0:0:
312,53,137775,2,0,P|372:42|445:28,1,111.999996582031,2|8,3:0|0:1,0:0:0:0:
498,12,138156,1,8,0:1:0:0:
508,20,138283,1,8,0:1:0:0:
504,32,138410,1,8,0:1:0:0:
421,31,138538,6,0,P|397:26|374:20,1,47.9999985351563,4|0,3:2|0:0,0:0:0:0:
505,121,138792,2,0,P|481:114|458:110,1,47.9999985351563,0|0,3:0|0:0,0:0:0:0:
378,158,139046,2,0,B|360:201|360:201|388:239,1,95.9999970703126,0|0,3:0|3:0,0:0:0:0:
455,190,139427,1,0,0:0:0:0:
357,331,139555,1,2,3:0:0:0:
430,377,139809,5,0,3:0:0:0:
430,377,139936,1,2,0:3:0:0:
356,331,140063,2,0,P|332:336|309:343,1,47.9999985351563,2|0,3:0|0:0,0:0:0:0:
389,240,140317,2,0,P|366:247|342:252,1,47.9999985351563,0|8,3:0|0:0,0:0:0:0:
170,343,140571,5,2,3:0:0:0:
170,343,140826,2,0,P|147:335|123:330,1,47.9999985351563,0|2,3:0|0:3,0:0:0:0:
243,384,141080,5,10,0:0:0:0:
232,287,141271,5,8,0:0:0:0:
221,190,141461,5,8,0:0:0:0:
221,190,141588,2,0,P|215:166|211:143,1,47.9999985351563,2|0,3:0|0:0,0:0:0:0:
146,241,141843,2,0,P|140:217|136:194,1,47.9999985351563,0|2,3:0|0:3,0:0:0:0:
314,257,142097,2,0,P|308:233|304:210,1,47.9999985351563,2|8,3:0|0:0,0:0:0:0:
483,142,142351,1,2,3:0:0:0:
483,142,142605,6,0,P|438:129|383:113,1,95.9999970703126,2|2,3:2|3:2,0:0:0:0:
328,47,142987,1,0,0:0:0:0:
231,96,143114,1,0,3:0:0:0:
231,96,143241,1,0,0:0:0:0:
155,12,143368,2,0,P|181:5|212:-4,1,47.9999985351563,0|0,3:0|0:0,0:0:0:0:
303,130,143622,5,2,3:0:0:0:
248,175,143749,1,2,0:3:0:0:
288,234,143877,2,0,P|314:241|345:250,1,47.9999985351563,2|2,3:2|0:3,0:0:0:0:
170,370,144131,1,2,3:0:0:0:
170,370,144385,2,0,P|144:377|113:386,1,47.9999985351563,0|0,3:0|0:0,0:0:0:0:
0,232,144639,5,2,3:0:0:0:
71,276,144766,1,8,0:0:0:0:
71,276,144894,2,0,P|66:302|60:339,1,47.9999985351563,0|2,3:0|0:3,0:0:0:0:
150,287,145148,2,0,P|154:263|158:239,1,47.9999985351563,2|0,3:0|0:0,0:0:0:0:
342,373,145402,2,0,P|346:349|350:325,1,47.9999985351563,0|8,3:0|0:0,0:0:0:0:
350,325,145593,1,8,0:0:0:0:
350,325,145656,1,4,3:2:0:0:
269,263,145783,5,8,0:0:0:0:
252,183,145910,1,8,0:0:0:0:
235,105,146038,1,8,0:0:0:0:
160,80,146165,5,8,0:0:0:0:
152,86,146292,1,8,0:0:0:0:
314,132,146419,5,8,0:0:0:0:
322,138,146546,1,8,0:0:0:0:
492,6,146673,6,0,B|531:45|531:45|509:96,1,111.999996582031,4|8,3:2|0:0,0:0:0:0:
388,85,147055,1,2,3:2:0:0:
507,185,147182,2,0,P|480:175|453:167,1,55.9999982910157,2|0,3:2|0:0,0:0:0:0:
388,85,147436,2,0,P|414:77|441:67,1,55.9999982910157,8|0,0:0|0:0,0:0:0:0:
403,245,147690,5,2,3:0:0:0:
318,29,147944,1,8,0:0:0:0:
318,29,148071,1,2,3:1:0:0:
241,56,148199,2,0,P|214:46|187:38,1,55.9999982910157,2|0,3:1|0:0,0:0:0:0:
118,3,148453,1,10,0:0:0:0:
0,100,148707,5,2,3:2:0:0:
0,100,148834,1,2,0:2:0:0:
147,152,149088,5,2,0:0:0:0:
147,152,149216,1,2,3:2:0:0:
75,126,149470,5,10,0:0:0:0:
294,347,149724,5,2,3:1:0:0:
294,347,149851,1,2,0:1:0:0:
512,272,150105,5,2,0:1:0:0:
512,272,150233,1,2,3:1:0:0:
405,310,150487,5,2,1:0:0:0:
484,93,150741,6,0,P|456:100|429:107,1,55.9999982910157,4|0,3:2|0:0,0:0:0:0:
388,229,150995,2,0,B|350:211|350:211|363:162,1,83.9999974365235,10|0,3:2|0:0,0:0:0:0:
360,170,151249,2,0,P|333:163|300:154,1,55.9999982910157,2|0,3:2|0:0,0:0:0:0:
247,97,151504,1,10,0:0:0:0:
247,97,151631,1,2,0:0:0:0:
117,157,151758,5,2,3:2:0:0:
117,157,151885,1,2,0:0:0:0:
0,13,152139,5,2,3:2:0:0:
0,13,152266,1,2,3:2:0:0:
23,89,152521,2,0,P|50:82|83:73,1,55.9999982910157,10|0,0:0|3:0,0:0:0:0:
17,311,152775,5,2,3:0:0:0:
17,311,153029,2,0,P|44:318|77:327,1,55.9999982910157,8|2,0:0|0:3,0:0:0:0:
54,199,153283,2,0,P|27:192|-6:183,1,55.9999982910157,2|2,3:0|0:0,0:0:0:0:
140,225,153538,1,10,0:0:0:0:
140,225,153665,1,2,0:0:0:0:
344,189,153792,5,10,0:0:0:0:
344,189,153919,1,10,0:0:0:0:
390,272,154046,5,2,3:2:0:0:
195,158,154173,1,10,0:0:0:0:
262,21,154809,5,4,3:2:0:0:
262,21,154936,1,0,3:0:0:0:
324,76,155063,1,8,0:0:0:0:
324,76,155190,2,0,B|356:52|356:52|342:14,1,80,0|0,3:0|3:0,0:0:0:0:
262,21,155571,1,8,0:0:0:0:
163,79,155826,6,0,P|141:86|119:92,1,40,0|0,3:0|3:0,0:0:0:0:
52,64,156080,1,8,0:0:0:0:
338,201,156334,6,0,P|360:208|382:214,1,40,0|0,0:0|3:0,0:0:0:0:
447,180,156588,1,8,0:0:0:0:
375,324,156843,5,0,3:0:0:0:
375,324,156970,1,0,3:0:0:0:
295,292,157097,1,8,0:0:0:0:
295,292,157224,2,0,P|254:304|213:316,1,80,0|0,3:0|3:0,0:0:0:0:
133,358,157605,5,8,0:0:0:0:
113,347,157732,1,0,0:0:0:0:
120,325,157860,1,0,3:0:0:0:
363,236,158114,5,8,0:0:0:0:
370,214,158242,1,0,3:0:0:0:
350,203,158369,1,0,0:0:0:0:
242,111,158622,5,8,0:0:0:0:
242,111,158749,1,0,3:0:0:0:
174,63,158877,6,0,P|154:57|135:52,1,40,4|0,3:1|3:0,0:0:0:0:
59,22,159131,1,8,0:0:0:0:
59,22,159258,2,0,B|42:58|42:58|65:90,1,80,0|0,3:0|3:0,0:0:0:0:
132,133,159639,2,0,P|151:138|170:143,1,40,8|0,0:0|0:0,0:0:0:0:
291,32,159894,5,0,3:0:0:0:
291,32,160148,2,0,P|271:37|252:42,1,40,8|0,0:0|3:0,0:0:0:0:
215,309,160402,5,0,0:0:0:0:
215,309,160656,2,0,P|234:303|253:298,1,40,8|0,0:0|0:0,0:0:0:0:
320,346,160910,5,0,3:0:0:0:
320,346,161038,1,0,3:0:0:0:
385,307,161165,1,8,0:0:0:0:
452,376,161292,1,0,3:0:0:0:
452,376,161419,1,0,0:0:0:0:
103,182,161673,5,8,0:0:0:0:
155,136,161800,1,0,0:0:0:0:
245,169,161928,1,0,3:0:0:0:
245,169,162055,1,0,3:0:0:0:
330,108,162182,1,8,0:0:0:0:
406,138,162309,1,0,3:0:0:0:
222,39,162563,1,0,3:0:0:0:
222,39,162690,2,0,P|219:19|216:0,1,40,8|0,0:0|3:0,0:0:0:0:
310,212,162944,5,6,3:2:0:0:
310,212,163071,2,0,P|332:221|355:230,1,47.9999985351563,2|8,3:2|0:0,0:0:0:0:
179,291,163326,1,2,3:2:0:0:
179,291,163453,2,0,P|157:300|134:309,1,47.9999985351563,2|0,0:0|3:0,0:0:0:0:
35,181,163707,6,0,P|67:196|100:211,1,71.9999978027344,10|0,0:0|0:0,0:0:0:0:
166,170,163961,2,0,B|183:185|183:185|176:208,1,47.9999985351563,2|2,3:2|3:2,0:0:0:0:
454,339,164216,6,0,P|421:323|388:308,1,71.9999978027344,8|0,0:0|0:0,0:0:0:0:
322,349,164470,2,0,B|304:333|304:333|311:310,1,47.9999985351563,2|0,0:0|3:0,0:0:0:0:
247,257,164724,1,10,0:0:0:0:
247,257,164851,1,0,0:0:0:0:
426,138,164978,5,2,3:2:0:0:
426,138,165105,2,0,P|421:113|417:86,1,47.9999985351563,2|8,3:2|0:0,0:0:0:0:
336,77,165360,1,2,3:2:0:0:
336,77,165487,2,0,P|341:102|345:129,1,47.9999985351563,2|0,0:0|3:0,0:0:0:0:
462,22,165741,5,10,0:0:0:0:
441,0,165868,1,0,0:0:0:0:
412,7,165995,1,2,3:2:0:0:
370,198,166249,5,8,0:0:0:0:
349,220,166376,1,2,3:2:0:0:
320,213,166503,1,2,0:0:0:0:
404,102,166758,2,0,P|381:107|357:111,1,47.9999985351563,10|0,0:0|3:0,0:0:0:0:
170,25,167012,5,6,3:2:0:0:
170,25,167139,2,0,P|146:21|122:16,1,47.9999985351563,2|8,3:2|0:0,0:0:0:0:
8,111,167394,1,2,3:2:0:0:
8,111,167521,2,0,P|31:106|55:102,1,47.9999985351563,2|0,0:0|3:0,0:0:0:0:
126,150,167775,5,10,0:0:0:0:
148,129,167902,1,0,0:0:0:0:
141,100,168029,1,2,3:2:0:0:
386,267,168283,5,8,0:0:0:0:
364,288,168410,1,2,3:2:0:0:
371,317,168537,1,2,0:0:0:0:
500,323,168792,2,0,P|476:318|452:314,1,47.9999985351563,10|0,0:0|0:0,0:0:0:0:
308,360,169046,5,2,3:2:0:0:
300,367,169173,1,2,3:2:0:0:
194,215,169300,5,8,0:0:0:0:
202,222,169427,1,2,3:2:0:0:
289,107,169555,6,0,P|292:83|295:59,1,47.9999985351563,2|0,0:0|3:0,0:0:0:0:
224,11,169809,2,0,P|220:34|217:58,1,47.9999985351563,10|0,0:0|0:0,0:0:0:0:
95,137,170063,5,10,3:2:0:0:
162,116,170190,1,10,3:2:0:0:
350,160,170317,5,10,3:2:0:0:
417,139,170444,1,10,3:2:0:0:
251,384,171080,6,0,P|246:316|236:241,1,143.999995605469,6|0,3:2|0:0,0:0:0:0:
325,330,171334,2,0,B|362:294|362:294|336:243,1,95.9999970703126,14|0,0:0|0:0,0:0:0:0:
149,260,171588,2,0,B|129:220|129:220|165:185,1,95.9999970703126,2|0,3:2|0:0,0:0:0:0:
365,113,171842,5,10,0:0:0:0:
365,113,171969,1,2,0:0:0:0:
430,64,172096,2,0,P|474:79|493:122,1,95.9999970703126,2|0,3:2|0:0,0:0:0:0:
162,61,172351,5,10,0:0:0:0:
162,61,172478,1,2,0:0:0:0:
97,110,172605,2,0,P|52:94|33:51,1,95.9999970703126,2|0,3:2|0:0,0:0:0:0:
244,0,172860,2,0,P|256:46|259:94,1,95.9999970703126,10|2,0:0|0:0,0:0:0:0:
360,226,173114,5,2,3:2:0:0:
360,226,173241,1,2,0:2:0:0:
266,244,173368,5,10,0:2:0:0:
266,244,173495,1,2,0:2:0:0:
173,261,173622,5,2,3:2:0:0:
173,261,173749,1,2,0:2:0:0:
326,301,173876,5,10,0:2:0:0:
204,193,174003,1,2,0:2:0:0:
333,308,174130,2,0,P|380:318|438:331,1,95.9999970703126,2|0,3:2|0:0,0:0:0:0:
192,337,174385,5,10,0:2:0:0:
310,175,174512,1,2,0:2:0:0:
185,344,174639,2,0,P|138:354|80:367,1,95.9999970703126,2|0,3:2|0:0,0:0:0:0:
252,270,174893,1,10,0:0:0:0:
252,270,175020,1,0,0:0:0:0:
18,170,175147,6,0,B|55:174|75:140|75:140|148:154,1,143.999995605469,6|0,3:2|0:0,0:0:0:0:
228,174,175402,2,0,B|255:153|241:109|241:109|201:101|192:60,1,143.999995605469,10|0,3:2|0:0,0:0:0:0:
277,28,175656,2,0,B|298:25|298:25|339:93|419:65,1,143.999995605469,2|0,3:2|0:0,0:0:0:0:
481,106,175910,5,10,0:0:0:0:
481,106,176037,1,2,0:0:0:0:
456,16,176164,2,0,P|406:32|411:84,1,95.9999970703126,2|0,3:2|0:0,0:0:0:0:
265,306,176419,5,10,0:0:0:0:
265,306,176546,1,2,0:0:0:0:
297,229,176673,2,0,P|342:239|352:283,1,95.9999970703126,2|0,3:2|0:0,0:0:0:0:
512,198,176927,2,0,P|465:187|419:173,1,95.9999970703126,10|2,0:0|0:0,0:0:0:0:
257,90,177181,5,2,3:2:0:0:
257,90,177308,1,2,0:0:0:0:
339,148,177436,5,10,0:0:0:0:
273,5,177563,1,2,0:0:0:0:
157,119,177690,2,0,P|111:132|64:144,1,95.9999970703126,2|0,3:2|0:0,0:0:0:0:
242,185,177944,1,10,0:0:0:0:
208,301,178071,1,10,0:0:0:0:
208,301,178135,1,0,0:0:0:0:
208,301,178198,6,0,B|183:344|183:344|223:383,1,95.9999970703126,2|10,3:2|0:0,0:0:0:0:
318,361,178389,1,0,0:0:0:0:
318,361,178453,2,0,B|343:318|343:318|303:279,1,95.9999970703126,2|2,3:2|0:0,0:0:0:0:
168,207,178707,5,10,0:0:0:0:
316,160,178834,1,10,0:0:0:0:
275,32,178961,1,10,0:0:0:0:
131,65,179088,1,8,0:3:0:0:
131,65,179469,6,0,B|157:56|157:56|202:134|202:134|228:124,1,143.999995605469,14|0,3:2|0:0,0:0:0:0:
316,160,179724,2,0,B|352:128|352:128|331:84,1,95.9999970703126,6|0,3:2|0:0,0:0:0:0:
439,272,179978,5,14,0:0:0:0:
439,272,180105,1,2,0:0:0:0:
512,204,180232,2,0,P|467:195|409:176,1,95.9999970703126,6|0,3:2|0:0,0:0:0:0:
95,202,180487,5,10,0:0:0:0:
95,202,180614,1,2,0:0:0:0:
67,294,180741,2,0,P|112:279|159:269,1,95.9999970703126,2|0,3:2|0:0,0:0:0:0:
255,329,180995,2,0,P|294:306|294:260,1,95.9999970703126,10|2,0:0|0:0,0:0:0:0:
172,24,181249,6,0,P|110:52|115:119,1,143.999995605469,2|0,3:2|0:0,0:0:0:0:
175,182,181504,2,0,P|221:170|269:163,1,95.9999970703126,8|0,0:0|0:0,0:0:0:0:
365,58,181758,2,0,P|318:69|270:76,1,95.9999970703126,0|0,3:0|0:0,0:0:0:0:
159,269,182012,5,10,0:0:0:0:
159,269,182139,1,2,0:0:0:0:
93,313,182266,2,0,B|56:284|56:284|79:241,1,95.9999970703126,2|0,3:2|0:0,0:0:0:0:
351,316,182521,5,10,0:0:0:0:
351,316,182648,1,2,0:0:0:0:
431,344,182775,2,0,B|454:301|454:301|417:272,1,95.9999970703126,2|0,3:2|0:0,0:0:0:0:
255,292,183029,1,10,0:0:0:0:
255,292,183156,1,0,3:0:0:0:
470,195,183283,6,0,B|510:158|510:158|485:101|485:101|453:94,1,143.999995605469,6|0,3:2|0:0,0:0:0:0:
403,150,183537,2,0,B|373:131|373:131|329:174|329:174|267:167,1,143.999995605469,10|0,0:0|0:0,0:0:0:0:
203,208,183792,2,0,B|167:187|167:187|99:224|99:224|67:197,1,143.999995605469,2|0,3:2|0:0,0:0:0:0:
16,164,184046,5,10,0:0:0:0:
16,164,184173,1,2,0:0:0:0:
57,85,184300,2,0,P|103:81|139:116,1,95.9999970703126,2|0,3:2|0:0,0:0:0:0:
480,104,184555,5,10,0:0:0:0:
480,104,184682,1,2,0:0:0:0:
439,25,184809,2,0,P|392:21|357:56,1,95.9999970703126,2|0,3:2|0:0,0:0:0:0:
228,3,185063,2,0,P|239:49|244:97,1,95.9999970703126,10|2,0:0|0:0,0:0:0:0:
306,292,185317,5,2,3:2:0:0:
306,292,185444,1,10,0:0:0:0:
325,196,185571,5,2,3:2:0:0:
209,295,185698,1,2,0:0:0:0:
393,384,185825,2,0,P|402:336|414:290,1,95.9999970703126,2|8,3:2|0:0,0:0:0:0:
119,384,186080,2,0,P|109:336|97:290,1,95.9999970703126,2|2,3:2|3:2,0:0:0:0:
0,136,186334,5,6,3:2:0:0:
122,198,186461,1,10,0:0:0:0:
135,204,186525,1,0,0:0:0:0:
143,193,186588,1,8,0:0:0:0:
205,125,186715,1,8,0:0:0:0:
305,138,186842,6,0,P|328:145|351:155,1,47.9999985351563,2|0,3:0|0:0,0:0:0:0:
297,143,186970,2,0,P|320:150|343:160,1,47.9999985351563,2|0,0:3|0:0,0:0:0:0:
203,31,187097,6,0,P|180:23|158:15,1,47.9999985351563,2|0,0:3|0:0,0:0:0:0:
211,25,187225,2,0,P|188:17|166:9,1,47.9999985351563,2|0,0:3|0:0,0:0:0:0:
305,40,187351,5,6,3:2:0:0:
305,40,187478,1,2,0:0:0:0:
512,157,187732,5,2,0:0:0:0:
387,23,187859,2,0,P|430:35|443:116,1,120,2|0,3:2|0:0,0:0:0:0:
416,175,188114,2,0,B|404:213|404:213|442:238,1,80,10|0,0:2|0:0,0:0:0:0:
298,378,188368,5,2,3:2:0:0:
298,378,188495,1,2,0:0:0:0:
503,290,188749,5,2,0:0:0:0:
452,350,188876,2,0,P|396:328|323:302,1,120,2|0,3:2|0:0,0:0:0:0:
263,271,189131,2,0,P|256:229|245:169,1,80,10|0,0:2|3:0,0:0:0:0:
89,337,189385,5,2,3:2:0:0:
164,365,189512,2,0,B|187:311|187:311|139:273,1,120,2|0,0:0|0:0,0:0:0:0:
116,258,189766,1,2,0:0:0:0:
18,151,189893,2,0,P|24:113|30:72,1,80,2|0,3:2|0:0,0:0:0:0:
122,21,190147,2,0,P|114:63|110:106,1,80,10|0,0:2|0:0,0:0:0:0:
341,81,190402,5,2,3:2:0:0:
341,81,190529,2,0,B|368:69|368:69|421:136|516:95,1,160,2|2,0:0|0:0,0:0:0:0:
273,15,190910,2,0,B|224:47|224:47|250:102,1,120,2|0,3:2|0:0,0:0:0:0:
230,178,191165,2,0,P|191:167|152:157,1,80,10|0,0:2|3:0,0:0:0:0:
301,363,191419,5,2,3:2:0:0:
301,363,191546,1,2,0:0:0:0:
309,161,191800,5,2,0:0:0:0:
217,305,191927,2,0,P|266:277|331:242,1,120,2|0,3:2|0:0,0:0:0:0:
399,245,192182,2,0,B|407:286|407:286|377:309,1,80,10|0,0:2|0:0,0:0:0:0:
187,198,192436,5,2,3:2:0:0:
187,198,192563,1,2,0:0:0:0:
22,132,192817,5,2,0:0:0:0:
144,267,192944,2,0,P|100:236|109:158,1,120,2|0,3:2|0:0,0:0:0:0:
158,123,193198,2,0,P|197:116|235:104,1,80,10|0,0:2|3:0,0:0:0:0:
493,50,193453,5,2,3:2:0:0:
444,117,193580,2,0,B|379:67|379:67|424:0,1,160,2|2,0:0|0:0,0:0:0:0:
300,31,193961,2,0,P|260:24|222:12,1,80,2|0,3:2|0:0,0:0:0:0:
242,193,194216,2,0,P|281:199|319:211,1,80,10|8,0:0|0:0,0:0:0:0:
425,230,194470,5,2,3:1:0:0:
305,117,194597,2,0,B|225:96|225:96|188:135|138:116,1,160,2|2,0:1|1:1,0:0:0:0:
0,201,194978,1,2,3:1:0:0:
93,72,195105,1,8,0:0:0:0:
171,249,195232,1,2,3:1:0:0:
88,157,195360,1,0,3:2:0:0:
88,157,195487,6,0,B|74:196|74:196|103:229,2,80,6|2|8,3:2|0:0|0:0,0:0:0:0:
0,337,195868,1,2,0:0:0:0:
0,337,195995,2,0,P|60:325|143:308,1,120,2|0,3:2|0:0,0:0:0:0:
171,249,196249,2,0,P|219:267|267:283,1,80,10|0,0:2|0:0,0:0:0:0:
472,379,196504,5,2,3:2:0:0:
472,379,196631,2,0,B|500:356|500:356|464:298,1,80,2|8,0:0|0:0,0:0:0:0:
331,189,196885,5,2,0:0:0:0:
331,189,197012,2,0,B|303:212|303:212|339:270,1,80,2|0,3:2|0:0,0:0:0:0:
392,331,197266,2,0,P|400:296|414:244,1,80,10|0,0:2|3:0,0:0:0:0:
297,108,197521,5,2,3:2:0:0:
297,108,197648,2,0,P|286:69|274:31,1,80,2|8,0:0|0:0,0:0:0:0:
488,187,197902,5,2,0:0:0:0:
488,187,198029,2,0,P|501:143|514:96,1,80,2|0,3:2|0:0,0:0:0:0:
446,45,198283,2,0,P|434:83|424:122,1,80,10|0,0:2|0:0,0:0:0:0:
228,166,198538,5,2,3:2:0:0:
228,166,198665,2,0,P|193:180|140:197,1,80,2|8,0:0|0:0,0:0:0:0:
0,38,198919,5,2,0:0:0:0:
0,38,199046,2,0,P|35:52|88:69,1,80,2|0,3:2|0:0,0:0:0:0:
156,100,199300,1,10,0:2:0:0:
156,100,199427,1,0,3:0:0:0:
29,265,199555,5,2,3:2:0:0:
29,265,199682,2,0,B|-1:238|-1:238|15:201,1,80,2|8,0:0|0:0,0:0:0:0:
225,351,199936,5,2,0:0:0:0:
225,351,200063,2,0,B|255:324|255:324|238:287,1,80,2|0,3:2|0:0,0:0:0:0:
80,328,200317,2,0,P|117:314|154:298,1,80,10|0,0:2|0:0,0:0:0:0:
300,202,200571,5,2,3:2:0:0:
300,202,200699,2,0,P|337:218|375:232,1,80,2|8,0:0|0:0,0:0:0:0:
192,70,200953,5,2,0:0:0:0:
192,70,201081,2,0,P|154:56|117:41,1,80,2|0,3:2|0:0,0:0:0:0:
272,118,201334,2,0,B|302:91|302:91|286:54,1,80,10|0,0:2|3:0,0:0:0:0:
40,210,201588,5,2,3:2:0:0:
40,210,201716,2,0,B|10:183|10:183|33:133,1,80,2|8,0:0|0:0,0:0:0:0:
247,264,201970,5,2,0:0:0:0:
247,264,202098,2,0,B|277:291|277:291|254:341,1,80,2|0,3:2|0:0,0:0:0:0:
123,221,202351,2,0,P|159:210|204:194,1,80,10|2,1:2|0:0,0:0:0:0:
446,108,202605,5,2,1:0:0:0:
375,158,202732,1,2,1:0:0:0:
362,158,202796,1,0,1:0:0:0:
357,146,202860,1,0,3:0:0:0:
283,84,202987,1,2,1:0:0:0:
432,22,203114,1,2,3:1:0:0:
500,176,203241,1,8,0:0:0:0:
353,242,203368,1,2,3:1:0:0:
392,136,203495,5,2,0:3:0:0:
