osu file format v14

[General]
AudioFilename: audio.mp3
AudioLeadIn: 0
PreviewTime: 57118
Countdown: 0
SampleSet: Soft
StackLeniency: 0.6
Mode: 0
LetterboxInBreaks: 0
WidescreenStoryboard: 1

[Editor]
Bookmarks: 233,4300,8368,24639,40910,57182,73453,89724,105995,114131,122266,138538,146673,154809,162944,171080,187351,195487,203495
DistanceSpacing: 1.1
BeatDivisor: 4
GridSize: 32
TimelineZoom: 2.550002

[Metadata]
Title:Tsukuri Kake no Shinshou
TitleUnicode:ツクリカケノ心象
Artist:inabakumori
ArtistUnicode:稲葉曇
Creator:0ugi
Version:Jiysea's Normal
Source:
Tags:himada jiysea that_otaku lecandy sagu kyuuchie An image in the making 歌愛ユキ Kaai Yuki Vocaloid アンチサイクロン Anticyclone inaba kumori japanese rock j-rock
BeatmapID:4242491
BeatmapSetID:1248914

[Difficulty]
HPDrainRate:3
CircleSize:3
OverallDifficulty:4
ApproachRate:5
SliderMultiplier:0.799999999999999
SliderTickRate:1

[Events]
//Background and Video events
0,0,"bac34aa8-7ed5-495f-82c6-74cf0ab27c2a.png",0,0
//Break Periods
2,154809,161744
//Storyboard Layer 0 (Background)
//Storyboard Layer 1 (Fail)
//Storyboard Layer 2 (Pass)
//Storyboard Layer 3 (Foreground)
//Storyboard Layer 4 (Overlay)
//Storyboard Sound Samples

[TimingPoints]
233,254.237288135593,4,2,1,50,1,0
233,-111.111111111111,4,2,1,50,0,0
4046,-111.111111111111,4,2,1,69,0,0
8368,-111.111111111111,4,2,1,69,0,0
24639,-111.111111111111,4,2,1,63,0,0
57182,-100,4,2,1,76,0,0
73453,-111.111111111111,4,2,1,69,0,0
89724,-111.111111111111,4,2,1,63,0,0
170571,-111.111111111111,4,2,1,42,0,0
171080,-100,4,2,1,76,0,0
187351,-111.111111111111,4,2,1,69,0,0
195487,-111.111111111111,4,2,1,63,0,0

[Colours]
Combo1 : 180,255,104
Combo2 : 94,174,255
Combo3 : 255,140,85
Combo4 : 255,134,194

[HitObjects]
511,383,233,6,0,P|457:327|378:330,1,143.999995605469,2|2,0:0|0:0,0:0:0:0:
243,366,1249,2,0,P|290:313|292:223,1,143.999995605469,2|2,0:0|0:0,0:0:0:0:
402,123,2266,2,0,P|332:105|263:85,1,143.999995605469,2|2,0:0|0:0,0:0:0:0:
111,39,3283,2,0,P|157:102|150:181,1,143.999995605469,2|2,0:0|0:0,0:0:0:0:
107,226,4046,1,4,3:0:0:0:
117,304,4300,6,0,P|165:315|234:334,1,107.999996704102,8|8,3:2|3:2,0:0:0:0:
260,338,4809,1,8,3:2:0:0:
246,180,5317,2,0,P|258:122|311:99,1,107.999996704102,8|8,3:2|3:2,0:0:0:0:
335,111,5826,1,8,3:2:0:0:
459,13,6334,2,0,P|475:78|490:130,1,107.999996704102,8|8,3:2|3:2,0:0:0:0:
499,154,6843,1,8,3:2:0:0:
456,220,7097,1,8,3:2:0:0:
494,289,7351,5,2,0:3:0:0:
191,382,8368,6,0,P|177:329|162:277,1,107.999996704102,6|2,3:2|0:0,0:0:0:0:
128,257,8877,2,0,P|87:246|58:238,1,71.9999978027344,2|10,3:2|0:2,0:0:0:0:
22,167,9385,2,0,P|40:118|89:98,1,107.999996704102,2|2,3:2|0:0,0:0:0:0:
126,113,9894,1,2,3:2:0:0:
174,50,10148,1,10,0:2:0:0:
251,67,10402,6,0,P|233:118|217:169,1,107.999996704102,2|2,3:2|0:0,0:0:0:0:
228,207,10910,2,0,P|231:242|256:267,1,71.9999978027344,2|10,3:2|0:2,0:0:0:0:
327,303,11419,2,0,P|357:260|409:251,1,107.999996704102,2|2,3:2|0:0,0:0:0:0:
446,265,11927,1,2,3:2:0:0:
500,207,12182,1,10,0:2:0:0:
482,129,12436,6,0,P|429:115|377:101,1,107.999996704102,2|2,3:2|0:0,0:0:0:0:
358,66,12944,2,0,P|339:35|306:23,1,71.9999978027344,2|10,3:2|0:2,0:0:0:0:
246,76,13453,2,0,P|193:88|141:103,1,107.999996704102,2|2,3:2|0:0,0:0:0:0:
104,117,13961,1,2,3:2:0:0:
63,185,14216,1,10,0:2:0:0:
88,259,14470,6,0,P|44:288|38:340,1,107.999996704102,2|2,3:2|0:0,0:0:0:0:
63,371,14978,1,2,3:2:0:0:
140,356,15232,2,0,L|175:348,1,35.9999989013672,10|10,0:2|0:2,0:0:0:0:
214,339,15487,5,10,0:0:0:0:
327,373,15868,1,10,0:0:0:0:
402,281,16249,1,2,3:1:0:0:
337,234,16504,6,0,P|322:181|308:129,1,107.999996704102,6|2,3:2|0:0,0:0:0:0:
320,91,17012,2,0,P|342:65|377:60,1,71.9999978027344,2|10,3:2|0:2,0:0:0:0:
441,12,17521,2,0,P|484:40|494:92,1,107.999996704102,2|2,3:2|0:0,0:0:0:0:
483,130,18029,1,2,3:2:0:0:
445,199,18283,1,10,0:2:0:0:
466,275,18538,6,0,L|361:302,1,107.999996704102,2|2,3:2|0:0,0:0:0:0:
335,332,19046,2,0,P|300:322|265:313,1,71.9999978027344,2|10,3:2|0:2,0:0:0:0:
191,343,19555,2,0,P|175:291|161:239,1,107.999996704102,2|2,3:2|0:0,0:0:0:0:
184,206,20063,1,2,3:2:0:0:
154,132,20317,1,10,0:2:0:0:
79,104,20571,6,0,P|31:127|13:177,1,107.999996704102,6|2,3:2|0:0,0:0:0:0:
1,215,21080,2,0,L|70:234,1,71.9999978027344,2|10,3:2|0:2,0:0:0:0:
71,318,21588,2,0,P|122:301|174:288,1,107.999996704102,2|2,3:2|0:0,0:0:0:0:
213,280,22097,1,2,3:2:0:0:
275,328,22351,1,10,0:2:0:0:
351,309,22605,6,0,P|357:256|397:221,1,107.999996704102,2|2,3:2|0:0,0:0:0:0:
436,218,23114,1,2,3:2:0:0:
506,182,23368,2,0,L|499:146,1,35.9999989013672,10|10,0:2|0:2,0:0:0:0:
490,108,23622,5,10,0:2:0:0:
423,9,24004,1,10,0:0:0:0:
308,40,24385,1,2,3:1:0:0:
320,118,24639,5,4,3:1:0:0:
260,170,24894,2,0,P|226:179|201:204,2,71.9999978027344,0|0|0,3:0|3:0|3:0,0:0:0:0:
311,229,25656,1,2,3:2:0:0:
388,243,25910,2,0,P|418:232|457:224,2,71.9999978027344,0|2|2,3:0|3:2|3:2,0:0:0:0:
423,314,26673,1,0,3:0:0:0:
356,357,26927,2,0,P|261:318|147:301,1,215.999993408203,0|2,3:0|3:2,0:0:0:0:
71,313,27944,5,0,3:0:0:0:
50,236,28199,2,0,P|32:205|38:171,2,71.9999978027344,2|2|0,3:2|3:2|3:0,0:0:0:0:
125,213,28961,1,0,3:0:0:0:
434,143,29978,5,0,3:0:0:0:
455,66,30233,2,0,P|472:35|466:1,2,71.9999978027344,2|2|0,3:2|3:2|3:0,0:0:0:0:
380,43,30995,1,0,3:0:0:0:
222,24,31504,1,0,3:0:0:0:
182,92,31758,2,0,P|204:168|220:230,1,143.999995605469,2|2,3:2|3:2,0:0:0:0:
155,375,32775,5,4,3:1:0:0:
85,336,33030,2,0,P|51:327|26:302,2,71.9999978027344,0|0|0,3:0|3:0|3:0,0:0:0:0:
123,267,33792,1,2,3:2:0:0:
75,203,34046,2,0,P|86:168|93:133,1,71.9999978027344,0|2,3:0|3:2,0:0:0:0:
56,63,34555,2,0,L|21:54,2,35.9999989013672,2|8|0,3:2|0:0|3:0,0:0:0:0:
126,27,35063,2,0,P|232:42|332:82,1,215.999993408203,0|2,3:0|3:2,0:0:0:0:
353,159,36080,5,0,3:2:0:0:
432,153,36335,2,0,P|465:143|501:135,2,71.9999978027344,2|2|0,3:2|3:2|3:0,0:0:0:0:
443,231,37097,1,0,3:0:0:0:
147,272,38114,5,0,3:0:0:0:
68,266,38369,2,0,P|34:256|-1:248,2,71.9999978027344,2|2|0,3:2|3:2|3:0,0:0:0:0:
59,344,39131,1,0,3:0:0:0:
212,383,39640,1,0,3:0:0:0:
273,333,39894,2,0,L|307:323,2,35.9999989013672,2|10|8,3:2|0:0|0:3,0:0:0:0:
227,268,40402,1,10,0:0:0:0:
96,178,40910,5,4,3:2:0:0:
19,200,41165,2,0,P|12:176|-1:130,1,71.9999978027344,8|2,0:0|3:2,0:0:0:0:
42,64,41673,2,0,P|64:36|98:31,1,71.9999978027344,8|2,0:0|3:2,0:0:0:0:
177,41,42182,2,0,P|186:78|196:110,1,71.9999978027344,8|0,0:0|3:0,0:0:0:0:
219,186,42690,1,10,0:0:0:0:
292,214,42944,6,0,L|273:283,1,71.9999978027344,2|8,3:2|0:0,0:0:0:0:
336,331,43453,2,0,P|363:308|398:306,1,71.9999978027344,2|10,3:2|0:0,0:0:0:0:
466,264,43961,2,0,L|500:272,2,35.9999989013672,2|2|8,3:1|0:1|0:0,0:0:0:0:
479,185,44470,2,0,P|474:162|460:115,1,71.9999978027344,2|2,3:1|1:1,0:0:0:0:
437,39,44978,5,0,3:0:0:0:
359,53,45232,2,0,P|324:47|300:21,1,71.9999978027344,10|2,0:0|3:2,0:0:0:0:
222,34,45741,2,0,P|213:68|204:103,1,71.9999978027344,10|2,0:0|3:2,0:0:0:0:
151,163,46249,2,0,L|116:171,2,35.9999989013672,8|2|2,0:0|3:2|3:2,0:0:0:0:
183,235,46758,1,10,0:0:0:0:
260,251,47012,5,2,3:2:0:0:
330,215,47266,2,0,P|376:163|446:167,1,143.999995605469,10|10,0:0|0:0,0:0:0:0:
497,228,48029,1,2,3:2:0:0:
486,306,48283,2,0,P|416:323|346:343,1,143.999995605469,10|8,0:0|0:0,0:0:0:0:
270,365,49046,5,4,3:1:0:0:
200,326,49301,2,0,P|193:302|179:256,1,71.9999978027344,8|2,0:0|3:2,0:0:0:0:
223,191,49809,2,0,P|200:163|166:158,1,71.9999978027344,10|2,0:2|3:0,0:0:0:0:
89,178,50317,2,0,P|59:158|44:125,1,71.9999978027344,8|2,0:0|3:1,0:0:0:0:
7,56,50826,1,10,0:0:0:0:
81,27,51080,6,0,P|116:23|146:41,1,71.9999978027344,2|8,3:2|0:2,0:0:0:0:
211,87,51589,2,0,P|238:64|273:62,1,71.9999978027344,2|10,3:2|0:0,0:0:0:0:
347,91,52097,1,2,3:1:0:0:
389,158,52351,2,0,L|397:192,1,35.9999989013672,8|2,0:0|0:1,0:0:0:0:
405,231,52605,2,0,P|396:266|386:300,1,71.9999978027344,2|2,3:1|1:1,0:0:0:0:
431,365,53114,5,0,3:0:0:0:
492,315,53368,2,0,P|497:289|510:245,1,71.9999978027344,10|2,0:0|3:2,0:0:0:0:
491,168,53877,2,0,P|482:133|473:98,1,71.9999978027344,10|2,0:0|3:2,0:0:0:0:
448,22,54385,1,8,0:0:0:0:
372,44,54639,2,0,L|337:34,2,35.9999989013672,2|0|10,3:2|0:0|0:0,0:0:0:0:
358,122,55148,5,2,3:0:0:0:
288,160,55402,2,0,P|252:160|226:184,2,71.9999978027344,8|0|10,0:0|3:0|0:0,0:0:0:0:
313,235,56165,2,0,L|321:269,1,35.9999989013672,14|10,0:0|0:0,0:0:0:0:
305,306,56419,2,0,P|269:312|235:323,1,71.9999978027344,10|2,3:2|3:2,0:0:0:0:
161,352,56927,1,2,0:0:0:0:
96,303,57182,6,0,B|75:225,1,79.9999999999999,6|14,3:2|0:2,0:0:0:0:
13,163,57690,1,2,3:2:0:0:
47,82,57944,2,0,L|124:103,1,79.9999999999999,10|2,0:0|3:2,0:0:0:0:
191,159,58453,2,0,L|229:149,1,40,10|2,0:0|0:0,0:0:0:0:
258,115,58707,2,0,P|265:76|298:55,1,79.9999999999999,2|10,3:2|0:0,0:0:0:0:
373,10,59216,6,0,P|409:24|424:59,1,79.9999999999999,2|10,3:2|0:2,0:0:0:0:
486,122,59724,2,0,P|470:157|434:171,1,79.9999999999999,2|10,3:2|0:2,0:0:0:0:
349,196,60232,1,2,3:2:0:0:
396,270,60487,2,0,L|434:280,1,40,10|2,0:0|0:0,0:0:0:0:
456,318,60741,2,0,P|449:357|416:378,1,79.9999999999999,2|10,3:2|0:0,0:0:0:0:
332,352,61249,5,6,3:2:0:0:
245,332,61504,2,0,P|206:341|167:352,1,79.9999999999999,10|2,3:2|3:2,0:0:0:0:
91,308,62012,2,0,L|79:269,2,40,10|2|2,0:0|0:0|3:2,0:0:0:0:
160,254,62521,2,0,L|180:176,1,79.9999999999999,10|2,0:0|3:2,0:0:0:0:
115,117,63029,1,10,0:0:0:0:
144,34,63283,6,0,P|181:27|213:49,1,79.9999999999999,2|10,3:2|0:0,0:0:0:0:
274,115,63792,1,2,3:2:0:0:
361,103,64046,1,10,0:0:0:0:
434,151,64300,2,0,L|472:139,2,40,2|10|10,3:2|0:0|0:0,0:0:0:0:
407,235,64809,1,10,0:0:0:0:
479,284,65063,1,2,3:2:0:0:
440,363,65317,5,2,0:1:0:0:
355,339,65571,2,0,L|277:360,1,79.9999999999999,14|14,3:2|3:2,0:0:0:0:
200,317,66080,1,10,0:0:0:0:
128,368,66334,1,2,3:2:0:0:
55,318,66588,2,0,L|65:279,1,40,10|2,0:0|0:0,0:0:0:0:
96,247,66843,2,0,P|91:208|61:183,1,79.9999999999999,2|10,3:2|0:2,0:0:0:0:
61,95,67351,6,0,L|138:114,1,79.9999999999999,2|10,3:2|0:2,0:0:0:0:
225,101,67860,2,0,L|205:23,1,79.9999999999999,2|10,3:2|0:2,0:0:0:0:
291,7,68367,1,2,3:2:0:0:
379,0,68622,2,0,L|389:39,1,40,10|2,0:0|0:0,0:0:0:0:
429,56,68877,2,0,P|466:66|487:99,1,79.9999999999999,2|10,3:2|0:0,0:0:0:0:
416,150,69384,5,6,3:2:0:0:
342,199,69639,2,0,L|362:277,1,79.9999999999999,10|2,3:2|3:2,0:0:0:0:
409,350,70147,2,0,L|448:338,2,40,10|2|2,0:0|0:0|3:2,0:0:0:0:
326,380,70656,2,0,P|296:354|256:349,1,79.9999999999999,10|2,0:0|3:2,0:0:0:0:
172,371,71164,1,10,0:0:0:0:
132,292,71419,6,0,L|93:282,2,40,2|10|2,3:2|0:0|3:2,0:0:0:0:
201,238,71927,2,0,L|181:160,1,79.9999999999999,2|2,3:2|3:2,0:0:0:0:
269,154,72436,2,0,B|262:124|272:95|302:81|304:86|306:91|334:79|343:55|337:24,1,160,10|10,0:0|0:0,0:0:0:0:
422,2,73198,1,2,3:2:0:0:
494,48,73453,6,0,P|479:99|465:152,1,107.999996704102,6|2,3:2|0:0,0:0:0:0:
427,165,73962,2,0,P|421:199|439:230,1,71.9999978027344,2|10,3:2|0:2,0:0:0:0:
509,267,74470,2,0,P|460:286|442:336,1,107.999996704102,2|2,3:2|0:0,0:0:0:0:
448,375,74979,1,2,3:2:0:0:
369,383,75233,1,10,0:2:0:0:
326,316,75487,6,0,P|275:333|223:350,1,107.999996704102,2|2,3:2|0:0,0:0:0:0:
184,341,75995,2,0,P|158:316|155:280,1,71.9999978027344,2|10,3:2|0:2,0:0:0:0:
109,216,76504,2,0,P|139:173|191:164,1,107.999996704102,2|2,3:2|0:0,0:0:0:0:
227,179,77012,1,2,3:2:0:0:
282,121,77267,1,10,0:2:0:0:
254,46,77521,6,0,P|201:32|149:18,1,107.999996704102,2|2,3:2|0:0,0:0:0:0:
117,40,78029,2,0,P|83:52|65:82,1,71.9999978027344,2|10,3:2|0:2,0:0:0:0:
0,128,78538,2,0,P|14:179|26:232,1,107.999996704102,2|2,3:2|0:0,0:0:0:0:
14,269,79046,1,2,3:2:0:0:
62,331,79301,1,10,0:2:0:0:
140,319,79555,6,0,P|171:277|223:274,1,107.999996704102,2|2,3:2|0:0,0:0:0:0:
259,290,80063,1,2,3:2:0:0:
317,236,80317,2,0,L|309:200,1,35.9999989013672,10|8,0:0|0:0,0:0:0:0:
305,161,80572,5,10,0:0:0:0:
405,97,80953,1,10,0:0:0:0:
335,1,81334,1,2,1:0:0:0:
144,54,81970,6,0,P|128:105|116:158,1,107.999996704102,14|10,0:0|0:0,0:0:0:0:
38,173,82606,2,0,P|86:188|109:236,1,107.999996704102,2|2,3:2|0:0,0:0:0:0:
103,276,83114,1,2,3:2:0:0:
50,334,83368,1,10,0:2:0:0:
118,373,83623,6,0,L|223:346,1,107.999996704102,2|2,3:2|0:0,0:0:0:0:
252,320,84131,2,0,P|286:325|311:350,1,71.9999978027344,2|10,3:2|0:2,0:0:0:0:
388,373,84640,2,0,P|425:336|426:283,1,107.999996704102,2|2,3:2|0:0,0:0:0:0:
396,257,85148,1,2,3:2:0:0:
408,178,85402,1,10,0:2:0:0:
333,150,85656,6,0,L|228:177,1,107.999996704102,6|2,3:2|0:0,0:0:0:0:
202,146,86165,2,0,L|221:77,1,71.9999978027344,2|10,3:2|0:2,0:0:0:0:
148,45,86673,2,0,P|131:96|118:148,1,107.999996704102,2|2,3:2|0:0,0:0:0:0:
80,162,87182,1,2,3:2:0:0:
16,208,87436,1,10,0:2:0:0:
65,270,87690,6,0,P|118:276|153:316,1,107.999996704102,2|2,3:2|0:0,0:0:0:0:
157,354,88199,1,2,3:2:0:0:
234,369,88453,2,0,L|270:362,1,35.9999989013672,10|8,0:0|0:0,0:0:0:0:
308,355,88707,5,8,0:0:0:0:
338,240,89089,1,8,0:0:0:0:
449,281,89470,1,2,3:1:0:0:
503,224,89724,5,4,3:2:0:0:
456,160,89978,2,0,P|445:127|437:90,1,71.9999978027344,8|0,3:2|3:0,0:0:0:0:
359,77,90487,2,0,P|348:44|340:7,1,71.9999978027344,8|0,3:2|3:0,0:0:0:0:
264,28,90995,2,0,P|231:38|194:46,2,71.9999978027344,8|0|8,3:2|3:0|3:2,0:0:0:0:
275,106,91758,1,0,3:0:0:0:
236,175,92012,2,0,P|161:154|96:138,1,143.999995605469,8|8,3:2|3:2,0:0:0:0:
0,264,93029,5,8,3:2:0:0:
42,330,93283,2,0,P|72:311|107:308,1,71.9999978027344,0|8,3:0|3:2,0:0:0:0:
179,343,93792,1,0,3:0:0:0:
248,305,94046,2,0,P|260:236|323:207,1,143.999995605469,8|8,3:2|3:2,0:0:0:0:
458,123,95063,5,8,3:2:0:0:
416,57,95317,2,0,P|385:75|350:78,1,71.9999978027344,0|8,3:0|3:2,0:0:0:0:
279,44,95826,1,0,3:0:0:0:
210,82,96080,2,0,P|197:150|134:179,1,143.999995605469,8|8,3:2|3:2,0:0:0:0:
60,149,96843,2,0,P|52:114|70:84,2,71.9999978027344,0|8|0,3:0|3:2|3:0,0:0:0:0:
10,210,97605,1,8,3:2:0:0:
46,280,97860,5,4,3:2:0:0:
122,298,98114,2,0,P|151:278|187:278,1,71.9999978027344,8|0,3:2|3:0,0:0:0:0:
253,235,98622,2,0,P|283:253|298:285,1,71.9999978027344,8|0,3:2|3:0,0:0:0:0:
372,315,99131,2,0,P|387:283|417:264,1,71.9999978027344,8|0,3:2|3:0,0:0:0:0:
480,216,99639,2,0,P|494:206|502:190,2,35.9999989013672,8|0|0,3:2|0:0|3:0,0:0:0:0:
418,165,100148,2,0,P|364:119|293:120,1,143.999995605469,8|8,3:2|3:2,0:0:0:0:
153,46,101165,5,8,3:2:0:0:
79,75,101419,2,0,P|89:109|99:144,1,71.9999978027344,0|8,3:0|3:2,0:0:0:0:
43,200,101928,1,0,3:0:0:0:
89,263,102182,2,0,P|159:279|228:298,1,143.999995605469,8|8,3:2|3:2,0:0:0:0:
364,379,103199,5,8,3:2:0:0:
438,350,103453,2,0,P|428:316|418:281,1,71.9999978027344,0|8,3:0|3:2,0:0:0:0:
474,225,103962,1,0,3:0:0:0:
428,162,104216,2,0,P|358:146|289:127,1,143.999995605469,8|8,3:2|3:2,0:0:0:0:
231,72,104978,2,0,L|221:37,2,35.9999989013672,8|8|8,0:0|0:0|0:0,0:0:0:0:
159,107,105487,2,0,P|118:116|89:124,1,71.9999978027344,8|0,0:0|3:0,0:0:0:0:
69,200,105995,6,0,L|0:182,2,71.9999978027344,6|2|2,3:2|1:2|3:2,0:0:0:0:
119,307,106885,2,0,P|142:280|176:272,1,71.9999978027344,2|2,0:0|0:0,0:0:0:0:
229,332,107394,2,0,L|298:313,1,71.9999978027344,2|2,0:0|0:3,0:0:0:0:
332,333,107775,1,2,1:3:0:0:
403,299,108029,6,0,P|437:306|460:333,2,71.9999978027344,2|2|2,3:2|1:2|3:2,0:0:0:0:
337,199,108919,2,0,P|310:176|304:141,1,71.9999978027344,2|2,0:2|0:0,0:0:0:0:
340,70,109427,2,0,P|305:58|270:51,1,71.9999978027344,2|2,0:0|0:3,0:0:0:0:
230,47,109809,1,2,1:3:0:0:
155,74,110063,6,0,P|119:70|93:47,2,71.9999978027344,6|2|2,3:2|1:2|3:2,0:0:0:0:
205,181,110953,2,0,L|185:250,1,71.9999978027344,2|2,0:0|0:0,0:0:0:0:
176,328,111461,2,0,L|106:347,1,71.9999978027344,2|2,0:0|0:3,0:0:0:0:
68,357,111843,1,2,1:3:0:0:
42,282,112097,6,0,P|30:248|0:233,2,71.9999978027344,2|2|2,3:2|1:2|3:2,0:0:0:0:
116,254,112860,2,0,L|150:244,1,35.9999989013672,2|2,1:2|0:0,0:0:0:0:
188,234,113114,5,10,0:0:0:0:
140,125,113495,1,10,0:0:0:0:
241,62,113877,1,2,3:2:0:0:
302,111,114131,6,0,L|336:121,1,35.9999989013672,6|0,3:2|0:0,0:0:0:0:
375,112,114385,2,0,P|384:146|394:181,1,71.9999978027344,10|2,0:2|3:2,0:0:0:0:
468,209,114894,1,10,0:0:0:0:
457,287,115148,2,0,P|472:295|481:310,2,35.9999989013672,0|2|8,3:0|0:0|0:0,0:0:0:0:
421,303,115529,1,2,0:0:0:0:
373,366,115783,2,0,L|338:356,1,35.9999989013672,2|10,0:0|0:0,0:0:0:0:
301,341,116038,6,0,L|231:359,1,71.9999978027344,2|0,3:2|0:0,0:0:0:0:
193,369,116419,1,10,0:0:0:0:
133,316,116673,2,0,L|142:281,2,35.9999989013672,2|0|10,3:2|0:0|0:0,0:0:0:0:
56,338,117182,2,0,P|47:303|37:269,1,71.9999978027344,0|8,3:0|0:0,0:0:0:0:
23,231,117563,1,2,0:0:0:0:
69,166,117817,1,2,0:0:0:0:
146,184,118071,1,2,3:2:0:0:
203,129,118326,6,0,L|237:119,2,35.9999989013672,0|10|0,0:0|0:0|0:0,0:0:0:0:
186,93,118707,2,0,P|189:57|215:34,1,71.9999978027344,2|10,3:2|0:0,0:0:0:0:
287,1,119216,2,0,P|315:21|323:55,1,71.9999978027344,0|8,3:0|0:0,0:0:0:0:
349,84,119597,1,2,0:0:0:0:
419,120,119851,2,0,L|453:110,2,35.9999989013672,2|10|2,0:0|0:0|3:2,0:0:0:0:
415,159,120232,6,0,L|397:228,1,71.9999978027344,2|10,3:2|0:0,0:0:0:0:
374,304,120741,1,2,3:2:0:0:
306,344,120995,2,0,L|271:333,1,35.9999989013672,10|10,0:0|0:0,0:0:0:0:
233,324,121249,2,0,P|212:283|230:249,1,71.9999978027344,0|0,3:0|3:0,0:0:0:0:
285,216,121758,2,0,P|294:201|294:183,1,35.9999989013672,8|10,0:3|0:3,0:0:0:0:
280,146,122012,1,6,0:3:0:0:
225,88,122266,6,0,P|202:62|168:50,2,71.9999978027344,2|2|2,0:1|3:0|3:0,0:0:0:0:
163,190,123156,2,0,L|93:171,1,71.9999978027344,10|2,0:0|3:0,0:0:0:0:
68,246,123665,2,0,L|172:274,1,107.999996704102,10|10,0:0|0:0,0:0:0:0:
246,298,124300,6,0,P|265:317|269:344,2,53.9999983520508,10|10|10,0:0|0:0|0:0,0:0:0:0:
276,271,124809,1,2,3:0:0:0:
256,153,125190,2,0,P|263:118|293:100,1,71.9999978027344,10|2,0:0|3:0,0:0:0:0:
313,23,125699,2,0,P|365:25|401:64,1,107.999996704102,8|4,0:0|0:3,0:0:0:0:
443,131,126334,6,0,L|512:113,2,71.9999978027344,2|2|2,3:0|3:0|3:0,0:0:0:0:
381,232,127224,2,0,P|394:264|424:282,1,71.9999978027344,10|2,0:0|3:0,0:0:0:0:
495,318,127732,2,0,L|390:345,1,107.999996704102,10|2,0:0|3:1,0:0:0:0:
311,333,128368,6,0,P|280:350|267:383,2,71.9999978027344,10|2|2,0:0|3:0|3:0,0:0:0:0:
224,250,129258,2,0,L|242:180,1,71.9999978027344,10|2,0:0|3:0,0:0:0:0:
189,121,129766,2,0,L|154:131,2,35.9999989013672,10|8|8,0:0|0:3|0:3,0:0:0:0:
205,84,130148,1,4,0:3:0:0:
278,55,130402,6,0,P|311:43|335:16,2,71.9999978027344,2|2|2,0:1|3:0|3:0,0:0:0:0:
358,143,131292,2,0,L|428:161,1,71.9999978027344,10|2,0:0|3:0,0:0:0:0:
484,217,131801,2,0,P|511:262|503:314,1,107.999996704102,10|10,0:0|0:0,0:0:0:0:
430,345,132436,6,0,B|426:352|426:352|420:348|420:348|408:351|408:351|404:348|404:348|400:353|400:353|361:364,1,71.9999978027344,10|10,0:0|0:0,0:0:0:0:
295,330,132945,1,2,3:0:0:0:
220,237,133326,2,0,P|190:218|183:184,1,71.9999978027344,10|2,0:0|3:0,0:0:0:0:
222,114,133835,2,0,P|186:75|133:72,1,107.999996704102,8|4,0:0|0:3,0:0:0:0:
69,119,134470,6,0,L|0:101,2,71.9999978027344,2|2|2,3:0|3:0|3:0,0:0:0:0:
91,235,135360,2,0,P|60:252|46:285,1,71.9999978027344,10|2,0:0|3:0,0:0:0:0:
101,342,135868,2,0,L|206:369,1,107.999996704102,8|2,0:0|3:1,0:0:0:0:
248,301,136504,6,0,L|227:231,2,71.9999978027344,10|2|2,0:0|3:0|3:0,0:0:0:0:
354,352,137394,2,0,P|380:329|389:295,1,71.9999978027344,8|8,0:0|0:0,0:0:0:0:
378,257,137775,1,2,3:0:0:0:
416,187,138029,2,0,L|450:176,2,35.9999989013672,8|8|8,0:1|0:1|0:1,0:0:0:0:
379,116,138538,5,4,3:2:0:0:
300,103,138792,2,0,L|230:84,1,71.9999978027344,0|0,3:0|3:0,0:0:0:0:
153,65,139300,2,0,L|118:74,1,35.9999989013672,0|0,3:0|0:0,0:0:0:0:
81,59,139555,2,0,P|48:73|32:104,1,71.9999978027344,2|0,3:0|3:0,0:0:0:0:
38,183,140063,1,2,3:0:0:0:
70,255,140317,6,0,L|0:273,2,71.9999978027344,0|2|0,3:0|3:0|3:0,0:0:0:0:
179,367,141334,2,0,P|190:334|220:315,1,71.9999978027344,0|2,0:0|3:0,0:0:0:0:
249,241,141843,2,0,P|319:258|388:277,1,143.999995605469,0|2,3:0|3:0,0:0:0:0:
464,299,142605,5,2,3:2:0:0:
499,228,142860,2,0,L|489:193,1,35.9999989013672,2|0,3:2|0:0,0:0:0:0:
503,156,143114,2,0,P|492:122|461:105,1,71.9999978027344,0|0,3:0|3:0,0:0:0:0:
436,30,143622,1,2,3:0:0:0:
358,12,143877,2,0,P|348:52|340:81,1,71.9999978027344,2|2,3:2|3:0,0:0:0:0:
323,159,144385,6,0,P|358:167|392:176,2,71.9999978027344,0|2|0,3:0|3:0|3:0,0:0:0:0:
210,271,145402,2,0,P|176:263|156:234,1,71.9999978027344,0|4,3:0|3:2,0:0:0:0:
76,224,145910,2,0,P|57:158|94:99,1,143.999995605469,8|8,0:0|0:0,0:0:0:0:
165,61,146673,5,4,3:2:0:0:
231,103,146927,2,0,L|221:137,2,35.9999989013672,8|2|2,0:0|3:2|3:2,0:0:0:0:
305,75,147436,1,8,0:0:0:0:
353,137,147690,2,0,L|422:155,1,71.9999978027344,2|8,3:0|0:0,0:0:0:0:
499,176,148199,1,2,3:1:0:0:
448,326,148707,6,0,P|424:299|390:287,1,71.9999978027344,2|8,3:2|0:0,0:0:0:0:
316,316,149216,2,0,L|324:350,2,35.9999989013672,2|0|10,3:2|0:0|0:0,0:0:0:0:
248,274,149724,2,0,L|178:255,1,71.9999978027344,2|8,3:1|0:0,0:0:0:0:
170,176,150232,2,0,P|195:151|199:116,1,71.9999978027344,2|2,3:1|1:0,0:0:0:0:
159,47,150741,5,4,3:2:0:0:
79,50,150995,2,0,L|44:39,2,35.9999989013672,10|0|2,3:2|3:2|3:2,0:0:0:0:
49,123,151504,1,10,0:0:0:0:
81,195,151758,2,0,L|62:264,1,71.9999978027344,2|10,3:2|0:0,0:0:0:0:
107,329,152266,2,0,L|116:363,2,35.9999989013672,2|0|10,3:2|0:0|0:0,0:0:0:0:
178,293,152775,5,2,3:0:0:0:
184,214,153029,2,0,L|253:231,1,71.9999978027344,8|2,0:0|3:0,0:0:0:0:
330,252,153538,1,10,0:0:0:0:
399,215,153792,2,0,L|433:224,2,35.9999989013672,10|10|2,0:0|0:0|3:2,0:0:0:0:
395,175,154173,1,10,0:0:0:0:
512,314,162944,6,0,P|459:267|389:273,1,143.999995605469,6|2,3:2|0:0,0:0:0:0:
321,313,163707,1,10,0:0:0:0:
258,264,163961,2,0,P|231:240|224:206,2,71.9999978027344,2|8|2,3:2|0:0|0:0,0:0:0:0:
313,207,164724,1,10,0:0:0:0:
317,127,164978,6,0,L|177:90,1,143.999995605469,2|2,3:2|0:0,0:0:0:0:
129,27,165741,1,10,0:0:0:0:
78,88,165995,2,0,L|8:107,2,71.9999978027344,2|8|2,3:2|0:0|0:0,0:0:0:0:
77,167,166758,1,10,0:0:0:0:
7,205,167012,6,0,P|71:232|96:297,1,143.999995605469,6|2,3:2|0:0,0:0:0:0:
147,358,167775,1,10,0:0:0:0:
221,331,168029,2,0,L|290:348,2,71.9999978027344,2|8|2,3:2|0:0|0:0,0:0:0:0:
215,251,168792,1,10,0:0:0:0:
172,184,169046,6,0,L|190:114,1,71.9999978027344,2|8,3:2|0:0,0:0:0:0:
249,60,169555,2,0,P|276:37|311:37,1,71.9999978027344,2|10,0:0|0:0,0:0:0:0:
385,66,170063,1,10,3:2:0:0:
447,114,170317,1,10,3:2:0:0:
414,186,170571,1,2,0:1:0:0:
508,334,171080,6,0,B|430:355,1,79.9999999999999,6|14,3:2|0:0,0:0:0:0:
345,374,171588,1,2,3:2:0:0:
278,316,171842,2,0,P|272:277|244:249,1,79.9999999999999,10|2,0:0|3:2,0:0:0:0:
170,201,172351,2,0,L|160:239,1,40,10|2,0:0|0:0,0:0:0:0:
121,261,172605,2,0,P|88:239|81:201,1,79.9999999999999,2|10,3:2|0:0,0:0:0:0:
33,127,173114,6,0,L|110:107,1,79.9999999999999,2|10,3:2|0:2,0:0:0:0:
168,41,173622,2,0,P|204:54|221:89,1,79.9999999999999,2|10,3:2|0:2,0:0:0:0:
298,132,174130,1,2,3:2:0:0:
279,218,174385,2,0,L|269:256,1,40,10|2,0:2|0:2,0:0:0:0:
287,296,174639,2,0,P|308:328|346:335,1,79.9999999999999,2|10,3:2|0:0,0:0:0:0:
427,370,175147,5,6,3:2:0:0:
492,310,175402,2,0,P|501:271|512:232,1,79.9999999999999,10|2,3:2|3:2,0:0:0:0:
474,152,175910,2,0,L|513:140,2,40,10|2|2,0:0|0:0|3:2,0:0:0:0:
406,95,176419,2,0,P|380:65|380:26,1,79.9999999999999,10|2,0:0|3:2,0:0:0:0:
296,1,176927,1,10,0:0:0:0:
249,75,177181,6,0,P|280:96|287:134,1,79.9999999999999,2|10,3:2|0:0,0:0:0:0:
222,196,177690,1,2,3:2:0:0:
142,158,177944,1,10,0:0:0:0:
67,204,178198,2,0,L|29:216,2,40,2|10|2,3:2|0:0|3:2,0:0:0:0:
85,290,178707,1,10,0:0:0:0:
163,330,178961,1,10,0:0:0:0:
235,280,179215,5,2,3:1:0:0:
305,332,179469,2,0,L|383:311,1,79.9999999999999,14|6,3:2|3:2,0:0:0:0:
462,274,179978,1,14,0:0:0:0:
508,199,180232,1,6,3:2:0:0:
486,113,180486,2,0,L|476:74,1,40,10|2,0:0|0:0,0:0:0:0:
447,40,180741,2,0,P|408:36|377:60,1,79.9999999999999,2|10,3:2|0:0,0:0:0:0:
327,133,181249,6,0,L|250:114,1,79.9999999999999,2|8,3:2|0:0,0:0:0:0:
165,86,181758,1,0,3:0:0:0:
87,127,182012,2,0,L|76:165,1,40,10|2,0:0|0:0,0:0:0:0:
64,207,182265,1,2,3:2:0:0:
107,284,182520,2,0,L|117:323,1,40,10|2,0:0|0:0,0:0:0:0:
153,347,182775,2,0,P|190:337|211:304,1,79.9999999999999,2|10,3:2|0:0,0:0:0:0:
202,215,183283,6,0,L|279:235,1,79.9999999999999,6|10,3:2|0:0,0:0:0:0:
357,195,183792,1,2,3:2:0:0:
439,225,184045,2,0,L|478:213,2,40,10|2|2,0:0|0:0|3:2,0:0:0:0:
440,313,184554,2,0,P|403:328|381:360,1,79.9999999999999,10|2,0:0|3:2,0:0:0:0:
295,378,185062,1,10,0:0:0:0:
253,300,185317,6,0,L|263:261,2,40,2|10|2,3:2|0:0|3:2,0:0:0:0:
175,341,185825,2,0,L|97:361,1,79.9999999999999,2|2,3:2|3:2,0:0:0:0:
71,276,186334,2,0,B|78:246|68:217|38:203|36:208|34:213|6:201|-3:177|3:146,1,160,6|2,3:2|3:0,0:0:0:0:
41,67,187096,1,2,0:3:0:0:
114,20,187351,6,0,P|165:35|218:49,1,107.999996704102,6|2,3:2|0:0,0:0:0:0:
258,51,187860,2,0,P|285:73|291:108,1,71.9999978027344,2|10,3:2|0:2,0:0:0:0:
365,136,188368,2,0,P|316:155|298:205,1,107.999996704102,2|2,3:2|0:0,0:0:0:0:
329,230,188877,1,2,3:2:0:0:
277,290,189131,1,10,0:2:0:0:
337,341,189385,6,0,P|388:358|439:374,1,107.999996704102,2|2,3:2|0:0,0:0:0:0:
475,357,189893,2,0,P|471:321|445:297,1,71.9999978027344,2|10,3:2|0:2,0:0:0:0:
441,218,190402,2,0,P|449:166|492:135,1,107.999996704102,2|2,3:2|0:0,0:0:0:0:
501,97,190910,1,2,3:2:0:0:
477,21,191165,1,10,0:2:0:0:
401,44,191419,6,0,P|348:57|296:71,1,107.999996704102,2|2,3:2|0:0,0:0:0:0:
257,68,191927,2,0,P|265:102|249:134,1,71.9999978027344,2|10,3:2|0:2,0:0:0:0:
173,157,192436,2,0,P|161:104|146:52,1,107.999996704102,2|2,3:2|0:0,0:0:0:0:
112,31,192944,1,2,3:2:0:0:
35,50,193199,1,10,0:2:0:0:
39,129,193453,6,0,P|4:167|11:219,1,107.999996704102,2|2,3:2|0:0,0:0:0:0:
2,258,193961,2,0,P|35:268|54:297,1,71.9999978027344,2|10,3:2|0:0,0:0:0:0:
77,373,194470,2,0,L|181:345,1,107.999996704102,2|2,3:1|1:1,0:0:0:0:
218,359,194978,1,2,3:1:0:0:
296,346,195232,2,0,L|304:310,1,35.9999989013672,2|0,3:1|3:2,0:0:0:0:
283,276,195487,6,0,P|282:223|322:188,1,107.999996704102,6|2,3:2|0:0,0:0:0:0:
351,162,195995,2,0,L|420:180,1,71.9999978027344,2|10,3:2|0:2,0:0:0:0:
475,123,196504,2,0,P|453:74|403:58,1,107.999996704102,2|2,3:2|0:0,0:0:0:0:
382,25,197012,1,2,3:2:0:0:
304,11,197266,1,10,0:2:0:0:
258,76,197521,6,0,L|153:103,1,107.999996704102,2|2,3:2|0:0,0:0:0:0:
118,84,198029,2,0,P|84:89|59:114,1,71.9999978027344,2|10,3:2|0:2,0:0:0:0:
9,177,198538,2,0,P|9:229|46:267,1,107.999996704102,2|2,3:2|0:0,0:0:0:0:
81,285,199046,1,2,3:2:0:0:
149,245,199300,1,10,0:2:0:0:
227,256,199554,6,0,L|254:361,1,107.999996704102,2|2,3:2|0:0,0:0:0:0:
293,367,200063,2,0,L|362:348,1,71.9999978027344,2|10,3:2|0:2,0:0:0:0:
387,272,200571,2,0,P|373:219|356:168,1,107.999996704102,2|2,3:2|0:0,0:0:0:0:
317,159,201080,1,2,3:2:0:0:
311,80,201334,1,10,0:2:0:0:
235,56,201588,6,0,P|182:62|147:102,1,107.999996704102,2|2,3:2|0:0,0:0:0:0:
138,139,202097,1,2,3:2:0:0:
101,209,202351,2,0,L|65:216,1,35.9999989013672,10|2,1:2|0:0,0:0:0:0:
49,251,202605,2,0,P|16:292|30:342,1,107.999996704102,2|2,1:0|1:0,0:0:0:0:
70,348,203114,2,0,L|61:382,2,35.9999989013672,2|8|2,3:1|0:0|3:1,0:0:0:0:
109,343,203495,5,2,0:3:0:0:
