osu file format v14

[General]
AudioFilename: audio.mp3
AudioLeadIn: 0
PreviewTime: 57118
Countdown: 0
SampleSet: Soft
StackLeniency: 0.6
Mode: 0
LetterboxInBreaks: 0
WidescreenStoryboard: 1

[Editor]
DistanceSpacing: 1.1
BeatDivisor: 16
GridSize: 32
TimelineZoom: 4.45

[Metadata]
Title:Tsukuri Kake no Shinshou
TitleUnicode:ツクリカケノ心象
Artist:inabakumori
ArtistUnicode:稲葉曇
Creator:0ugi
Version:Extreme
Source:
Tags:himada jiysea that_otaku lecandy sagu kyuuchie An image in the making 歌愛ユキ Kaai Yuki Vocaloid アンチサイクロン Anticyclone inaba kumori japanese rock j-rock
BeatmapID:3708090
BeatmapSetID:1248914

[Difficulty]
HPDrainRate:5
CircleSize:4
OverallDifficulty:9.1
ApproachRate:9.6
SliderMultiplier:1.8
SliderTickRate:1

[Events]
//Background and Video events
0,0,"bac34aa8-7ed5-495f-82c6-74cf0ab27c2a.png",0,0
//Break Periods
//Storyboard Layer 0 (Background)
//Storyboard Layer 1 (Fail)
//Storyboard Layer 2 (Pass)
//Storyboard Layer 3 (Foreground)
//Storyboard Layer 4 (Overlay)
//Storyboard Sound Samples

[TimingPoints]
233,254.237288135593,4,2,1,50,1,0
4046,-250,4,2,1,69,0,0
7351,-100,4,2,1,69,0,0
24639,-100,4,2,1,63,0,0
24894,-125,4,2,1,63,0,0
40910,-100,4,2,1,63,0,0
44470,-250,4,2,1,63,0,0
44724,-100,4,2,1,63,0,0
52605,-250,4,2,1,63,0,0
52860,-100,4,2,1,63,0,0
57182,-66.6666666666667,4,2,1,76,0,0
58199,-80,4,2,1,76,0,0
63792,-100,4,2,1,76,0,0
65317,-500,4,2,1,76,0,0
65571,-66.6666666666667,4,2,1,76,0,0
66334,-80,4,2,1,76,0,0
71927,-100,4,2,1,76,0,0
73453,-100,4,2,1,69,0,0
89724,-100,4,2,1,63,0,0
89978,-125,4,2,1,63,0,0
91758,-250,4,2,1,63,0,0
92012,-125,4,2,1,63,0,0
105995,-105.263157894737,4,2,1,63,0,0
122266,-125,4,2,1,63,0,0
122521,-100,4,2,1,63,0,0
130402,-125,4,2,1,63,0,0
130656,-100,4,2,1,63,0,0
138538,-111.111111111111,4,2,1,63,0,0
146800,-100,4,2,1,63,0,0
150232,-250,4,2,1,63,0,0
150487,-100,4,2,1,63,0,0
154300,-250,4,2,1,63,0,0
154809,-125,4,2,1,63,0,0
162944,-100,4,2,1,63,0,0
170571,-250,4,2,1,42,0,0
171080,-66.6666666666667,4,2,1,76,0,0
172097,-80,4,2,1,76,0,0
177690,-100,4,2,1,76,0,0
179216,-500,4,2,1,76,0,0
179470,-66.6666666666667,4,2,1,76,0,0
187351,-66.6666666666667,4,2,1,69,0,0
187478,-100,4,2,1,69,0,0
195487,-100,4,2,1,63,0,0

[Colours]
Combo1 : 180,255,104
Combo2 : 94,174,255
Combo3 : 255,140,85
Combo4 : 255,134,194

[HitObjects]
35,50,4046,6,0,P|45:101|47:115,1,54,4|0,3:0|0:0,0:0:0:0:
36,112,4300,5,8,3:2:0:0:
224,169,4427,1,8,3:2:0:0:
229,180,4682,5,8,3:2:0:0:
88,221,4809,1,8,3:2:0:0:
82,215,5317,5,8,3:2:0:0:
284,275,5444,1,8,3:2:0:0:
292,285,5699,5,8,3:2:0:0:
154,329,5826,1,8,3:2:0:0:
148,321,6334,5,8,3:2:0:0:
352,242,6461,1,8,3:2:0:0:
358,254,6716,5,8,3:2:0:0:
196,190,6843,1,8,3:2:0:0:
401,101,7097,5,8,3:2:0:0:
237,11,7351,6,0,B|225:54|225:54|267:106,1,90,2|0,0:3|0:0,0:0:0:0:
473,348,8368,5,6,3:2:0:0:
492,208,8495,2,0,P|426:195|381:183,1,90,2|8,0:0|0:0,0:0:0:0:
246,159,8749,5,2,0:0:0:0:
227,299,8876,2,0,P|293:312|338:324,1,90,2|0,3:2|0:0,0:0:0:0:
402,265,9131,2,0,B|370:234|370:234|320:243,1,90,10|0,0:2|0:0,0:0:0:0:
96,372,9385,5,2,3:2:0:0:
39,220,9512,2,0,P|96:202|119:168,1,90,2|8,0:2|0:0,0:0:0:0:
263,150,9766,5,2,0:0:0:0:
320,302,9893,2,0,P|263:320|240:354,1,90,2|0,3:2|0:0,0:0:0:0:
146,298,10148,5,10,0:2:0:0:
180,230,10275,1,0,3:0:0:0:
23,168,10402,5,2,3:2:0:0:
54,21,10529,2,0,B|95:9|95:9|150:50,1,90,2|8,0:0|0:0,0:0:0:0:
304,92,10783,5,2,0:0:0:0:
273,239,10910,2,0,B|232:251|232:251|177:210,1,90,2|0,3:2|0:0,0:0:0:0:
123,143,11165,2,0,P|179:127|227:114,1,90,10|0,0:2|0:0,0:0:0:0:
484,54,11419,5,2,3:2:0:0:
341,5,11546,2,0,P|313:54|323:96,1,90,2|8,0:0|0:0,0:0:0:0:
344,192,11800,5,2,0:0:0:0:
487,241,11927,2,0,P|515:192|505:150,1,90,2|0,3:2|0:0,0:0:0:0:
443,118,12182,5,10,0:2:0:0:
362,142,12309,1,0,3:0:0:0:
265,261,12436,5,2,3:2:0:0:
233,94,12563,2,0,P|279:82|330:69,1,90,2|8,0:0|0:0,0:0:0:0:
480,18,12817,5,2,0:0:0:0:
512,185,12944,2,0,P|466:197|415:210,1,90,2|0,3:2|0:0,0:0:0:0:
272,163,13199,2,0,P|287:220|326:235,1,90,10|0,0:2|0:0,0:0:0:0:
427,366,13453,5,2,3:2:0:0:
504,206,13580,2,0,B|470:178|470:178|414:190,1,90,2|8,0:0|0:0,0:0:0:0:
290,144,13834,5,2,0:0:0:0:
213,304,13961,2,0,B|247:332|247:332|303:320,1,90,2|0,3:2|0:0,0:0:0:0:
410,281,14216,5,10,0:2:0:0:
341,239,14343,1,0,3:0:0:0:
133,354,14470,5,2,3:2:0:0:
76,196,14597,2,0,P|123:162|167:177,1,90,2|8,0:0|0:0,0:0:0:0:
281,169,14851,5,2,0:0:0:0:
338,327,14978,2,0,P|291:361|247:346,1,90,2|0,3:2|0:0,0:0:0:0:
240,273,15232,5,10,0:2:0:0:
152,248,15360,1,10,0:2:0:0:
21,306,15487,5,10,0:0:0:0:
119,128,15614,2,0,P|183:142|222:171,1,90,2|0,3:1|0:0,0:0:0:0:
161,40,15868,5,10,0:0:0:0:
259,218,15995,2,0,P|323:204|362:175,1,90,2|0,3:1|0:0,0:0:0:0:
409,50,16249,2,0,B|368:69|368:69|357:117,1,90,2|0,3:1|0:0,0:0:0:0:
455,128,16504,5,6,3:2:0:0:
496,270,16631,2,0,P|445:287|397:313,1,90,2|8,0:0|0:2,0:0:0:0:
278,354,16885,5,2,0:0:0:0:
237,212,17012,2,0,P|288:195|336:169,1,90,2|0,3:2|0:0,0:0:0:0:
415,281,17266,2,0,B|376:257|376:257|330:280,1,90,10|0,0:2|0:0,0:0:0:0:
120,341,17521,5,2,3:2:0:0:
6,228,17648,2,0,P|23:186|72:166,1,90,2|8,0:0|0:0,0:0:0:0:
165,156,17902,5,2,0:0:0:0:
279,269,18029,2,0,P|262:311|213:331,1,90,2|0,3:2|0:0,0:0:0:0:
91,262,18283,5,10,0:2:0:0:
170,244,18410,1,0,3:0:0:0:
240,107,18538,5,2,3:2:0:0:
90,38,18665,2,0,P|71:82|46:129,1,90,2|8,0:0|0:0,0:0:0:0:
113,181,18919,5,2,0:0:0:0:
263,250,19046,2,0,P|282:206|307:159,1,90,2|0,3:2|0:0,0:0:0:0:
168,58,19300,2,0,P|196:120|228:125,1,90,10|0,0:2|0:0,0:0:0:0:
305,39,19555,5,2,3:2:0:0:
467,8,19682,2,0,B|497:41|497:41|501:104,1,90,2|8,0:0|0:0,0:0:0:0:
481,184,19936,5,2,0:0:0:0:
319,215,20063,2,0,B|289:182|289:182|285:119,1,90,2|0,3:2|0:0,0:0:0:0:
420,81,20317,5,10,0:2:0:0:
367,149,20444,1,0,3:0:0:0:
434,327,20571,5,6,3:2:0:0:
476,200,20699,2,0,P|418:177|369:159,1,90,2|8,0:0|0:0,0:0:0:0:
238,190,20953,5,2,0:0:0:0:
196,317,21081,2,0,P|254:340|303:358,1,90,2|0,3:2|0:0,0:0:0:0:
350,290,21334,2,0,B|349:245|349:245|311:211,1,90,10|0,0:2|0:0,0:0:0:0:
89,346,21588,5,2,3:2:0:0:
43,212,21716,2,0,B|77:182|77:182|132:192,1,90,2|8,0:0|0:0,0:0:0:0:
223,151,21970,5,2,0:0:0:0:
269,285,22098,2,0,B|235:315|235:315|180:305,1,90,2|0,3:2|0:0,0:0:0:0:
115,270,22351,5,10,0:2:0:0:
154,203,22478,1,0,3:0:0:0:
35,171,22605,5,2,3:2:0:0:
7,33,22732,2,0,P|47:8|94:16,1,90,2|8,0:0|0:0,0:0:0:0:
284,62,22987,5,2,0:0:0:0:
312,200,23114,2,0,P|272:225|225:217,1,90,2|0,3:2|0:0,0:0:0:0:
109,143,23368,5,10,0:2:0:0:
212,95,23495,1,10,0:2:0:0:
196,299,23622,5,10,0:2:0:0:
23,241,23749,2,0,P|6:290|13:351,1,90,2|0,3:1|0:0,0:0:0:0:
114,234,24004,5,10,0:0:0:0:
287,176,24131,2,0,P|304:225|297:286,1,90,2|0,3:1|0:0,0:0:0:0:
17,122,24385,6,0,P|76:115|171:96,1,135,2|0,3:1|0:0,0:0:0:0:
196,39,24639,6,0,P|250:72|226:151,1,135,4|0,3:1|0:0,0:0:0:0:
257,147,24894,2,0,P|316:138|357:137,1,72,0|0,3:0|0:0,0:0:0:0:
472,248,25148,2,0,P|413:239|372:238,1,72,0|0,3:0|0:0,0:0:0:0:
285,345,25402,2,0,P|344:336|385:335,1,72,0|0,3:0|0:0,0:0:0:0:
468,163,25656,5,2,3:2:0:0:
468,163,25783,2,0,B|487:132|487:132|471:94,1,72,2|0,0:2|3:0,0:0:0:0:
259,0,26038,1,2,0:2:0:0:
259,0,26165,2,0,B|239:30|239:30|255:68,1,72,2|0,3:2|0:0,0:0:0:0:
382,154,26419,5,2,3:2:0:0:
335,31,26546,1,8,0:0:0:0:
219,158,26673,6,0,P|160:148|87:136,1,108,0|0,3:0|0:0,0:0:0:0:
35,155,26927,2,0,B|1:116|1:116|24:45,1,108,0|0,3:0|0:0,0:0:0:0:
10,53,27182,5,8,3:2:0:0:
89,212,27372,1,8,0:0:0:0:
168,371,27563,1,8,0:0:0:0:
37,329,27690,6,0,P|86:314|120:303,1,72,2|2,3:2|0:2,0:0:0:0:
214,214,27944,2,0,P|263:229|297:240,1,72,0|2,3:0|0:2,0:0:0:0:
373,295,28199,5,2,3:2:0:0:
512,253,28326,1,8,0:0:0:0:
373,295,28453,2,0,B|359:328|359:328|381:366,1,72,2|0,3:2|3:0,0:0:0:0:
456,195,28707,6,0,P|467:143|482:71,1,108,0|0,3:0|0:0,0:0:0:0:
494,81,28961,1,0,3:0:0:0:
269,0,29216,2,0,P|288:60|312:141,1,144,0|0,3:0|3:0,0:0:0:0:
195,51,29724,5,2,3:2:0:0:
195,51,29851,2,0,B|164:32|164:32|126:48,1,72,2|0,0:2|3:0,0:0:0:0:
283,206,30106,1,2,0:2:0:0:
283,206,30233,2,0,B|313:226|313:226|351:210,1,72,2|0,3:2|0:0,0:0:0:0:
159,119,30487,6,0,P|167:167|180:236,1,108,2|0,3:2|0:0,0:0:0:0:
184,235,30741,1,0,3:0:0:0:
66,94,30868,1,8,0:0:0:0:
249,124,30995,2,0,P|309:109|412:80,1,144,0|0,3:0|3:0,0:0:0:0:
443,331,31504,5,0,3:0:0:0:
385,270,31631,1,0,1:0:0:0:
385,270,31694,1,0,1:0:0:0:
385,270,31758,2,0,B|303:291|349:319|267:350,1,144,2|0,3:2|3:0,0:0:0:0:
102,264,32139,5,10,0:2:0:0:
76,363,32266,1,2,3:2:0:0:
179,281,32394,5,4,0:3:0:0:
53,196,32521,1,2,3:2:0:0:
202,115,32648,1,0,3:0:0:0:
83,18,32775,6,0,P|94:67|107:138,1,108,4|0,3:1|0:0,0:0:0:0:
114,138,33029,2,0,P|166:148|213:160,1,72,0|0,3:0|0:0,0:0:0:0:
321,195,33283,2,0,P|367:181|407:173,1,72,0|0,3:0|0:0,0:0:0:0:
77,251,33538,2,0,P|114:236|168:220,1,72,0|0,3:0|0:0,0:0:0:0:
282,110,33792,5,2,3:2:0:0:
282,110,33919,2,0,B|261:76|261:76|285:31,1,72,2|0,0:2|3:0,0:0:0:0:
478,0,34173,1,2,0:2:0:0:
478,0,34300,2,0,B|499:34|499:34|475:79,1,72,2|0,3:2|0:0,0:0:0:0:
427,122,34555,5,2,3:2:0:0:
346,0,34682,1,8,0:0:0:0:
192,43,34809,6,0,P|130:63|81:74,1,108,0|0,3:0|1:0,0:0:0:0:
32,123,35063,2,0,B|18:160|18:160|54:229,1,108,0|0,3:0|0:0,0:0:0:0:
43,233,35317,5,8,3:2:0:0:
215,279,35508,1,8,0:0:0:0:
387,325,35699,1,8,0:0:0:0:
304,199,35826,6,0,P|299:238|297:291,1,72,2|2,3:2|0:2,0:0:0:0:
87,305,36080,2,0,P|92:344|94:397,1,72,0|2,3:2|0:2,0:0:0:0:
198,192,36334,5,2,3:2:0:0:
62,110,36461,1,8,0:0:0:0:
241,72,36588,5,2,3:2:0:0:
241,72,36716,1,0,3:0:0:0:
34,243,36843,6,0,P|92:208|107:156,1,108,0|0,3:0|0:0,0:0:0:0:
116,160,37097,2,0,P|161:147|202:137,1,72,0|0,3:0|0:0,0:0:0:0:
339,231,37351,2,0,P|395:246|496:275,1,144,0|8,3:0|0:0,0:0:0:0:
302,368,37732,5,0,0:0:0:0:
302,368,37796,1,0,1:0:0:0:
302,368,37860,2,0,P|295:326|286:285,1,72,2|2,3:2|0:2,0:0:0:0:
419,205,38114,5,0,3:0:0:0:
419,205,38241,1,2,3:2:0:0:
343,140,38368,1,2,3:2:0:0:
343,140,38495,1,0,3:2:0:0:
459,53,38622,2,0,B|481:83|481:83|468:128,1,72,2|0,3:2|0:0,0:0:0:0:
309,164,38877,5,0,3:0:0:0:
192,38,39004,1,8,0:0:0:0:
192,38,39131,2,0,P|141:51|100:61,1,72,0|0,3:0|0:0,0:0:0:0:
0,186,39385,2,0,P|50:199|91:209,1,72,0|0,3:0|0:0,0:0:0:0:
193,160,39639,5,0,3:0:0:0:
77,287,39766,1,8,0:0:0:0:
77,287,39830,1,8,0:0:0:0:
77,287,39894,2,0,P|129:297|157:305,1,72,2|10,3:2|0:0,0:0:0:0:
209,357,40084,5,8,0:0:0:0:
209,357,40148,1,8,0:3:0:0:
127,106,40275,1,2,3:2:0:0:
221,239,40402,5,10,0:0:0:0:
51,162,40529,1,8,0:0:0:0:
221,239,40656,2,0,B|278:218|247:192|321:176,1,108,2|0,3:2|0:0,0:0:0:0:
353,119,40910,6,0,P|427:154|416:197,1,135,4|0,3:2|0:0,0:0:0:0:
412,207,41165,1,8,0:0:0:0:
506,236,41292,1,2,3:2:0:0:
428,342,41419,2,0,P|362:354|321:364,1,90,2|0,3:2|0:0,0:0:0:0:
255,244,41673,2,0,P|244:190|221:98,1,135,8|0,0:0|0:0,0:0:0:0:
256,97,41927,6,0,B|280:119|280:119|239:203,1,90,2|0,3:2|0:0,0:0:0:0:
221,343,42182,1,8,0:0:0:0:
221,343,42309,1,2,3:2:0:0:
312,314,42436,1,0,3:0:0:0:
193,208,42563,1,2,0:3:0:0:
375,115,42690,2,0,B|413:36|413:36|367:-18,1,135,10|0,0:0|0:0,0:0:0:0:
337,67,42944,6,0,P|347:124|356:180,1,90,2|2,3:2|0:0,0:0:0:0:
426,203,43199,1,8,0:0:0:0:
497,162,43326,1,2,3:2:0:0:
339,174,43453,2,0,B|244:179|259:242|181:266,1,180,2|10,3:2|0:0,0:0:0:0:
122,231,43834,1,0,0:0:0:0:
0,363,43961,6,0,P|7:291|2:238,1,90,2|2,3:1|0:1,0:0:0:0:
6,89,44216,2,0,P|-1:17|4:-36,1,90,8|2,0:0|0:1,0:0:0:0:
5,137,44470,6,0,P|7:167|5:191,1,54,2|0,3:1|0:0,0:0:0:0:
92,96,44724,6,0,B|166:74|160:165|229:167,1,135,2|0,1:1|0:0,0:0:0:0:
213,169,44978,5,0,3:0:0:0:
288,154,45105,1,0,0:0:0:0:
338,34,45232,2,0,P|388:25|430:14,1,90,10|0,0:0|3:0,0:0:0:0:
274,239,45487,2,0,P|353:217|420:191,1,135,2|0,3:2|0:0,0:0:0:0:
415,185,45741,1,10,0:0:0:0:
490,213,45868,1,2,0:0:0:0:
435,325,45995,5,2,3:2:0:0:
360,350,46122,1,2,0:0:0:0:
274,239,46249,5,8,0:0:0:0:
196,200,46377,1,2,3:2:0:0:
202,282,46504,1,2,3:2:0:0:
413,105,46758,6,0,P|403:182|396:266,1,135,10|0,0:0|0:0,0:0:0:0:
432,307,47012,2,0,B|463:339|463:339|515:325,1,90,2|2,3:2|0:0,0:0:0:0:
366,173,47266,1,10,0:0:0:0:
480,210,47394,1,0,3:0:0:0:
480,210,47521,2,0,P|409:238|319:277,1,135,2|0,3:2|0:0,0:0:0:0:
303,384,47775,2,0,P|299:344|289:292,1,90,10|0,0:0|0:0,0:0:0:0:
243,107,48029,5,2,3:2:0:0:
206,41,48156,1,0,3:0:0:0:
269,0,48283,1,10,0:0:0:0:
250,220,48410,5,0,3:0:0:0:
312,170,48538,1,2,3:2:0:0:
289,93,48665,1,2,3:2:0:0:
170,184,48792,6,0,P|120:200|75:213,1,90,8|2,0:0|3:2,0:0:0:0:
424,270,49046,1,4,3:1:0:0:
66,359,49300,5,8,0:0:0:0:
153,267,49427,1,2,3:2:0:0:
213,318,49555,2,0,P|266:312|310:309,1,90,2|0,3:2|0:0,0:0:0:0:
79,237,49809,2,0,P|34:195|65:119,1,135,10|0,0:2|0:0,0:0:0:0:
113,86,50063,5,2,3:0:0:0:
113,86,50190,2,0,L|169:94,1,45,2|0,0:3|0:0,0:0:0:0:
211,154,50317,1,8,0:0:0:0:
35,138,50444,1,2,3:1:0:0:
90,0,50571,2,0,B|71:35|71:35|101:91,1,90,2|0,3:1|0:0,0:0:0:0:
225,260,50826,2,0,B|154:237|183:203|73:185,1,135,10|0,0:0|0:0,0:0:0:0:
23,249,51080,6,0,P|76:238|137:232,1,90,2|2,3:2|0:0,0:0:0:0:
282,207,51334,1,8,0:2:0:0:
360,201,51461,1,2,3:2:0:0:
415,264,51588,2,0,P|468:303|507:300,1,90,2|0,3:2|0:0,0:0:0:0:
218,358,51843,2,0,B|234:291|281:321|305:228,1,135,10|0,0:0|0:0,0:0:0:0:
261,181,52097,6,0,B|243:138|243:138|285:95,1,90,2|2,3:1|0:1,0:0:0:0:
345,130,52351,1,8,0:0:0:0:
183,190,52478,1,2,0:1:0:0:
218,52,52605,6,0,P|215:21|204:-6,1,54,2|0,3:1|0:0,0:0:0:0:
113,30,52860,6,0,P|211:62|290:125,1,180,2|0,1:1|3:0,0:0:0:0:
339,264,53241,5,0,0:0:0:0:
260,224,53368,2,0,P|263:286|263:319,1,90,10|0,0:0|3:0,0:0:0:0:
398,357,53622,2,0,P|409:297|435:203,1,135,2|0,3:2|0:0,0:0:0:0:
438,213,53877,1,10,0:0:0:0:
507,175,54004,1,2,0:0:0:0:
429,98,54131,5,2,3:2:0:0:
393,86,54258,1,2,0:0:0:0:
301,44,54385,5,8,0:0:0:0:
228,27,54512,1,2,3:2:0:0:
282,181,54639,6,0,P|224:201|177:219,1,90,2|0,3:2|0:0,0:0:0:0:
129,173,54894,1,10,0:0:0:0:
133,96,55021,1,0,3:0:0:0:
16,152,55148,6,0,B|50:184|50:184|39:253,1,90,2|0,3:0|0:0,0:0:0:0:
150,362,55402,2,0,B|184:330|184:330|173:261,1,90,8|2,0:0|0:3,0:0:0:0:
8,353,55656,5,0,3:0:0:0:
101,280,55783,1,2,0:2:0:0:
260,384,55910,2,0,P|264:335|269:276,1,90,10|2,0:0|3:0,0:0:0:0:
266,0,56165,5,14,0:0:0:0:
218,82,56292,1,10,0:0:0:0:
218,82,56355,1,8,0:0:0:0:
218,82,56419,2,0,L|234:154,1,45,10|8,3:2|0:0,0:0:0:0:
292,180,56546,1,10,0:0:0:0:
288,193,56610,1,8,0:0:0:0:
283,206,56673,5,2,3:2:0:0:
512,46,56927,5,2,0:0:0:0:
512,46,57182,2,0,P|451:56|378:68,1,135.000005149842,6|0,3:2|0:0,0:0:0:0:
201,266,57436,1,14,0:2:0:0:
313,302,57563,1,0,0:0:0:0:
260,361,57690,6,0,P|260:268|273:115,1,202.500007724762,2|0,3:2|0:0,0:0:0:0:
276,148,57944,1,10,0:0:0:0:
259,32,58071,1,2,0:0:0:0:
340,225,58199,6,0,B|396:214|396:214|449:275,1,112.5,2|0,3:2|0:0,0:0:0:0:
145,169,58453,1,10,0:0:0:0:
69,30,58580,1,2,0:0:0:0:
9,182,58707,6,0,P|114:130|203:104,1,168.75,2|0,3:2|0:0,0:0:0:0:
172,97,58961,1,10,0:0:0:0:
250,116,59088,1,2,0:0:0:0:
316,330,59216,5,2,3:2:0:0:
418,350,59343,1,2,0:2:0:0:
298,214,59470,5,10,0:2:0:0:
173,242,59597,1,2,0:2:0:0:
85,377,59724,5,2,3:2:0:0:
1,352,59851,1,2,0:2:0:0:
66,202,59978,5,10,0:2:0:0:
215,160,60105,1,2,0:2:0:0:
103,298,60232,2,0,P|116:231|144:115,1,168.75,2|0,3:2|0:0,0:0:0:0:
159,97,60487,5,10,0:0:0:0:
311,52,60614,1,2,0:0:0:0:
184,277,60741,2,0,P|202:194|211:159,1,112.5,2|0,3:2|0:0,0:0:0:0:
405,192,60995,5,10,0:0:0:0:
434,289,61122,1,0,0:0:0:0:
464,378,61249,1,6,3:2:0:0:
329,281,61377,1,0,0:0:0:0:
439,211,61504,6,0,B|476:165|476:165|451:95,1,112.5,10|0,3:2|0:0,0:0:0:0:
300,174,61758,2,0,B|282:123|282:123|319:77,1,112.5,2|0,3:2|0:0,0:0:0:0:
99,232,62012,5,10,0:0:0:0:
44,320,62139,1,2,0:0:0:0:
146,361,62266,2,0,P|205:339|256:320,1,112.5,2|0,3:2|0:0,0:0:0:0:
130,95,62521,5,10,0:0:0:0:
38,125,62648,1,2,0:0:0:0:
54,232,62775,2,0,P|115:252|167:271,1,112.5,2|0,3:2|0:0,0:0:0:0:
250,154,63029,2,0,B|285:108|285:108|257:49,1,112.5,10|2,0:0|0:0,0:0:0:0:
203,7,63283,5,2,3:2:0:0:
277,42,63410,1,2,0:0:0:0:
225,167,63538,5,10,0:0:0:0:
256,363,63665,1,2,0:0:0:0:
224,319,63792,2,0,P|244:259|258:232,1,90,2|0,3:2|0:0,0:0:0:0:
332,197,64046,5,10,0:0:0:0:
147,262,64173,1,10,0:0:0:0:
324,315,64300,5,2,3:2:0:0:
409,351,64427,1,10,0:0:0:0:
489,223,64555,1,10,0:0:0:0:
336,95,64682,5,2,3:2:0:0:
399,238,64809,2,0,B|376:196|376:196|411:143,1,90,10|10,0:0|0:0,0:0:0:0:
293,164,65063,5,2,3:2:0:0:
218,154,65190,1,0,3:2:0:0:
112,296,65317,6,0,P|98:292|80:292,1,27,2|0,0:1|0:0,0:0:0:0:
0,376,65571,6,0,P|82:329|234:281,1,202.500007724762,14|0,3:2|0:0,0:0:0:0:
198,296,65826,2,0,B|235:236|235:236|196:182,1,135.000005149842,14|0,3:2|0:0,0:0:0:0:
34,156,66080,1,10,0:0:0:0:
6,64,66207,1,2,0:2:0:0:
160,113,66334,6,0,P|152:193|145:254,1,112.5,2|0,3:2|0:0,0:0:0:0:
319,93,66588,1,10,0:0:0:0:
451,53,66716,1,2,0:0:0:0:
249,21,66843,6,0,B|251:117|306:88|315:191,1,168.75,2|0,3:2|0:0,0:0:0:0:
327,190,67097,1,10,0:2:0:0:
457,223,67224,1,2,0:2:0:0:
329,293,67351,5,2,3:2:0:0:
297,375,67478,1,2,0:2:0:0:
158,281,67605,5,10,0:2:0:0:
146,143,67732,1,2,0:2:0:0:
282,186,67860,5,2,3:2:0:0:
300,99,67987,1,2,0:2:0:0:
59,75,68114,5,10,0:2:0:0:
86,233,68241,1,2,0:2:0:0:
224,131,68368,2,0,P|303:163|395:209,1,168.75,2|0,3:2|0:0,0:0:0:0:
388,220,68622,5,10,0:0:0:0:
353,382,68749,1,2,0:0:0:0:
302,247,68877,2,0,P|243:220|188:201,1,112.5,2|0,3:2|0:0,0:0:0:0:
0,348,69131,5,10,0:0:0:0:
95,318,69258,1,0,0:0:0:0:
193,292,69385,1,6,3:2:0:0:
137,384,69512,1,0,0:0:0:0:
38,251,69639,6,0,B|-7:212|-7:212|0:155,1,112.5,10|0,3:2|0:0,0:0:0:0:
188,187,69894,2,0,B|194:134|194:134|149:95,1,112.5,2|0,3:2|0:0,0:0:0:0:
184,9,70148,5,10,0:0:0:0:
329,116,70275,1,2,0:0:0:0:
261,191,70402,2,0,P|274:253|283:313,1,112.5,2|0,3:2|0:0,0:0:0:0:
235,375,70656,5,10,0:0:0:0:
192,280,70783,1,2,0:0:0:0:
349,230,70910,2,0,P|363:167|373:104,1,112.5,2|0,3:2|0:0,0:0:0:0:
447,214,71165,2,0,B|490:258|490:258|474:314,1,112.5,10|2,0:0|0:0,0:0:0:0:
416,358,71419,5,2,3:2:0:0:
221,283,71546,1,10,0:0:0:0:
270,225,71673,5,2,3:2:0:0:
306,212,71800,1,2,0:0:0:0:
218,97,71927,2,0,P|208:156|203:192,1,90,2|8,3:2|0:0,0:0:0:0:
366,138,72182,1,2,3:2:0:0:
303,67,72309,1,2,0:0:0:0:
149,19,72436,5,10,0:0:0:0:
292,144,72563,1,10,0:0:0:0:
284,138,72627,1,8,0:0:0:0:
284,148,72690,1,10,0:0:0:0:
463,79,72817,1,10,0:0:0:0:
328,219,72944,5,10,0:0:0:0:
303,67,73071,1,10,0:0:0:0:
210,185,73199,1,2,3:2:0:0:
210,185,73326,1,0,3:0:0:0:
281,347,73453,5,6,3:2:0:0:
420,274,73580,2,0,P|432:221|445:175,1,90,2|8,0:0|0:0,0:0:0:0:
304,137,73834,5,2,0:0:0:0:
165,210,73961,2,0,P|152:262|139:308,1,90,2|0,3:2|0:0,0:0:0:0:
217,121,74216,2,0,B|229:71|229:71|185:24,1,90,10|0,0:2|0:0,0:0:0:0:
66,11,74470,5,2,3:2:0:0:
0,165,74597,2,0,P|59:184|104:203,1,90,2|8,0:0|0:0,0:0:0:0:
263,271,74851,5,2,0:0:0:0:
329,117,74978,2,0,P|270:98|225:79,1,90,2|0,3:2|0:0,0:0:0:0:
130,119,75232,5,10,0:2:0:0:
207,155,75360,1,0,3:0:0:0:
97,343,75487,5,2,3:2:0:0:
5,273,75614,2,0,P|18:216|39:175,1,90,2|8,0:0|0:0,0:0:0:0:
194,164,75868,5,2,0:0:0:0:
286,234,75995,2,0,P|273:291|252:332,1,90,2|0,3:2|0:0,0:0:0:0:
97,265,76249,2,0,B|140:281|140:281|186:249,1,90,10|0,0:2|0:0,0:0:0:0:
332,40,76504,5,2,3:2:0:0:
212,104,76631,2,0,B|200:149|200:149|239:187,1,90,2|8,0:0|0:0,0:0:0:0:
368,241,76885,5,2,0:0:0:0:
488,177,77012,2,0,B|500:132|500:132|461:94,1,90,2|0,3:2|0:0,0:0:0:0:
315,173,77266,5,10,0:2:0:0:
388,103,77394,1,0,3:0:0:0:
469,257,77521,5,2,3:2:0:0:
395,374,77648,2,0,P|343:354|298:343,1,90,2|8,0:0|0:0,0:0:0:0:
165,249,77902,5,2,0:0:0:0:
239,132,78029,2,0,P|291:152|336:163,1,90,2|0,3:2|0:0,0:0:0:0:
373,284,78283,2,0,P|327:248|284:244,1,90,10|0,0:2|0:0,0:0:0:0:
62,330,78538,5,2,3:2:0:0:
203,384,78665,2,0,L|237:289,1,90,2|8,0:0|0:0,0:0:0:0:
182,160,78919,5,2,0:0:0:0:
41,106,79046,2,0,L|7:201,1,90,2|0,3:2|0:0,0:0:0:0:
88,256,79300,5,10,0:2:0:0:
163,234,79427,1,0,3:0:0:0:
267,155,79555,5,2,3:2:0:0:
413,226,79682,2,0,B|456:206|456:206|459:154,1,90,2|8,0:0|0:0,0:0:0:0:
410,71,79936,5,2,0:0:0:0:
264,0,80063,2,0,B|221:20|221:20|218:72,1,90,2|0,3:2|0:0,0:0:0:0:
326,225,80317,5,10,0:0:0:0:
310,77,80444,1,8,0:0:0:0:
367,153,80571,5,10,0:0:0:0:
225,261,80699,1,2,3:1:0:0:
225,261,80762,1,0,3:0:0:0:
225,261,80826,1,0,3:0:0:0:
282,331,80953,2,0,L|335:312,1,45,10|0,0:0|0:0,0:0:0:0:
470,280,81080,5,2,3:1:0:0:
501,350,81207,1,0,3:0:0:0:
429,383,81334,5,2,1:0:0:0:
399,225,81461,1,2,0:1:0:0:
120,365,81970,6,0,L|131:304,1,45,14|0,0:0|0:0,0:0:0:0:
167,83,82097,6,0,B|204:108|204:108|255:92,1,90,2|0,3:2|0:0,0:0:0:0:
379,18,82351,2,0,P|370:73|364:126,1,90,10|0,0:0|0:0,0:0:0:0:
323,343,82605,5,2,3:2:0:0:
463,296,82732,2,0,P|473:250|435:214,1,90,2|8,0:0|0:0,0:0:0:0:
314,163,82987,5,2,0:0:0:0:
174,210,83114,2,0,P|164:256|202:292,1,90,2|0,3:2|0:0,0:0:0:0:
332,262,83368,5,10,0:2:0:0:
261,230,83495,1,0,3:0:0:0:
76,360,83622,5,2,3:2:0:0:
9,214,83749,2,0,P|57:192|101:167,1,90,2|8,0:0|0:0,0:0:0:0:
265,145,84004,5,2,0:0:0:0:
332,291,84131,2,0,P|284:313|240:338,1,90,2|0,3:2|0:0,0:0:0:0:
148,292,84385,2,0,B|132:251|132:251|179:192,1,90,10|0,0:2|0:0,0:0:0:0:
226,53,84639,5,2,3:2:0:0:
49,22,84766,2,0,B|24:60|24:60|43:106,1,90,2|8,0:0|0:0,0:0:0:0:
89,193,85021,5,2,0:0:0:0:
266,224,85148,2,0,B|291:186|291:186|272:140,1,90,2|0,3:2|0:0,0:0:0:0:
179,97,85402,5,10,0:2:0:0:
257,71,85529,1,0,3:0:0:0:
408,108,85656,5,6,3:2:0:0:
512,202,85783,2,0,P|492:254|478:305,1,90,2|8,0:0|0:0,0:0:0:0:
369,342,86038,5,2,0:0:0:0:
246,268,86165,2,0,P|266:216|280:165,1,90,2|0,3:2|0:0,0:0:0:0:
419,218,86419,2,0,P|353:247|348:282,1,90,10|0,0:2|0:0,0:0:0:0:
234,367,86673,5,2,3:2:0:0:
187,197,86800,2,0,B|147:221|147:221|97:201,1,90,2|8,0:0|0:0,0:0:0:0:
0,193,87055,5,2,0:0:0:0:
47,363,87182,2,0,B|87:339|87:339|137:359,1,90,2|0,3:2|0:0,0:0:0:0:
227,289,87436,5,10,0:2:0:0:
268,220,87563,1,0,3:0:0:0:
194,108,87690,5,2,3:2:0:0:
52,203,87817,2,0,B|16:175|16:175|22:120,1,90,2|8,0:0|0:0,0:0:0:0:
68,67,88071,5,2,0:0:0:0:
229,0,88198,2,0,B|265:28|265:28|259:83,1,90,2|0,3:2|0:0,0:0:0:0:
120,132,88453,5,10,0:0:0:0:
280,219,88580,1,8,0:0:0:0:
177,232,88707,5,8,0:0:0:0:
348,154,88834,2,0,P|378:113|388:72,1,90,2|0,3:1|0:0,0:0:0:0:
248,149,89088,5,8,0:0:0:0:
426,227,89215,2,0,P|456:268|466:309,1,90,2|0,3:1|0:0,0:0:0:0:
371,361,89470,5,2,3:1:0:0:
291,327,89597,1,0,3:0:0:0:
357,194,89724,6,0,P|367:134|382:47,1,135,4|0,3:2|0:0,0:0:0:0:
398,47,89978,2,0,P|435:36|467:67,1,72,8|0,3:2|0:0,0:0:0:0:
285,161,90232,2,0,P|248:150|216:181,1,72,0|0,3:0|0:0,0:0:0:0:
430,216,90487,2,0,P|445:281|453:320,1,72,8|0,3:2|0:0,0:0:0:0:
308,375,90741,6,0,P|254:355|237:293,1,108,0|0,3:0|0:0,0:0:0:0:
251,291,90995,2,0,P|297:301|327:304,1,72,8|0,3:2|0:0,0:0:0:0:
151,316,91249,6,0,P|164:261|177:190,1,108,0|0,3:0|0:0,0:0:0:0:
162,194,91504,2,0,P|117:199|97:229,1,72,8|0,3:2|0:0,0:0:0:0:
9,329,91758,6,0,P|45:345|65:362,1,54,0|0,3:0|0:0,0:0:0:0:
71,380,92012,2,0,P|59:325|42:253,1,108,8|0,3:2|0:0,0:0:0:0:
3,204,92266,6,0,P|43:226|56:266,1,72,0|0,3:0|0:0,0:0:0:0:
123,72,92521,2,0,P|135:115|116:153,1,72,8|0,3:2|0:0,0:0:0:0:
301,63,92775,2,0,P|279:102|239:116,1,72,0|0,3:0|0:0,0:0:0:0:
47,117,93029,6,0,P|111:148|183:215,2,144,8|0|8,3:2|3:0|3:2,0:0:0:0:
308,124,93792,2,0,P|369:95|397:50,1,108,0|0,3:0|0:0,0:0:0:0:
404,40,94046,2,0,P|420:100|425:126,1,72,8|0,3:2|0:0,0:0:0:0:
418,334,94300,6,0,P|455:326|475:288,1,72,0|0,3:0|0:0,0:0:0:0:
512,236,94555,2,0,P|486:207|443:209,1,72,8|0,3:2|0:0,0:0:0:0:
381,204,94809,2,0,P|369:240|392:276,1,72,0|0,3:0|0:0,0:0:0:0:
273,378,95063,6,0,P|285:326|291:214,2,144,8|0|8,3:2|3:0|3:2,0:0:0:0:
226,173,95826,2,0,P|211:127|226:53,1,108,0|0,3:0|0:0,0:0:0:0:
238,58,96080,2,0,P|280:81|289:113,1,72,8|0,3:2|0:0,0:0:0:0:
164,236,96334,6,0,P|118:224|71:218,1,72,0|0,3:0|0:0,0:0:0:0:
19,369,96588,2,0,P|54:342|58:292,1,72,8|0,3:2|0:0,0:0:0:0:
195,166,96843,6,0,P|255:190|309:225,1,108,0|0,3:0|0:0,0:0:0:0:
311,223,97097,2,0,P|295:183|265:147,1,72,8|0,3:2|0:0,0:0:0:0:
340,53,97351,2,0,P|347:102|349:136,1,72,0|0,3:0|0:0,0:0:0:0:
403,175,97605,2,0,P|434:141|454:100,1,72,8|0,3:2|0:0,0:0:0:0:
508,361,97860,6,0,B|449:350|481:323|392:301,1,108,4|0,3:2|0:0,0:0:0:0:
403,296,98114,2,0,P|367:309|329:328,1,72,8|0,3:2|0:0,0:0:0:0:
237,361,98368,1,0,3:0:0:0:
237,361,98495,1,0,0:0:0:0:
291,261,98622,2,0,P|291:215|257:192,1,72,8|0,3:2|0:0,0:0:0:0:
125,218,98877,6,0,P|123:283|167:334,1,108,0|0,3:0|0:0,0:0:0:0:
164,330,99131,2,0,P|196:313|239:305,1,72,8|0,3:2|0:0,0:0:0:0:
38,244,99385,2,0,P|35:182|72:121,1,108,0|0,3:0|0:0,0:0:0:0:
67,134,99639,1,8,3:2:0:0:
143,111,99766,1,0,0:0:0:0:
221,198,99894,6,0,P|239:148|270:114,1,72,0|0,3:0|0:0,0:0:0:0:
376,107,100148,2,0,P|421:59|411:0,1,108,8|0,3:2|0:0,0:0:0:0:
408,8,100402,2,0,P|410:97|433:177,2,144,0|8|0,3:0|3:2|3:0,0:0:0:0:
405,354,101165,6,0,P|436:303|480:293,1,108,8|0,3:2|0:0,0:0:0:0:
490,299,101419,2,0,P|511:268|509:223,1,72,0|0,3:0|0:0,0:0:0:0:
391,225,101673,2,0,P|383:188|350:157,1,72,8|0,3:2|0:0,0:0:0:0:
233,91,101927,6,0,B|174:76|208:56|122:39,1,108,0|0,3:0|0:0,0:0:0:0:
125,34,102182,2,0,P|132:82|155:117,1,72,8|0,3:2|0:0,0:0:0:0:
148,212,102436,6,0,B|86:225|109:195|34:212,1,108,0|0,3:0|0:0,0:0:0:0:
26,202,102690,2,0,P|48:248|94:269,1,72,8|0,3:2|0:0,0:0:0:0:
207,295,102944,6,0,B|153:346|150:316|94:370,1,108,0|0,3:0|0:0,0:0:0:0:
101,363,103199,2,0,P|70:341|30:329,1,72,8|0,3:2|0:0,0:0:0:0:
179,223,103453,2,0,P|172:185|152:148,1,72,0|0,3:0|0:0,0:0:0:0:
40,15,103707,2,0,P|62:67|80:133,1,108,8|0,3:2|0:0,0:0:0:0:
68,130,103961,2,0,P|60:169|97:189,1,72,0|0,3:0|0:0,0:0:0:0:
240,120,104216,6,0,P|294:103|358:92,1,108,8|0,3:2|0:0,0:0:0:0:
359,104,104470,2,0,B|383:128|383:128|443:114,1,72,0|0,3:0|0:0,0:0:0:0:
406,36,104724,5,8,3:2:0:0:
311,178,104851,1,8,0:0:0:0:
314,190,104915,1,8,0:0:0:0:
322,182,104978,1,8,0:0:0:0:
390,225,105105,2,0,L|443:207,1,36,8|8,0:0|0:0,0:0:0:0:
494,190,105232,1,8,0:0:0:0:
271,110,105360,5,0,3:0:0:0:
316,306,105487,1,8,0:0:0:0:
396,138,105614,1,8,0:0:0:0:
393,126,105678,1,8,0:0:0:0:
385,134,105741,1,0,3:0:0:0:
259,249,105868,1,8,0:0:0:0:
399,345,105995,6,0,P|453:324|498:313,1,85.4999977169037,6|0,3:2|0:0,0:0:0:0:
413,240,106249,1,2,1:2:0:0:
337,212,106377,1,0,0:0:0:0:
268,333,106504,2,0,P|215:348|135:374,1,128.249996575356,2|0,3:2|0:0,0:0:0:0:
135,363,106758,1,2,1:2:0:0:
200,270,106885,1,2,0:0:0:0:
200,270,107012,2,0,P|155:257|105:238,1,85.4999977169037,0|2,3:0|0:0,0:0:0:0:
36,208,107266,1,0,1:0:0:0:
133,151,107394,2,0,P|92:165|51:177,1,85.4999977169037,2|0,0:0|3:0,0:0:0:0:
53,98,107648,1,2,0:3:0:0:
38,24,107775,1,2,1:3:0:0:
0,14,107902,1,2,0:3:0:0:
129,71,108029,6,0,P|184:45|241:87,1,128.249996575356,2|0,3:2|0:0,0:0:0:0:
253,89,108283,2,0,P|263:136|272:185,1,85.4999977169037,2|0,1:2|0:0,0:0:0:0:
369,214,108538,1,2,3:2:0:0:
261,249,108665,1,0,0:0:0:0:
369,214,108792,1,2,1:2:0:0:
436,298,108919,2,0,P|449:246|462:197,1,85.4999977169037,2|0,0:2|3:0,0:0:0:0:
401,123,109173,1,2,0:0:0:0:
372,46,109300,1,0,1:0:0:0:
394,21,109427,1,2,0:0:0:0:
510,136,109555,2,0,P|466:117|401:91,1,85.4999977169037,0|2,3:0|0:3,0:0:0:0:
292,86,109809,2,0,B|272:45|272:45|299:0,1,85.4999977169037,2|2,1:3|0:3,0:0:0:0:
257,160,110063,6,0,P|267:223|274:307,1,128.249996575356,6|0,3:2|0:0,0:0:0:0:
265,306,110317,1,2,1:2:0:0:
345,246,110444,1,0,0:0:0:0:
401,303,110571,2,0,P|385:350|375:388,1,85.4999977169037,2|0,3:2|0:0,0:0:0:0:
492,362,110826,1,2,1:2:0:0:
485,327,110953,1,2,0:0:0:0:
355,235,111080,2,0,P|343:193|334:144,1,85.4999977169037,0|2,3:0|0:0,0:0:0:0:
496,188,111334,1,0,1:0:0:0:
404,113,111461,2,0,P|410:63|421:23,1,85.4999977169037,2|0,0:0|0:0,0:0:0:0:
320,29,111716,1,2,0:3:0:0:
237,0,111843,1,2,1:3:0:0:
206,28,111970,1,2,0:3:0:0:
126,123,112097,6,0,P|74:141|25:159,1,85.4999977169037,2|0,3:2|0:0,0:0:0:0:
141,219,112351,2,0,P|209:237|284:261,1,128.249996575356,2|0,1:2|0:0,0:0:0:0:
279,270,112605,1,2,3:2:0:0:
331,205,112732,1,0,0:0:0:0:
189,314,112860,2,0,P|143:330|115:344,1,42.7499988584519,2|0,1:2|0:0,0:0:0:0:
78,363,112987,1,2,0:0:0:0:
204,342,113114,5,10,0:0:0:0:
47,264,113241,2,0,B|19:233|19:233|30:173,1,85.4999977169037,2|0,3:0|0:0,0:0:0:0:
0,323,113495,5,10,0:0:0:0:
233,235,113622,2,0,B|261:204|261:204|250:144,1,85.4999977169037,2|0,3:0|0:0,0:0:0:0:
48,31,113877,2,0,B|53:108|99:77|105:157,1,128.249996575356,2|0,3:2|0:0,0:0:0:0:
99,163,114131,5,6,3:2:0:0:
175,181,114258,1,0,0:0:0:0:
246,28,114385,5,10,0:2:0:0:
322,10,114512,1,0,0:0:0:0:
375,147,114639,6,0,P|432:163|502:194,1,128.249996575356,2|0,3:2|0:0,0:0:0:0:
508,207,114894,1,10,0:0:0:0:
473,55,115021,6,0,B|437:76|437:76|392:56,1,85.4999977169037,2|0,0:0|3:0,0:0:0:0:
285,114,115275,1,2,0:0:0:0:
265,212,115402,1,8,0:0:0:0:
331,257,115529,2,0,P|380:231|428:211,1,85.4999977169037,2|0,0:0|3:0,0:0:0:0:
362,151,115783,5,2,0:0:0:0:
387,318,115910,1,10,0:0:0:0:
387,318,116038,1,2,3:2:0:0:
477,295,116165,6,0,P|464:346|458:386,1,85.4999977169037,2|0,3:2|0:0,0:0:0:0:
220,354,116419,2,0,P|212:311|201:270,1,85.4999977169037,10|0,0:0|0:0,0:0:0:0:
280,228,116673,5,2,3:2:0:0:
300,154,116800,1,0,0:0:0:0:
74,164,116927,5,10,0:0:0:0:
54,90,117054,1,2,0:0:0:0:
150,38,117182,5,0,3:0:0:0:
229,59,117309,1,2,0:0:0:0:
166,116,117436,1,8,0:0:0:0:
166,116,117563,2,0,P|156:167|150:215,1,85.4999977169037,2|0,0:0|3:0,0:0:0:0:
45,312,117817,5,2,0:0:0:0:
130,296,117944,1,10,0:0:0:0:
193,356,118071,1,2,3:2:0:0:
269,274,118199,6,0,P|331:256|397:228,1,128.249996575356,6|0,3:2|0:0,0:0:0:0:
401,245,118453,1,10,0:0:0:0:
326,203,118580,1,0,0:0:0:0:
430,152,118707,2,0,P|473:139|530:123,1,85.4999977169037,2|0,3:2|0:0,0:0:0:0:
415,67,118961,1,10,0:0:0:0:
300,32,119088,5,2,0:0:0:0:
254,101,119216,2,0,B|267:173|300:147|313:236,1,128.249996575356,0|0,3:0|0:0,0:0:0:0:
287,233,119470,1,8,0:0:0:0:
342,299,119597,2,0,P|327:362|324:396,1,85.4999977169037,2|0,0:0|3:0,0:0:0:0:
253,329,119851,5,2,0:0:0:0:
388,227,119978,1,10,0:0:0:0:
304,134,120105,1,2,3:2:0:0:
356,76,120232,6,0,B|406:94|378:123|455:147,1,85.4999977169037,2|0,3:2|0:0,0:0:0:0:
203,218,120487,2,0,B|123:252|166:277|76:324,1,128.249996575356,10|0,0:0|0:0,0:0:0:0:
63,367,120741,2,0,P|17:341|6:282,1,85.4999977169037,2|0,3:2|0:0,0:0:0:0:
227,141,120995,5,10,0:0:0:0:
230,384,121122,2,0,P|224:328|224:277,1,85.4999977169037,10|0,0:0|3:0,0:0:0:0:
281,206,121377,5,10,0:0:0:0:
149,138,121504,1,0,3:0:0:0:
280,62,121631,1,10,0:0:0:0:
201,28,121758,5,8,0:3:0:0:
227,141,121885,1,10,0:3:0:0:
245,60,122012,1,6,0:3:0:0:
164,103,122139,1,6,0:3:0:0:
298,182,122266,6,0,B|331:169|331:169|393:218,1,108,2|0,0:1|0:0,0:0:0:0:
397,229,122521,6,0,P|450:222|497:231,1,90,2|0,3:0|0:0,0:0:0:0:
239,360,122775,2,0,P|292:353|339:362,1,90,2|0,3:0|0:0,0:0:0:0:
440,375,123029,1,2,3:0:0:0:
224,204,123156,2,0,P|294:175|376:128,1,135,10|0,0:0|0:0,0:0:0:0:
358,122,123410,2,0,P|411:115|458:124,1,90,2|0,3:0|0:0,0:0:0:0:
259,94,123665,5,10,0:0:0:0:
296,264,123792,1,2,3:2:0:0:
395,217,123919,1,2,3:2:0:0:
296,264,124046,2,0,P|283:317|280:361,1,90,10|0,0:0|0:0,0:0:0:0:
429,290,124300,5,10,0:0:0:0:
237,207,124491,1,10,0:0:0:0:
45,124,124682,1,10,0:0:0:0:
156,193,124809,6,0,P|113:202|69:194,1,90,2|0,3:0|0:0,0:0:0:0:
216,13,125063,1,2,3:0:0:0:
338,126,125190,2,0,P|294:134|250:126,1,90,10|0,0:0|0:0,0:0:0:0:
87,325,125444,2,0,P|43:333|0:325,1,90,2|0,3:0|0:0,0:0:0:0:
0,248,125699,1,8,0:0:0:0:
149,374,125826,5,8,0:3:0:0:
198,309,125953,1,8,0:3:0:0:
96,223,126080,5,4,0:3:0:0:
81,149,126207,1,4,0:3:0:0:
178,67,126334,6,0,P|185:125|177:162,1,90,2|0,3:0|0:0,0:0:0:0:
331,208,126588,2,0,P|338:266|330:303,1,90,2|0,3:0|0:0,0:0:0:0:
419,32,126843,2,0,P|426:90|418:127,1,90,2|0,3:0|0:0,0:0:0:0:
249,235,127097,1,2,3:0:0:0:
497,153,127224,2,0,P|465:222|449:311,1,135,10|0,0:0|0:0,0:0:0:0:
476,285,127478,2,0,P|483:343|475:380,1,90,2|0,3:0|0:0,0:0:0:0:
332,296,127732,1,10,0:0:0:0:
327,189,127860,5,2,3:1:0:0:
232,218,127987,1,2,3:1:0:0:
154,104,128114,5,2,3:1:0:0:
233,81,128241,1,2,3:1:0:0:
393,130,128368,6,0,P|401:85|391:29,1,90,10|0,0:0|0:0,0:0:0:0:
248,327,128622,2,0,P|256:282|246:226,1,90,2|0,3:0|0:0,0:0:0:0:
471,284,128877,2,0,P|479:239|469:183,1,90,2|0,3:0|0:0,0:0:0:0:
285,156,129131,1,2,3:0:0:0:
105,365,129258,2,0,P|113:320|103:264,1,90,10|0,0:0|0:0,0:0:0:0:
17,216,129512,2,0,P|23:172|19:128,1,90,2|0,3:0|0:0,0:0:0:0:
174,238,129766,1,10,0:0:0:0:
23,316,129894,5,8,0:3:0:0:
87,262,130021,1,8,0:3:0:0:
270,309,130148,5,4,0:3:0:0:
279,356,130275,1,4,0:3:0:0:
143,384,130402,6,0,P|158:335|186:312,1,72,2|0,0:1|0:0,0:0:0:0:
189,314,130593,1,0,0:0:0:0:
189,314,130656,2,0,P|193:268|185:220,1,90,2|0,3:0|0:0,0:0:0:0:
19,195,130910,2,0,P|15:149|23:101,1,90,2|0,3:0|0:0,0:0:0:0:
209,63,131165,1,2,3:0:0:0:
304,242,131292,2,0,P|347:186|372:108,1,135,10|0,0:0|0:0,0:0:0:0:
360,108,131546,2,0,P|356:62|364:14,1,90,2|0,3:0|0:0,0:0:0:0:
435,45,131800,5,10,0:0:0:0:
281,124,131927,1,2,3:2:0:0:
388,210,132055,1,2,3:2:0:0:
436,286,132182,2,0,B|480:292|480:292|510:247,1,90,10|0,0:0|0:0,0:0:0:0:
302,384,132436,5,10,0:0:0:0:
308,353,132499,1,2,0:0:0:0:
314,322,132563,1,2,0:0:0:0:
320,291,132627,1,2,0:0:0:0:
326,260,132690,1,10,0:0:0:0:
393,355,132817,1,8,0:0:0:0:
244,289,132944,6,0,P|192:281|148:286,1,90,2|0,3:0|0:0,0:0:0:0:
69,329,133199,1,2,3:0:0:0:
207,179,133326,2,0,P|155:187|111:182,1,90,10|0,0:0|0:0,0:0:0:0:
89,19,133580,2,0,P|44:15|0:23,1,90,2|0,3:0|0:0,0:0:0:0:
301,68,133834,5,8,0:0:0:0:
398,123,133961,1,8,0:3:0:0:
235,190,134088,5,8,0:3:0:0:
232,114,134216,1,4,0:3:0:0:
397,203,134343,5,4,0:3:0:0:
329,245,134470,2,0,P|318:298|327:343,1,90,2|0,3:0|0:0,0:0:0:0:
488,157,134724,2,0,P|499:210|490:255,1,90,2|0,3:0|0:0,0:0:0:0:
290,53,134978,2,0,P|279:106|288:151,1,90,2|0,3:0|0:0,0:0:0:0:
512,1,135232,1,2,3:0:0:0:
408,121,135360,2,0,P|397:174|406:219,1,90,10|0,0:0|0:0,0:0:0:0:
177,223,135614,2,0,P|188:276|179:321,1,90,2|0,3:0|0:0,0:0:0:0:
98,361,135868,5,8,0:0:0:0:
265,258,135995,1,2,3:1:0:0:
99,226,136122,1,2,3:1:0:0:
73,151,136249,5,2,3:1:0:0:
185,90,136377,1,2,3:1:0:0:
252,156,136504,6,0,P|305:166|350:154,1,90,10|0,0:0|0:0,0:0:0:0:
386,342,136758,2,0,P|430:334|473:344,1,90,2|0,3:0|0:0,0:0:0:0:
405,82,137012,2,0,P|449:74|492:84,1,90,2|0,3:0|0:0,0:0:0:0:
411,193,137266,1,2,3:0:0:0:
227,294,137394,2,0,P|271:301|314:291,1,90,8|0,0:0|0:0,0:0:0:0:
324,175,137648,1,8,0:0:0:0:
374,370,137775,1,2,3:0:0:0:
66,330,138029,5,8,0:1:0:0:
65,321,138156,1,8,0:1:0:0:
64,312,138283,1,8,0:1:0:0:
63,303,138410,1,8,0:1:0:0:
109,240,138538,6,0,P|162:251|168:288,1,80.9999975280763,4|0,3:2|0:0,0:0:0:0:
252,350,138792,2,0,P|308:331|311:305,1,80.9999975280763,0|0,3:0|0:0,0:0:0:0:
295,112,139046,2,0,P|273:197|264:246,1,121.499996292114,0|0,3:0|0:0,0:0:0:0:
256,243,139300,1,0,3:0:0:0:
359,228,139427,1,0,0:0:0:0:
428,281,139555,6,0,B|461:258|461:258|439:203,1,80.9999975280763,2|2,3:0|0:3,0:0:0:0:
418,132,139809,1,0,3:0:0:0:
464,46,139936,1,2,0:3:0:0:
512,112,140063,2,0,P|453:136|421:149,1,80.9999975280763,2|0,3:0|0:0,0:0:0:0:
361,187,140317,1,0,3:0:0:0:
384,38,140444,1,8,0:0:0:0:
317,0,140571,6,0,P|258:10|172:26,1,121.499996292114,2|0,3:0|1:0,0:0:0:0:
127,5,140825,2,0,B|101:38|101:38|111:82,1,80.9999975280763,0|2,3:0|0:3,0:0:0:0:
357,162,141080,5,10,0:0:0:0:
185,95,141271,1,8,0:0:0:0:
13,28,141461,1,8,0:0:0:0:
24,114,141588,6,0,P|74:96|127:77,1,80.9999975280763,2|0,3:0|0:0,0:0:0:0:
246,276,141843,2,0,B|159:243|231:204|120:161,1,161.999995056153,0|2,3:0|3:0,0:0:0:0:
14,346,142224,1,8,0:0:0:0:
101,327,142351,2,0,P|106:283|112:235,1,80.9999975280763,2|0,3:0|3:0,0:0:0:0:
247,80,142605,6,0,B|283:103|283:103|276:168,1,80.9999975280763,2|0,3:2|0:0,0:0:0:0:
308,329,142860,2,0,B|354:315|354:315|390:197,1,161.999995056153,2|0,3:2|3:0,0:0:0:0:
509,116,143241,1,0,0:0:0:0:
509,116,143368,2,0,P|460:128|424:137,1,80.9999975280763,0|0,3:0|0:0,0:0:0:0:
293,249,143622,5,2,3:0:0:0:
286,171,143749,1,2,0:3:0:0:
441,286,143877,2,0,P|469:247|502:215,1,80.9999975280763,2|2,3:2|0:3,0:0:0:0:
387,206,144131,1,2,3:0:0:0:
144,351,144385,6,0,P|97:331|12:298,1,121.499996292114,0|0,3:0|0:0,0:0:0:0:
10,338,144639,1,2,3:0:0:0:
178,267,144766,2,0,L|168:216,1,40.4999987640381,8|0,0:0|0:0,0:0:0:0:
125,164,144894,2,0,B|104:90|52:127|19:37,1,161.999995056153,0|2,3:0|3:0,0:0:0:0:
93,17,145275,2,0,B|109:1|109:1|135:2,2,40.4999987640381,2|2|2,0:0|0:0|3:2,0:0:0:0:
0,142,145529,5,10,0:0:0:0:
0,142,145593,1,10,0:0:0:0:
0,142,145656,1,4,3:2:0:0:
165,65,145783,2,0,L|231:84,1,40.4999987640381,8|0,0:0|0:0,0:0:0:0:
283,97,145910,1,8,0:0:0:0:
198,164,146038,5,8,0:0:0:0:
332,37,146165,1,8,0:0:0:0:
488,94,146292,1,8,0:0:0:0:
417,210,146419,5,8,0:0:0:0:
376,141,146546,1,8,0:0:0:0:
411,71,146673,1,4,3:2:0:0:
510,197,146800,6,0,P|491:249|479:295,1,90,0|8,0:0|0:0,0:0:0:0:
320,363,147055,1,2,3:2:0:0:
320,363,147182,2,0,P|299:320|334:269,1,90,2|0,3:2|0:0,0:0:0:0:
474,363,147436,2,0,P|432:345|382:329,1,90,8|0,0:0|0:0,0:0:0:0:
200,342,147690,5,2,3:0:0:0:
200,342,147817,2,0,L|218:286,1,45,2|0,0:3|0:0,0:0:0:0:
258,173,147944,1,8,0:0:0:0:
126,304,148071,1,2,3:1:0:0:
322,221,148199,2,0,B|354:188|354:188|332:137,1,90,2|0,3:1|0:0,0:0:0:0:
185,61,148453,2,0,B|100:84|142:115|67:141,1,135,10|0,0:0|0:0,0:0:0:0:
21,84,148707,5,2,3:2:0:0:
172,231,148834,2,0,P|180:183|191:126,1,90,2|8,0:2|0:0,0:0:0:0:
271,16,149088,1,2,0:0:0:0:
345,37,149216,2,0,P|351:89|357:160,1,90,2|0,3:2|0:0,0:0:0:0:
420,171,149470,1,10,0:0:0:0:
493,143,149596,1,0,0:0:0:0:
346,221,149724,6,0,B|307:242|307:242|260:218,1,90,2|2,3:1|0:1,0:0:0:0:
259,144,149978,1,8,0:0:0:0:
420,279,150105,1,2,0:1:0:0:
246,361,150232,6,0,P|259:328|274:316,1,54,2|0,3:1|0:0,0:0:0:0:
266,221,150487,6,0,P|329:313|376:318,1,135,2|0,1:0|0:0,0:0:0:0:
357,330,150741,6,0,B|401:322|401:322|429:361,1,90,4|0,3:2|0:0,0:0:0:0:
487,215,150995,1,10,3:2:0:0:
410,233,151122,1,0,3:2:0:0:
335,173,151249,6,0,P|330:123|317:37,1,135,2|0,3:2|0:0,0:0:0:0:
300,28,151504,1,10,0:0:0:0:
228,2,151631,1,2,0:0:0:0:
140,106,151758,5,2,3:2:0:0:
169,99,151885,1,2,0:0:0:0:
96,197,152012,5,10,0:0:0:0:
170,181,152139,1,2,3:2:0:0:
59,280,152266,6,0,P|26:244|21:181,1,90,2|0,3:2|0:0,0:0:0:0:
153,278,152521,1,10,0:0:0:0:
188,347,152648,1,0,3:0:0:0:
315,303,152775,6,0,B|347:271|347:271|322:221,1,90,2|2,3:0|0:3,0:0:0:0:
274,86,153029,2,0,B|242:118|242:118|267:168,1,90,8|2,0:0|0:3,0:0:0:0:
340,143,153283,5,2,3:0:0:0:
199,41,153410,1,2,0:0:0:0:
83,126,153538,2,0,P|72:80|50:31,1,90,10|2,0:0|0:0,0:0:0:0:
0,225,153792,5,10,0:0:0:0:
38,214,153855,1,8,0:0:0:0:
77,203,153919,1,10,0:0:0:0:
115,193,153982,1,8,0:0:0:0:
154,183,154046,1,2,3:2:0:0:
192,294,154173,1,10,0:0:0:0:
226,225,154300,6,0,B|277:208|247:175|325:166,1,108,2|2,0:2|0:1,0:0:0:0:
386,203,154809,6,0,P|394:248|401:279,1,72,4|0,3:2|3:0,0:0:0:0:
420,381,155063,1,8,0:0:0:0:
493,352,155190,1,0,3:0:0:0:
493,352,155444,5,0,3:0:0:0:
321,287,155571,2,0,P|269:269|240:263,1,72,8|0,0:0|0:0,0:0:0:0:
87,363,155826,6,0,B|60:335|60:335|74:274,1,72,0|0,3:0|3:0,0:0:0:0:
221,194,156080,2,0,B|248:222|248:222|234:283,1,72,8|0,0:0|3:0,0:0:0:0:
30,210,156334,2,0,P|79:221|107:227,1,72,0|0,0:0|3:0,0:0:0:0:
221,334,156588,1,8,0:0:0:0:
148,312,156716,1,0,0:0:0:0:
134,154,156843,6,0,P|147:120|194:111,1,72,0|0,3:0|3:0,0:0:0:0:
307,74,157097,1,8,0:0:0:0:
340,8,157224,1,0,3:0:0:0:
340,8,157478,5,0,3:0:0:0:
439,140,157605,2,0,P|395:123|355:115,1,72,8|0,0:0|0:0,0:0:0:0:
254,132,157860,6,0,B|228:104|228:104|232:56,1,72,0|0,3:0|3:0,0:0:0:0:
234,260,158114,2,0,P|278:243|318:235,1,72,8|0,0:0|3:0,0:0:0:0:
490,195,158369,2,0,B|514:174|514:174|512:119,1,72,0|0,0:0|3:0,0:0:0:0:
401,45,158622,1,8,0:0:0:0:
370,117,158749,1,0,3:0:0:0:
457,269,158877,6,0,B|494:274|494:274|524:324,1,72,4|0,3:1|3:0,0:0:0:0:
371,384,159131,1,8,0:0:0:0:
344,315,159258,1,0,3:0:0:0:
344,315,159512,5,0,3:0:0:0:
215,269,159639,2,0,P|209:232|202:195,1,72,8|0,0:0|0:0,0:0:0:0:
390,195,159894,6,0,B|362:219|362:219|323:208,1,72,0|0,3:0|3:0,0:0:0:0:
213,118,160148,2,0,B|179:108|179:108|151:132,1,72,8|0,0:0|3:0,0:0:0:0:
61,283,160402,2,0,B|89:307|89:307|128:296,1,72,0|0,0:0|3:0,0:0:0:0:
228,262,160656,1,8,0:0:0:0:
247,188,160783,1,0,0:0:0:0:
78,183,160910,6,0,P|70:140|59:102,1,72,0|0,3:0|3:0,0:0:0:0:
30,15,161165,2,0,P|71:29|109:39,1,72,8|0,0:0|3:0,0:0:0:0:
199,57,161419,2,0,P|165:85|138:113,1,72,0|0,0:0|3:0,0:0:0:0:
326,183,161673,5,8,0:0:0:0:
318,108,161800,1,0,0:0:0:0:
486,42,161927,2,0,P|470:83|458:119,1,72,0|0,3:0|3:0,0:0:0:0:
269,238,162182,2,0,P|284:279|296:315,1,72,8|0,0:0|3:0,0:0:0:0:
455,363,162436,5,0,0:0:0:0:
512,311,162563,1,0,3:0:0:0:
460,206,162690,5,8,0:0:0:0:
427,192,162817,1,0,3:0:0:0:
399,301,162944,6,0,P|316:311|275:320,1,90,6|2,3:2|3:2,0:0:0:0:
218,369,163199,2,0,P|183:332|190:289,1,90,8|2,0:0|3:2,0:0:0:0:
32,246,163453,2,0,P|53:194|132:172,1,135,2|0,0:0|0:0,0:0:0:0:
142,159,163707,2,0,P|131:211|120:261,1,90,10|0,0:0|0:0,0:0:0:0:
25,355,163961,6,0,P|81:350|105:305,1,90,2|2,3:2|3:2,0:0:0:0:
200,228,164216,1,8,0:0:0:0:
54,173,164343,1,2,3:2:0:0:
168,89,164470,6,0,P|168:40|166:-7,1,90,2|0,0:0|3:0,0:0:0:0:
90,29,164724,1,10,0:0:0:0:
219,145,164851,1,0,0:0:0:0:
300,45,164978,6,0,P|365:74|366:100,1,90,2|2,3:2|3:2,0:0:0:0:
475,138,165232,2,0,P|461:185|452:233,1,90,8|2,0:0|3:2,0:0:0:0:
329,268,165487,2,0,P|320:223|290:127,1,135,2|0,0:0|0:0,0:0:0:0:
282,128,165741,5,10,0:0:0:0:
386,174,165868,1,0,0:0:0:0:
242,261,165995,6,0,P|187:282|156:295,1,90,2|2,3:2|3:2,0:0:0:0:
63,242,166249,1,8,0:0:0:0:
54,203,166377,1,2,3:2:0:0:
145,119,166504,6,0,P|186:151|257:186,1,90,2|0,0:0|3:0,0:0:0:0:
30,384,166758,2,0,B|-2:350|-2:350|8:293,1,90,10|0,0:0|3:0,0:0:0:0:
82,320,167012,6,0,P|152:295|294:287,1,180,6|8,3:2|0:0,0:0:0:0:
383,347,167394,1,2,3:2:0:0:
456,311,167521,2,0,B|488:275|488:275|469:226,1,90,2|0,0:0|3:0,0:0:0:0:
373,152,167775,1,10,0:0:0:0:
306,195,167902,1,0,0:0:0:0:
361,271,168029,6,0,P|359:210|356:171,1,90,2|2,3:2|3:2,0:0:0:0:
423,61,168283,1,8,0:0:0:0:
512,110,168410,1,2,3:2:0:0:
453,162,168538,6,0,P|455:101|458:62,1,90,2|0,0:0|3:0,0:0:0:0:
367,10,168792,1,10,0:0:0:0:
332,17,168919,1,0,0:0:0:0:
283,106,169046,6,0,P|229:86|176:70,1,90,2|2,3:2|3:2,0:0:0:0:
109,168,169300,2,0,P|66:181|24:197,1,90,8|2,0:0|3:2,0:0:0:0:
4,90,169555,1,2,0:0:0:0:
4,90,169682,1,0,3:0:0:0:
107,0,169809,6,0,P|115:59|122:102,1,90,10|0,0:0|0:0,0:0:0:0:
106,381,170063,5,10,3:2:0:0:
184,141,170190,1,10,3:2:0:0:
176,337,170317,5,10,3:2:0:0:
119,89,170444,1,10,3:2:0:0:
261,114,170571,6,0,B|288:144|288:144|274:187,1,72,2|2,0:1|0:1,0:0:0:0:
22,351,171080,6,0,P|83:341|156:329,1,135.000005149842,6|0,3:2|0:0,0:0:0:0:
469,218,171334,1,14,0:0:0:0:
335,179,171461,1,0,0:0:0:0:
408,85,171588,6,0,P|418:184|417:315,1,202.500007724762,2|0,3:2|0:0,0:0:0:0:
407,308,171843,1,10,0:0:0:0:
501,371,171970,1,2,0:0:0:0:
337,264,172097,6,0,B|303:311|303:311|233:292,1,112.5,2|0,3:2|0:0,0:0:0:0:
146,143,172351,1,10,0:0:0:0:
199,34,172478,1,2,0:0:0:0:
0,186,172605,2,0,P|80:206|182:230,1,168.75,2|0,3:2|0:0,0:0:0:0:
169,241,172860,5,10,0:0:0:0:
253,224,172987,1,2,0:0:0:0:
203,55,173114,5,2,3:2:0:0:
314,20,173241,1,2,0:2:0:0:
401,186,173368,5,10,0:2:0:0:
320,149,173495,1,2,0:2:0:0:
384,56,173622,5,2,3:2:0:0:
512,27,173749,1,2,0:2:0:0:
494,291,173877,5,10,0:2:0:0:
330,239,174004,1,2,0:2:0:0:
232,368,174131,2,0,P|215:305|184:199,1,168.75,2|0,3:2|0:0,0:0:0:0:
203,191,174385,5,10,0:2:0:0:
39,139,174512,1,2,0:2:0:0:
146,347,174639,2,0,P|129:286|111:230,1,112.5,2|0,3:2|0:0,0:0:0:0:
311,186,174894,5,10,0:0:0:0:
327,93,175021,1,0,0:0:0:0:
343,0,175148,1,6,3:2:0:0:
230,112,175275,1,0,0:0:0:0:
328,203,175402,6,0,B|375:170|375:170|364:101,1,112.5,10|0,3:2|0:0,0:0:0:0:
145,128,175656,2,0,B|136:73|136:73|183:40,1,112.5,2|0,3:2|0:0,0:0:0:0:
251,281,175910,5,10,0:0:0:0:
388,259,176038,1,2,0:0:0:0:
422,378,176165,2,0,P|356:351|299:327,1,112.5,2|0,3:2|0:0,0:0:0:0:
307,179,176419,5,10,0:0:0:0:
387,100,176546,1,2,0:0:0:0:
512,228,176673,2,0,P|446:255|389:279,1,112.5,2|0,3:2|0:0,0:0:0:0:
504,18,176927,2,0,B|460:65|460:65|467:128,1,112.5,10|2,0:0|0:0,0:0:0:0:
482,328,177182,5,2,3:2:0:0:
340,219,177309,1,2,0:0:0:0:
294,290,177436,5,10,0:0:0:0:
222,323,177563,1,2,0:0:0:0:
96,235,177690,2,0,P|160:242|201:255,1,90,2|0,3:2|0:0,0:0:0:0:
78,255,177944,5,10,0:0:0:0:
250,201,178071,1,10,0:0:0:0:
101,86,178199,5,2,3:2:0:0:
140,165,178326,1,10,0:0:0:0:
235,66,178453,5,2,3:2:0:0:
47,22,178580,1,2,0:0:0:0:
10,160,178707,6,0,B|56:143|56:143|79:86,1,90,10|10,0:0|0:0,0:0:0:0:
34,34,178961,5,10,0:0:0:0:
77,231,179088,1,8,0:3:0:0:
213,128,179216,6,0,P|231:119|242:116,1,27,2|0,3:1|0:0,0:0:0:0:
133,29,179470,6,0,P|230:82|376:195,2,270.000010299683,14|6|14,3:2|3:2|0:0,0:0:0:0:
274,212,180105,1,2,0:0:0:0:
423,134,180232,2,0,P|406:59|402:-5,1,135.000005149842,6|0,3:2|0:0,0:0:0:0:
494,91,180487,5,10,0:0:0:0:
438,218,180614,1,2,0:0:0:0:
250,134,180741,2,0,B|172:163|217:207|119:247,1,135.000005149842,2|0,3:2|0:0,0:0:0:0:
31,333,180995,5,10,0:0:0:0:
250,290,181122,1,2,0:0:0:0:
464,251,181249,2,0,P|445:151|422:52,1,202.500007724762,2|0,3:2|0:0,0:0:0:0:
429,36,181504,6,0,P|358:49|367:132,1,135.000005149842,8|0,0:0|0:0,0:0:0:0:
21,96,181758,2,0,P|92:109|83:192,1,135.000005149842,0|0,3:0|0:0,0:0:0:0:
221,275,182012,5,10,0:0:0:0:
257,127,182139,1,2,0:0:0:0:
96,183,182266,2,0,P|111:265|133:399,1,202.500007724762,2|0,3:2|0:0,0:0:0:0:
145,362,182521,5,10,0:0:0:0:
181,214,182648,1,2,0:0:0:0:
25,231,182775,2,0,P|36:291|49:367,1,135.000005149842,2|0,3:2|0:0,0:0:0:0:
233,289,183029,5,10,0:0:0:0:
442,249,183156,1,0,3:0:0:0:
392,364,183283,2,0,B|369:280|335:315|317:224,1,135.000005149842,6|0,3:2|0:0,0:0:0:0:
477,58,183538,6,0,B|493:127|493:127|436:172,1,135.000005149842,10|0,0:0|0:0,0:0:0:0:
344,19,183792,2,0,B|293:58|293:58|309:127,1,135.000005149842,2|0,3:2|0:0,0:0:0:0:
182,199,184046,5,10,0:0:0:0:
66,117,184173,1,2,0:0:0:0:
19,216,184300,2,0,P|100:190|172:171,1,135.000005149842,2|0,3:2|0:0,0:0:0:0:
276,233,184555,5,10,0:0:0:0:
160,367,184682,1,2,0:0:0:0:
119,268,184809,2,0,P|185:286|249:307,1,135.000005149842,2|0,3:2|0:0,0:0:0:0:
263,220,185063,2,0,B|280:155|280:155|226:113,1,135.000005149842,10|2,0:0|0:0,0:0:0:0:
10,19,185317,5,2,3:2:0:0:
60,159,185444,1,10,0:0:0:0:
126,110,185571,5,2,3:2:0:0:
98,40,185699,1,2,0:0:0:0:
45,150,185826,5,2,3:2:0:0:
229,199,185953,5,8,0:0:0:0:
212,270,186080,1,2,3:2:0:0:
155,223,186207,1,2,3:2:0:0:
242,352,186334,5,6,3:2:0:0:
161,141,186461,1,10,0:0:0:0:
169,147,186525,1,8,0:0:0:0:
169,137,186588,1,8,0:0:0:0:
103,290,186716,5,8,0:0:0:0:
306,218,186843,1,2,3:0:0:0:
84,124,186970,5,2,0:3:0:0:
224,80,187097,1,2,0:3:0:0:
192,220,187224,1,2,0:3:0:0:
151,2,187351,5,6,3:2:0:0:
331,58,187478,2,0,P|310:104|285:178,1,90,2|8,0:0|0:0,0:0:0:0:
337,297,187732,5,2,0:0:0:0:
157,241,187859,2,0,P|177:194|203:121,1,90,2|0,3:2|0:0,0:0:0:0:
386,122,188114,2,0,B|429:137|429:137|473:107,1,90,10|0,0:2|0:0,0:0:0:0:
414,17,188368,5,2,3:2:0:0:
257,82,188495,2,0,P|280:156|314:161,1,90,2|8,0:0|0:0,0:0:0:0:
353,265,188749,5,2,0:0:0:0:
510,200,188876,2,0,P|487:126|453:121,1,90,2|0,3:2|0:0,0:0:0:0:
416,154,189131,5,10,0:2:0:0:
348,115,189258,1,0,3:0:0:0:
226,242,189385,5,2,3:2:0:0:
412,337,189512,2,0,B|449:313|449:313|440:260,1,90,2|8,0:0|0:0,0:0:0:0:
433,141,189766,5,2,0:0:0:0:
247,46,189893,2,0,B|210:70|210:70|219:123,1,90,2|0,3:2|0:0,0:0:0:0:
329,281,190148,2,0,P|351:225|321:187,1,90,10|0,0:2|0:0,0:0:0:0:
121,141,190402,5,2,3:2:0:0:
34,293,190529,2,0,P|94:318|135:343,1,90,2|8,0:0|0:0,0:0:0:0:
243,363,190783,5,2,0:0:0:0:
330,211,190910,2,0,P|270:186|229:161,1,90,2|0,3:2|0:0,0:0:0:0:
131,247,191165,5,10,0:2:0:0:
207,242,191292,1,0,3:0:0:0:
44,196,191419,5,2,3:2:0:0:
0,48,191546,2,0,B|37:21|37:21|93:37,1,90,2|8,0:0|0:0,0:0:0:0:
285,12,191800,5,2,0:0:0:0:
329,160,191927,2,0,B|292:187|292:187|236:171,1,90,2|0,3:2|0:0,0:0:0:0:
122,121,192182,2,0,P|176:102|224:86,1,90,10|0,0:2|0:0,0:0:0:0:
495,200,192436,5,2,3:2:0:0:
469,37,192563,2,0,P|408:42|391:71,1,90,2|8,0:0|0:0,0:0:0:0:
274,141,192817,5,2,0:0:0:0:
300,304,192944,2,0,P|361:299|378:270,1,90,2|0,3:2|0:0,0:0:0:0:
421,155,193199,5,10,0:2:0:0:
346,195,193326,1,0,3:0:0:0:
460,369,193453,5,2,3:2:0:0:
512,212,193580,2,0,P|460:192|411:177,1,90,2|8,0:0|0:0,0:0:0:0:
269,178,193834,5,2,0:0:0:0:
217,335,193961,2,0,P|269:355|318:370,1,90,2|0,3:2|0:0,0:0:0:0:
412,300,194216,2,0,B|382:266|382:266|328:275,1,90,10|8,0:0|0:0,0:0:0:0:
99,365,194470,5,2,3:1:0:0:
155,158,194597,2,0,P|197:125|253:114,1,90,2|8,0:1|0:0,0:0:0:0:
50,39,194851,5,2,1:1:0:0:
106,246,194978,2,0,P|148:279|204:290,1,90,2|8,3:1|0:0,0:0:0:0:
0,225,195232,5,2,3:1:0:0:
80,169,195360,1,0,3:2:0:0:
272,220,195487,5,6,3:2:0:0:
272,220,195614,2,0,P|288:177|308:132,1,90,2|8,0:0|0:0,0:0:0:0:
152,0,195868,5,2,0:0:0:0:
152,0,195995,2,0,P|136:43|116:88,1,90,2|0,3:2|0:0,0:0:0:0:
182,157,196249,2,0,B|215:128|215:128|209:82,1,90,10|0,0:2|0:0,0:0:0:0:
298,18,196504,5,2,3:2:0:0:
298,18,196631,2,0,P|342:-8|388:7,1,90,2|8,0:0|0:0,0:0:0:0:
488,160,196885,5,2,0:0:0:0:
488,160,197012,2,0,P|444:186|398:171,1,90,2|0,3:2|0:0,0:0:0:0:
387,88,197266,5,10,0:2:0:0:
387,88,197394,1,0,3:0:0:0:
301,207,197521,5,2,3:2:0:0:
301,207,197648,2,0,B|288:251|288:251|329:296,1,90,2|8,0:0|0:0,0:0:0:0:
488,358,197902,5,2,0:0:0:0:
488,358,198029,2,0,B|501:314|501:314|460:269,1,90,2|0,3:2|0:0,0:0:0:0:
390,229,198283,2,0,P|399:296|408:346,1,90,10|0,0:2|0:0,0:0:0:0:
267,372,198538,5,2,3:2:0:0:
267,372,198665,2,0,P|221:356|177:337,1,90,2|8,0:0|0:0,0:0:0:0:
168,160,198919,5,2,0:0:0:0:
168,160,199046,2,0,P|214:176|258:195,1,90,2|0,3:2|0:0,0:0:0:0:
226,271,199300,5,10,0:2:0:0:
226,271,199427,1,0,3:0:0:0:
21,346,199555,5,2,3:2:0:0:
21,346,199682,2,0,P|25:290|68:266,1,90,2|8,0:0|0:0,0:0:0:0:
173,227,199936,5,2,0:0:0:0:
173,227,200063,2,0,P|169:283|126:307,1,90,2|0,3:2|0:0,0:0:0:0:
15,190,200317,2,0,P|71:178|111:172,1,90,10|0,0:2|0:0,0:0:0:0:
114,6,200571,5,2,3:2:0:0:
114,6,200699,2,0,B|84:41|84:41|98:101,1,90,2|8,0:0|0:0,0:0:0:0:
265,182,200953,5,2,0:0:0:0:
265,182,201081,2,0,B|295:147|295:147|281:87,1,90,2|0,3:2|0:0,0:0:0:0:
183,102,201334,5,10,0:2:0:0:
183,102,201461,1,0,3:0:0:0:
338,23,201588,5,2,3:2:0:0:
338,23,201716,2,0,P|386:37|429:44,1,90,2|8,0:0|0:0,0:0:0:0:
482,231,201970,5,2,0:0:0:0:
482,231,202098,2,0,P|434:217|391:210,1,90,2|0,3:2|0:0,0:0:0:0:
360,142,202351,2,0,B|398:118|398:118|448:139,1,90,10|2,1:2|0:0,0:0:0:0:
497,308,202605,5,2,1:0:0:0:
311,198,202732,1,2,1:0:0:0:
305,207,202796,1,0,1:0:0:0:
316,210,202860,1,0,3:0:0:0:
204,384,202987,1,2,1:0:0:0:
282,349,203114,5,2,3:1:0:0:
217,287,203241,1,8,0:0:0:0:
140,326,203368,1,2,3:1:0:0:
0,290,203495,6,0,L|43:300,1,45,2|0,0:3|0:0,0:0:0:0:
