osu file format v14

[General]
AudioFilename: audio.mp3
AudioLeadIn: 0
PreviewTime: 57118
Countdown: 0
SampleSet: Soft
StackLeniency: 0.6
Mode: 0
LetterboxInBreaks: 0
WidescreenStoryboard: 1

[Editor]
Bookmarks: 4300,24639,40910,57182,89724,105995,122266,138538,154809,187351,203495
DistanceSpacing: 1.1
BeatDivisor: 4
GridSize: 32
TimelineZoom: 4.45

[Metadata]
Title:Tsukuri Kake no Shinshou
TitleUnicode:ツクリカケノ心象
Artist:inabakumori
ArtistUnicode:稲葉曇
Creator:0ugi
Version:Collab Hard
Source:
Tags:himada jiysea that_otaku lecandy sagu kyuuchie An image in the making 歌愛ユキ Kaai Yuki Vocaloid アンチサイクロン Anticyclone inaba kumori japanese rock j-rock
BeatmapID:3949865
BeatmapSetID:1248914

[Difficulty]
HPDrainRate:4
CircleSize:3.5
OverallDifficulty:6.5
ApproachRate:8
SliderMultiplier:1.46
SliderTickRate:1

[Events]
//Background and Video events
0,0,"bac34aa8-7ed5-495f-82c6-74cf0ab27c2a.png",0,0
//Break Periods
//Storyboard Layer 0 (Background)
//Storyboard Layer 1 (Fail)
//Storyboard Layer 2 (Pass)
//Storyboard Layer 3 (Foreground)
//Storyboard Layer 4 (Overlay)
//Storyboard Sound Samples

[TimingPoints]
233,254.237288135593,4,2,1,50,1,0
4046,-100,4,2,1,69,0,0
24639,-125,4,2,1,63,0,0
40910,-111.111111111111,4,2,1,63,0,0
57182,-100,4,2,1,76,0,0
73453,-100,4,2,1,69,0,0
89724,-125,4,2,1,63,0,0
104724,-111.111111111111,4,2,1,63,0,0
105995,-100,4,2,1,63,0,0
138538,-111.111111111111,4,2,1,63,0,0
154809,-125,4,2,1,63,0,0
162944,-111.111111111111,4,2,1,63,0,0
170063,-100,4,2,1,63,0,0
170571,-100,4,2,1,42,0,0
171080,-100,4,2,1,76,0,0
187351,-100,4,2,1,69,0,0
195487,-100,4,2,1,63,0,0

[Colours]
Combo1 : 180,255,104
Combo2 : 94,174,255
Combo3 : 255,140,85
Combo4 : 255,134,194

[HitObjects]
66,336,4300,5,8,3:2:0:0:
66,336,4427,1,8,3:2:0:0:
141,298,4682,1,8,3:2:0:0:
141,298,4809,1,8,3:2:0:0:
29,260,5317,5,8,3:2:0:0:
29,260,5444,1,8,3:2:0:0:
104,222,5699,1,8,3:2:0:0:
104,222,5826,1,8,3:2:0:0:
66,336,6334,5,8,3:2:0:0:
66,336,6461,1,8,3:2:0:0:
141,298,6716,1,8,3:2:0:0:
141,298,6843,1,8,3:2:0:0:
104,222,7097,5,8,3:2:0:0:
29,260,7351,1,2,0:3:0:0:
53,54,8368,5,6,3:2:0:0:
53,54,8495,2,0,B|81:81|114:83|114:83|151:47|213:52,1,146,2|2,0:0|0:0,0:0:0:0:
250,100,8877,2,0,P|240:157|237:193,1,73,2|0,3:2|0:0,0:0:0:0:
170,226,9131,2,0,P|180:283|183:319,1,73,10|0,0:2|0:0,0:0:0:0:
247,361,9385,6,0,P|298:315|390:325,1,146,2|8,3:2|0:0,0:0:0:0:
454,346,9766,1,2,0:0:0:0:
454,346,9894,1,2,3:2:0:0:
512,234,10148,1,10,0:2:0:0:
431,118,10402,5,2,3:2:0:0:
431,118,10529,2,0,P|369:132|314:72,1,146,2|2,0:0|0:0,0:0:0:0:
240,40,10910,2,0,P|182:27|146:18,1,73,2|0,3:2|0:0,0:0:0:0:
108,101,11165,2,0,P|166:114|202:123,1,73,10|0,0:2|0:0,0:0:0:0:
263,164,11419,6,0,P|283:240|221:293,1,146,2|8,3:2|0:0,0:0:0:0:
177,341,11800,1,2,0:0:0:0:
177,341,11927,2,0,P|120:353|80:371,1,73,2|0,3:2|0:0,0:0:0:0:
28,307,12182,1,10,0:2:0:0:
121,198,12436,5,2,3:2:0:0:
121,198,12563,2,0,P|236:171|286:157,1,146,2|2,0:0|0:0,0:0:0:0:
336,110,12944,2,0,P|328:74|317:40,1,73,2|0,3:2|0:0,0:0:0:0:
438,90,13199,2,0,P|430:125|418:160,1,73,10|0,0:2|0:0,0:0:0:0:
421,257,13453,6,0,B|376:244|338:275|376:275|328:306|279:302,1,146,2|8,3:2|0:0,0:0:0:0:
214,362,13834,1,2,0:0:0:0:
214,362,13961,2,0,P|168:371|132:380,1,73,2|0,3:2|0:0,0:0:0:0:
67,332,14216,1,10,0:2:0:0:
202,253,14470,5,2,3:2:0:0:
202,253,14597,2,0,P|233:185|211:113,1,146,2|2,0:0|0:0,0:0:0:0:
151,59,14978,2,0,P|196:37|233:45,1,73,2|0,3:2|0:0,0:0:0:0:
300,80,15232,2,0,P|351:87|389:96,1,73,10|10,0:2|0:2,0:0:0:0:
464,56,15487,5,10,0:0:0:0:
464,56,15614,1,2,3:1:0:0:
454,176,15868,1,10,0:0:0:0:
454,176,15995,1,2,3:1:0:0:
444,297,16249,1,2,3:1:0:0:
312,266,16504,5,6,3:2:0:0:
312,266,16631,2,0,P|278:312|188:308,1,146,2|2,0:0|0:0,0:0:0:0:
125,260,17012,2,0,P|108:315|106:345,1,73,2|0,3:2|0:0,0:0:0:0:
27,279,17266,2,0,P|44:224|46:194,1,73,10|0,0:2|0:0,0:0:0:0:
9,133,17521,6,0,P|67:180|137:167,1,146,2|8,3:2|0:0,0:0:0:0:
196,115,17902,1,2,0:0:0:0:
196,115,18029,1,2,3:2:0:0:
333,159,18283,1,10,0:2:0:0:
221,240,18538,5,2,3:2:0:0:
221,240,18665,2,0,P|241:321|252:386,1,146,2|2,0:0|0:0,0:0:0:0:
345,384,19046,2,0,P|333:336|326:299,1,73,2|0,3:2|0:0,0:0:0:0:
384,245,19300,1,10,0:2:0:0:
512,346,19555,5,2,3:2:0:0:
512,346,19682,2,0,P|499:274|481:203,1,146,2|2,0:0|0:0,0:0:0:0:
440,129,20063,2,0,P|453:72|458:44,1,73,2|0,3:2|0:0,0:0:0:0:
360,71,20317,2,0,P|347:128|342:156,1,73,10|0,0:2|3:0,0:0:0:0:
276,205,20571,6,0,P|202:231|131:189,1,146,6|8,3:2|0:0,0:0:0:0:
75,155,20953,1,2,0:0:0:0:
75,155,21080,2,0,P|54:200|55:233,1,73,2|0,3:2|0:0,0:0:0:0:
110,288,21334,1,10,0:2:0:0:
276,205,21588,6,0,B|325:197|363:230|324:233|383:259|425:248,1,146,2|8,3:2|0:0,0:0:0:0:
493,280,21970,1,2,0:0:0:0:
493,280,22097,2,0,P|501:245|487:213,1,73,2|0,3:2|0:0,0:0:0:0:
412,154,22351,2,0,P|398:105|417:72,1,73,10|0,0:2|3:0,0:0:0:0:
458,23,22605,6,0,P|409:61|325:21,1,146,2|8,3:2|0:0,0:0:0:0:
267,85,22987,1,2,0:0:0:0:
267,85,23114,2,0,P|216:74|179:61,1,73,2|0,3:2|0:0,0:0:0:0:
125,5,23368,2,0,P|114:39|107:75,1,73,10|10,0:2|0:2,0:0:0:0:
163,148,23622,5,10,0:2:0:0:
163,148,23749,1,2,3:1:0:0:
143,269,24004,1,10,0:0:0:0:
143,269,24131,1,2,3:1:0:0:
119,384,24385,1,2,3:1:0:0:
237,290,24639,5,4,3:1:0:0:
360,374,24894,2,0,P|427:358|497:344,2,116.8,0|0|0,3:0|3:0|3:0,0:0:0:0:
497,255,25656,5,2,3:2:0:0:
497,255,25783,2,0,P|450:242|423:162,1,116.8,2|2,0:2|0:2,0:0:0:0:
485,137,26165,2,0,L|460:9,1,116.8,2|2,3:2|3:2,0:0:0:0:
384,0,26546,1,8,0:0:0:0:
349,69,26673,2,0,P|307:119|254:120,1,116.8,0|0,3:0|3:0,0:0:0:0:
102,203,27182,6,0,B|70:174|70:174|11:184,2,87.6,8|8|8,3:2|0:0|0:0,0:0:0:0:
178,159,27690,1,2,3:2:0:0:
178,159,27817,2,0,P|193:203|206:293,1,116.8,2|2,0:2|0:2,0:0:0:0:
310,276,28199,2,0,P|298:313|272:331,1,58.4,2|8,3:2|0:0,0:0:0:0:
208,364,28453,2,0,P|174:355|150:351,1,58.4,2|0,3:2|3:0,0:0:0:0:
77,383,28707,5,0,3:0:0:0:
3,233,28961,2,0,P|16:184|34:108,2,116.8,0|0|0,3:0|3:0|3:0,0:0:0:0:
109,83,29724,5,2,3:2:0:0:
109,83,29851,2,0,P|147:115|138:190,1,116.8,2|2,0:2|0:2,0:0:0:0:
191,255,30232,2,0,P|243:264|305:284,1,116.8,2|2,3:2|3:2,0:0:0:0:
493,221,30741,5,0,3:0:0:0:
439,161,30868,2,0,B|372:168|397:188|328:199,1,116.8,8|0,0:0|0:0,0:0:0:0:
259,166,31249,2,0,P|254:127|241:45,1,116.8,0|0,3:0|3:0,0:0:0:0:
163,26,31631,5,0,1:0:0:0:
163,26,31758,2,0,P|101:48|91:100,1,116.8,2|0,3:2|3:0,0:0:0:0:
22,135,32139,1,10,0:2:0:0:
22,135,32266,2,0,P|32:171|38:203,1,58.4,2|4,3:2|0:3,0:0:0:0:
102,246,32521,2,0,P|138:236|170:230,1,58.4,2|0,3:2|3:0,0:0:0:0:
222,175,32775,5,4,3:1:0:0:
360,259,33029,2,0,P|427:248|492:242,2,116.8,0|0|0,3:0|3:0|3:0,0:0:0:0:
224,355,33792,5,2,3:2:0:0:
224,355,33919,2,0,B|217:283|190:314|181:239,1,116.8,2|2,0:2|0:2,0:0:0:0:
107,200,34300,2,0,P|120:166|172:97,1,116.8,2|2,3:2|3:2,0:0:0:0:
165,19,34682,1,8,0:0:0:0:
239,55,34809,2,0,P|270:88|355:92,1,116.8,0|0,3:0|3:0,0:0:0:0:
484,202,35317,6,0,B|513:237|513:237|488:293,2,87.6,8|8|8,3:2|0:0|0:0,0:0:0:0:
410,158,35826,1,2,3:2:0:0:
410,158,35953,2,0,P|396:210|393:285,1,116.8,2|2,0:2|0:2,0:0:0:0:
334,336,36334,2,0,P|301:341|272:350,1,58.4,2|8,3:2|0:0,0:0:0:0:
225,280,36588,2,0,P|192:275|163:266,1,58.4,2|0,3:2|3:0,0:0:0:0:
84,300,36843,5,0,3:0:0:0:
10,153,37097,2,0,B|91:136|35:124|115:103,2,116.8,0|0|8,3:0|3:0|0:0,0:0:0:0:
178,190,37860,5,2,3:2:0:0:
178,190,37987,2,0,P|193:134|193:63,1,116.8,2|2,0:2|3:2,0:0:0:0:
271,38,38368,2,0,P|288:100|316:162,1,116.8,2|2,3:2|3:2,0:0:0:0:
238,315,38877,5,0,3:0:0:0:
162,281,39004,2,0,B|95:304|129:328|51:361,1,116.8,8|0,0:0|0:0,0:0:0:0:
15,285,39385,2,0,P|27:235|42:151,1,116.8,0|0,3:0|3:0,0:0:0:0:
84,84,39766,5,8,0:0:0:0:
84,84,39894,2,0,P|124:92|135:121,1,58.4,2|10,3:2|0:0,0:0:0:0:
211,80,40148,2,0,P|222:129|205:150,1,58.4,8|2,0:3|3:2,0:0:0:0:
257,210,40402,2,0,P|303:194|325:188,1,58.4,10|8,0:0|0:0,0:0:0:0:
389,150,40656,1,2,3:2:0:0:
431,287,40910,5,4,3:2:0:0:
253,335,41165,2,0,P|198:323|163:318,1,65.6999979949952,8|2,0:0|3:2,0:0:0:0:
117,365,41419,2,0,B|92:372|92:372|52:358|36:298|71:261,1,131.39999598999,2|8,3:2|0:0,0:0:0:0:
129,228,41800,1,0,0:0:0:0:
129,228,41927,1,2,3:2:0:0:
38,101,42182,6,0,P|79:88|112:80,1,65.6999979949952,8|2,0:0|3:2,0:0:0:0:
164,13,42436,2,0,P|195:59|284:41,1,131.39999598999,0|10,3:0|0:0,0:0:0:0:
343,16,42817,1,0,0:0:0:0:
421,71,42944,6,0,P|466:51|503:59,1,65.6999979949952,2|2,3:2|0:0,0:0:0:0:
501,133,43199,2,0,P|456:153|419:145,1,65.6999979949952,8|2,0:0|3:2,0:0:0:0:
359,135,43453,2,0,B|276:160|332:175|226:204,1,131.39999598999,2|10,3:2|0:0,0:0:0:0:
183,144,43834,1,0,0:0:0:0:
108,176,43961,6,0,P|85:143|96:105,2,65.6999979949952,2|2|8,3:1|0:1|0:0,0:0:0:0:
158,250,44343,1,2,0:1:0:0:
158,250,44470,2,0,P|151:293|144:328,1,65.6999979949952,2|0,3:1|0:0,0:0:0:0:
85,374,44724,2,0,P|41:333|77:255,1,131.39999598999,2|0,1:1|3:0,0:0:0:0:
228,363,45232,6,0,P|274:349|306:345,1,65.6999979949952,10|0,0:0|3:0,0:0:0:0:
316,252,45487,2,0,P|270:266|235:271,1,65.6999979949952,2|0,3:2|0:0,0:0:0:0:
207,197,45741,1,10,0:0:0:0:
207,197,45868,1,2,0:0:0:0:
251,120,45995,2,0,P|244:84|233:56,2,65.6999979949952,2|2|8,3:2|0:0|0:0,0:0:0:0:
339,146,46377,1,2,3:2:0:0:
339,146,46504,2,0,P|408:136|438:67,1,131.39999598999,2|10,3:2|0:0,0:0:0:0:
254,120,47012,6,0,B|172:105|228:80|109:57,2,131.39999598999,2|10|2,3:2|0:0|3:2,0:0:0:0:
414,79,47775,1,10,0:0:0:0:
473,212,48029,6,0,B|455:301|422:251|408:350,2,131.39999598999,2|10|2,3:2|0:0|3:2,0:0:0:0:
343,133,48792,2,0,P|328:68|322:41,2,65.6999979949952,8|2|4,0:0|3:2|3:1,0:0:0:0:
329,323,49300,6,0,P|283:314|255:305,1,65.6999979949952,8|2,0:0|3:2,0:0:0:0:
191,280,49555,2,0,B|145:296|145:296|129:320|129:320|63:346,1,131.39999598999,2|10,3:2|0:2,0:0:0:0:
10,287,49936,1,2,0:0:0:0:
10,287,50063,1,2,3:0:0:0:
63,130,50317,6,0,P|76:179|86:223,1,65.6999979949952,8|2,0:0|3:1,0:0:0:0:
170,208,50571,2,0,P|148:125|132:55,1,131.39999598999,2|10,3:1|0:0,0:0:0:0:
173,9,50953,1,0,0:0:0:0:
253,37,51080,6,0,P|307:30|346:21,1,65.6999979949952,2|2,3:2|0:0,0:0:0:0:
381,88,51334,2,0,P|388:142|394:181,1,65.6999979949952,8|2,0:2|3:2,0:0:0:0:
315,192,51588,2,0,P|321:227|325:264,1,65.6999979949952,2|0,3:2|0:0,0:0:0:0:
381,331,51843,1,10,0:0:0:0:
381,331,51970,1,0,0:0:0:0:
422,259,52097,6,0,P|470:269|499:279,2,65.6999979949952,2|2|8,3:1|0:1|0:0,0:0:0:0:
324,256,52478,1,2,0:1:0:0:
324,256,52605,2,0,P|243:313|192:300,1,131.39999598999,2|2,3:1|1:1,0:0:0:0:
61,217,53114,1,0,3:0:0:0:
110,352,53368,6,0,P|120:302|129:264,1,65.6999979949952,10|0,0:0|3:0,0:0:0:0:
174,218,53622,2,0,P|166:182|159:146,1,65.6999979949952,2|0,3:2|0:0,0:0:0:0:
99,91,53877,1,10,0:0:0:0:
99,91,54004,1,2,0:0:0:0:
160,25,54131,6,0,P|196:71|275:58,1,131.39999598999,2|8,3:2|0:0,0:0:0:0:
352,89,54512,1,2,3:2:0:0:
352,89,54639,2,0,P|401:77|439:73,1,65.6999979949952,2|0,3:2|0:0,0:0:0:0:
472,150,54894,2,0,P|435:155|400:164,1,65.6999979949952,10|0,0:0|3:0,0:0:0:0:
339,220,55148,6,0,B|259:209|312:174|203:158,2,131.39999598999,2|8|0,3:0|0:0|3:0,0:0:0:0:
453,363,55910,2,0,P|463:303|469:274,1,65.6999979949952,10|2,0:0|3:0,0:0:0:0:
426,224,56165,5,14,0:0:0:0:
426,224,56292,1,10,0:0:0:0:
376,300,56419,2,0,P|316:310|287:316,1,65.6999979949952,10|10,3:2|0:0,0:0:0:0:
227,276,56673,1,2,3:2:0:0:
120,356,56927,1,2,0:0:0:0:
22,245,57182,6,0,P|34:165|45:71,1,146,6|14,3:2|0:2,0:0:0:0:
128,82,57563,1,0,0:0:0:0:
128,82,57690,2,0,P|122:153|119:183,1,73,2|0,3:2|0:0,0:0:0:0:
191,210,57944,1,10,0:0:0:0:
191,210,58071,1,2,0:0:0:0:
270,160,58199,2,0,B|366:160|326:212|421:221,1,146,2|10,3:2|0:0,0:0:0:0:
486,210,58580,1,2,0:0:0:0:
486,210,58707,2,0,P|503:275|427:323,1,146,2|10,3:2|0:0,0:0:0:0:
366,367,59088,5,2,0:0:0:0:
366,367,59216,2,0,P|367:320|364:282,1,73,2|2,3:2|0:2,0:0:0:0:
282,325,59470,2,0,P|283:278|280:240,1,73,10|2,0:2|0:2,0:0:0:0:
197,351,59724,2,0,P|198:304|195:266,1,73,2|2,3:2|0:2,0:0:0:0:
119,240,59978,5,10,0:2:0:0:
119,240,60105,1,2,0:2:0:0:
38,259,60232,2,0,B|5:252|-22:200|12:159|12:159|61:145,1,146,2|10,3:2|0:0,0:0:0:0:
97,91,60614,1,2,0:0:0:0:
97,91,60741,2,0,B|179:67|132:37|240:12,1,146,2|10,3:2|0:0,0:0:0:0:
294,63,61122,1,0,0:0:0:0:
294,63,61249,2,0,B|353:102|353:102|434:76,2,146,6|10|2,3:2|3:2|3:2,0:0:0:0:
466,154,62012,6,0,P|450:211|446:257,1,73,10|2,0:0|0:0,0:0:0:0:
350,186,62266,2,0,P|368:244|388:343,1,146,2|10,3:2|0:0,0:0:0:0:
465,379,62648,1,2,0:0:0:0:
465,379,62775,2,0,P|510:344|502:299,2,73,2|0|10,3:2|0:0|0:0,0:0:0:0:
338,226,63283,6,0,P|293:240|257:254,1,73,2|2,3:2|0:0,0:0:0:0:
242,327,63538,2,0,B|180:345|180:345|171:366|171:366|102:389,2,146,10|2|10,0:0|3:2|0:0,0:0:0:0:
321,370,64173,1,10,0:0:0:0:
321,370,64300,2,0,B|352:342|352:342|345:288,1,73,2|10,3:2|0:0,0:0:0:0:
412,251,64555,1,10,0:0:0:0:
412,251,64682,1,2,3:2:0:0:
486,297,64809,2,0,P|504:247|517:221,2,73,10|10|2,0:0|0:0|3:2,0:0:0:0:
431,363,65190,1,0,3:2:0:0:
431,363,65317,1,2,0:1:0:0:
264,238,65571,6,0,P|252:139|240:70,2,146,14|14|10,3:2|3:2|0:0,0:0:0:0:
182,262,66207,1,2,0:2:0:0:
182,262,66334,2,0,P|173:217|170:171,1,73,2|0,3:2|0:0,0:0:0:0:
110,130,66588,1,10,0:0:0:0:
110,130,66716,1,2,0:0:0:0:
32,156,66843,2,0,B|39:239|82:202|88:311,1,146,2|10,3:2|0:2,0:0:0:0:
62,375,67224,5,2,0:2:0:0:
62,375,67351,2,0,P|124:365|142:362,1,73,2|2,3:2|0:2,0:0:0:0:
166,283,67605,2,0,P|228:273|246:270,1,73,10|2,0:2|0:2,0:0:0:0:
304,323,67860,2,0,P|366:313|384:310,1,73,2|2,3:2|0:2,0:0:0:0:
432,246,68114,5,10,0:2:0:0:
432,246,68241,1,2,0:2:0:0:
505,296,68368,2,0,P|535:243|494:168,1,146,2|10,3:2|0:0,0:0:0:0:
439,109,68749,1,2,0:0:0:0:
439,109,68877,2,0,B|411:136|378:138|378:138|341:102|279:107,1,146,2|10,3:2|0:0,0:0:0:0:
227,72,69258,1,0,0:0:0:0:
227,72,69385,2,0,B|217:139|217:139|284:195,2,146,6|10|2,3:2|3:2|3:2,0:0:0:0:
116,247,70148,6,0,P|150:234|185:226,1,73,10|2,0:0|0:0,0:0:0:0:
193,321,70402,2,0,P|250:340|337:386,1,146,2|10,3:2|0:0,0:0:0:0:
387,320,70783,1,2,0:0:0:0:
387,320,70910,2,0,P|378:281|349:260,2,73,2|0|10,3:2|0:0|0:0,0:0:0:0:
364,119,71419,6,0,P|323:105|287:91,1,73,2|10,3:2|0:0,0:0:0:0:
219,48,71673,2,0,B|197:85|197:85|245:186,1,146,2|2,3:2|3:2,0:0:0:0:
251,264,72055,1,8,0:0:0:0:
251,264,72182,2,0,P|199:250|168:239,1,73,2|2,3:2|0:0,0:0:0:0:
122,182,72436,5,10,0:0:0:0:
122,182,72563,1,10,0:0:0:0:
41,206,72690,2,0,P|30:242|-8:269,2,73,10|10|10,0:0|0:0|0:0,0:0:0:0:
4,128,73071,1,10,0:0:0:0:
4,128,73199,2,0,P|65:112|103:97,1,73,2|0,3:2|3:0,0:0:0:0:
139,49,73453,5,6,3:2:0:0:
139,49,73580,2,0,B|193:38|223:72|204:76|245:117|296:106,1,146,2|2,0:0|0:0,0:0:0:0:
352,125,73961,2,0,P|347:88|340:52,1,73,2|0,3:2|0:0,0:0:0:0:
419,0,74216,2,0,P|423:36|430:72,1,73,10|0,0:2|0:0,0:0:0:0:
506,115,74470,6,0,P|515:199|451:227,1,146,2|8,3:2|0:0,0:0:0:0:
392,205,74851,1,2,0:0:0:0:
392,205,74978,1,2,3:2:0:0:
254,238,75232,1,10,0:2:0:0:
130,194,75487,5,2,3:2:0:0:
130,194,75614,2,0,P|70:219|62:301,1,146,2|2,0:0|0:0,0:0:0:0:
80,372,75995,2,0,P|127:361|161:360,1,73,2|0,3:2|0:0,0:0:0:0:
232,384,76249,2,0,P|235:320|215:304,1,73,10|0,0:2|0:0,0:0:0:0:
150,275,76504,6,0,B|170:201|211:236|246:132,1,146,2|8,3:2|0:0,0:0:0:0:
196,86,76885,1,2,0:0:0:0:
196,86,77012,1,2,3:2:0:0:
57,38,77266,2,0,L|70:123,1,73,10|0,0:2|3:0,0:0:0:0:
0,160,77521,5,2,3:2:0:0:
0,160,77648,2,0,B|30:151|56:172|56:172|69:192|69:192|96:214|153:210,1,146,2|2,0:0|0:0,0:0:0:0:
175,275,78029,2,0,P|204:242|204:182,1,73,2|0,3:2|0:0,0:0:0:0:
254,143,78283,2,0,P|302:136|335:129,1,73,10|0,0:2|0:0,0:0:0:0:
390,72,78538,6,0,P|449:99|451:194,1,146,2|8,3:2|0:0,0:0:0:0:
397,223,78919,1,2,0:0:0:0:
397,223,79046,2,0,P|410:281|416:307,1,73,2|0,3:2|0:0,0:0:0:0:
502,367,79300,2,0,P|448:374|416:383,1,73,10|0,0:2|3:0,0:0:0:0:
347,383,79555,5,2,3:2:0:0:
347,383,79682,2,0,P|330:298|309:227,1,146,2|2,0:0|0:0,0:0:0:0:
250,189,80063,2,0,P|232:250|228:280,1,73,2|0,3:2|0:0,0:0:0:0:
185,332,80317,2,0,P|142:342|105:352,1,73,10|8,0:0|0:0,0:0:0:0:
40,384,80571,5,10,0:0:0:0:
40,384,80698,1,2,3:1:0:0:
30,264,80952,1,10,0:0:0:0:
30,264,81079,1,2,3:1:0:0:
20,143,81333,1,2,1:0:0:0:
329,17,81970,5,14,0:0:0:0:
329,17,82097,2,0,B|365:9|365:9|337:48|332:66,1,73,2|0,3:2|0:0,0:0:0:0:
282,88,82351,2,0,P|297:140|306:189,1,73,10|0,0:0|0:0,0:0:0:0:
252,222,82605,6,0,P|290:261|387:237,1,146,2|8,3:2|0:0,0:0:0:0:
449,299,82987,1,2,0:0:0:0:
449,299,83114,1,2,3:2:0:0:
338,383,83368,2,0,P|293:351|260:341,1,73,10|0,0:2|3:0,0:0:0:0:
189,354,83622,5,2,3:2:0:0:
189,354,83749,2,0,P|181:298|164:202,1,146,2|2,0:0|0:0,0:0:0:0:
215,141,84131,2,0,P|157:124|112:136,1,73,2|0,3:2|0:0,0:0:0:0:
68,174,84385,2,0,P|62:129|50:87,1,73,10|0,0:2|0:0,0:0:0:0:
1,35,84639,6,0,B|29:8|62:6|62:6|99:42|161:37,1,146,2|8,3:2|0:0,0:0:0:0:
209,11,85021,1,2,0:0:0:0:
209,11,85148,1,2,3:2:0:0:
320,99,85402,2,0,P|337:61|358:24,1,73,10|0,0:2|3:0,0:0:0:0:
432,7,85656,5,6,3:2:0:0:
432,7,85783,2,0,P|453:76|510:137,1,146,2|2,0:0|0:0,0:0:0:0:
506,216,86165,2,0,P|458:210|430:181,1,73,2|0,3:2|0:0,0:0:0:0:
373,143,86419,2,0,P|349:179|347:224,1,73,10|0,0:2|0:0,0:0:0:0:
270,249,86673,6,0,P|349:248|382:311,1,146,2|8,3:2|0:0,0:0:0:0:
462,334,87055,1,2,0:0:0:0:
462,334,87182,2,0,P|434:369|391:376,1,73,2|0,3:2|0:0,0:0:0:0:
322,357,87436,1,10,0:2:0:0:
189,292,87690,5,2,3:2:0:0:
189,292,87817,2,0,B|170:231|170:231|152:220|152:220|129:141,1,146,2|2,0:0|0:0,0:0:0:0:
56,139,88199,2,0,L|75:60,1,73,2|0,3:2|0:0,0:0:0:0:
150,24,88453,2,0,L|234:42,1,73,10|8,0:0|0:0,0:0:0:0:
287,95,88707,5,8,0:0:0:0:
287,95,88834,1,2,3:1:0:0:
401,69,89088,1,8,0:0:0:0:
401,69,89216,1,2,3:1:0:0:
512,40,89470,1,2,3:1:0:0:
390,168,89724,5,4,3:2:0:0:
488,269,89978,2,0,L|517:403,2,116.8,8|0|8,3:2|3:0|3:2,0:0:0:0:
341,314,90741,6,0,P|294:331|263:342,1,58.4,0|0,3:0|0:0,0:0:0:0:
206,300,90995,1,8,3:2:0:0:
206,300,91122,1,0,0:0:0:0:
132,343,91249,2,0,P|116:284|110:262,1,58.4,0|0,3:0|0:0,0:0:0:0:
42,309,91504,1,8,3:2:0:0:
137,180,91758,2,0,P|119:113|112:99,1,58.4,0|0,3:0|0:0,0:0:0:0:
97,50,92012,2,0,B|21:62|-4:-2,2,116.8,8|0|8,3:2|3:0|3:2,0:0:0:0:
176,188,92775,1,0,3:0:0:0:
354,81,93029,6,0,P|305:63|275:50,1,58.4,8|0,3:2|0:0,0:0:0:0:
218,40,93283,2,0,P|225:89|230:124,1,58.4,0|0,3:0|0:0,0:0:0:0:
291,147,93538,1,8,3:2:0:0:
267,302,93792,2,0,P|212:317|190:324,1,58.4,0|0,3:0|0:0,0:0:0:0:
130,297,94046,2,0,P|101:343|22:364,2,116.8,8|0|8,3:2|3:0|3:2,0:0:0:0:
227,199,94809,1,0,3:0:0:0:
281,331,95063,6,0,P|324:319|361:312,1,58.4,8|0,3:2|0:0,0:0:0:0:
422,286,95317,2,0,P|433:251|440:222,1,58.4,0|0,3:0|0:0,0:0:0:0:
360,207,95571,1,8,3:2:0:0:
360,40,95826,2,0,P|429:82|475:59,2,116.8,0|8|0,3:0|3:2|3:0,0:0:0:0:
183,85,96588,6,0,P|134:95|101:94,1,58.4,8|0,3:2|0:0,0:0:0:0:
63,157,96843,2,0,P|66:193|73:219,1,58.4,0|0,3:0|0:0,0:0:0:0:
48,290,97097,1,8,3:2:0:0:
202,375,97351,2,0,P|209:295|226:237,2,116.8,0|8|4,3:0|3:2|3:2,0:0:0:0:
362,294,98114,6,0,P|401:284|436:280,1,58.4,8|0,3:2|0:0,0:0:0:0:
479,220,98368,1,0,3:0:0:0:
479,220,98495,1,0,0:0:0:0:
417,152,98622,2,0,P|406:105|404:74,1,58.4,8|0,3:2|0:0,0:0:0:0:
332,34,98877,2,0,B|256:56|303:69|213:97,1,116.8,0|8,3:0|3:2,0:0:0:0:
41,185,99385,6,0,P|84:193|119:205,1,58.4,0|0,3:0|0:0,0:0:0:0:
170,249,99639,2,0,P|180:214|185:181,1,58.4,8|0,3:2|0:0,0:0:0:0:
195,114,99894,1,0,3:0:0:0:
297,213,100148,2,0,B|338:150|411:188,2,116.8,8|0|8,3:2|3:0|3:2,0:0:0:0:
170,249,100910,1,0,3:0:0:0:
35,383,101165,6,0,P|22:331|14:303,1,58.4,8|0,3:2|0:0,0:0:0:0:
86,252,101419,2,0,P|101:312|105:334,1,58.4,0|0,3:0|0:0,0:0:0:0:
189,352,101673,2,0,P|247:308|280:316,1,87.6,8|0,3:2|0:0,0:0:0:0:
273,320,101927,2,0,P|324:333|351:342,1,58.4,0|0,3:0|0:0,0:0:0:0:
359,252,102182,2,0,L|375:178,1,58.4,8|0,3:2|0:0,0:0:0:0:
477,185,102436,2,0,B|466:262|446:229|432:291,2,116.8,0|8|0,3:0|3:2|3:0,0:0:0:0:
400,51,103199,6,0,L|316:55,1,58.4,8|0,3:2|0:0,0:0:0:0:
273,99,103453,2,0,B|196:125|252:136|155:171,1,116.8,0|8,3:0|3:2,0:0:0:0:
49,46,103961,2,0,P|93:38|145:81,2,116.8,0|8|0,3:0|3:2|3:0,0:0:0:0:
10,216,104724,6,0,P|29:267|36:301,1,65.6999979949952,8|8,3:2|0:0,0:0:0:0:
42,297,104915,1,8,0:0:0:0:
42,297,104978,2,0,P|85:303|111:268,1,65.6999979949952,8|8,0:0|0:0,0:0:0:0:
175,255,105232,2,0,P|221:263|261:279,1,65.6999979949952,8|0,0:0|3:0,0:0:0:0:
315,337,105487,2,0,P|349:325|381:317,1,65.6999979949952,8|8,0:0|0:0,0:0:0:0:
398,315,105677,1,8,0:0:0:0:
397,314,105741,2,0,P|411:266|397:237,1,65.6999979949952,0|8,3:0|0:0,0:0:0:0:
335,194,105995,5,6,3:2:0:0:
487,123,106249,2,0,P|491:79|497:43,1,73,2|0,1:2|0:0,0:0:0:0:
423,0,106504,2,0,P|416:52|398:159,1,146,2|2,3:2|1:2,0:0:0:0:
325,99,106885,1,2,0:0:0:0:
325,99,107012,2,0,B|231:123|291:151|196:181,1,146,0|0,3:0|1:0,0:0:0:0:
161,100,107394,2,0,P|103:80|72:74,1,73,2|0,0:0|3:0,0:0:0:0:
7,88,107648,2,0,B|-14:55|-14:55|2:17,2,73,2|2|2,0:3|1:3|0:3,0:0:0:0:
63,153,108029,5,2,3:2:0:0:
12,329,108283,2,0,P|72:313|111:305,1,73,2|0,1:2|0:0,0:0:0:0:
133,240,108538,1,2,3:2:0:0:
133,240,108665,2,0,P|183:256|221:279,1,73,0|2,0:0|1:2,0:0:0:0:
246,344,108919,2,0,P|312:306|307:226,1,146,2|2,0:2|0:0,0:0:0:0:
248,193,109300,2,0,P|222:159|225:116,1,73,0|2,1:0|0:0,0:0:0:0:
295,85,109555,2,0,B|325:65|325:65|330:23,2,73,0|2|2,3:0|0:3|1:3,0:0:0:0:
221,46,109936,1,2,0:3:0:0:
221,46,110063,5,6,3:2:0:0:
352,160,110317,2,0,P|402:151|436:147,1,73,2|0,1:2|0:0,0:0:0:0:
482,214,110571,2,0,P|415:233|331:263,1,146,2|2,3:2|1:2,0:0:0:0:
302,332,110953,1,2,0:0:0:0:
302,332,111080,2,0,B|216:305|274:273|169:241,1,146,0|0,3:0|1:0,0:0:0:0:
121,293,111461,2,0,B|35:266|93:234|-12:202,1,146,2|2,0:0|0:3,0:0:0:0:
64,148,111843,2,0,P|99:132|135:117,1,73,2|2,1:3|0:3,0:0:0:0:
184,58,112097,6,0,B|244:81|244:81|251:104|251:104|321:127,1,146,2|2,3:2|1:2,0:0:0:0:
370,185,112478,1,0,0:0:0:0:
370,185,112605,2,0,P|380:143|391:106,1,73,2|0,3:2|0:0,0:0:0:0:
474,93,112860,2,0,P|464:135|453:172,1,73,2|2,1:2|0:0,0:0:0:0:
419,257,113114,5,10,0:0:0:0:
419,257,113241,1,2,3:0:0:0:
293,297,113495,1,10,0:0:0:0:
293,297,113622,1,2,3:0:0:0:
167,337,113877,1,2,3:2:0:0:
369,376,114131,6,0,P|377:326|393:289,1,73,6|0,3:2|0:0,0:0:0:0:
293,297,114385,2,0,P|285:347|269:384,1,73,10|0,0:2|0:0,0:0:0:0:
203,314,114639,2,0,B|128:287|187:254|73:220,1,146,2|10,3:2|0:0,0:0:0:0:
12,271,115021,1,2,0:0:0:0:
12,271,115148,2,0,B|-15:246|-15:246|2:195,2,73,0|2|8,3:0|0:0|0:0,0:0:0:0:
81,328,115529,2,0,P|102:272|160:173,1,146,2|2,0:0|0:0,0:0:0:0:
184,123,115910,1,10,0:0:0:0:
99,123,116038,6,0,P|57:122|18:106,1,73,2|2,3:2|3:2,0:0:0:0:
43,28,116292,1,0,0:0:0:0:
43,28,116419,2,0,P|85:29|124:45,1,73,10|0,0:0|0:0,0:0:0:0:
189,85,116673,2,0,P|232:68|261:59,1,73,2|0,3:2|0:0,0:0:0:0:
322,113,116927,2,0,P|356:124|390:138,1,73,10|2,0:0|0:0,0:0:0:0:
461,98,117182,2,0,P|476:56|452:30,2,73,0|2|8,3:0|0:0|0:0,0:0:0:0:
459,186,117563,2,0,P|490:237|513:331,1,146,2|2,0:0|0:0,0:0:0:0:
449,371,117944,1,10,0:0:0:0:
449,371,118071,1,2,3:2:0:0:
391,302,118199,6,0,B|334:285|334:285|329:272|329:272|247:250,1,146,6|10,3:2|0:0,0:0:0:0:
206,324,118580,1,0,0:0:0:0:
206,324,118707,2,0,P|157:342|125:357,1,73,2|0,3:2|0:0,0:0:0:0:
60,373,118961,2,0,P|50:327|36:297,1,73,10|2,0:0|0:0,0:0:0:0:
0,233,119216,2,0,B|21:159|73:195|93:108,1,146,0|8,3:0|0:0,0:0:0:0:
145,56,119597,2,0,B|160:128|212:92|233:166,1,146,2|2,0:0|0:0,0:0:0:0:
176,229,119978,1,10,0:0:0:0:
176,229,120105,1,2,3:2:0:0:
249,274,120232,6,0,P|319:257|410:244,1,146,2|10,3:2|0:0,0:0:0:0:
480,63,120741,2,0,P|410:80|319:93,1,146,2|10,3:2|0:0,0:0:0:0:
320,177,121122,2,0,P|378:167|407:163,1,73,10|0,0:0|3:0,0:0:0:0:
468,225,121377,2,0,P|473:180|477:144,2,73,10|0|10,0:0|3:0|0:0,0:0:0:0:
475,307,121758,1,8,0:3:0:0:
475,307,121885,1,10,0:3:0:0:
413,358,122012,2,0,P|356:346|327:341,1,73,6|6,0:3|0:3,0:0:0:0:
251,368,122266,6,0,P|213:331|239:279,1,109.5,2|0,0:1|0:0,0:0:0:0:
256,277,122521,2,0,B|304:245|290:283|349:228,1,73,2|0,3:0|0:0,0:0:0:0:
398,209,122775,1,2,3:0:0:0:
322,77,123029,1,2,3:0:0:0:
322,77,123156,2,0,P|257:64|229:57,1,73,10|0,0:0|0:0,0:0:0:0:
220,146,123410,2,0,P|155:133|127:126,1,73,2|0,3:0|0:0,0:0:0:0:
76,86,123665,5,10,0:0:0:0:
76,86,123792,2,0,B|51:116|51:116|62:168,1,73,2|2,3:2|3:2,0:0:0:0:
112,224,124046,2,0,P|100:271|93:310,1,73,10|0,0:0|0:0,0:0:0:0:
139,367,124300,6,0,P|45:349|0:343,2,109.5,10|10|10,0:0|0:0|0:0,0:0:0:0:
221,321,124809,2,0,B|264:310|229:301|304:281,1,73,2|0,3:0|0:0,0:0:0:0:
350,348,125063,1,2,3:0:0:0:
350,348,125190,2,0,P|402:322|405:287,1,73,10|0,0:0|0:0,0:0:0:0:
403,233,125444,2,0,P|393:189|380:149,1,73,2|0,3:0|0:0,0:0:0:0:
467,138,125699,5,8,0:0:0:0:
467,138,125826,2,0,P|474:102|485:67,1,73,8|8,0:3|0:3,0:0:0:0:
403,9,126080,2,0,P|392:43|384:79,1,73,4|4,0:3|0:3,0:0:0:0:
302,134,126334,6,0,P|256:120|264:23,2,146,2|2|2,3:0|3:0|3:0,0:0:0:0:
444,217,127097,1,2,3:0:0:0:
444,217,127224,2,0,P|374:236|345:245,1,73,10|0,0:0|0:0,0:0:0:0:
286,246,127478,2,0,P|294:301|303:335,1,73,2|0,3:0|0:0,0:0:0:0:
220,372,127732,5,10,0:0:0:0:
220,372,127860,2,0,P|212:317|203:283,1,73,2|2,3:1|3:1,0:0:0:0:
131,257,128114,1,2,3:1:0:0:
131,257,128241,1,2,3:1:0:0:
44,294,128368,6,0,P|7:256|40:192,1,109.5,10|0,0:0|0:0,0:0:0:0:
35,205,128622,2,0,B|78:190|42:188|111:165,1,73,2|0,3:0|0:0,0:0:0:0:
184,180,128877,1,2,3:0:0:0:
71,33,129131,5,2,3:0:0:0:
71,33,129258,2,0,P|130:50|138:79,1,73,10|0,0:0|0:0,0:0:0:0:
215,69,129512,2,0,P|268:59|311:48,1,73,2|0,3:0|0:0,0:0:0:0:
353,116,129766,5,10,0:0:0:0:
353,116,129894,2,0,P|337:180|334:212,1,73,8|8,0:3|0:3,0:0:0:0:
286,266,130148,1,4,0:3:0:0:
286,266,130275,1,4,0:3:0:0:
360,331,130402,6,0,P|439:316|513:305,2,146,2|2|2,0:1|3:0|3:0,0:0:0:0:
278,375,131165,1,2,3:0:0:0:
278,375,131292,2,0,P|258:341|287:299,1,73,10|0,0:0|0:0,0:0:0:0:
340,238,131546,2,0,P|289:225|249:212,1,73,2|0,3:0|0:0,0:0:0:0:
191,274,131800,5,10,0:0:0:0:
191,274,131927,2,0,P|140:287|100:300,1,73,2|2,3:2|3:2,0:0:0:0:
50,235,132182,2,0,P|60:200|69:164,1,73,10|0,0:0|0:0,0:0:0:0:
128,90,132436,6,0,L|117:39,3,36.5,10|2|2|2,0:0|0:0|0:0|0:0,0:0:0:0:
146,102,132690,2,0,B|198:87|166:78|231:62,1,73,10|8,0:0|0:0,0:0:0:0:
282,8,132944,2,0,P|331:41|302:131,1,146,2|2,3:0|3:0,0:0:0:0:
238,165,133326,2,0,P|256:211|267:263,1,73,10|0,0:0|0:0,0:0:0:0:
350,273,133580,2,0,P|332:319|321:371,1,73,2|0,3:0|0:0,0:0:0:0:
409,383,133834,5,8,0:0:0:0:
409,383,133961,2,0,P|427:337|438:285,1,73,8|8,0:3|0:3,0:0:0:0:
431,230,134216,2,0,P|440:196|457:150,1,73,4|4,0:3|0:3,0:0:0:0:
509,91,134470,6,0,B|478:112|478:112|424:90|387:85,1,109.5,2|0,3:0|0:0,0:0:0:0:
394,73,134724,2,0,B|342:96|383:100|312:117,1,73,2|0,3:0|0:0,0:0:0:0:
262,176,134978,2,0,B|182:156|248:128|125:107,1,146,2|2,3:0|3:0,0:0:0:0:
69,170,135360,2,0,P|80:212|95:254,1,73,10|0,0:0|0:0,0:0:0:0:
51,324,135614,2,0,P|92:335|136:343,1,73,2|0,3:0|0:0,0:0:0:0:
194,276,135868,5,8,0:0:0:0:
194,276,135995,2,0,P|235:264|279:256,1,73,2|2,3:1|3:1,0:0:0:0:
332,315,136249,1,2,3:1:0:0:
332,315,136377,1,2,3:1:0:0:
401,257,136504,6,0,B|426:342|444:277|466:390,2,146,10|2|2,0:0|3:0|3:0,0:0:0:0:
476,123,137266,1,2,3:0:0:0:
476,123,137394,2,0,B|499:81|501:105|515:54,1,73,8|0,0:0|0:0,0:0:0:0:
444,9,137648,1,8,0:0:0:0:
444,9,137775,2,0,P|401:32|373:39,1,73,2|0,3:0|0:0,0:0:0:0:
337,111,138029,6,0,B|309:98|309:98|296:36,3,73,8|8|8|8,0:1|0:1|0:1|0:1,0:1:0:0:
221,46,138538,5,4,3:2:0:0:
182,212,138792,2,0,L|270:190,1,65.6999979949952,0|0,3:0|0:0,0:0:0:0:
310,265,139046,2,0,P|230:284|159:301,1,131.39999598999,0|0,3:0|3:0,0:0:0:0:
108,350,139427,1,0,0:0:0:0:
108,350,139555,2,0,B|88:280|51:314|29:236,1,131.39999598999,2|0,3:0|3:0,0:0:0:0:
72,175,139936,1,2,0:3:0:0:
72,175,140063,1,2,3:0:0:0:
28,22,140317,6,0,L|43:92,1,65.6999979949952,0|8,3:0|0:0,0:0:0:0:
126,75,140571,2,0,B|209:99|151:141|231:174,1,131.39999598999,2|0,3:0|3:0,0:0:0:0:
302,137,140953,1,2,0:3:0:0:
378,187,141080,2,0,B|419:168|419:168|472:201,2,98.5499969924928,10|8|8,0:0|0:0|0:0,0:0:0:0:
298,221,141588,6,0,P|290:272|282:315,1,65.6999979949952,2|0,3:0|0:0,0:0:0:0:
295,373,141843,2,0,P|238:361|211:278,1,131.39999598999,0|2,3:0|3:0,0:0:0:0:
127,279,142224,1,8,0:0:0:0:
127,279,142351,2,0,P|87:303|54:314,1,65.6999979949952,2|0,3:0|3:0,0:0:0:0:
0,352,142605,6,0,P|-8:270|44:240,1,131.39999598999,2|2,3:2|3:2,0:0:0:0:
97,195,142987,1,0,0:0:0:0:
97,195,143114,2,0,L|82:104,1,65.6999979949952,0|0,3:0|0:0,0:0:0:0:
61,42,143368,2,0,P|110:53|147:62,1,65.6999979949952,0|0,3:0|0:0,0:0:0:0:
191,114,143622,5,2,3:0:0:0:
191,114,143749,2,0,B|229:116|241:79|241:79|272:41|321:61,1,131.39999598999,2|2,0:3|0:3,0:0:0:0:
368,106,144131,2,0,P|403:78|398:50,1,65.6999979949952,2|0,3:0|0:0,0:0:0:0:
483,38,144385,1,0,3:0:0:0:
505,202,144639,6,0,P|452:181|415:178,1,65.6999979949952,2|8,3:0|0:0,0:0:0:0:
373,225,144894,2,0,B|395:302|434:256|460:351,1,131.39999598999,0|2,3:0|3:0,0:0:0:0:
380,371,145275,1,2,0:0:0:0:
380,371,145402,2,0,L|339:356,3,32.8499989974976,2|2|10|10,3:2|0:0|0:0|0:0,0:0:0:0:
339,377,145656,6,0,P|330:327|306:296,1,65.6999979949952,4|8,3:2|0:0,0:0:0:0:
235,304,145910,1,8,0:0:0:0:
235,304,146038,2,0,P|244:254|270:223,1,65.6999979949952,8|8,0:0|0:0,0:0:0:0:
177,200,146292,1,8,0:0:0:0:
177,200,146419,2,0,P|159:156|125:141,1,65.6999979949952,8|8,0:0|0:0,0:0:0:0:
63,165,146673,5,4,3:2:0:0:
10,300,146927,2,0,P|49:315|92:335,1,65.6999979949952,8|2,0:0|3:2,0:0:0:0:
131,382,147182,2,0,B|181:368|181:368|193:343|193:343|269:324,1,131.39999598999,2|8,3:2|0:0,0:0:0:0:
302,263,147563,1,0,0:0:0:0:
302,263,147690,2,0,P|259:192|198:205,1,131.39999598999,2|8,3:0|0:0,0:0:0:0:
148,151,148071,2,0,P|121:115|126:77,1,65.6999979949952,2|2,3:1|3:1,0:0:0:0:
287,0,148453,6,0,P|299:44|313:117,1,98.5499969924928,10|0,0:0|0:0,0:0:0:0:
315,119,148707,2,0,B|402:138|352:165|443:200,1,131.39999598999,2|8,3:2|0:0,0:0:0:0:
469,272,149088,1,2,0:0:0:0:
469,272,149216,2,0,P|458:325|457:366,1,65.6999979949952,2|0,3:2|0:0,0:0:0:0:
369,331,149470,2,0,P|378:278|379:239,1,65.6999979949952,10|0,0:0|0:0,0:0:0:0:
421,190,149724,6,0,P|474:140|430:84,1,131.39999598999,2|8,3:1|0:0,0:0:0:0:
378,66,150105,1,2,0:1:0:0:
378,66,150233,2,0,P|367:8|367:-23,1,65.6999979949952,2|0,3:1|0:0,0:0:0:0:
277,6,150487,2,0,P|287:59|288:102,1,65.6999979949952,2|0,1:0|0:0,0:0:0:0:
340,137,150741,1,4,3:2:0:0:
173,193,150995,6,0,P|138:178|124:127,1,65.6999979949952,10|0,3:2|3:2,0:0:0:0:
55,110,151249,2,0,P|63:72|95:44,1,65.6999979949952,2|0,3:2|0:0,0:0:0:0:
153,7,151504,1,10,0:0:0:0:
153,7,151631,1,2,0:0:0:0:
203,76,151758,2,0,P|272:96|355:126,1,131.39999598999,2|10,3:2|0:0,0:0:0:0:
413,91,152139,1,2,3:2:0:0:
413,91,152266,2,0,B|426:121|426:121|404:163,1,65.6999979949952,2|0,3:2|0:0,0:0:0:0:
357,216,152521,2,0,B|343:244|343:244|366:288,1,65.6999979949952,10|0,0:0|3:0,0:0:0:0:
442,300,152775,6,0,P|366:324|303:369,2,131.39999598999,2|8|2,3:0|0:0|3:0,0:0:0:0:
270,219,153538,2,0,P|227:211|196:188,1,65.6999979949952,10|2,0:0|0:0,0:0:0:0:
150,132,153792,1,10,0:0:0:0:
69,161,153919,2,0,P|44:201|57:244,1,65.6999979949952,10|2,0:0|3:2,0:0:0:0:
116,269,154173,2,0,B|245:297|143:365|291:391,1,197.099993984986,10|2,0:0|0:0,0:0:0:0:
389,277,154809,6,0,P|375:215|370:200,2,58.4,4|0|8,3:2|3:0|0:0,0:0:0:0:
475,339,155190,2,0,P|500:226|509:202,1,116.8,0|0,3:0|3:0,0:0:0:0:
439,169,155571,1,8,0:0:0:0:
512,48,155826,6,0,P|457:36|435:31,1,58.4,0|0,3:0|3:0,0:0:0:0:
370,7,156080,2,0,P|349:45|320:46,1,58.4,8|0,0:0|3:0,0:0:0:0:
255,67,156334,2,0,P|266:128|270:149,1,58.4,0|0,0:0|3:0,0:0:0:0:
207,194,156588,1,8,0:0:0:0:
207,194,156716,1,0,0:0:0:0:
129,153,156843,6,0,P|121:117|114:84,2,58.4,0|0|8,3:0|3:0|0:0,0:0:0:0:
63,205,157224,2,0,P|75:278|88:339,1,116.8,0|0,3:0|3:0,0:0:0:0:
161,374,157605,2,0,P|170:325|179:302,1,58.4,8|0,0:0|0:0,0:0:0:0:
256,288,157860,6,0,P|289:331|371:326,1,116.8,0|8,3:0|0:0,0:0:0:0:
426,291,158241,1,0,3:0:0:0:
426,291,158368,2,0,P|417:242|407:217,1,58.4,0|0,0:0|3:0,0:0:0:0:
486,168,158622,2,0,P|439:151|413:148,1,58.4,8|0,0:0|3:0,0:0:0:0:
421,56,158877,6,0,P|353:104|315:150,1,116.8,4|8,3:1|0:0,0:0:0:0:
250,162,159258,2,0,B|260:229|289:185|305:288,1,116.8,0|0,3:0|3:0,0:0:0:0:
241,332,159639,2,0,P|190:325|165:318,1,58.4,8|0,0:0|0:0,0:0:0:0:
105,361,159894,6,0,P|64:329|68:259,1,116.8,0|8,3:0|0:0,0:0:0:0:
112,198,160275,1,0,3:0:0:0:
112,198,160402,2,0,P|97:103|84:63,1,116.8,0|8,0:0|0:0,0:0:0:0:
171,24,160783,5,0,0:0:0:0:
171,24,160910,2,0,P|180:82|187:103,1,58.4,0|0,3:0|3:0,0:0:0:0:
262,148,161165,2,0,P|268:112|272:83,1,58.4,8|0,0:0|3:0,0:0:0:0:
348,48,161419,2,0,B|418:68|367:91|450:121,1,116.8,0|8,0:0|0:0,0:0:0:0:
438,116,161800,1,0,0:0:0:0:
509,170,161927,6,0,P|498:232|499:249,1,58.4,0|0,3:0|3:0,0:0:0:0:
430,289,162182,2,0,B|352:309|412:330|314:353,1,116.8,8|0,0:0|0:0,0:0:0:0:
256,301,162563,2,0,P|259:264|265:237,2,58.4,0|8|0,3:0|0:0|3:0,0:0:0:0:
166,362,162944,5,6,3:2:0:0:
166,362,163071,2,0,P|155:299|151:274,1,65.6999979949952,2|8,3:2|0:0,0:0:0:0:
66,312,163326,1,2,3:2:0:0:
66,312,163453,2,0,P|55:249|51:224,1,65.6999979949952,2|0,0:0|3:0,0:0:0:0:
94,172,163707,1,10,0:0:0:0:
233,227,163961,6,0,P|281:218|312:207,1,65.6999979949952,2|2,3:2|3:2,0:0:0:0:
376,157,164216,2,0,B|413:168|413:168|427:188|427:188|480:204,1,98.5499969924928,8|0,0:0|0:0,0:0:0:0:
478,192,164470,2,0,P|493:141|505:111,1,65.6999979949952,2|0,0:0|3:0,0:0:0:0:
444,60,164724,1,10,0:0:0:0:
444,60,164851,1,0,0:0:0:0:
358,68,164978,6,0,B|279:50|335:22|217:-1,1,131.39999598999,2|8,3:2|0:0,0:0:0:0:
166,57,165360,1,2,3:2:0:0:
166,57,165487,2,0,P|175:117|187:146,1,65.6999979949952,2|0,0:0|3:0,0:0:0:0:
225,198,165741,2,0,P|189:207|156:222,1,65.6999979949952,10|0,0:0|0:0,0:0:0:0:
80,187,165995,6,0,P|28:212|44:297,1,131.39999598999,2|8,3:2|0:0,0:0:0:0:
103,334,166377,1,2,3:2:0:0:
103,334,166504,2,0,B|181:344|138:374|243:386,1,131.39999598999,2|10,0:0|0:0,0:0:0:0:
297,336,166885,1,0,3:0:0:0:
387,373,167012,2,0,P|405:268|413:225,2,131.39999598999,6|8|2,3:2|0:0|0:0,0:0:0:0:
290,270,167775,5,10,0:0:0:0:
290,270,167902,1,0,0:0:0:0:
290,270,168029,2,0,L|297:341,1,65.6999979949952,2|2,3:2|3:2,0:0:0:0:
207,297,168283,1,8,0:0:0:0:
207,297,168410,1,2,3:2:0:0:
207,297,168537,2,0,L|198:213,1,65.6999979949952,2|0,0:0|3:0,0:0:0:0:
273,189,168792,2,0,P|320:174|354:158,1,65.6999979949952,10|0,0:0|0:0,0:0:0:0:
411,210,169046,6,0,P|474:211|506:142,1,131.39999598999,2|8,3:2|0:0,0:0:0:0:
469,82,169427,1,2,3:2:0:0:
469,82,169555,2,0,P|435:67|403:55,1,65.6999979949952,2|0,0:0|3:0,0:0:0:0:
321,38,169809,2,0,P|306:66|295:101,1,65.6999979949952,10|0,0:0|0:0,0:0:0:0:
213,131,170063,6,0,L|239:223,1,73,10|10,3:2|3:2,3:2:0:0:
300,268,170317,2,0,L|277:363,1,73,10|10,3:2|3:2,3:2:0:0:
192,364,170571,5,2,0:1:0:0:
8,85,171080,6,0,P|75:90|112:40,1,109.5,6|0,3:2|0:0,0:0:0:0:
111,54,171334,2,0,P|170:65|208:79,1,73,14|0,0:0|0:0,0:0:0:0:
287,27,171588,2,0,P|267:119|259:180,1,146,2|10,3:2|0:0,0:0:0:0:
330,234,171970,1,2,0:0:0:0:
330,234,172097,2,0,P|382:223|420:208,1,73,2|0,3:2|0:0,0:0:0:0:
461,301,172351,2,0,P|409:312|371:327,1,73,10|2,0:0|0:0,0:0:0:0:
324,382,172605,2,0,B|241:359|297:335|169:311,1,146,2|10,3:2|0:0,0:0:0:0:
100,365,172987,5,2,0:0:0:0:
100,365,173114,2,0,P|87:302|86:271,1,73,2|2,3:2|0:2,0:0:0:0:
0,251,173368,2,0,P|48:208|74:191,1,73,10|2,0:2|0:2,0:0:0:0:
48,107,173622,2,0,P|109:127|136:141,1,73,2|2,3:2|0:2,0:0:0:0:
193,204,173877,6,0,P|213:142|227:115,1,73,10|2,0:2|0:2,0:0:0:0:
294,80,174131,2,0,B|381:107|324:125|423:155,1,146,2|10,3:2|0:2,0:0:0:0:
495,209,174512,1,2,0:2:0:0:
495,209,174639,2,0,P|480:266|474:304,1,73,2|0,3:2|0:0,0:0:0:0:
414,352,174894,1,10,0:0:0:0:
414,352,175021,1,0,0:0:0:0:
328,312,175148,2,0,B|238:332|293:352|172:372,2,146,6|10|2,3:2|3:2|3:2,0:0:0:0:
495,209,175910,6,0,P|438:197|409:186,1,73,10|2,0:0|0:0,0:0:0:0:
349,125,176165,2,0,P|309:172|216:159,1,146,2|10,3:2|0:0,0:0:0:0:
147,118,176546,1,2,0:0:0:0:
147,118,176673,2,0,P|132:63|127:34,2,73,2|0|10,3:2|0:0|0:0,0:0:0:0:
84,194,177055,5,2,0:0:0:0:
84,194,177182,2,0,P|109:336|113:369,1,146,2|10,3:2|0:0,0:0:0:0:
193,378,177563,1,2,0:0:0:0:
193,378,177690,2,0,B|239:363|210:356|261:337,1,73,2|0,3:2|0:0,0:0:0:0:
315,276,177944,2,0,B|358:292|329:299|375:314,1,73,10|10,0:0|0:0,0:0:0:0:
453,270,178199,5,2,3:2:0:0:
453,270,178326,1,10,0:0:0:0:
502,190,178453,2,0,P|486:136|481:107,1,73,2|2,3:2|0:0,0:0:0:0:
401,85,178707,2,0,P|417:31|422:2,2,73,10|10|10,0:0|0:0|0:0,0:0:0:0:
324,136,179088,1,8,0:3:0:0:
324,136,179216,1,2,3:1:0:0:
502,190,179470,6,0,P|461:230|409:220,1,109.5,14|0,3:2|0:0,0:0:0:0:
402,213,179724,2,0,P|346:232|318:247,1,73,6|0,3:2|0:0,0:0:0:0:
240,237,179978,2,0,P|259:293|274:321,1,73,14|2,0:0|0:0,0:0:0:0:
184,384,180232,2,0,P|163:314|133:247,1,146,6|10,3:2|0:0,0:0:0:0:
53,191,180614,5,2,0:0:0:0:
53,191,180741,2,0,P|67:134|80:95,1,73,2|0,3:2|0:0,0:0:0:0:
154,57,180995,2,0,P|164:92|172:127,1,73,10|2,0:0|0:0,0:0:0:0:
272,164,181249,2,0,B|368:133|288:128|406:91,2,146,2|8|0,3:2|0:0|3:0,0:0:0:0:
133,247,182012,6,0,P|179:261|215:280,1,73,10|2,0:0|0:0,0:0:0:0:
265,336,182266,2,0,P|333:304|405:284,1,146,2|10,3:2|0:0,0:0:0:0:
487,301,182648,1,2,0:0:0:0:
487,301,182775,2,0,B|498:251|504:275|517:218,1,73,2|0,3:2|0:0,0:0:0:0:
441,178,183029,2,0,P|429:134|415:98,1,73,10|0,0:0|3:0,0:0:0:0:
369,38,183283,2,0,P|450:80|510:58,2,146,6|10|2,3:2|0:0|3:2,0:0:0:0:
149,135,184046,6,0,P|184:127|219:115,1,73,10|2,0:0|0:0,0:0:0:0:
285,54,184300,2,0,P|313:135|331:220,1,146,2|10,3:2|0:0,0:0:0:0:
410,238,184682,1,2,0:0:0:0:
410,238,184809,2,0,P|392:307|389:327,1,73,2|0,3:2|0:0,0:0:0:0:
306,384,185063,2,0,P|298:348|287:313,1,73,10|2,0:0|0:0,0:0:0:0:
212,265,185317,5,2,3:2:0:0:
146,324,185444,2,0,P|80:311|47:306,1,73,10|2,0:0|3:2,0:0:0:0:
15,226,185699,2,0,P|81:213|114:208,1,73,2|2,0:0|3:2,0:0:0:0:
147,141,185953,1,8,0:0:0:0:
147,141,186080,2,0,B|222:155|184:172|259:190,1,109.5,2|0,3:2|0:0,0:0:0:0:
267,179,186334,6,0,L|279:138,3,36.5,6|8|10|8,3:2|0:0|0:0|0:0,0:0:0:0:
276,121,186588,2,0,L|264:80,3,36.5,8|8|8|8,0:0|0:0|0:0|0:0,0:0:0:0:
281,69,186843,6,0,P|322:81|364:89,1,73,2|2,3:0|0:3,0:0:0:0:
427,41,187097,1,2,0:3:0:0:
427,41,187224,1,2,0:3:0:0:
503,90,187351,5,6,3:2:0:0:
503,90,187478,2,0,P|483:171|468:255,1,146,2|2,0:0|0:0,0:0:0:0:
492,319,187860,2,0,P|446:321|417:285,1,73,2|0,3:2|0:0,0:0:0:0:
369,239,188114,2,0,P|326:249|280:252,1,73,10|0,0:2|0:0,0:0:0:0:
244,181,188368,6,0,P|172:223|170:294,1,146,2|8,3:2|0:0,0:0:0:0:
204,357,188749,1,2,0:0:0:0:
204,357,188877,1,2,3:2:0:0:
67,307,189131,1,10,0:2:0:0:
22,186,189385,5,2,3:2:0:0:
22,186,189512,2,0,B|102:171|55:134|161:117,1,146,2|2,0:0|0:0,0:0:0:0:
212,62,189894,2,0,P|227:102|237:140,1,73,2|0,3:2|0:0,0:0:0:0:
313,180,190148,2,0,P|322:144|336:110,1,73,10|0,0:2|0:0,0:0:0:0:
363,21,190402,6,0,P|430:39|447:119,1,146,2|8,3:2|0:0,0:0:0:0:
512,168,190783,1,2,0:0:0:0:
512,168,190910,1,2,3:2:0:0:
389,216,191165,1,10,0:2:0:0:
399,347,191419,5,2,3:2:0:0:
399,347,191546,2,0,P|305:298|264:340,1,146,2|2,0:0|0:0,0:0:0:0:
232,381,191927,2,0,P|196:349|198:302,1,73,2|0,3:2|0:0,0:0:0:0:
122,269,192182,2,0,P|131:224|134:190,1,73,10|0,0:2|0:0,0:0:0:0:
19,144,192436,6,0,P|30:203|40:299,1,146,2|8,3:2|0:0,0:0:0:0:
96,358,192817,1,2,0:0:0:0:
96,358,192944,1,2,3:2:0:0:
226,302,193199,1,10,0:2:0:0:
135,192,193453,5,2,3:2:0:0:
135,192,193580,2,0,P|80:164|87:81,1,146,2|2,0:0|0:0,0:0:0:0:
152,42,193961,2,0,P|190:33|231:21,1,73,2|0,3:2|0:0,0:0:0:0:
249,113,194216,2,0,P|284:122|319:131,1,73,10|8,0:0|0:0,0:0:0:0:
393,75,194470,5,2,3:1:0:0:
393,75,194597,2,0,P|405:138|411:165,1,73,2|8,0:1|0:0,0:0:0:0:
473,202,194851,1,2,1:1:0:0:
473,202,194978,2,0,P|485:265|491:292,1,73,2|8,3:1|0:0,0:0:0:0:
506,351,195232,1,2,3:1:0:0:
358,307,195487,6,0,B|275:282|326:245|230:219,1,146,6|8,3:2|0:0,0:0:0:0:
157,203,195868,1,2,0:0:0:0:
157,203,195995,2,0,P|148:265|147:307,1,73,2|0,3:2|0:0,0:0:0:0:
135,357,196249,1,10,0:2:0:0:
13,254,196504,6,0,P|8:201|82:155,1,146,2|8,3:2|0:0,0:0:0:0:
145,112,196885,1,2,0:0:0:0:
145,112,197012,2,0,P|192:125|227:129,1,73,2|0,3:2|0:0,0:0:0:0:
292,150,197266,1,10,0:2:0:0:
408,46,197521,6,0,B|423:133|455:103|466:186,1,146,2|8,3:2|0:0,0:0:0:0:
507,252,197902,1,2,0:0:0:0:
507,252,198029,2,0,P|488:302|482:333,1,73,2|0,3:2|0:0,0:0:0:0:
421,383,198283,1,10,0:2:0:0:
344,238,198538,6,0,P|297:217|219:282,1,146,2|8,3:2|0:0,0:0:0:0:
189,337,198919,1,2,0:0:0:0:
189,337,199046,2,0,P|240:352|273:373,1,73,2|0,3:2|0:0,0:0:0:0:
326,324,199300,1,10,0:2:0:0:
449,230,199555,6,0,P|457:183|478:79,1,146,2|8,3:2|0:0,0:0:0:0:
401,28,199936,1,2,0:0:0:0:
401,28,200063,2,0,P|391:70|375:119,1,73,2|0,3:2|0:0,0:0:0:0:
338,166,200317,1,10,0:2:0:0:
201,98,200571,6,0,P|172:160|103:159,1,146,2|8,3:2|0:0,0:0:0:0:
37,107,200953,1,2,0:0:0:0:
37,107,201080,2,0,P|50:56|57:16,1,73,2|0,3:2|0:0,0:0:0:0:
135,25,201334,1,10,0:2:0:0:
278,56,201588,6,0,B|288:143|320:98|333:202,1,146,2|8,3:2|0:0,0:0:0:0:
291,262,201970,1,2,0:0:0:0:
291,262,202097,2,0,P|231:273|194:281,1,73,2|0,3:2|0:0,0:0:0:0:
148,231,202351,1,10,1:2:0:0:
42,325,202605,5,2,1:0:0:0:
42,325,202732,2,0,P|36:280|29:244,1,73,2|0,1:0|3:0,0:0:0:0:
66,180,202987,1,2,1:0:0:0:
66,180,203114,2,0,P|60:135|53:99,1,73,2|8,3:1|0:0,0:0:0:0:
46,28,203368,1,2,3:1:0:0:
46,28,203495,1,2,0:3:0:0:
