osu file format v14

[General]
AudioFilename: audio.mp3
AudioLeadIn: 0
PreviewTime: 57118
Countdown: 0
SampleSet: Soft
StackLeniency: 0.6
Mode: 0
LetterboxInBreaks: 0
WidescreenStoryboard: 1

[Editor]
DistanceSpacing: 1
BeatDivisor: 2
GridSize: 32
TimelineZoom: 4.45

[Metadata]
Title:Tsukuri Kake no Shinshou
TitleUnicode:ツクリカケノ心象
Artist:inabakumori
ArtistUnicode:稲葉曇
Creator:0ugi
Version:| |
Source:
Tags:himada jiysea that_otaku lecandy sagu kyuuchie An image in the making 歌愛ユキ Kaai Yuki Vocaloid アンチサイクロン Anticyclone inaba kumori japanese rock j-rock
BeatmapID:2595770
BeatmapSetID:1248914

[Difficulty]
HPDrainRate:5
CircleSize:4
OverallDifficulty:9.4
ApproachRate:9.8
SliderMultiplier:1.8
SliderTickRate:1

[Events]
//Background and Video events
0,0,"bac34aa8-7ed5-495f-82c6-74cf0ab27c2a.png",0,0
//Break Periods
//Storyboard Layer 0 (Background)
//Storyboard Layer 1 (Fail)
//Storyboard Layer 2 (Pass)
//Storyboard Layer 3 (Foreground)
//Storyboard Layer 4 (Overlay)
//Storyboard Sound Samples

[TimingPoints]
233,254.237288135593,4,2,1,50,1,0
4046,-100,4,2,1,69,0,0
7556,-100,4,2,1,69,0,0
8368,-83.3333333333333,4,2,1,69,0,0
24639,-100,4,2,1,63,0,0
24830,-100,4,2,1,5,0,0
24893,-100,4,2,1,63,0,0
25084,-100,4,2,1,5,0,0
25147,-100,4,2,1,63,0,0
25338,-100,4,2,1,5,0,0
25402,-100,4,2,1,63,0,0
25592,-100,4,2,1,5,0,0
25656,-100,4,2,1,63,0,0
27118,-100,4,2,1,5,0,0
27181,-100,4,2,1,63,0,0
28897,-100,4,2,1,5,0,0
28961,-100,4,2,1,63,0,0
29152,-100,4,2,1,5,0,0
29215,-100,4,2,1,63,0,0
29406,-100,4,2,1,5,0,0
29470,-100,4,2,1,63,0,0
29660,-100,4,2,1,5,0,0
29724,-100,4,2,1,63,0,0
31186,-100,4,2,1,5,0,0
31249,-100,4,2,1,63,0,0
31440,-100,4,2,1,5,0,0
31503,-100,4,2,1,63,0,0
33474,-100,4,2,1,5,0,0
33537,-100,4,2,1,63,0,0
33728,-100,4,2,1,5,0,0
33792,-100,4,2,1,63,0,0
35253,-100,4,2,1,5,0,0
35317,-100,4,2,1,63,0,0
37033,-100,4,2,1,5,0,0
37097,-100,4,2,1,63,0,0
37287,-100,4,2,1,5,0,0
37351,-100,4,2,1,63,0,0
39321,-100,4,2,1,5,0,0
39385,-100,4,2,1,63,0,0
39575,-100,4,2,1,5,0,0
39639,-100,4,2,1,63,0,0
40656,-222.222222222222,4,2,1,63,0,0
40847,-100,4,2,1,5,0,0
40910,-100,4,2,1,63,0,0
47965,-100,4,2,1,5,0,0
48029,-100,4,2,1,63,0,0
57181,-71.4285714285714,4,2,1,76,0,0
57626,-100,4,2,1,5,0,0
57690,-71.4285714285714,4,2,1,76,0,0
58897,-100,4,2,1,5,0,0
58961,-71.4285714285714,4,2,1,76,0,0
65317,-250,4,2,1,76,0,0
65508,-100,4,2,1,5,0,0
65571,-71.4285714285714,4,2,1,76,0,0
66016,-100,4,2,1,5,0,0
66080,-71.4285714285714,4,2,1,76,0,0
67033,-100,4,2,1,5,0,0
67097,-71.4285714285714,4,2,1,76,0,0
73453,-83.3333333333333,4,2,1,69,0,0
89724,-100,4,2,1,63,0,0
89914,-100,4,2,1,5,0,0
89978,-100,4,2,1,63,0,0
91440,-100,4,2,1,5,0,0
91503,-100,4,2,1,63,0,0
92203,-100,4,2,1,5,0,0
92266,-100,4,2,1,63,0,0
92457,-100,4,2,1,5,0,0
92520,-100,4,2,1,63,0,0
92711,-100,4,2,1,5,0,0
92775,-100,4,2,1,63,0,0
93982,-100,4,2,1,5,0,0
94046,-100,4,2,1,63,0,0
94491,-100,4,2,1,5,0,0
94554,-100,4,2,1,63,0,0
94745,-100,4,2,1,5,0,0
94808,-100,4,2,1,63,0,0
96016,-100,4,2,1,5,0,0
96080,-100,4,2,1,63,0,0
97033,-100,4,2,1,5,0,0
97097,-100,4,2,1,63,0,0
97542,-100,4,2,1,5,0,0
97605,-100,4,2,1,63,0,0
97796,-100,4,2,1,5,0,0
97859,-100,4,2,1,63,0,0
98813,-100,4,2,1,5,0,0
98876,-100,4,2,1,63,0,0
99575,-100,4,2,1,5,0,0
99639,-100,4,2,1,63,0,0
100084,-100,4,2,1,5,0,0
100147,-100,4,2,1,63,0,0
100592,-100,4,2,1,5,0,0
100656,-100,4,2,1,63,0,0
100847,-100,4,2,1,5,0,0
100910,-100,4,2,1,63,0,0
101101,-100,4,2,1,5,0,0
101164,-100,4,2,1,63,0,0
102118,-100,4,2,1,5,0,0
102181,-100,4,2,1,63,0,0
102626,-100,4,2,1,5,0,0
102690,-100,4,2,1,63,0,0
102881,-100,4,2,1,5,0,0
102944,-100,4,2,1,63,0,0
104152,-100,4,2,1,5,0,0
104215,-100,4,2,1,63,0,0
106694,-100,4,2,1,5,0,0
106758,-100,4,2,1,63,0,0
112796,-100,4,2,1,5,0,0
112859,-100,4,2,1,63,0,0
120423,-100,4,2,1,5,0,0
120486,-100,4,2,1,63,0,0
122266,-133.333333333333,4,2,1,63,0,0
122457,-100,4,2,1,5,0,0
122520,-100,4,2,1,63,0,0
130402,-133.333333333333,4,2,1,63,0,0
130656,-100,4,2,1,63,0,0
139236,-100,4,2,1,5,0,0
139300,-100,4,2,1,63,0,0
141779,-100,4,2,1,5,0,0
141842,-100,4,2,1,63,0,0
145338,-100,4,2,1,5,0,0
145402,-100,4,2,1,63,0,0
147626,-100,4,2,1,5,0,0
147690,-100,4,2,1,63,0,0
148643,-100,4,2,1,5,0,0
148707,-100,4,2,1,63,0,0
154300,-76.9230769230769,4,2,1,63,0,0
154808,-125,4,2,1,63,0,0
162944,-100,4,2,1,63,0,0
170571,-500,4,2,1,42,0,0
171080,-71.4285714285714,4,2,1,76,0,0
171525,-71.4285714285714,4,2,1,5,0,0
171588,-71.4285714285714,4,2,1,76,0,0
172796,-71.4285714285714,4,2,1,5,0,0
172859,-71.4285714285714,4,2,1,76,0,0
179215,-250,4,2,1,76,0,0
179406,-250,4,2,1,5,0,0
179470,-71.4285714285714,4,2,1,76,0,0
180423,-71.4285714285714,4,2,1,5,0,0
180486,-71.4285714285714,4,2,1,76,0,0
181440,-71.4285714285714,4,2,1,5,0,0
181503,-71.4285714285714,4,2,1,76,0,0
183474,-71.4285714285714,4,2,1,5,0,0
183537,-71.4285714285714,4,2,1,76,0,0
187351,-83.3333333333333,4,2,1,69,0,0
195487,-83.3333333333333,4,2,1,63,0,0
203495,-133.333333333333,4,2,1,63,0,0

[Colours]
Combo1 : 180,255,104
Combo2 : 94,174,255
Combo3 : 255,140,85
Combo4 : 255,134,194

[HitObjects]
265,66,4046,6,0,L|269:208,1,135,4|0,3:0|0:0,0:0:0:0:
285,221,4300,5,8,3:2:0:0:
189,22,4427,1,8,3:2:0:0:
249,357,4681,5,8,3:2:0:0:
345,158,4808,1,8,3:2:0:0:
357,167,5317,5,8,3:2:0:0:
110,280,5444,1,8,3:2:0:0:
68,197,5698,5,8,3:2:0:0:
366,305,5825,1,8,3:2:0:0:
377,313,6334,5,8,3:2:0:0:
453,49,6461,1,8,3:2:0:0:
117,72,6715,5,8,3:2:0:0:
154,276,6842,1,8,3:2:0:0:
472,134,7097,5,8,3:2:0:0:
66,226,7351,5,2,0:3:0:0:
465,29,8368,5,6,3:2:0:0:
343,190,8495,2,0,L|316:55,1,107.999996704102,2|8,0:0|0:0,0:0:0:0:
446,15,8749,5,2,0:0:0:0:
324,176,8876,2,0,L|297:41,1,107.999996704102,2|0,3:2|0:0,0:0:0:0:
478,194,9131,5,10,0:2:0:0:
373,296,9258,1,0,0:0:0:0:
193,174,9385,5,2,3:2:0:0:
266,312,9512,2,0,L|395:292,1,107.999996704102,2|8,0:2|0:0,0:0:0:0:
165,159,9766,5,2,0:0:0:0:
238,297,9893,2,0,L|367:277,1,107.999996704102,2|0,3:2|0:0,0:0:0:0:
236,103,10148,5,10,0:2:0:0:
74,209,10275,1,0,3:0:0:0:
16,67,10402,5,2,3:2:0:0:
165,159,10529,2,0,L|148:29,1,107.999996704102,2|8,0:0|0:0,0:0:0:0:
0,52,10783,5,2,0:0:0:0:
149,144,10910,2,0,L|132:14,1,107.999996704102,2|0,3:2|0:0,0:0:0:0:
142,248,11165,5,10,0:2:0:0:
255,203,11292,1,0,0:0:0:0:
16,214,11419,5,2,3:2:0:0:
97,342,11546,2,0,L|222:321,1,107.999996704102,2|8,0:0|0:0,0:0:0:0:
0,201,11800,5,2,0:0:0:0:
81,329,11927,2,0,L|206:308,1,107.999996704102,2|0,3:2|0:0,0:0:0:0:
332,222,12181,5,10,0:2:0:0:
318,384,12308,1,0,3:0:0:0:
512,200,12436,5,2,3:2:0:0:
423,309,12563,2,0,L|302:303,1,107.999996704102,2|8,0:0|0:0,0:0:0:0:
498,185,12817,5,2,0:0:0:0:
409,294,12944,2,0,L|288:288,1,107.999996704102,2|0,3:2|0:0,0:0:0:0:
511,334,13198,5,10,0:2:0:0:
403,196,13325,1,0,0:0:0:0:
245,191,13453,5,2,3:2:0:0:
383,90,13580,2,0,L|407:214,1,107.999996704102,2|8,0:0|0:0,0:0:0:0:
226,177,13834,5,2,0:0:0:0:
364,76,13961,2,0,L|388:200,1,107.999996704102,2|0,3:2|0:0,0:0:0:0:
470,43,14215,5,10,0:2:0:0:
311,3,14342,1,0,3:0:0:0:
159,108,14470,5,2,3:2:0:0:
316,261,14597,2,0,L|191:255,1,107.999996704102,2|8,0:0|0:0,0:0:0:0:
143,94,14851,5,2,0:0:0:0:
300,247,14978,2,0,L|175:241,1,107.999996704102,2|0,3:2|0:0,0:0:0:0:
50,224,15232,5,10,0:2:0:0:
296,162,15359,1,10,0:2:0:0:
95,319,15486,5,10,0:0:0:0:
143,94,15614,2,0,L|118:221,1,107.999996704102,2|0,3:1|0:0,0:0:0:0:
417,319,15868,5,10,0:0:0:0:
369,94,15996,2,0,L|394:221,1,107.999996704102,2|0,3:1|0:0,0:0:0:0:
256,352,16249,2,0,L|256:224,1,107.999996704102,2|0,3:1|0:0,0:0:0:0:
287,13,16503,5,6,3:2:0:0:
196,158,16631,2,0,L|60:145,1,107.999996704102,2|8,0:0|0:2,0:0:0:0:
273,0,16885,5,2,0:0:0:0:
182,145,17013,2,0,L|46:132,1,107.999996704102,2|0,3:2|0:0,0:0:0:0:
135,56,17266,5,10,0:2:0:0:
269,142,17393,1,0,0:0:0:0:
406,75,17520,5,2,3:2:0:0:
364,254,17647,2,0,L|345:113,1,107.999996704102,2|8,0:0|0:0,0:0:0:0:
394,64,17902,5,2,0:0:0:0:
352,243,18029,2,0,L|333:102,1,107.999996704102,2|0,3:2|0:0,0:0:0:0:
447,196,18283,5,10,0:2:0:0:
512,292,18410,1,0,3:0:0:0:
379,378,18537,5,2,3:2:0:0:
272,263,18664,2,0,L|147:288,1,107.999996704102,2|8,0:0|0:0,0:0:0:0:
365,366,18919,5,2,0:0:0:0:
258,251,19046,2,0,L|133:276,1,107.999996704102,2|0,3:2|0:0,0:0:0:0:
27,320,19300,5,10,0:2:0:0:
168,369,19427,1,0,0:0:0:0:
142,148,19554,5,2,3:2:0:0:
33,225,19681,2,0,L|56:82,1,107.999996704102,2|8,0:0|0:0,0:0:0:0:
129,135,19936,5,2,0:0:0:0:
20,212,20063,2,0,L|43:69,1,107.999996704102,2|0,3:2|0:0,0:0:0:0:
118,28,20317,5,10,0:2:0:0:
230,96,20444,1,0,3:0:0:0:
357,60,20571,5,6,3:2:0:0:
313,215,20698,2,0,L|200:199,1,107.999996704102,2|8,0:0|0:0,0:0:0:0:
344,46,20953,5,2,0:0:0:0:
300,201,21080,2,0,L|187:185,1,107.999996704102,2|0,3:2|0:0,0:0:0:0:
99,234,21334,5,10,0:2:0:0:
208,332,21461,1,0,0:0:0:0:
301,289,21588,5,2,3:2:0:0:
384,384,21715,2,0,L|414:270,1,107.999996704102,2|8,0:0|0:0,0:0:0:0:
293,269,21970,5,2,0:0:0:0:
376,364,22097,2,0,L|406:250,1,107.999996704102,2|0,3:2|0:0,0:0:0:0:
476,210,22351,5,10,0:2:0:0:
506,326,22478,1,0,3:0:0:0:
363,177,22605,5,2,3:2:0:0:
506,118,22732,2,0,L|378:96,1,107.999996704102,2|8,0:0|0:0,0:0:0:0:
350,159,22986,5,2,0:0:0:0:
493,100,23113,2,0,L|365:78,1,107.999996704102,2|0,3:2|0:0,0:0:0:0:
268,65,23368,5,10,0:2:0:0:
445,176,23495,1,10,0:2:0:0:
430,5,23622,5,10,0:2:0:0:
350,158,23749,2,0,L|360:271,1,107.999996704102,2|0,3:1|0:0,0:0:0:0:
98,162,24003,5,10,0:0:0:0:
251,204,24130,2,0,L|261:86,1,107.999996704102,2|0,3:1|0:0,0:0:0:0:
445,101,24385,2,0,L|332:131,1,107.999996704102,2|0,3:1|3:0,0:0:0:0:
232,88,24639,6,0,P|250:160|281:257,1,135,4|0,3:1|0:0,0:0:0:0:
319,285,24893,2,0,P|247:303|150:334,1,135,0|0,3:0|0:0,0:0:0:0:
122,372,25147,2,0,P|104:300|73:203,1,135,0|0,3:0|0:0,0:0:0:0:
35,175,25402,2,0,P|107:157|204:126,1,135,0|0,3:0|0:0,0:0:0:0:
246,93,25656,6,0,P|241:167|231:212,1,90,2|2,3:2|0:2,0:0:0:0:
333,297,25910,2,0,P|326:252|325:207,1,90,0|2,3:0|0:2,0:0:0:0:
430,94,26164,2,0,P|425:168|415:213,1,90,2|0,3:2|0:0,0:0:0:0:
205,262,26419,5,2,3:2:0:0:
320,130,26546,1,8,0:0:0:0:
415,268,26673,2,0,P|459:260|519:254,1,90,0|0,3:0|0:0,0:0:0:0:
295,370,26864,1,0,0:0:0:0:
295,370,26927,2,0,P|286:290|272:203,1,135,0|0,3:0|0:0,0:0:0:0:
234,163,27181,5,8,3:2:0:0:
12,276,27372,5,8,0:0:0:0:
67,44,27563,5,8,0:0:0:0:
204,279,27690,6,0,B|163:257|163:257|101:272,1,90,2|2,3:2|0:2,0:0:0:0:
111,360,27944,2,0,B|152:382|152:382|214:367,1,90,0|2,3:0|0:2,0:0:0:0:
344,237,28198,5,2,3:2:0:0:
512,140,28325,1,8,0:0:0:0:
416,213,28453,5,2,3:2:0:0:
305,170,28580,1,0,3:0:0:0:
512,360,28707,6,0,P|501:260|489:206,1,135,0|0,3:0|0:0,0:0:0:0:
512,140,28961,2,0,P|445:152|378:157,1,135,0|0,3:0|0:0,0:0:0:0:
305,170,29215,2,0,P|317:236|322:303,1,135,0|0,3:0|0:0,0:0:0:0:
360,384,29470,2,0,P|293:371|226:366,1,135,0|0,3:0|0:0,0:0:0:0:
144,371,29724,6,0,P|152:311|155:265,1,90,2|2,3:2|0:2,0:0:0:0:
0,277,29978,2,0,P|8:217|11:171,1,90,0|2,3:0|0:2,0:0:0:0:
236,258,30232,2,0,P|228:198|225:152,1,90,2|0,3:2|0:0,0:0:0:0:
92,167,30486,2,0,P|88:211|81:256,1,90,2|0,3:2|0:0,0:0:0:0:
53,337,30741,5,0,3:0:0:0:
35,102,30868,1,8,0:0:0:0:
225,168,30995,6,0,P|314:184|366:189,1,135,0|0,3:0|0:0,0:0:0:0:
467,205,31249,2,0,P|432:150|393:67,1,135,0|0,3:0|0:0,0:0:0:0:
350,22,31503,1,0,3:0:0:0:
319,103,31631,5,0,1:0:0:0:
333,110,31694,1,0,1:0:0:0:
401,87,31758,2,0,P|457:93|500:88,1,90,2|2,3:2|0:2,0:0:0:0:
360,267,32012,5,0,3:0:0:0:
273,248,32139,1,10,0:2:0:0:
419,329,32266,5,2,3:2:0:0:
501,318,32393,1,4,0:3:0:0:
325,187,32520,5,2,3:2:0:0:
334,376,32647,1,0,3:0:0:0:
156,283,32775,6,0,P|217:309|264:341,1,90,4|0,3:1|0:0,0:0:0:0:
59,73,33029,2,0,P|120:47|167:15,1,90,0|0,3:0|0:0,0:0:0:0:
335,75,33283,6,0,P|315:180|306:237,1,135,0|0,3:0|0:0,0:0:0:0:
229,252,33537,2,0,P|209:357|200:414,1,135,0|0,3:0|0:0,0:0:0:0:
132,332,33792,6,0,P|120:265|112:224,1,90,2|2,3:2|0:2,0:0:0:0:
26,155,34046,2,0,P|14:88|5:45,1,90,0|2,3:0|0:2,0:0:0:0:
113,0,34300,6,0,P|101:56|91:117,1,90,2|0,3:2|0:0,0:0:0:0:
34,239,34554,1,2,3:2:0:0:
233,167,34681,1,8,0:0:0:0:
197,82,34808,5,0,3:0:0:0:
393,120,34936,1,0,1:0:0:0:
393,120,34999,1,0,1:0:0:0:
323,76,35063,2,0,P|314:142|311:236,1,135,0|0,3:0|0:0,0:0:0:0:
341,284,35317,5,8,3:2:0:0:
453,75,35508,5,8,0:0:0:0:
221,171,35699,5,8,0:0:0:0:
424,324,35825,6,0,P|419:266|405:210,1,90,2|2,3:2|0:2,0:0:0:0:
258,272,36080,2,0,P|263:330|277:386,1,90,0|2,3:2|0:2,0:0:0:0:
498,197,36334,5,2,3:2:0:0:
426,1,36461,1,8,0:0:0:0:
507,35,36588,5,2,3:2:0:0:
429,145,36715,1,0,3:0:0:0:
304,63,36842,6,0,P|240:77|133:88,1,135,0|0,3:0|0:0,0:0:0:0:
88,58,37097,2,0,P|102:129|103:207,1,135,0|0,3:0|0:0,0:0:0:0:
174,248,37351,2,0,P|227:240|270:241,1,90,0|0,3:0|0:0,0:0:0:0:
53,265,37605,2,0,L|49:368,1,90,8|0,0:0|0:0,0:0:0:0:
191,169,37796,5,0,1:0:0:0:
191,169,37859,2,0,L|96:193,1,90,2|2,3:2|0:2,0:0:0:0:
233,338,38114,5,0,3:0:0:0:
326,377,38241,1,2,3:2:0:0:
443,253,38368,5,2,3:2:0:0:
335,295,38495,1,0,3:2:0:0:
473,267,38622,2,0,P|476:216|486:157,1,90,2|0,3:2|0:0,0:0:0:0:
318,47,38876,5,0,3:0:0:0:
367,212,39003,1,8,0:0:0:0:
510,52,39131,6,0,P|435:75|367:102,1,135,0|0,3:0|0:0,0:0:0:0:
318,47,39385,2,0,P|240:47|163:32,1,135,0|0,3:0|0:0,0:0:0:0:
110,5,39639,1,0,3:0:0:0:
207,174,39766,5,8,0:0:0:0:
211,166,39830,1,8,0:0:0:0:
216,159,39893,1,2,3:2:0:0:
66,246,40020,6,0,L|118:233,1,45,10|8,0:0|0:0,0:0:0:0:
287,202,40147,1,8,0:3:0:0:
288,114,40275,5,2,3:2:0:0:
191,321,40402,1,10,0:0:0:0:
28,174,40529,1,8,0:0:0:0:
270,317,40656,6,0,P|260:359|257:389,1,60.7499981460572,2|0,3:2|0:0,0:0:0:0:
282,384,40910,6,0,P|273:303|262:275,1,90,4|0,3:2|0:0,0:0:0:0:
129,262,41164,1,8,0:0:0:0:
211,233,41292,1,2,3:2:0:0:
103,344,41419,6,0,B|58:331|58:331|11:354,1,90,2|0,3:2|0:0,0:0:0:0:
139,172,41673,2,0,L|128:270,1,90,8|0,0:0|0:0,0:0:0:0:
29,183,41927,6,0,P|16:120|14:82,1,90,2|0,3:2|0:0,0:0:0:0:
127,29,42181,1,8,0:0:0:0:
207,97,42308,1,2,3:2:0:0:
269,47,42436,2,0,L|361:67,1,90,0|2,3:0|0:3,0:0:0:0:
483,41,42690,5,10,0:0:0:0:
483,41,42817,1,0,0:0:0:0:
344,214,42944,6,0,P|394:203|448:204,1,90,2|2,3:2|0:0,0:0:0:0:
505,308,43198,1,8,0:0:0:0:
428,280,43325,1,2,3:2:0:0:
338,384,43453,2,0,L|348:270,1,90,2|0,3:2|0:0,0:0:0:0:
189,193,43707,5,10,0:0:0:0:
208,283,43834,1,0,0:0:0:0:
274,226,43961,5,2,3:1:0:0:
91,289,44088,1,2,0:1:0:0:
256,384,44215,2,0,P|230:333|204:301,1,90,8|2,0:0|0:1,0:0:0:0:
0,204,44470,6,0,L|15:335,1,90,2|0,3:1|0:0,0:0:0:0:
102,379,44724,2,0,L|91:289,1,90,2|0,1:1|0:0,0:0:0:0:
59,79,44978,1,0,3:0:0:0:
59,79,45232,5,10,0:0:0:0:
188,42,45359,1,0,3:0:0:0:
269,144,45486,5,2,3:2:0:0:
208,203,45614,1,0,0:0:0:0:
185,126,45741,5,10,0:0:0:0:
343,98,45868,1,2,0:0:0:0:
370,254,45995,5,2,3:2:0:0:
354,178,46122,1,2,0:0:0:0:
491,293,46249,5,8,0:0:0:0:
475,217,46376,1,2,3:2:0:0:
287,236,46503,2,0,P|301:297|309:346,1,90,2|0,3:2|0:0,0:0:0:0:
419,126,46758,6,0,P|469:134|519:141,1,90,10|0,0:0|0:0,0:0:0:0:
239,38,47012,2,0,P|283:31|327:24,1,90,2|2,3:2|0:0,0:0:0:0:
505,1,47266,5,10,0:0:0:0:
416,50,47393,1,0,3:0:0:0:
327,99,47520,2,0,L|346:216,1,90,2|0,3:2|0:0,0:0:0:0:
377,298,47775,2,0,P|440:286|523:286,1,135,10|0,0:0|0:0,0:0:0:0:
510,284,48029,6,0,P|505:338|500:381,1,90,2|0,3:2|3:0,0:0:0:0:
336,368,48283,1,10,0:0:0:0:
244,344,48410,1,0,3:0:0:0:
152,320,48537,5,2,3:2:0:0:
244,296,48664,1,2,3:2:0:0:
336,272,48792,5,8,0:0:0:0:
185,156,48919,1,2,3:2:0:0:
36,231,49046,1,4,3:1:0:0:
36,231,49300,6,0,B|76:249|76:249|139:235,1,90,8|2,0:0|3:2,0:0:0:0:
156,76,49554,1,2,3:2:0:0:
88,120,49681,1,0,0:0:0:0:
203,244,49808,2,0,L|181:141,1,90,10|2,0:2|0:0,0:0:0:0:
13,84,50063,5,2,3:0:0:0:
115,0,50190,1,2,0:3:0:0:
240,83,50317,2,0,L|350:100,1,90,8|2,0:0|3:1,0:0:0:0:
117,251,50571,1,2,3:1:0:0:
117,251,50825,5,10,0:0:0:0:
80,328,50953,1,0,0:0:0:0:
151,370,51080,5,2,3:2:0:0:
74,179,51207,1,2,0:0:0:0:
226,311,51334,5,8,0:2:0:0:
282,194,51461,1,2,3:2:0:0:
412,330,51588,5,2,3:2:0:0:
297,380,51715,1,0,0:0:0:0:
367,187,51842,5,10,0:0:0:0:
427,248,51970,1,0,0:0:0:0:
495,190,52097,5,2,3:1:0:0:
331,281,52224,1,2,0:1:0:0:
500,327,52351,5,8,0:0:0:0:
436,105,52478,1,2,0:1:0:0:
264,214,52605,6,0,L|251:95,1,90,2|0,3:1|0:0,0:0:0:0:
330,0,52859,2,0,L|339:89,1,90,2|0,1:1|0:0,0:0:0:0:
380,376,53114,1,0,3:0:0:0:
380,376,53368,5,10,0:0:0:0:
431,307,53495,1,0,3:0:0:0:
216,315,53622,2,0,L|312:336,1,90,2|0,3:2|0:0,0:0:0:0:
342,173,53876,2,0,P|324:236|331:283,1,90,10|2,0:0|0:0,0:0:0:0:
132,294,54131,6,0,P|143:379|143:421,1,90,2|2,3:2|0:0,0:0:0:0:
143,383,54385,2,0,P|64:358|37:351,1,90,8|2,0:0|3:2,0:0:0:0:
229,183,54639,5,2,3:2:0:0:
154,218,54766,1,0,0:0:0:0:
172,120,54893,5,10,0:0:0:0:
17,77,55020,1,0,3:0:0:0:
55,220,55147,6,0,B|81:178|81:178|67:112,1,90,2|0,3:0|0:0,0:0:0:0:
50,2,55402,5,8,0:0:0:0:
0,161,55529,1,2,0:3:0:0:
121,53,55656,5,0,3:0:0:0:
172,120,55783,1,2,0:2:0:0:
295,59,55910,5,10,0:0:0:0:
222,219,56037,1,2,3:0:0:0:
220,4,56164,5,14,0:0:0:0:
374,213,56292,1,10,0:0:0:0:
374,213,56355,1,8,0:0:0:0:
374,213,56419,1,10,3:2:0:0:
374,213,56482,1,8,0:0:0:0:
374,213,56546,1,10,0:0:0:0:
391,249,56609,1,8,0:0:0:0:
392,289,56673,5,2,3:2:0:0:
467,35,56927,1,2,0:0:0:0:
308,271,57181,6,0,P|216:259|136:250,1,125.999996154785,6|0,3:2|0:0,0:0:0:0:
315,10,57436,2,0,P|223:22|92:39,1,188.999994232178,14|0,0:2|0:0,0:0:0:0:
95,45,57690,2,0,P|111:115|120:203,1,125.999996154785,2|0,3:2|0:0,0:0:0:0:
0,347,57944,5,10,0:0:0:0:
37,145,58071,1,2,0:0:0:0:
176,364,58198,2,0,B|230:334|230:334|309:355,1,125.999996154785,2|0,3:2|0:0,0:0:0:0:
380,159,58453,5,10,0:0:0:0:
247,248,58580,1,2,0:0:0:0:
487,383,58707,2,0,P|486:255|477:173,1,188.999994232178,2|0,3:2|0:0,0:0:0:0:
460,174,58961,5,10,0:0:0:0:
472,279,59088,1,2,0:0:0:0:
315,14,59215,5,2,3:2:0:0:
469,87,59342,1,2,0:2:0:0:
232,267,59470,5,10,0:2:0:0:
202,102,59597,1,2,0:2:0:0:
504,191,59724,5,2,3:2:0:0:
383,313,59851,1,2,0:2:0:0:
413,10,59978,5,10,0:2:0:0:
472,279,60105,1,2,0:2:0:0:
188,186,60232,2,0,L|27:214,1,125.999996154785,2|0,3:2|0:0,0:0:0:0:
359,155,60486,5,10,0:0:0:0:
223,384,60614,1,2,0:0:0:0:
26,216,60741,2,0,L|59:85,1,125.999996154785,2|0,3:2|0:0,0:0:0:0:
233,22,60995,5,10,0:0:0:0:
188,186,61122,1,0,0:0:0:0:
147,348,61249,2,0,L|293:340,1,125.999996154785,6|0,3:2|0:0,0:0:0:0:
480,244,61503,6,0,B|511:303|511:303|496:373,1,125.999996154785,10|0,3:2|0:0,0:0:0:0:
347,381,61758,2,0,B|316:322|316:322|331:252,1,125.999996154785,2|0,3:2|0:0,0:0:0:0:
486,18,62012,5,10,0:0:0:0:
437,146,62139,1,2,0:0:0:0:
180,93,62266,2,0,L|35:119,1,125.999996154785,2|0,3:2|0:0,0:0:0:0:
477,36,62520,5,10,0:0:0:0:
428,164,62647,1,2,0:0:0:0:
171,111,62775,2,0,L|26:137,1,125.999996154785,2|0,3:2|0:0,0:0:0:0:
379,292,63029,5,10,0:0:0:0:
298,62,63156,1,2,0:0:0:0:
204,190,63283,5,2,3:2:0:0:
323,230,63410,1,2,0:0:0:0:
428,164,63537,1,10,0:0:0:0:
282,142,63664,5,2,0:0:0:0:
259,302,63792,2,0,P|330:321|408:353,1,125.999996154785,2|0,3:2|0:0,0:0:0:0:
47,215,64046,5,10,0:0:0:0:
218,87,64173,1,10,0:0:0:0:
426,261,64300,5,2,3:2:0:0:
99,152,64427,1,10,0:0:0:0:
413,77,64554,5,10,0:0:0:0:
346,257,64681,1,2,3:2:0:0:
146,219,64808,1,10,0:0:0:0:
204,371,64936,5,10,0:0:0:0:
307,50,65063,1,2,3:2:0:0:
30,115,65190,1,0,3:2:0:0:
146,219,65317,6,0,L|140:159,1,54,2|0,0:1|0:0,0:0:0:0:
129,130,65571,6,0,P|206:156|266:171,1,125.999996154785,14|0,3:2|0:0,0:0:0:0:
10,384,65825,2,0,P|69:363|210:340,1,188.999994232178,14|0,3:2|0:0,0:0:0:0:
226,355,66080,5,10,0:0:0:0:
146,219,66207,1,2,0:2:0:0:
374,365,66334,2,0,P|448:333|511:314,1,125.999996154785,2|0,3:2|0:0,0:0:0:0:
317,45,66588,5,10,0:0:0:0:
346,227,66715,1,2,0:0:0:0:
479,15,66842,2,0,P|466:72|453:230,1,188.999994232178,2|0,3:2|0:0,0:0:0:0:
479,217,67097,5,10,0:2:0:0:
435,97,67224,1,2,0:2:0:0:
346,227,67351,5,2,3:2:0:0:
201,50,67478,1,2,0:2:0:0:
229,277,67605,5,10,0:2:0:0:
296,0,67732,1,2,0:2:0:0:
156,181,67859,5,2,3:2:0:0:
353,95,67986,1,2,0:2:0:0:
111,96,68114,5,10,0:2:0:0:
430,173,68241,1,2,0:2:0:0:
43,209,68368,2,0,L|14:57,1,125.999996154785,2|0,3:2|0:0,0:0:0:0:
258,143,68622,5,10,0:0:0:0:
1,278,68749,1,2,0:0:0:0:
359,227,68876,2,0,L|339:81,1,125.999996154785,2|0,3:2|0:0,0:0:0:0:
117,6,69131,5,10,0:0:0:0:
156,181,69258,1,0,0:0:0:0:
195,356,69385,2,0,P|87:341|27:344,1,125.999996154785,6|0,3:2|0:0,0:0:0:0:
193,101,69639,6,0,B|241:145|241:145|243:251,1,125.999996154785,10|0,3:2|0:0,0:0:0:0:
117,261,69893,2,0,B|69:217|69:217|67:111,1,125.999996154785,2|0,3:2|0:0,0:0:0:0:
250,8,70148,5,10,0:0:0:0:
504,82,70275,1,2,0:0:0:0:
390,187,70402,2,0,L|359:64,1,125.999996154785,2|0,3:2|0:0,0:0:0:0:
236,22,70656,5,10,0:0:0:0:
490,96,70783,1,2,0:0:0:0:
376,201,70910,2,0,L|345:78,1,125.999996154785,2|0,3:2|0:0,0:0:0:0:
163,245,71164,5,10,0:0:0:0:
276,288,71292,1,2,0:0:0:0:
359,217,71419,5,2,3:2:0:0:
188,323,71546,1,10,0:0:0:0:
170,113,71673,6,0,P|211:168|252:212,1,125.999996154785,2|2,3:2|0:0,0:0:0:0:
9,232,71927,1,2,3:2:0:0:
65,116,72054,1,8,0:0:0:0:
188,323,72181,2,0,P|123:321|45:330,1,125.999996154785,2|2,3:2|0:0,0:0:0:0:
303,70,72436,5,10,0:0:0:0:
152,192,72563,1,10,0:0:0:0:
194,200,72626,1,8,0:0:0:0:
237,208,72690,1,10,0:0:0:0:
279,216,72753,1,8,0:0:0:0:
322,224,72817,1,10,0:0:0:0:
365,233,72881,1,8,0:0:0:0:
408,240,72944,5,10,0:0:0:0:
221,24,73071,1,10,0:0:0:0:
236,336,73198,5,2,3:2:0:0:
347,140,73325,1,0,3:0:0:0:
495,260,73453,5,6,3:2:0:0:
375,340,73580,2,0,L|364:226,1,107.999996704102,2|8,0:0|0:0,0:0:0:0:
507,248,73834,5,2,0:0:0:0:
387,328,73961,2,0,L|376:214,1,107.999996704102,2|0,3:2|0:0,0:0:0:0:
362,110,74215,5,10,0:2:0:0:
470,167,74342,1,0,0:0:0:0:
378,15,74470,5,2,3:2:0:0:
288,81,74597,2,0,L|163:108,1,107.999996704102,2|8,0:0|0:0,0:0:0:0:
388,0,74851,5,2,0:0:0:0:
298,66,74978,2,0,L|173:93,1,107.999996704102,2|0,3:2|0:0,0:0:0:0:
236,173,75232,5,10,0:2:0:0:
377,212,75359,1,0,3:0:0:0:
340,318,75486,5,2,3:2:0:0:
186,279,75614,2,0,L|211:388,1,107.999996704102,2|8,0:0|0:0,0:0:0:0:
350,299,75868,5,2,0:0:0:0:
196,260,75996,2,0,L|221:369,1,107.999996704102,2|0,3:2|0:0,0:0:0:0:
282,246,76249,5,10,0:2:0:0:
127,334,76376,1,0,0:0:0:0:
33,211,76503,5,2,3:2:0:0:
127,334,76631,2,0,L|12:314,1,107.999996704102,2|8,0:0|0:0,0:0:0:0:
49,197,76885,5,2,0:0:0:0:
143,320,77013,2,0,L|28:300,1,107.999996704102,2|0,3:2|0:0,0:0:0:0:
178,131,77266,5,10,0:2:0:0:
136,225,77393,1,0,3:0:0:0:
114,35,77520,5,2,3:2:0:0:
24,119,77647,2,0,L|6:-1,1,107.999996704102,2|8,0:0|0:0,0:0:0:0:
127,22,77902,5,2,0:0:0:0:
37,106,78029,2,0,L|19:-14,1,107.999996704102,2|0,3:2|0:0,0:0:0:0:
218,53,78283,5,10,0:2:0:0:
281,161,78410,1,0,0:0:0:0:
415,159,78537,5,2,3:2:0:0:
475,50,78664,2,0,L|340:71,1,107.999996704102,2|8,0:0|0:0,0:0:0:0:
435,138,78919,5,2,0:0:0:0:
495,29,79046,2,0,L|360:50,1,107.999996704102,2|0,3:2|0:0,0:0:0:0:
291,74,79300,5,10,0:2:0:0:
259,189,79427,1,0,3:0:0:0:
129,174,79554,5,2,3:2:0:0:
6,233,79681,2,0,L|26:353,1,107.999996704102,2|8,0:0|0:0,0:0:0:0:
140,163,79936,5,2,0:0:0:0:
17,222,80063,2,0,L|37:342,1,107.999996704102,2|0,3:2|0:0,0:0:0:0:
325,157,80317,5,10,0:0:0:0:
309,211,80381,1,8,0:0:0:0:
293,264,80444,1,8,0:0:0:0:
278,318,80508,1,8,0:0:0:0:
263,371,80571,1,10,0:0:0:0:
407,242,80698,5,2,3:1:0:0:
407,242,80762,1,0,3:0:0:0:
407,242,80825,1,0,3:0:0:0:
191,268,80953,5,10,0:0:0:0:
505,208,81080,2,0,P|487:258|470:310,1,107.999996704102,2|0,3:1|3:0,0:0:0:0:
459,15,81334,6,0,P|414:37|379:62,1,53.9999983520508,2|0,1:0|0:0,0:0:0:0:
309,100,81461,2,0,P|354:122|389:147,1,53.9999983520508,2|0,0:1|0:0,0:0:0:0:
510,136,81970,5,14,0:0:0:0:
178,282,82097,2,0,L|203:156,1,107.999996704102,2|0,3:2|0:0,0:0:0:0:
265,246,82351,5,10,0:0:0:0:
125,119,82478,1,0,0:0:0:0:
253,106,82605,5,2,3:2:0:0:
107,212,82732,2,0,L|-26:222,1,107.999996704102,2|8,0:0|0:0,0:0:0:0:
263,91,82986,5,2,0:0:0:0:
117,197,83113,2,0,L|-16:207,1,107.999996704102,2|0,3:2|0:0,0:0:0:0:
43,34,83368,5,10,0:2:0:0:
125,119,83495,1,0,3:0:0:0:
219,22,83622,5,2,3:2:0:0:
354,184,83749,2,0,L|343:66,1,107.999996704102,2|8,0:0|0:0,0:0:0:0:
231,4,84003,5,2,0:0:0:0:
366,166,84130,2,0,L|355:48,1,107.999996704102,2|0,3:2|0:0,0:0:0:0:
274,168,84385,5,10,0:2:0:0:
462,186,84512,1,0,0:0:0:0:
378,351,84639,5,2,3:2:0:0:
262,271,84766,2,0,L|395:255,1,107.999996704102,2|8,0:0|0:0,0:0:0:0:
390,338,85020,5,2,0:0:0:0:
274,258,85147,2,0,L|407:242,1,107.999996704102,2|0,3:2|0:0,0:0:0:0:
472,282,85402,5,10,0:2:0:0:
512,384,85529,1,0,3:0:0:0:
297,335,85656,5,6,3:2:0:0:
179,384,85783,2,0,L|159:266,1,107.999996704102,2|8,0:0|0:0,0:0:0:0:
310,321,86037,5,2,0:0:0:0:
192,370,86164,2,0,L|172:252,1,107.999996704102,2|0,3:2|0:0,0:0:0:0:
209,157,86419,5,10,0:2:0:0:
67,120,86546,1,0,0:0:0:0:
108,217,86673,5,2,3:2:0:0:
0,298,86800,2,0,L|116:335,1,107.999996704102,2|8,0:0|0:0,0:0:0:0:
121,205,87054,5,2,0:0:0:0:
13,286,87181,2,0,L|129:323,1,107.999996704102,2|0,3:2|0:0,0:0:0:0:
274,233,87436,5,10,0:2:0:0:
242,125,87563,1,0,3:0:0:0:
123,63,87690,5,2,3:2:0:0:
17,151,87817,2,0,L|-1:38,1,107.999996704102,2|8,0:0|0:0,0:0:0:0:
141,52,88071,5,2,0:0:0:0:
35,140,88198,2,0,L|17:27,1,107.999996704102,2|0,3:2|0:0,0:0:0:0:
317,165,88453,5,10,0:0:0:0:
133,135,88580,1,8,0:0:0:0:
335,60,88707,5,8,0:0:0:0:
218,240,88834,2,0,P|214:183|215:103,1,107.999996704102,2|0,3:1|0:0,0:0:0:0:
25,136,89088,5,8,0:0:0:0:
126,313,89216,2,0,P|124:259|118:205,1,107.999996704102,2|0,3:1|0:0,0:0:0:0:
235,54,89470,2,8,P|156:60|93:64,1,107.999996704102,2|0,3:1|3:0,0:0:0:0:
202,336,89724,6,0,P|265:319|364:319,1,135,4|0,3:2|0:0,0:0:0:0:
399,384,89978,2,0,P|413:326|435:282,1,90,8|0,3:2|0:0,0:0:0:0:
484,175,90232,6,0,L|500:291,1,90,0|0,3:0|0:0,0:0:0:0:
294,149,90486,2,0,L|278:265,1,90,8|0,3:2|0:0,0:0:0:0:
427,76,90741,2,0,L|532:109,1,90,0|0,3:0|0:0,0:0:0:0:
215,183,90995,2,0,L|194:71,1,90,8|0,3:2|0:0,0:0:0:0:
414,214,91249,6,0,P|300:232|254:248,1,135,0|0,3:0|0:0,0:0:0:0:
262,249,91503,1,8,3:2:0:0:
188,334,91631,1,0,0:0:0:0:
34,193,91758,6,0,P|41:253|39:301,1,90,0|0,3:0|0:0,0:0:0:0:
21,301,92012,6,0,P|17:226|26:129,1,135,8|0,3:2|0:0,0:0:0:0:
0,91,92266,2,0,P|75:87|172:96,1,135,0|0,3:0|0:0,0:0:0:0:
216,55,92520,6,0,P|220:130|211:227,1,135,8|0,3:2|0:0,0:0:0:0:
237,265,92774,2,0,P|162:269|112:267,1,90,0|0,3:0|0:0,0:0:0:0:
43,185,93029,6,0,P|118:181|168:183,1,90,8|0,3:2|0:0,0:0:0:0:
318,247,93283,2,0,P|310:310|295:368,1,90,0|0,3:0|0:0,0:0:0:0:
466,172,93537,2,0,P|474:235|489:293,1,90,8|0,3:2|0:0,0:0:0:0:
503,372,93792,6,0,P|409:330|357:335,1,135,0|0,3:0|0:0,0:0:0:0:
304,335,94046,2,0,P|291:271|297:221,1,90,8|0,3:2|0:0,0:0:0:0:
440,84,94300,6,0,P|374:138|307:175,1,135,0|0,3:0|0:0,0:0:0:0:
247,171,94554,2,0,P|182:136|127:83,1,135,8|0,3:2|0:0,0:0:0:0:
83,10,94808,2,0,P|59:73|31:119,1,90,0|0,3:0|0:0,0:0:0:0:
273,0,95063,6,0,P|284:47|289:105,1,90,8|0,3:2|0:0,0:0:0:0:
482,86,95317,2,0,P|471:133|466:191,1,90,0|0,3:0|0:0,0:0:0:0:
494,316,95571,5,8,3:2:0:0:
411,277,95698,1,0,0:0:0:0:
294,358,95825,6,0,P|234:337|136:318,1,135,0|0,3:0|0:0,0:0:0:0:
80,362,96080,2,0,P|135:320|157:290,1,90,8|0,3:2|0:0,0:0:0:0:
280,196,96334,6,0,P|295:247|318:291,1,90,0|0,3:0|0:0,0:0:0:0:
91,205,96588,2,0,P|63:252|47:300,1,90,8|0,3:2|0:0,0:0:0:0:
0,41,96842,6,0,P|76:33|144:45,1,135,0|0,3:0|0:0,0:0:0:0:
229,89,97097,2,0,P|210:26|204:-8,1,90,8|0,3:2|0:0,0:0:0:0:
314,163,97351,6,0,P|217:197|171:218,1,135,0|0,3:0|0:0,0:0:0:0:
154,291,97605,2,0,P|91:261|24:222,1,135,8|0,3:2|0:0,0:0:0:0:
1,376,97859,6,0,P|51:348|106:337,1,90,4|0,3:2|0:0,0:0:0:0:
238,299,98114,2,0,P|221:360|199:406,1,90,8|0,3:2|0:0,0:0:0:0:
422,242,98368,1,0,3:0:0:0:
459,334,98495,1,0,0:0:0:0:
441,212,98622,6,0,P|374:235|303:248,1,135,8|0,3:2|0:0,0:0:0:0:
238,299,98876,2,0,P|235:234|250:173,1,90,0|0,3:0|0:0,0:0:0:0:
512,264,99131,2,0,P|515:199|500:138,1,90,8|0,3:2|0:0,0:0:0:0:
294,15,99385,6,0,B|329:80|329:80|305:174,1,135,0|0,3:0|0:0,0:0:0:0:
297,149,99639,1,8,3:2:0:0:
351,62,99766,1,0,0:0:0:0:
403,179,99893,6,0,P|436:126|511:97,1,135,0|0,3:0|0:0,0:0:0:0:
512,117,100147,2,0,P|458:117|414:105,1,90,8|0,3:2|0:0,0:0:0:0:
178,96,100402,6,0,P|211:161|272:225,1,135,0|0,3:0|0:0,0:0:0:0:
298,284,100656,2,0,P|225:280|139:300,1,135,8|0,3:2|0:0,0:0:0:0:
75,293,100910,2,0,P|114:231|139:147,1,135,0|0,3:0|0:0,0:0:0:0:
178,96,101164,6,0,P|115:98|56:84,1,90,8|0,3:2|0:0,0:0:0:0:
209,282,101419,2,0,P|253:278|298:284,1,90,0|0,3:0|0:0,0:0:0:0:
1,373,101673,2,0,P|23:322|37:270,1,90,8|0,3:2|0:0,0:0:0:0:
0,57,101927,6,0,P|12:121|46:210,1,135,0|0,3:0|0:0,0:0:0:0:
54,211,102181,2,0,P|102:182|150:171,1,90,8|0,3:2|0:0,0:0:0:0:
275,9,102436,6,0,P|333:57|407:93,1,135,0|0,3:0|0:0,0:0:0:0:
438,158,102690,2,0,P|482:115|516:30,1,135,8|0,3:2|0:0,0:0:0:0:
410,0,102944,2,0,P|389:49|388:105,1,90,0|0,3:0|0:0,0:0:0:0:
496,272,103198,6,0,P|443:247|389:231,1,90,8|0,3:2|0:0,0:0:0:0:
249,384,103453,2,0,P|250:314|233:254,1,90,0|0,3:0|0:0,0:0:0:0:
2,309,103707,2,0,P|36:278|69:230,1,90,8|0,3:2|0:0,0:0:0:0:
304,133,103961,6,0,P|239:159|155:184,1,135,0|0,3:0|0:0,0:0:0:0:
146,175,104215,2,0,P|151:243|170:289,1,90,8|0,3:2|0:0,0:0:0:0:
336,298,104470,2,0,P|278:294|239:294,1,90,0|0,3:0|0:0,0:0:0:0:
43,377,104724,6,0,P|63:320|73:274,1,90,8|8,3:2|0:0,0:0:0:0:
27,227,104914,1,8,0:0:0:0:
36,201,104978,1,8,0:0:0:0:
71,24,105105,1,8,0:0:0:0:
94,59,105169,1,8,0:0:0:0:
82,98,105232,1,8,0:0:0:0:
5,75,105359,5,0,3:0:0:0:
137,168,105486,1,8,0:0:0:0:
271,88,105614,1,8,0:0:0:0:
306,104,105677,1,8,0:0:0:0:
349,96,105741,1,0,3:0:0:0:
317,23,105868,1,8,0:0:0:0:
489,191,105995,6,0,P|412:215|386:217,1,90,6|0,3:2|0:0,0:0:0:0:
504,215,106249,1,2,1:2:0:0:
393,194,106376,1,0,0:0:0:0:
428,384,106503,6,0,P|364:305|306:284,1,135,2|0,3:2|0:0,0:0:0:0:
317,305,106758,1,2,1:2:0:0:
474,297,106885,2,0,P|482:250|520:198,1,90,2|0,0:0|3:0,0:0:0:0:
353,116,107139,6,0,B|314:144|314:144|261:131,1,90,2|0,0:0|1:0,0:0:0:0:
250,19,107393,2,0,B|289:-9|289:-9|342:4,1,90,2|0,0:0|3:0,0:0:0:0:
223,208,107647,5,2,0:3:0:0:
151,136,107775,1,2,1:3:0:0:
51,172,107902,1,2,0:3:0:0:
82,18,108029,6,0,P|127:41|195:58,1,90,2|0,3:2|0:0,0:0:0:0:
51,172,108283,2,0,B|34:126|34:126|64:79,1,90,2|0,1:2|0:0,0:0:0:0:
223,208,108537,5,2,3:2:0:0:
145,267,108664,1,0,0:0:0:0:
240,299,108792,5,2,1:2:0:0:
17,253,108919,2,0,P|26:276|86:349,1,90,2|0,0:2|3:0,0:0:0:0:
135,376,109173,1,2,0:0:0:0:
32,330,109300,1,0,1:0:0:0:
32,330,109427,1,2,0:0:0:0:
116,175,109554,5,0,3:0:0:0:
145,267,109681,1,2,0:3:0:0:
299,237,109808,2,0,L|395:263,1,90,2|2,1:3|0:3,0:0:0:0:
459,327,110063,6,0,B|490:287|490:287|479:229,1,90,6|0,3:2|0:0,0:0:0:0:
227,293,110317,1,2,1:2:0:0:
219,203,110444,1,0,0:0:0:0:
385,260,110571,6,0,P|379:204|374:153,1,90,2|0,3:2|0:0,0:0:0:0:
403,376,110825,1,2,1:2:0:0:
312,317,110953,2,0,P|247:295|209:291,1,90,2|0,0:0|3:0,0:0:0:0:
154,329,111207,5,2,0:0:0:0:
219,203,111334,1,0,1:0:0:0:
305,226,111461,6,0,P|303:147|313:38,1,180,2|2,0:0|0:3,0:0:0:0:
399,94,111842,1,2,1:3:0:0:
222,64,111970,1,2,0:3:0:0:
429,182,112097,6,0,P|476:162|523:147,1,90,2|0,3:2|0:0,0:0:0:0:
396,182,112351,1,2,1:2:0:0:
476,62,112478,5,0,0:0:0:0:
501,244,112605,2,0,P|427:218|347:203,1,135,2|0,3:2|0:0,0:0:0:0:
303,246,112859,5,2,1:2:0:0:
355,314,112986,1,2,0:0:0:0:
305,165,113114,5,10,0:0:0:0:
212,373,113241,2,0,B|187:332|187:332|205:280,1,90,2|0,3:0|0:0,0:0:0:0:
287,72,113495,5,10,0:0:0:0:
195,282,113622,2,0,B|170:241|170:241|188:189,1,90,2|0,3:0|0:0,0:0:0:0:
375,107,113876,2,0,P|428:133|470:147,1,90,2|0,3:2|0:0,0:0:0:0:
218,18,114131,5,6,3:2:0:0:
62,107,114258,1,0,0:0:0:0:
213,122,114385,5,10,0:2:0:0:
0,40,114512,1,0,0:0:0:0:
0,231,114639,6,0,P|57:219|114:210,1,90,2|0,3:2|0:0,0:0:0:0:
183,201,114893,1,10,0:0:0:0:
93,374,115020,2,0,B|99:327|99:327|63:280,1,90,2|0,0:0|3:0,0:0:0:0:
349,355,115275,5,2,0:0:0:0:
214,283,115402,1,8,0:0:0:0:
265,177,115529,2,0,P|335:182|391:182,1,90,2|0,0:0|3:0,0:0:0:0:
260,373,115783,5,2,0:0:0:0:
400,269,115910,1,10,0:0:0:0:
507,375,116037,2,0,P|502:319|490:257,1,90,2|2,3:2|3:2,0:0:0:0:
417,38,116292,5,0,0:0:0:0:
502,176,116419,1,10,0:0:0:0:
349,81,116546,1,0,0:0:0:0:
510,51,116673,5,2,3:2:0:0:
412,145,116800,1,0,0:0:0:0:
302,0,116927,1,10,0:0:0:0:
222,100,117054,1,2,0:0:0:0:
306,243,117181,6,0,P|297:181|288:118,1,90,0|2,3:0|0:0,0:0:0:0:
391,221,117436,1,8,0:0:0:0:
225,200,117563,2,0,B|182:188|182:188|111:228,1,90,2|0,0:0|3:0,0:0:0:0:
115,0,117817,6,0,P|133:56|138:101,1,90,2|10,0:0|0:0,0:0:0:0:
190,272,118071,1,2,3:2:0:0:
0,170,118198,6,0,B|43:182|43:182|82:159,1,90,6|0,3:2|0:0,0:0:0:0:
218,68,118453,2,0,L|322:87,1,90,10|0,0:0|0:0,0:0:0:0:
25,92,118707,5,2,3:2:0:0:
158,189,118834,1,0,0:0:0:0:
95,247,118961,1,10,0:0:0:0:
127,319,119088,1,2,0:0:0:0:
25,281,119215,6,0,P|13:336|-5:380,1,90,0|2,3:0|0:0,0:0:0:0:
201,265,119470,1,8,0:0:0:0:
206,384,119597,6,0,L|314:365,1,90,2|0,0:0|3:0,0:0:0:0:
335,160,119851,1,2,0:0:0:0:
289,266,119978,1,10,0:0:0:0:
289,266,120105,1,2,3:2:0:0:
424,201,120232,6,0,P|469:246|485:334,1,135,2|0,3:2|0:0,0:0:0:0:
464,335,120486,2,0,B|446:294|446:294|465:243,1,90,10|0,0:0|0:0,0:0:0:0:
512,95,120741,2,0,P|445:111|399:116,1,90,2|0,3:2|0:0,0:0:0:0:
262,55,120995,5,10,0:0:0:0:
336,249,121122,2,0,P|338:192|329:134,1,90,10|0,0:0|3:0,0:0:0:0:
478,21,121376,5,10,0:0:0:0:
326,142,121503,1,0,3:0:0:0:
262,55,121631,1,10,0:0:0:0:
358,54,121758,5,8,0:3:0:0:
112,113,121885,1,10,0:3:0:0:
248,192,122012,1,6,0:3:0:0:
157,240,122139,1,6,0:3:0:0:
119,0,122266,6,0,B|142:42|142:42|130:121,1,101.250003862381,2|0,0:1|0:0,0:0:0:0:
112,113,122520,6,0,P|170:104|224:108,1,90,2|0,3:0|0:0,0:0:0:0:
512,236,122775,2,0,P|454:227|400:231,1,90,2|0,3:0|0:0,0:0:0:0:
207,314,123029,5,2,3:0:0:0:
346,157,123156,2,0,P|339:224|326:276,1,90,10|0,0:0|0:0,0:0:0:0:
85,219,123410,2,0,P|92:286|105:338,1,90,2|0,3:0|0:0,0:0:0:0:
422,227,123664,5,10,0:0:0:0:
467,343,123792,1,2,3:2:0:0:
306,373,123919,1,2,3:2:0:0:
244,237,124046,2,0,B|236:286|236:286|205:315,1,90,10|0,0:0|0:0,0:0:0:0:
0,0,124300,5,10,0:0:0:0:
346,157,124491,5,10,0:0:0:0:
28,334,124681,5,10,0:0:0:0:
93,138,124808,6,0,P|131:165|164:201,1,90,2|0,3:0|0:0,0:0:0:0:
8,171,125063,1,2,3:0:0:0:
195,18,125190,6,0,P|187:77|185:129,1,90,10|0,0:0|0:0,0:0:0:0:
163,283,125444,2,0,P|164:360|165:394,1,90,2|0,3:0|0:0,0:0:0:0:
274,192,125698,5,8,0:0:0:0:
80,242,125825,1,8,0:3:0:0:
241,313,125953,5,8,0:3:0:0:
318,274,126080,1,4,0:3:0:0:
390,329,126207,1,4,0:3:0:0:
509,167,126334,6,0,P|458:213|421:248,1,90,2|0,3:0|0:0,0:0:0:0:
284,89,126588,2,0,B|327:107|327:107|409:88,1,90,2|0,3:0|0:0,0:0:0:0:
430,0,126842,6,0,P|441:48|452:99,1,90,2|0,3:0|0:0,0:0:0:0:
333,14,127097,1,2,3:0:0:0:
375,281,127224,6,0,P|341:239|288:226,1,90,10|0,0:0|0:0,0:0:0:0:
498,381,127478,2,0,P|496:323|496:270,1,90,2|0,3:0|0:0,0:0:0:0:
398,169,127732,1,10,0:0:0:0:
309,227,127859,5,2,3:1:0:0:
122,142,127986,1,2,3:1:0:0:
309,139,128114,5,2,3:1:0:0:
200,314,128241,1,2,3:1:0:0:
181,49,128368,6,0,P|198:105|205:144,1,90,10|0,0:0|0:0,0:0:0:0:
389,268,128622,2,0,P|372:324|365:363,1,90,2|0,3:0|0:0,0:0:0:0:
56,255,128876,6,0,B|95:234|95:234|159:256,1,90,2|0,3:0|0:0,0:0:0:0:
200,314,129131,1,2,3:0:0:0:
71,88,129258,6,0,P|52:147|36:188,1,90,10|0,0:0|0:0,0:0:0:0:
28,371,129512,2,0,P|80:358|102:323,1,90,2|0,3:0|0:0,0:0:0:0:
150,145,129766,5,10,0:0:0:0:
10,29,129893,1,8,0:3:0:0:
93,0,130020,1,8,0:3:0:0:
223,96,130147,5,4,0:3:0:0:
293,153,130274,1,4,0:3:0:0:
457,44,130402,6,0,B|432:75|432:75|443:130,1,67.5000025749208,2|0,0:1|0:0,0:0:0:0:
449,145,130593,5,0,0:0:0:0:
449,145,130656,2,0,P|393:115|354:113,1,90,2|0,3:0|0:0,0:0:0:0:
136,77,130910,2,0,P|148:143|151:189,1,90,2|0,3:0|0:0,0:0:0:0:
167,356,131164,5,2,3:0:0:0:
370,213,131292,2,0,B|386:257|386:257|370:309,1,90,10|0,0:0|0:0,0:0:0:0:
202,246,131546,2,0,P|269:254|318:258,1,90,2|0,3:0|0:0,0:0:0:0:
485,214,131800,5,10,0:0:0:0:
463,353,131927,1,2,3:2:0:0:
286,337,132054,1,2,3:2:0:0:
301,171,132181,2,0,P|307:115|312:69,1,90,10|0,0:0|0:0,0:0:0:0:
511,24,132436,5,10,0:0:0:0:
483,50,132499,1,2,0:0:0:0:
446,44,132563,2,0,L|373:58,1,45,2|2,0:0|0:0,0:0:0:0:
226,94,132690,5,10,0:0:0:0:
402,150,132817,1,8,0:0:0:0:
131,62,132944,6,0,P|145:129|152:169,1,90,2|0,3:0|0:0,0:0:0:0:
0,345,133198,1,2,3:0:0:0:
177,308,133325,6,0,B|133:286|133:286|62:303,1,90,10|0,0:0|0:0,0:0:0:0:
0,193,133580,2,0,B|44:215|44:215|115:198,1,90,2|0,3:0|0:0,0:0:0:0:
50,12,133834,5,8,0:0:0:0:
57,125,133961,1,8,0:3:0:0:
283,117,134088,1,8,0:3:0:0:
211,71,134215,5,4,0:3:0:0:
221,270,134342,1,4,0:3:0:0:
454,244,134470,6,0,P|454:309|462:350,1,90,2|0,3:0|0:0,0:0:0:0:
305,348,134724,2,0,P|305:283|297:242,1,90,2|0,3:0|0:0,0:0:0:0:
173,166,134978,6,0,B|214:185|214:185|270:165,1,90,2|0,3:0|0:0,0:0:0:0:
452,52,135232,1,2,3:0:0:0:
218,94,135359,2,0,P|213:40|210:-4,1,90,10|0,0:0|0:0,0:0:0:0:
380,191,135614,2,0,P|424:194|469:198,1,90,2|0,3:0|0:0,0:0:0:0:
205,354,135868,5,8,0:0:0:0:
52,279,135995,1,2,3:1:0:0:
0,344,136122,1,2,3:1:0:0:
234,223,136249,5,2,3:1:0:0:
129,316,136376,1,2,3:1:0:0:
12,129,136503,6,0,B|-12:170|-12:170|6:223,1,90,10|0,0:0|0:0,0:0:0:0:
184,157,136758,2,0,P|125:167|79:172,1,90,2|0,3:0|0:0,0:0:0:0:
301,26,137012,2,0,P|317:83|328:128,1,90,2|0,3:0|0:0,0:0:0:0:
109,11,137266,5,2,3:0:0:0:
156,247,137393,1,8,0:0:0:0:
474,82,137647,5,8,0:0:0:0:
409,344,137775,1,2,3:0:0:0:
25,76,138029,5,8,0:1:0:0:
25,76,138156,1,8,0:1:0:0:
25,76,138283,1,8,0:1:0:0:
25,76,138410,1,8,0:1:0:0:
44,161,138537,6,0,L|136:149,1,90,4|0,3:2|0:0,0:0:0:0:
307,34,138792,2,0,P|298:90|296:139,1,90,0|0,3:0|0:0,0:0:0:0:
354,321,139046,2,0,P|302:266|220:270,1,135,0|0,3:0|0:0,0:0:0:0:
231,279,139300,5,0,3:0:0:0:
363,201,139427,1,0,0:0:0:0:
430,270,139554,2,0,P|466:252|529:230,1,90,2|2,3:0|0:3,0:0:0:0:
409,30,139808,5,0,3:0:0:0:
385,114,139936,1,2,0:3:0:0:
363,201,140063,2,0,P|352:292|348:331,1,90,2|0,3:0|0:0,0:0:0:0:
421,354,140317,5,0,3:0:0:0:
258,384,140444,1,8,0:0:0:0:
102,284,140571,2,0,P|144:270|185:250,1,90,2|2,3:0|1:3,0:0:0:0:
245,189,140762,5,0,1:0:0:0:
245,189,140825,1,0,3:0:0:0:
268,269,140953,1,2,0:3:0:0:
85,184,141080,5,10,0:0:0:0:
257,79,141270,5,8,0:0:0:0:
114,6,141461,5,8,0:0:0:0:
0,159,141588,6,0,B|61:186|25:231|107:264,1,135,2|0,3:0|0:0,0:0:0:0:
162,269,141842,2,0,P|96:296|80:330,1,90,0|2,3:0|0:3,0:0:0:0:
276,180,142097,5,2,3:0:0:0:
231,365,142224,1,8,0:0:0:0:
350,244,142351,5,2,3:0:0:0:
379,340,142478,1,0,3:0:0:0:
505,192,142605,6,0,B|461:175|461:175|413:190,1,90,2|0,3:2|0:0,0:0:0:0:
434,268,142859,1,2,3:2:0:0:
512,291,142986,1,0,0:0:0:0:
350,244,143114,5,0,3:0:0:0:
222,289,143241,1,0,0:0:0:0:
190,209,143368,5,0,3:0:0:0:
276,180,143495,1,0,0:0:0:0:
308,319,143622,5,2,3:0:0:0:
350,244,143749,1,2,0:3:0:0:
347,76,143876,5,2,3:2:0:0:
374,163,144003,1,2,0:3:0:0:
512,258,144131,6,0,P|455:235|420:218,1,90,2|0,3:0|0:0,0:0:0:0:
435,91,144385,2,0,P|478:65|519:42,1,90,0|0,3:0|0:0,0:0:0:0:
212,0,144639,5,2,3:0:0:0:
347,76,144766,2,0,L|306:106,1,45,8|0,0:0|0:0,0:0:0:0:
208,206,144893,6,0,P|216:160|240:99,1,90,0|2,3:0|0:3,0:0:0:0:
29,34,145147,2,0,P|56:110|62:174,1,135,2|0,3:0|0:0,0:0:0:0:
50,201,145402,1,0,3:0:0:0:
135,15,145529,5,8,0:0:0:0:
133,37,145592,1,8,0:0:0:0:
130,59,145656,1,4,3:2:0:0:
320,152,145783,1,8,0:0:0:0:
140,202,145910,6,0,L|191:194,1,45,8|8,0:0|0:0,0:0:0:0:
407,175,146037,1,8,0:0:0:0:
324,297,146164,5,8,0:0:0:0:
234,116,146292,1,8,0:0:0:0:
132,293,146419,1,8,0:0:0:0:
50,201,146546,1,8,0:0:0:0:
220,284,146673,6,0,P|214:338|210:385,1,90,4|0,3:2|0:0,0:0:0:0:
51,370,146927,1,8,0:0:0:0:
31,286,147054,1,2,3:2:0:0:
139,202,147181,6,0,P|193:196|240:192,1,90,2|0,3:2|0:0,0:0:0:0:
342,384,147436,2,0,P|329:302|330:225,1,135,8|0,0:0|0:0,0:0:0:0:
347,226,147690,5,2,3:0:0:0:
477,291,147817,1,2,0:3:0:0:
506,145,147944,5,8,0:0:0:0:
436,211,148071,1,2,3:1:0:0:
421,364,148198,1,2,3:1:0:0:
421,364,148453,6,0,B|459:309|459:309|444:237,1,135,10|0,0:0|0:0,0:0:0:0:
436,211,148707,5,2,3:2:0:0:
347,226,148834,1,2,0:2:0:0:
257,121,148961,5,8,0:0:0:0:
364,144,149088,1,2,0:0:0:0:
496,35,149215,5,2,3:2:0:0:
350,56,149342,1,0,0:0:0:0:
470,128,149470,5,10,0:0:0:0:
409,0,149597,1,0,0:0:0:0:
230,38,149724,5,2,3:1:0:0:
257,121,149851,1,2,0:1:0:0:
45,114,149978,5,8,0:0:0:0:
115,14,150105,1,2,0:1:0:0:
193,209,150232,6,0,L|98:197,1,90,2|0,3:1|0:0,0:0:0:0:
0,270,150486,2,0,L|89:281,1,90,2|0,1:0|0:0,0:0:0:0:
313,305,150741,1,4,3:2:0:0:
313,305,150995,5,10,3:2:0:0:
246,380,151122,1,0,3:2:0:0:
168,293,151249,2,0,P|161:348|151:397,1,90,2|0,3:2|0:0,0:0:0:0:
344,206,151503,2,0,P|369:248|411:278,1,90,10|2,0:0|0:0,0:0:0:0:
512,176,151758,6,0,B|467:163|467:163|409:197,1,90,2|2,3:2|0:0,0:0:0:0:
472,316,152012,1,10,0:0:0:0:
248,245,152139,5,2,3:2:0:0:
327,384,152266,2,0,P|321:329|310:280,1,90,2|0,3:2|0:0,0:0:0:0:
151,195,152520,5,10,0:0:0:0:
253,125,152647,1,0,3:0:0:0:
344,206,152775,2,0,P|358:157|378:114,1,90,2|2,3:0|0:3,0:0:0:0:
512,54,153029,6,0,B|469:71|469:71|424:53,1,90,8|2,0:0|0:3,0:0:0:0:
255,9,153283,2,0,B|298:-7|298:-7|339:9,1,90,2|2,3:0|0:0,0:0:0:0:
134,37,153537,5,10,0:0:0:0:
253,125,153664,1,2,0:0:0:0:
74,245,153792,5,10,0:0:0:0:
67,200,153855,1,8,0:0:0:0:
88,158,153919,1,10,0:0:0:0:
127,137,153982,1,8,0:0:0:0:
171,145,154046,5,2,3:2:0:0:
140,307,154173,1,10,0:0:0:0:
0,226,154300,6,0,P|100:239|237:190,1,233.999989288331,2|2,0:2|0:0,0:0:0:0:
224,198,154682,1,2,0:1:0:0:
368,258,154809,6,0,P|324:293|301:320,1,72,4|0,3:2|3:0,0:0:0:0:
235,273,155063,1,8,0:0:0:0:
140,308,155190,1,0,3:0:0:0:
140,308,155444,5,0,3:0:0:0:
307,294,155571,2,0,L|394:317,1,72,8|0,0:0|0:0,0:0:0:0:
466,384,155825,6,0,P|454:339|451:286,1,72,0|0,3:0|3:0,0:0:0:0:
448,166,156080,2,0,L|528:152,1,72,8|0,0:0|3:0,0:0:0:0:
335,171,156334,6,0,P|347:126|371:78,1,72,0|0,0:0|3:0,0:0:0:0:
503,24,156588,1,8,0:0:0:0:
446,81,156715,1,0,0:0:0:0:
351,18,156842,6,0,P|311:40|282:53,1,72,0|0,3:0|3:0,0:0:0:0:
169,12,157097,1,8,0:0:0:0:
136,103,157224,1,0,3:0:0:0:
136,103,157478,5,0,3:0:0:0:
15,34,157605,2,0,P|24:88|24:124,1,72,8|0,0:0|0:0,0:0:0:0:
100,198,157859,2,0,P|147:191|192:187,1,72,0|0,3:0|3:0,0:0:0:0:
0,43,158114,5,8,0:0:0:0:
13,119,158241,1,0,3:0:0:0:
92,216,158368,2,0,P|139:209|184:205,1,72,0|0,0:0|3:0,0:0:0:0:
71,327,158622,2,0,P|24:320|-21:316,1,72,8|0,0:0|3:0,0:0:0:0:
232,239,158876,6,0,B|214:275|214:275|223:326,1,72,4|0,3:1|3:0,0:0:0:0:
172,381,159131,1,8,0:0:0:0:
308,333,159258,1,0,3:0:0:0:
308,333,159512,5,0,3:0:0:0:
436,363,159639,2,0,P|444:314|453:273,1,72,8|0,0:0|0:0,0:0:0:0:
323,180,159893,2,0,P|334:235|340:270,1,72,0|0,3:0|3:0,0:0:0:0:
447,381,160147,5,8,0:0:0:0:
476,292,160274,1,0,3:0:0:0:
343,191,160401,2,0,P|354:246|360:281,1,72,0|0,0:0|3:0,0:0:0:0:
506,167,160656,5,8,0:0:0:0:
506,167,160783,1,0,0:0:0:0:
426,198,160910,5,0,3:0:0:0:
363,111,161037,1,0,3:0:0:0:
432,38,161164,1,8,0:0:0:0:
505,73,161292,5,0,3:0:0:0:
305,33,161419,2,0,P|286:87|273:107,1,72,0|0,0:0|3:0,0:0:0:0:
27,83,161673,5,8,0:0:0:0:
27,83,161800,1,0,0:0:0:0:
217,155,161927,5,0,3:0:0:0:
39,171,162054,1,0,3:0:0:0:
110,221,162181,5,8,0:0:0:0:
139,136,162308,1,0,3:0:0:0:
115,40,162436,2,0,P|116:93|121:125,1,72,0|0,0:0|3:0,0:0:0:0:
163,364,162690,5,8,0:0:0:0:
181,276,162817,1,0,3:0:0:0:
11,311,162944,6,0,P|66:307|101:299,1,90,6|2,3:2|3:2,0:0:0:0:
277,245,163198,1,8,0:0:0:0:
259,333,163325,1,2,3:2:0:0:
426,299,163453,6,0,P|470:284|520:271,1,90,2|0,0:0|3:0,0:0:0:0:
361,363,163707,2,0,B|342:329|342:329|351:276,1,90,10|0,0:0|0:0,0:0:0:0:
455,97,163961,6,0,P|467:160|473:200,1,90,2|2,3:2|3:2,0:0:0:0:
348,159,164215,1,8,0:0:0:0:
398,223,164342,1,2,3:2:0:0:
280,80,164470,6,0,P|268:143|262:183,1,90,2|0,0:0|3:0,0:0:0:0:
384,42,164724,1,10,0:0:0:0:
455,97,164851,1,0,0:0:0:0:
501,0,164978,6,0,P|429:21|404:27,1,90,2|2,3:2|3:2,0:0:0:0:
193,54,165232,2,0,P|253:71|288:82,1,90,8|2,0:0|3:2,0:0:0:0:
87,153,165486,6,0,P|15:174|-10:180,1,90,2|0,0:0|3:0,0:0:0:0:
123,264,165741,1,10,0:0:0:0:
166,194,165868,1,0,0:0:0:0:
107,65,165995,6,0,P|56:54|11:38,1,90,2|2,3:2|3:2,0:0:0:0:
133,282,166249,1,8,0:0:0:0:
176,212,166376,1,2,3:2:0:0:
118,86,166503,6,0,P|67:75|22:59,1,90,2|0,0:0|3:0,0:0:0:0:
247,160,166758,1,10,0:0:0:0:
267,247,166885,1,0,3:0:0:0:
80,210,167012,6,0,P|34:250|6:280,1,90,6|2,3:2|3:2,0:0:0:0:
235,331,167266,2,0,P|301:320|340:317,1,90,8|2,0:0|3:2,0:0:0:0:
153,379,167520,6,0,P|147:323|138:274,1,90,2|0,0:0|3:0,0:0:0:0:
425,244,167775,2,0,P|417:288|413:333,1,90,10|0,0:0|0:0,0:0:0:0:
510,156,168029,6,0,P|464:135|413:128,1,90,2|2,3:2|3:2,0:0:0:0:
407,242,168283,1,8,0:0:0:0:
396,336,168410,1,2,3:2:0:0:
512,136,168537,6,0,P|466:115|415:108,1,90,2|0,0:0|3:0,0:0:0:0:
494,302,168792,1,10,0:0:0:0:
508,220,168919,1,0,0:0:0:0:
350,173,169046,5,2,3:2:0:0:
270,218,169173,1,2,3:2:0:0:
173,98,169300,5,8,0:0:0:0:
281,142,169427,1,2,3:2:0:0:
181,267,169554,2,0,P|179:223|178:163,1,90,2|0,0:0|3:0,0:0:0:0:
370,4,169808,5,10,0:0:0:0:
373,101,169936,1,0,0:0:0:0:
512,42,170063,5,10,3:2:0:0:
104,147,170190,1,10,3:2:0:0:
490,221,170317,1,10,3:2:0:0:
99,342,170444,1,10,3:2:0:0:
310,159,170571,6,0,L|310:194,1,36,2|2,0:1|0:1,0:0:0:0:
320,222,171080,6,0,P|327:114|324:74,1,125.999996154785,6|0,3:2|0:0,0:0:0:0:
19,348,171334,2,0,P|23:242|18:140,1,188.999994232178,14|0,0:0|0:0,0:0:0:0:
0,130,171588,2,0,P|70:153|139:158,1,125.999996154785,2|0,3:2|0:0,0:0:0:0:
396,59,171842,5,10,0:0:0:0:
207,141,171970,1,2,0:0:0:0:
414,323,172097,2,0,B|392:261|392:261|426:185,1,125.999996154785,2|0,3:2|0:0,0:0:0:0:
445,0,172351,5,10,0:0:0:0:
512,190,172478,1,2,0:0:0:0:
325,308,172605,2,0,P|231:304|123:313,1,188.999994232178,2|0,3:2|0:0,0:0:0:0:
124,336,172859,5,10,0:0:0:0:
239,323,172986,1,2,0:0:0:0:
85,79,173114,5,2,3:2:0:0:
23,338,173241,1,2,0:2:0:0:
200,124,173368,5,10,0:2:0:0:
239,323,173495,1,2,0:2:0:0:
386,103,173622,5,2,3:2:0:0:
343,366,173749,1,2,0:2:0:0:
458,136,173876,5,10,0:2:0:0:
512,344,174003,1,2,0:2:0:0:
301,236,174131,2,0,L|173:252,1,125.999996154785,2|0,3:2|0:0,0:0:0:0:
288,46,174385,5,10,0:2:0:0:
510,2,174512,1,2,0:2:0:0:
399,213,174640,2,0,L|415:341,1,125.999996154785,2|0,3:2|0:0,0:0:0:0:
175,352,174893,5,10,0:0:0:0:
152,180,175020,1,0,0:0:0:0:
129,8,175147,2,0,P|49:23|-11:26,1,125.999996154785,6|0,3:2|0:0,0:0:0:0:
260,334,175402,6,0,B|301:283|301:283|296:204,1,125.999996154785,10|0,3:2|0:0,0:0:0:0:
152,180,175656,2,0,B|111:231|111:231|116:310,1,125.999996154785,2|0,3:2|0:0,0:0:0:0:
361,384,175910,5,10,0:0:0:0:
461,262,176037,1,2,0:0:0:0:
323,26,176164,2,0,L|346:171,1,125.999996154785,2|0,3:2|0:0,0:0:0:0:
345,374,176419,5,10,0:0:0:0:
445,252,176546,1,2,0:0:0:0:
307,16,176673,2,0,L|330:161,1,125.999996154785,2|0,3:2|0:0,0:0:0:0:
490,335,176927,5,10,0:0:0:0:
358,257,177054,1,2,0:0:0:0:
252,332,177181,5,2,3:2:0:0:
229,234,177308,1,2,0:0:0:0:
427,167,177436,5,10,0:0:0:0:
326,140,177563,1,2,0:0:0:0:
414,368,177690,2,0,P|455:316|502:265,1,125.999996154785,2|0,3:2|0:0,0:0:0:0:
245,107,177944,5,10,0:0:0:0:
313,275,178071,1,10,0:0:0:0:
508,149,178198,5,2,3:2:0:0:
326,140,178325,1,10,0:0:0:0:
197,254,178453,1,2,3:2:0:0:
18,242,178580,1,2,0:0:0:0:
228,26,178707,5,10,0:0:0:0:
283,373,178834,1,10,0:0:0:0:
255,196,178961,1,10,0:0:0:0:
390,82,179088,5,8,0:3:0:0:
103,285,179215,2,0,L|99:222,1,54,2|0,3:1|0:0,0:0:0:0:
117,203,179470,6,0,P|127:273|131:337,1,125.999996154785,14|0,3:2|0:0,0:0:0:0:
512,48,179724,6,0,P|502:118|498:182,1,125.999996154785,6|0,3:2|0:0,0:0:0:0:
14,11,179978,5,14,0:0:0:0:
34,154,180105,1,2,0:0:0:0:
203,53,180232,2,0,P|286:72|414:82,1,188.999994232178,6|0,3:2|0:0,0:0:0:0:
420,63,180486,5,10,0:0:0:0:
353,249,180614,1,2,0:0:0:0:
508,374,180741,2,0,P|446:322|364:344,1,125.999996154785,2|0,3:2|0:0,0:0:0:0:
0,269,180995,5,10,0:0:0:0:
234,227,181122,1,2,0:0:0:0:
386,347,181249,2,0,B|357:237|460:280|420:145,1,188.999994232178,2|0,3:2|0:0,0:0:0:0:
376,95,181503,6,0,P|467:99|530:102,1,125.999996154785,8|0,0:0|0:0,0:0:0:0:
136,338,181758,2,0,P|45:342|-18:345,1,125.999996154785,0|0,3:0|0:0,0:0:0:0:
295,0,182012,5,10,0:0:0:0:
254,184,182139,1,2,0:0:0:0:
213,368,182266,2,0,P|286:353|346:343,1,125.999996154785,2|0,3:2|0:0,0:0:0:0:
217,0,182521,5,10,0:0:0:0:
258,184,182648,1,2,0:0:0:0:
299,368,182775,2,0,P|226:353|166:343,1,125.999996154785,2|0,3:2|0:0,0:0:0:0:
1,154,183029,6,0,B|63:177|63:177|140:150,1,125.999996154785,10|0,0:0|3:0,0:0:0:0:
481,8,183283,2,0,B|369:21|433:88|318:111,1,188.999994232178,6|0,3:2|0:0,0:0:0:0:
266,57,183537,6,0,P|285:137|291:212,1,125.999996154785,10|0,0:0|0:0,0:0:0:0:
474,382,183792,2,0,P|482:319|497:258,1,125.999996154785,2|0,3:2|0:0,0:0:0:0:
68,248,184046,5,10,0:0:0:0:
392,202,184173,1,2,0:0:0:0:
162,372,184300,2,0,L|175:226,1,125.999996154785,2|0,3:2|0:0,0:0:0:0:
52,260,184554,5,10,0:0:0:0:
376,214,184681,1,2,0:0:0:0:
146,384,184808,2,0,L|159:238,1,125.999996154785,2|0,3:2|0:0,0:0:0:0:
213,29,185063,5,10,0:0:0:0:
196,128,185190,1,2,0:0:0:0:
389,121,185317,5,2,3:2:0:0:
479,269,185444,1,10,0:0:0:0:
458,41,185571,5,2,3:2:0:0:
319,75,185698,1,2,0:0:0:0:
291,266,185825,5,2,3:2:0:0:
196,128,185953,1,8,0:0:0:0:
157,258,186080,5,2,3:2:0:0:
83,290,186207,1,2,3:2:0:0:
389,121,186334,5,6,3:2:0:0:
128,358,186461,1,10,0:0:0:0:
0,68,186588,1,8,0:0:0:0:
0,68,186652,1,8,0:0:0:0:
0,68,186715,1,8,0:0:0:0:
0,68,186779,1,8,0:0:0:0:
0,68,186842,5,2,3:0:0:0:
124,46,186970,1,2,0:3:0:0:
284,148,187097,1,2,0:3:0:0:
313,369,187224,1,2,0:3:0:0:
93,172,187351,5,6,3:2:0:0:
238,262,187478,2,0,L|364:252,1,107.999996704102,2|8,0:0|0:0,0:0:0:0:
80,190,187732,5,2,0:0:0:0:
225,280,187859,2,0,L|351:270,1,107.999996704102,2|0,3:2|0:0,0:0:0:0:
442,112,188114,5,10,0:2:0:0:
403,365,188241,1,0,0:0:0:0:
423,236,188368,5,2,3:2:0:0:
341,99,188495,2,0,L|393:-17,1,107.999996704102,2|8,0:0|0:0,0:0:0:0:
404,246,188749,5,2,0:0:0:0:
322,109,188876,2,0,L|374:-7,1,107.999996704102,2|0,3:2|0:0,0:0:0:0:
450,322,189131,5,10,0:2:0:0:
323,222,189258,1,0,3:0:0:0:
246,283,189385,5,2,3:2:0:0:
123,188,189512,2,0,L|6:203,1,107.999996704102,2|8,0:0|0:0,0:0:0:0:
232,302,189766,5,2,0:0:0:0:
109,207,189893,2,0,L|-8:222,1,107.999996704102,2|0,3:2|0:0,0:0:0:0:
301,32,190147,5,10,0:2:0:0:
215,201,190275,1,0,0:0:0:0:
39,45,190402,5,2,3:2:0:0:
201,106,190529,2,0,L|180:-11,1,107.999996704102,2|8,0:0|0:0,0:0:0:0:
26,59,190783,5,2,0:0:0:0:
188,120,190910,2,0,L|167:3,1,107.999996704102,2|0,3:2|0:0,0:0:0:0:
40,259,191164,5,10,0:2:0:0:
6,149,191292,1,0,3:0:0:0:
72,364,191419,5,2,3:2:0:0:
183,282,191546,2,0,L|304:262,1,107.999996704102,2|8,0:0|0:0,0:0:0:0:
61,380,191800,5,2,0:0:0:0:
172,298,191927,2,0,L|293:278,1,107.999996704102,2|0,3:2|0:0,0:0:0:0:
423,203,192181,5,10,0:2:0:0:
326,353,192308,1,0,0:0:0:0:
352,136,192436,5,2,3:2:0:0:
493,338,192563,2,0,L|516:205,1,107.999996704102,2|8,0:0|0:0,0:0:0:0:
333,154,192817,5,2,0:0:0:0:
474,356,192944,2,0,L|497:223,1,107.999996704102,2|0,3:2|0:0,0:0:0:0:
489,47,193198,5,10,0:2:0:0:
244,141,193325,1,0,3:0:0:0:
469,162,193453,5,2,3:2:0:0:
371,9,193580,2,0,L|243:33,1,107.999996704102,2|8,0:0|0:0,0:0:0:0:
459,181,193834,5,2,0:0:0:0:
361,28,193961,2,0,L|233:52,1,107.999996704102,2|0,3:2|0:0,0:0:0:0:
176,264,194215,5,10,0:0:0:0:
142,99,194342,1,8,0:0:0:0:
294,214,194470,5,2,3:1:0:0:
58,198,194597,1,2,0:1:0:0:
173,11,194724,1,8,0:0:0:0:
269,362,194851,5,2,1:1:0:0:
376,167,194978,1,2,3:1:0:0:
159,181,195105,1,8,0:0:0:0:
294,214,195232,5,2,3:1:0:0:
284,111,195359,1,0,3:2:0:0:
497,224,195486,5,6,3:2:0:0:
365,353,195614,2,0,L|374:228,1,107.999996704102,2|8,0:0|0:0,0:0:0:0:
481,238,195868,5,2,0:0:0:0:
349,367,195996,2,0,L|358:242,1,107.999996704102,2|0,3:2|0:0,0:0:0:0:
371,39,196249,2,0,L|501:82,1,107.999996704102,10|0,0:2|0:0,0:0:0:0:
493,4,196503,5,2,3:2:0:0:
356,120,196631,2,0,L|213:151,1,107.999996704102,2|8,0:0|0:0,0:0:0:0:
484,19,196885,5,2,0:0:0:0:
347,135,197013,2,0,L|204:166,1,107.999996704102,2|0,3:2|0:0,0:0:0:0:
113,99,197266,2,0,L|133:230,1,107.999996704102,10|0,0:2|3:0,0:0:0:0:
180,36,197520,5,2,3:2:0:0:
44,157,197647,2,0,L|25:279,1,107.999996704102,2|8,0:0|0:0,0:0:0:0:
161,51,197902,5,2,0:0:0:0:
25,172,198029,2,0,L|6:294,1,107.999996704102,2|0,3:2|0:0,0:0:0:0:
20,74,198283,2,0,L|146:127,1,107.999996704102,10|0,0:2|0:0,0:0:0:0:
275,243,198537,5,2,3:2:0:0:
124,327,198664,2,0,L|-2:354,1,107.999996704102,2|8,0:0|0:0,0:0:0:0:
257,259,198919,5,2,0:0:0:0:
106,343,199046,2,0,L|-20:370,1,107.999996704102,2|0,3:2|0:0,0:0:0:0:
238,160,199300,5,10,0:2:0:0:
272,356,199427,1,0,3:0:0:0:
257,259,199554,5,2,3:2:0:0:
389,367,199681,2,0,L|406:247,1,107.999996704102,2|8,0:0|0:0,0:0:0:0:
237,275,199936,5,2,0:0:0:0:
369,383,200063,2,0,L|386:263,1,107.999996704102,2|0,3:2|0:0,0:0:0:0:
505,136,200317,2,0,L|358:169,1,107.999996704102,10|0,0:2|0:0,0:0:0:0:
505,269,200571,5,2,3:2:0:0:
399,183,200698,2,0,L|261:165,1,107.999996704102,2|8,0:0|0:0,0:0:0:0:
489,288,200953,5,2,0:0:0:0:
383,202,201080,2,0,L|245:184,1,107.999996704102,2|0,3:2|0:0,0:0:0:0:
377,0,201334,2,0,L|403:114,1,107.999996704102,10|0,0:2|3:0,0:0:0:0:
306,63,201588,5,2,3:2:0:0:
499,199,201715,2,0,L|474:66,1,107.999996704102,2|8,0:0|0:0,0:0:0:0:
295,79,201970,5,2,0:0:0:0:
488,215,202097,2,0,L|463:82,1,107.999996704102,2|0,3:2|0:0,0:0:0:0:
183,101,202351,5,10,1:2:0:0:
400,24,202478,1,2,0:0:0:0:
297,252,202605,5,2,1:0:0:0:
241,2,202732,1,2,1:0:0:0:
231,15,202796,1,0,1:0:0:0:
227,30,202859,1,0,3:0:0:0:
295,79,202986,1,2,1:0:0:0:
207,285,203114,5,2,3:1:0:0:
41,133,203241,1,8,0:0:0:0:
401,245,203368,1,2,3:1:0:0:
131,384,203495,2,0,L|125:307,1,67.5000025749208,2|0,0:3|0:0,0:0:0:0:
