osu file format v14

[General]
AudioFilename: audio.mp3
AudioLeadIn: 0
PreviewTime: 32407
Countdown: 0
SampleSet: Drum
StackLeniency: 0.5
Mode: 0
LetterboxInBreaks: 0
WidescreenStoryboard: 0

[Editor]
Bookmarks: 322,1605,11872,22140,32407,42674,52942,61926,72193,82461,92728,102995,113263,123530,136364
DistanceSpacing: 1.2
BeatDivisor: 4
GridSize: 16
TimelineZoom: 1.8

[Metadata]
Title:Tokoshizume
TitleUnicode:とこしずめ
Artist:inabakumori
ArtistUnicode:稲葉曇
Creator:xyperX
Version:Slumber
Source:
Tags:mniam itscactus kardshark mahiru shiina seapodeerman bluenation japanese pop jpop j-pop vocaloid inabacumori cumori 星界 SEKAI nukunuku nigirimeshi ぬくぬくにぎりめし nknk_ngrms CeVIO AI
BeatmapID:3640199
BeatmapSetID:1777533

[Difficulty]
HPDrainRate:5
CircleSize:4.6
OverallDifficulty:9
ApproachRate:9.2
SliderMultiplier:1.8
SliderTickRate:1

[Events]
//Background and Video events
0,0,"maxresdefault (2)_waifu2x_art_scale_tta_1.png",0,0
Video,-88,"Zamn.m4v"
//Break Periods
//Storyboard Layer 0 (Background)
//Storyboard Layer 1 (Fail)
//Storyboard Layer 2 (Pass)
//Storyboard Layer 3 (Foreground)
//Storyboard Layer 4 (Overlay)
//Storyboard Sound Samples

[TimingPoints]
322,320.855614973262,4,3,1,80,1,0
322,-66.6666666666667,4,3,1,80,0,0
1605,-100,4,3,1,70,0,0
4172,-76.9230769230769,4,3,1,70,0,0
4813,-100,4,3,1,70,0,0
11872,-100,4,3,1,60,0,0
14439,-100,4,3,2,60,0,0
14600,-100,4,3,1,60,0,0
22140,-100,4,3,1,80,0,0
30803,-250,4,3,1,30,0,0
31364,-250,4,3,1,5,0,0
31444,-66.6666666666667,4,3,1,85,0,0
31685,-66.6666666666667,4,3,1,5,0,0
31765,-66.6666666666667,4,3,1,90,0,0
32086,-66.6666666666667,4,3,1,95,0,0
32407,-66.6666666666667,4,3,1,100,0,1
36578,-66.6666666666667,4,3,1,80,0,1
36739,-66.6666666666667,4,3,1,100,0,1
37220,-66.6666666666667,4,3,1,60,0,1
37541,-66.6666666666667,4,3,1,100,0,1
42674,-83.3333333333333,4,3,1,80,0,0
50375,-66.6666666666667,4,3,1,80,0,0
52942,-100,4,3,1,70,0,0
55509,-76.9230769230769,4,3,1,70,0,0
56150,-100,4,3,1,70,0,0
61926,-100,4,3,1,60,0,0
64493,-100,4,3,2,60,0,0
64653,-100,4,3,1,60,0,0
69626,-100,4,3,2,60,0,0
69787,-100,4,3,1,60,0,0
72193,-142.857142857143,4,3,2,50,0,0
72674,-142.857142857143,4,3,1,50,0,0
74760,-100,4,3,1,60,0,0
81819,-100,4,3,1,40,0,0
82461,-250,4,3,1,30,0,0
92728,-83.3333333333333,4,3,1,80,0,0
101712,-250,4,3,1,40,0,0
101953,-250,4,3,1,5,0,0
102033,-66.6666666666667,4,3,1,85,0,0
102354,-66.6666666666667,4,3,1,90,0,0
102674,-66.6666666666667,4,3,1,95,0,0
102995,-500,4,3,1,40,0,0
103236,-500,4,3,1,5,0,0
103316,-66.6666666666667,4,3,1,100,0,1
107166,-66.6666666666667,4,3,1,80,0,1
107327,-66.6666666666667,4,3,1,100,0,1
113263,-83.3333333333333,4,3,1,80,0,0
120963,-66.6666666666667,4,3,2,80,0,0
121124,-66.6666666666667,4,3,1,80,0,0
122247,-66.6666666666667,4,3,1,50,0,0
122407,-66.6666666666667,4,3,1,80,0,0
122888,-66.6666666666667,4,3,1,65,0,0
123049,-66.6666666666667,4,3,1,80,0,0
123370,-66.6666666666667,4,3,1,50,0,0
123530,-80,4,3,1,90,0,0
131231,-80,4,3,1,90,0,1
133477,-80,4,3,1,60,0,1
133637,-80,4,3,1,90,0,1
136364,-80,4,3,1,40,0,0

[Colours]
Combo1 : 91,91,91
Combo2 : 178,178,178

[HitObjects]
339,114,322,5,2,0:0:0:0:
292,96,402,1,2,0:0:0:0:
243,83,482,1,2,0:0:0:0:
197,104,562,1,2,0:0:0:0:
154,130,642,1,2,0:0:0:0:
259,281,803,5,2,0:0:0:0:
339,114,963,1,2,0:0:0:0:
339,114,1284,5,8,0:0:0:0:
339,114,1605,6,0,L|448:123,1,90,6|0,2:0|0:0,0:0:0:0:
259,281,1926,2,0,L|149:271,1,90,10|0,0:0|0:0,0:0:0:0:
317,216,2247,1,2,2:0:0:0:
206,356,2407,1,2,0:0:0:0:
141,190,2567,2,0,L|150:80,1,90,10|0,0:0|0:0,0:0:0:0:
240,172,2888,5,2,2:0:0:0:
42,208,3049,1,0,0:0:0:0:
206,266,3209,1,10,0:0:0:0:
75,113,3370,1,2,0:0:0:0:
107,284,3530,1,2,2:0:0:0:
174,95,3690,1,2,2:0:0:0:
306,249,3851,2,0,L|297:344,1,90,10|0,0:0|0:0,0:0:0:0:
433,175,4172,6,0,P|392:135|335:130,1,116.999994644165,2|0,2:0|0:0,0:0:0:0:
421,253,4493,2,0,P|476:237|508:190,1,116.999994644165,10|0,0:0|0:0,0:0:0:0:
306,249,4813,1,2,2:0:0:0:
371,304,4974,1,2,2:0:0:0:
335,130,5134,1,10,0:0:0:0:
269,185,5295,1,2,0:0:0:0:
449,134,5455,5,2,2:0:0:0:
384,79,5616,1,2,0:0:0:0:
421,253,5776,1,10,0:0:0:0:
508,189,5936,1,2,2:0:0:0:
508,189,6017,1,0,2:0:0:0:
508,189,6097,1,2,2:0:0:0:
344,218,6257,1,0,2:0:0:0:
181,248,6418,1,8,0:0:0:0:
181,248,6739,6,0,P|235:262|282:300,1,90,6|0,2:0|0:0,0:0:0:0:
116,301,7059,2,0,P|101:247|110:187,1,90,10|0,0:0|0:0,0:0:0:0:
194,330,7380,1,2,2:0:0:0:
38,272,7541,1,2,0:0:0:0:
167,166,7701,1,10,0:0:0:0:
271,364,7862,1,2,0:0:0:0:
391,175,8022,2,0,L|382:65,1,90,2|0,2:0|0:0,0:0:0:0:
292,157,8343,5,10,0:0:0:0:
490,193,8503,1,2,0:0:0:0:
490,193,8584,1,0,0:0:0:0:
490,193,8664,1,2,2:0:0:0:
490,193,8985,5,10,0:0:0:0:
292,157,9145,1,2,0:0:0:0:
360,347,9305,2,0,L|368:247,1,90,2|0,2:0|0:0,0:0:0:0:
286,295,9626,1,10,0:0:0:0:
367,257,9787,2,0,L|375:157,1,90,2|0,0:0|2:0,0:0:0:0:
450,220,10108,1,0,2:0:0:0:
374,167,10268,2,0,L|382:67,1,90,10|2,0:0|0:0,0:0:0:0:
241,204,10589,5,2,2:0:0:0:
510,130,10749,1,2,0:0:0:0:
340,300,10910,1,10,0:0:0:0:
409,32,11070,1,2,2:0:0:0:
474,264,11231,1,10,0:0:0:0:
276,69,11391,1,0,2:0:0:0:
207,338,11551,1,8,0:0:0:0:
207,338,11872,5,2,2:0:0:0:
207,338,12354,1,2,0:0:0:0:
195,211,12514,1,2,2:0:0:0:
195,211,12835,1,10,0:0:0:0:
195,211,13156,5,2,2:0:0:0:
195,211,13637,1,2,0:0:0:0:
311,265,13797,1,2,2:0:0:0:
311,265,14118,1,10,0:0:0:0:
311,265,14439,6,0,L|406:256,1,90,6|0,2:0|0:0,0:0:0:0:
195,211,14760,2,0,L|99:219,1,90,10|0,0:0|0:0,0:0:0:0:
226,296,15081,1,2,2:0:0:0:
280,180,15241,1,2,0:0:0:0:
195,211,15402,1,10,0:0:0:0:
311,265,15562,5,2,0:0:0:0:
365,149,15723,1,2,2:0:0:0:
249,94,15883,1,2,0:0:0:0:
195,211,16043,5,10,0:0:0:0:
365,149,16204,1,2,2:0:0:0:
427,319,16364,1,2,2:0:0:0:
427,319,16685,1,8,0:0:0:0:
427,319,17006,5,2,2:0:0:0:
364,273,17166,1,2,0:0:0:0:
364,273,17487,1,2,0:0:0:0:
293,305,17648,1,2,2:0:0:0:
230,259,17808,1,2,0:0:0:0:
159,291,17969,1,10,0:0:0:0:
159,291,18289,5,2,2:0:0:0:
230,259,18450,1,2,0:0:0:0:
293,305,18610,1,10,0:0:0:0:
364,273,18771,1,2,2:0:0:0:
395,296,18851,1,0,2:0:0:0:
427,319,18931,1,2,2:0:0:0:
364,273,19092,1,0,2:0:0:0:
222,337,19252,5,10,0:0:0:0:
222,337,19573,2,0,L|123:345,1,90,6|2,2:0|0:0,0:0:0:0:
171,263,19894,1,10,0:0:0:0:
222,337,20054,1,2,0:0:0:0:
370,235,20215,1,2,2:0:0:0:
268,87,20375,1,10,0:0:0:0:
268,87,20455,1,8,0:0:0:0:
268,87,20535,1,10,0:0:0:0:
120,189,20696,1,0,2:0:0:0:
245,212,20856,1,10,0:0:0:0:
245,212,21338,5,2,2:0:0:0:
120,189,21498,2,0,L|103:373,1,180,2|2,2:0|2:0,0:0:0:0:
103,368,22140,5,6,2:0:0:0:
331,348,22461,1,10,0:0:0:0:
103,368,22781,5,2,2:0:0:0:
218,358,22942,1,2,0:0:0:0:
331,348,23102,1,10,0:0:0:0:
201,163,23423,5,2,2:0:0:0:
266,255,23584,1,2,0:0:0:0:
331,348,23744,1,10,0:0:0:0:
427,143,24065,5,2,2:0:0:0:
331,348,24386,1,10,0:0:0:0:
105,368,24707,5,2,2:0:0:0:
427,143,25027,1,10,0:0:0:0:
427,143,25348,5,2,2:0:0:0:
331,348,25509,1,2,0:0:0:0:
201,163,25669,1,10,0:0:0:0:
105,368,25830,1,0,2:0:0:0:
427,143,25990,5,2,2:0:0:0:
105,368,26311,1,10,0:0:0:0:
427,143,26632,1,2,2:0:0:0:
427,143,26712,1,0,2:0:0:0:
427,143,26792,1,0,2:0:0:0:
105,368,26953,1,10,0:0:0:0:
105,368,27273,5,6,2:0:0:0:
201,163,27434,1,2,0:0:0:0:
427,143,27594,1,10,0:0:0:0:
331,348,27755,1,0,0:0:0:0:
105,368,27915,1,2,2:0:0:0:
266,255,28076,1,2,0:0:0:0:
427,143,28236,1,10,0:0:0:0:
427,143,28557,5,2,2:0:0:0:
266,255,28717,1,2,2:0:0:0:
105,368,28878,1,10,0:0:0:0:
331,348,29038,1,2,0:0:0:0:
427,143,29199,1,2,2:0:0:0:
201,163,29359,1,2,2:0:0:0:
105,368,29519,1,10,0:0:0:0:
153,266,29680,5,2,2:0:0:0:
218,359,29840,1,10,0:0:0:0:
266,255,30001,1,2,0:0:0:0:
331,348,30161,1,2,2:0:0:0:
331,348,30482,1,2,2:0:0:0:
266,255,30803,5,2,2:0:0:0:
331,348,30963,1,2,0:0:0:0:
380,246,31124,2,0,L|385:185,1,54,2|0,0:0|0:0,0:0:0:0:
441,117,31444,6,0,B|367:93|318:112|346:138|287:165|208:121,1,202.500007724762,4|0,0:0|0:0,0:0:0:0:
280,57,31765,5,14,0:0:0:0:
384,192,31926,1,8,0:0:0:0:
280,57,32086,5,14,0:0:0:0:
188,281,32247,1,8,0:0:0:0:
41,89,32407,6,0,P|90:48|159:36,1,135.000005149842,6|0,2:0|0:0,0:0:0:0:
188,281,32728,2,0,P|127:259|83:205,1,135.000005149842,10|0,0:0|0:0,0:0:0:0:
280,57,33049,1,2,2:0:0:0:
188,281,33209,1,2,2:0:0:0:
41,90,33370,2,0,L|182:77,1,135.000005149842,10|0,0:0|0:0,0:0:0:0:
0,161,33690,5,2,2:0:0:0:
96,0,33851,1,2,0:0:0:0:
200,147,34011,2,0,L|186:298,1,135.000005149842,10|0,0:0|0:0,0:0:0:0:
300,170,34332,5,2,2:0:0:0:
100,124,34493,1,0,2:0:0:0:
188,281,34653,1,10,0:0:0:0:
388,235,34813,1,0,0:0:0:0:
189,13,34974,6,0,L|201:164,1,135.000005149842,2|0,2:0|0:0,0:0:0:0:
433,128,35295,2,0,L|295:63,1,135.000005149842,10|0,0:0|0:0,0:0:0:0:
236,216,35616,1,2,2:0:0:0:
433,128,35776,1,2,2:0:0:0:
189,13,35936,1,10,0:0:0:0:
388,235,36097,1,2,0:0:0:0:
153,368,36257,6,0,L|166:218,1,135.000005149842,2|0,2:0|0:0,0:0:0:0:
359,16,36578,2,0,L|345:165,1,135.000005149842,14|0,0:0|0:0,0:0:0:0:
272,51,36899,1,2,2:0:0:0:
272,51,36979,1,0,2:0:0:0:
272,51,37059,1,0,2:0:0:0:
165,234,37220,1,14,0:0:0:0:
165,234,37541,5,6,2:0:0:0:
45,223,37701,1,2,0:0:0:0:
95,332,37862,1,10,0:0:0:0:
214,321,38022,1,2,0:0:0:0:
214,321,38102,1,2,0:0:0:0:
214,321,38182,2,0,L|349:309,1,135.000005149842,2|0,2:0|2:0,0:0:0:0:
271,199,38503,1,10,0:0:0:0:
95,332,38664,1,2,0:0:0:0:
45,223,38824,5,2,2:0:0:0:
165,234,38985,1,2,2:0:0:0:
213,124,39145,1,10,0:0:0:0:
122,44,39305,1,2,0:0:0:0:
18,105,39466,1,2,2:0:0:0:
113,146,39626,5,0,2:0:0:0:
222,22,39787,1,8,0:0:0:0:
280,218,39947,1,0,2:0:0:0:
426,50,40108,5,2,2:0:0:0:
213,124,40268,1,2,2:0:0:0:
286,337,40428,1,10,0:0:0:0:
499,264,40589,1,2,2:0:0:0:
330,117,40749,5,2,2:0:0:0:
280,218,40910,1,2,2:0:0:0:
381,267,41070,1,10,0:0:0:0:
431,166,41231,1,2,2:0:0:0:
222,18,41391,5,6,2:0:0:0:
221,31,41551,1,10,0:0:0:0:
220,44,41712,1,10,0:0:0:0:
213,124,41872,1,10,0:0:0:0:
208,176,41953,1,8,0:0:0:0:
204,229,42033,1,10,0:0:0:0:
197,309,42193,1,10,0:0:0:0:
191,377,42354,1,10,0:0:0:0:
204,229,42514,1,10,0:0:0:0:
217,81,42674,6,0,L|343:92,1,107.999996704102,6|0,2:0|0:0,0:0:0:0:
204,229,42995,2,0,L|78:218,1,107.999996704102,8|0,0:0|0:0,0:0:0:0:
217,81,43316,5,2,2:0:0:0:
285,162,43477,1,2,2:0:0:0:
204,229,43637,1,10,0:0:0:0:
137,148,43797,1,2,0:0:0:0:
295,54,43958,6,0,L|284:173,1,107.999996704102,2|0,2:0|0:0,0:0:0:0:
128,256,44279,2,0,L|138:136,1,107.999996704102,8|0,0:0|0:0,0:0:0:0:
285,161,44600,6,0,L|274:280,1,107.999996704102,2|0,2:0|2:0,0:0:0:0:
137,148,44920,2,0,L|147:28,1,107.999996704102,8|0,0:0|0:0,0:0:0:0:
275,268,45241,6,0,L|155:257,1,107.999996704102,2|0,2:0|0:0,0:0:0:0:
146,40,45562,2,0,L|265:50,1,107.999996704102,8|2,0:0|0:0,0:0:0:0:
137,148,45883,5,2,2:0:0:0:
146,40,46043,1,0,2:0:0:0:
254,49,46204,2,0,L|373:59,1,107.999996704102,8|2,0:0|0:0,0:0:0:0:
284,160,46525,5,2,2:0:0:0:
275,268,46685,1,0,0:0:0:0:
168,259,46846,2,0,L|48:248,1,107.999996704102,8|0,0:0|0:0,0:0:0:0:
254,49,47166,5,0,2:0:0:0:
284,160,47327,1,0,0:0:0:0:
168,259,47487,1,8,0:0:0:0:
138,148,47648,1,0,2:0:0:0:
329,95,47808,5,8,0:0:0:0:
106,37,47969,1,8,0:0:0:0:
106,37,48049,1,8,0:0:0:0:
106,37,48129,1,8,0:0:0:0:
168,259,48289,1,8,0:0:0:0:
183,84,48450,5,2,2:0:0:0:
364,169,48610,1,2,0:0:0:0:
262,30,48771,1,10,0:0:0:0:
168,259,48931,1,2,0:0:0:0:
279,126,49092,6,0,P|222:90|172:84,1,107.999996704102,2|0,2:0|0:0,0:0:0:0:
367,245,49412,2,0,P|426:213|456:173,1,107.999996704102,8|0,0:0|0:0,0:0:0:0:
235,280,49733,5,2,2:0:0:0:
317,320,49894,1,0,2:0:0:0:
367,245,50054,2,0,L|378:114,1,107.999996704102,8|0,0:0|2:0,0:0:0:0:
146,46,50375,6,0,L|158:189,1,135.000005149842,6|2,2:0|2:0,0:0:0:0:
256,64,50696,1,10,0:0:0:0:
36,28,50856,1,2,2:0:0:0:
366,46,51017,6,0,L|353:189,1,135.000005149842,2|2,2:0|2:0,0:0:0:0:
256,64,51338,1,10,0:0:0:0:
476,28,51498,1,2,2:0:0:0:
256,64,51658,5,2,2:0:0:0:
256,192,51819,1,10,0:0:0:0:
256,320,51979,1,10,0:0:0:0:
256,64,52140,5,2,2:0:0:0:
256,32,52220,1,0,2:0:0:0:
256,0,52300,1,10,0:0:0:0:
256,128,52461,1,10,0:0:0:0:
256,256,52621,1,10,0:0:0:0:
256,384,52781,1,10,0:0:0:0:
256,192,52942,5,2,2:0:0:0:
256,192,53263,1,2,2:0:0:0:
256,192,53584,5,6,2:0:0:0:
377,37,53744,1,2,0:0:0:0:
451,220,53904,2,0,L|439:353,1,90,10|0,0:0|0:0,0:0:0:0:
273,80,54225,5,2,2:0:0:0:
451,220,54386,1,0,0:0:0:0:
256,192,54546,1,10,0:0:0:0:
466,107,54707,1,2,0:0:0:0:
346,261,54867,1,2,2:0:0:0:
377,37,55027,1,2,2:0:0:0:
167,123,55188,2,0,L|175:225,1,90,10|0,0:0|0:0,0:0:0:0:
88,83,55509,6,0,P|146:36|203:39,1,116.999994644165,2|0,2:0|0:0,0:0:0:0:
248,249,55830,2,0,P|189:295|132:292,1,116.999994644165,10|0,0:0|0:0,0:0:0:0:
244,126,56150,1,2,2:0:0:0:
353,171,56311,2,0,L|343:279,1,90,2|8,2:0|0:0,0:0:0:0:
447,100,56632,5,2,0:0:0:0:
307,7,56792,2,0,L|315:108,1,90,2|2,2:0|0:0,0:0:0:0:
314,96,57033,1,0,2:0:0:0:
314,96,57113,1,10,2:0:0:0:
173,155,57273,1,0,2:0:0:0:
173,155,57354,1,0,2:0:0:0:
173,155,57434,2,0,L|164:54,1,90,10|2,0:0|2:0,0:0:0:0:
268,199,57755,1,14,0:0:0:0:
268,199,58076,5,6,2:0:0:0:
268,199,58396,2,0,L|370:207,1,90,10|2,0:0|0:0,0:0:0:0:
218,274,58717,1,2,2:0:0:0:
318,124,58878,1,2,0:0:0:0:
398,286,59038,2,0,L|389:378,1,90,10|0,0:0|0:0,0:0:0:0:
268,199,59359,5,2,2:0:0:0:
357,206,59519,1,0,2:0:0:0:
306,279,59680,1,10,0:0:0:0:
306,279,60001,2,0,L|206:270,1,90,2|0,2:0|0:0,0:0:0:0:
135,352,60321,5,10,0:0:0:0:
306,279,60482,1,2,0:0:0:0:
158,168,60642,1,2,2:0:0:0:
158,168,61124,5,2,2:0:0:0:
329,95,61284,1,2,2:0:0:0:
329,95,61765,1,2,2:0:0:0:
366,181,61926,5,2,2:0:0:0:
366,181,62407,1,2,0:0:0:0:
237,236,62567,1,2,2:0:0:0:
237,236,62888,1,10,0:0:0:0:
237,236,63209,5,2,2:0:0:0:
237,236,63690,1,2,0:0:0:0:
292,365,63851,1,2,2:0:0:0:
292,365,64172,1,10,0:0:0:0:
366,181,64493,6,0,L|357:78,1,90,6|0,2:0|0:0,0:0:0:0:
237,236,64813,1,10,0:0:0:0:
366,181,64974,1,2,2:0:0:0:
274,144,65134,1,2,2:0:0:0:
329,273,65295,1,2,0:0:0:0:
394,244,65455,1,10,0:0:0:0:
338,116,65616,5,2,0:0:0:0:
266,300,65776,1,2,2:0:0:0:
210,172,65936,1,2,0:0:0:0:
301,208,66097,5,10,0:0:0:0:
366,181,66257,1,2,2:0:0:0:
237,236,66418,1,2,2:0:0:0:
237,236,66739,1,8,0:0:0:0:
237,236,67059,5,2,2:0:0:0:
237,236,67541,1,2,0:0:0:0:
188,347,67701,1,2,2:0:0:0:
188,347,68022,1,10,0:0:0:0:
188,347,68343,5,2,2:0:0:0:
188,347,68824,1,2,0:0:0:0:
68,361,68985,1,2,2:0:0:0:
68,361,69305,1,10,0:0:0:0:
68,361,69626,5,6,2:0:0:0:
116,251,69787,1,2,0:0:0:0:
116,251,70108,5,2,0:0:0:0:
235,238,70268,1,2,2:0:0:0:
354,225,70428,1,2,2:0:0:0:
473,212,70589,2,0,L|463:104,1,90,10|0,0:0|0:0,0:0:0:0:
354,225,70910,5,2,2:0:0:0:
222,119,71070,1,2,2:0:0:0:
222,119,71150,1,0,2:0:0:0:
222,119,71231,1,10,0:0:0:0:
248,357,71391,1,2,2:0:0:0:
116,251,71551,1,2,2:0:0:0:
235,238,71712,1,0,2:0:0:0:
354,225,71872,1,8,0:0:0:0:
473,212,72033,1,0,2:0:0:0:
222,119,72193,5,6,2:0:0:0:
222,119,72674,1,2,0:0:0:0:
290,59,72835,2,0,L|438:71,1,125.999996154785,2|10,0:0|0:0,0:0:0:0:
415,69,73477,5,2,0:0:0:0:
415,69,73958,1,2,0:0:0:0:
355,137,74118,2,0,L|365:262,1,125.999996154785,2|10,0:0|0:0,0:0:0:0:
365,262,74760,5,6,2:0:0:0:
355,137,74920,1,2,0:0:0:0:
252,209,75081,2,0,L|242:334,1,90,10|0,0:0|0:0,0:0:0:0:
139,156,75402,5,2,2:0:0:0:
365,262,75562,1,2,0:0:0:0:
355,137,75723,1,10,0:0:0:0:
150,279,75883,1,2,0:0:0:0:
139,156,76043,5,2,2:0:0:0:
252,209,76204,1,2,0:0:0:0:
365,262,76364,1,10,0:0:0:0:
305,96,76525,5,2,2:0:0:0:
305,96,76605,1,0,2:0:0:0:
305,96,76685,1,2,2:0:0:0:
199,322,76846,1,0,2:0:0:0:
139,156,77006,1,8,0:0:0:0:
365,262,77166,1,0,2:0:0:0:
252,209,77327,5,2,2:0:0:0:
223,126,77487,1,2,0:0:0:0:
281,291,77808,1,2,0:0:0:0:
281,291,77888,1,2,0:0:0:0:
281,291,77969,1,2,2:0:0:0:
281,291,78289,1,10,0:0:0:0:
139,156,78450,5,2,0:0:0:0:
365,262,78610,1,2,2:0:0:0:
139,156,78771,1,2,0:0:0:0:
305,96,78931,5,10,0:0:0:0:
199,322,79092,1,2,0:0:0:0:
199,322,79172,1,0,0:0:0:0:
199,322,79252,1,2,2:0:0:0:
252,209,79412,1,0,2:0:0:0:
305,96,79573,1,10,0:0:0:0:
252,209,79733,1,0,2:0:0:0:
105,262,79894,5,6,2:0:0:0:
252,209,80054,1,10,0:0:0:0:
395,155,80215,1,10,0:0:0:0:
80,181,80375,5,2,2:0:0:0:
252,209,80535,1,2,2:0:0:0:
423,239,80696,1,10,0:0:0:0:
452,243,80776,1,8,0:0:0:0:
481,247,80856,1,10,0:0:0:0:
252,209,81017,1,2,2:0:0:0:
80,181,81177,1,10,0:0:0:0:
80,181,81819,5,2,0:0:0:0:
80,181,82461,6,0,L|86:102,1,72,2|2,0:0|0:0,0:0:0:0:
206,37,83102,2,0,P|230:41|251:54,2,36,2|2|2,0:0|0:0|0:0,0:0:0:0:
307,85,83744,2,0,P|290:104|268:115,2,36,2|2|2,0:0|0:0|0:0,0:0:0:0:
214,148,84386,2,0,L|221:230,1,72,2|2,0:0|0:0,0:0:0:0:
220,219,87594,6,0,L|213:292,1,72,2|2,0:0|0:0,0:0:0:0:
258,349,88076,1,2,0:0:0:0:
313,303,88236,2,0,P|346:306|364:312,1,36,2|2,0:0|0:0,0:0:0:0:
408,347,88557,2,0,P|441:344|459:338,1,36,2|2,0:0|0:0,0:0:0:0:
495,293,88878,2,0,L|502:210,1,72,2|2,0:0|0:0,0:0:0:0:
401,118,89519,2,0,L|393:200,1,72,2|2,0:0|0:0,0:0:0:0:
395,189,90161,6,0,L|399:237,2,36,2|2|2,0:0|0:0|0:0,0:0:0:0:
395,189,90803,2,0,P|362:192|344:198,1,36,2|2,0:0|0:0,0:0:0:0:
300,233,91124,2,0,P|267:230|249:224,1,36,2|2,0:0|0:0,0:0:0:0:
205,188,91444,2,0,L|209:139,2,36,2|2|2,0:0|0:0|0:0,0:0:0:0:
205,188,92086,1,2,0:0:0:0:
352,96,92728,5,6,2:0:0:0:
160,288,93049,1,10,0:0:0:0:
352,96,93370,5,2,2:0:0:0:
256,192,93530,1,2,0:0:0:0:
160,288,93690,1,10,0:0:0:0:
160,96,94011,5,2,2:0:0:0:
256,192,94172,1,2,0:0:0:0:
352,288,94332,1,10,0:0:0:0:
64,192,94653,5,2,2:0:0:0:
448,192,94974,1,10,0:0:0:0:
256,0,95295,5,2,2:0:0:0:
256,384,95616,1,10,0:0:0:0:
160,96,95936,5,2,2:0:0:0:
352,96,96097,1,2,0:0:0:0:
160,288,96257,1,10,0:0:0:0:
352,288,96418,1,2,2:0:0:0:
448,192,96578,5,2,2:0:0:0:
64,192,96899,1,10,0:0:0:0:
256,0,97220,5,2,2:0:0:0:
256,0,97300,1,0,2:0:0:0:
256,0,97380,1,0,2:0:0:0:
256,384,97541,5,10,0:0:0:0:
256,384,97621,1,0,2:0:0:0:
256,384,97701,1,0,2:0:0:0:
352,96,97862,5,6,2:0:0:0:
160,96,98022,1,2,0:0:0:0:
160,288,98182,1,10,0:0:0:0:
352,288,98343,1,2,0:0:0:0:
256,0,98503,1,2,2:0:0:0:
256,192,98664,1,2,0:0:0:0:
256,384,98824,1,10,0:0:0:0:
256,384,99145,5,2,2:0:0:0:
256,192,99305,1,2,2:0:0:0:
256,0,99466,1,10,0:0:0:0:
352,288,99626,1,2,0:0:0:0:
160,288,99787,1,2,2:0:0:0:
160,96,99947,1,2,0:0:0:0:
352,96,100108,1,10,0:0:0:0:
352,192,100268,5,2,0:0:0:0:
256,288,100428,1,6,2:0:0:0:
160,192,100589,1,2,0:0:0:0:
256,96,100749,1,10,0:0:0:0:
256,96,101070,1,2,2:0:0:0:
160,288,101231,1,0,2:0:0:0:
160,288,101311,1,0,2:0:0:0:
160,288,101391,5,10,0:0:0:0:
256,192,101551,1,2,2:0:0:0:
352,96,101712,2,0,L|406:96,1,54,2|0,0:0|0:0,0:0:0:0:
469,196,102033,6,0,B|424:191|401:261|401:261|403:187|363:174,1,202.500007724762,4|0,2:0|0:0,0:0:0:0:
482,269,102354,5,6,2:0:0:0:
323,239,102514,1,8,0:0:0:0:
256,192,102674,5,14,0:0:0:0:
97,222,102835,1,0,2:0:0:0:
30,175,102995,6,0,L|32:146,1,27,2|0,2:0|0:0,0:0:0:0:
28,72,103316,6,0,B|160:43,1,135.000005149842,14|0,0:0|0:0,0:0:0:0:
256,192,103637,1,2,2:0:0:0:
165,121,103797,1,2,2:0:0:0:
330,55,103958,2,0,L|342:201,1,135.000005149842,10|0,0:0|0:0,0:0:0:0:
444,73,104279,5,2,2:0:0:0:
216,37,104439,1,2,0:0:0:0:
305,273,104600,2,0,P|385:256|434:201,1,135.000005149842,10|0,0:0|0:0,0:0:0:0:
165,121,104920,5,2,2:0:0:0:
128,334,105081,1,0,2:0:0:0:
305,273,105241,1,10,0:0:0:0:
216,37,105402,1,0,0:0:0:0:
434,87,105562,6,0,L|420:238,1,135.000005149842,2|0,2:0|0:0,0:0:0:0:
330,101,105883,1,8,0:0:0:0:
512,23,106043,1,2,0:0:0:0:
489,220,106204,1,2,2:0:0:0:
330,101,106364,1,2,2:0:0:0:
148,168,106525,2,0,L|160:310,1,135.000005149842,10|0,0:0|0:0,0:0:0:0:
219,138,106846,6,0,P|160:89|99:105,1,135.000005149842,2|0,2:0|0:0,0:0:0:0:
88,332,107166,2,0,P|147:381|208:365,1,135.000005149842,14|0,0:0|0:0,0:0:0:0:
148,168,107487,1,2,2:0:0:0:
148,168,107567,1,0,2:0:0:0:
148,168,107648,1,0,2:0:0:0:
14,378,107808,1,14,0:0:0:0:
14,378,108129,5,6,2:0:0:0:
159,314,108289,1,2,0:0:0:0:
159,314,108610,5,2,0:0:0:0:
304,250,108771,2,0,L|451:262,1,135.000005149842,2|2,2:0|2:0,0:0:0:0:
247,190,109092,1,10,0:0:0:0:
367,332,109252,1,2,0:0:0:0:
490,136,109412,5,2,2:0:0:0:
387,48,109573,1,2,2:0:0:0:
272,119,109733,1,10,0:0:0:0:
304,250,109894,1,2,0:0:0:0:
438,260,110054,1,2,2:0:0:0:
379,158,110215,5,0,0:0:0:0:
197,211,110375,1,8,0:0:0:0:
280,9,110535,1,0,2:0:0:0:
86,50,110696,5,2,2:0:0:0:
299,124,110856,1,2,2:0:0:0:
226,337,111017,1,10,0:0:0:0:
13,264,111177,1,2,2:0:0:0:
182,117,111338,5,2,2:0:0:0:
232,218,111498,1,2,2:0:0:0:
131,267,111658,1,10,0:0:0:0:
81,166,111819,1,2,2:0:0:0:
289,18,111979,5,6,2:0:0:0:
290,31,112140,1,10,0:0:0:0:
291,44,112300,1,10,0:0:0:0:
299,124,112461,1,8,0:0:0:0:
304,176,112541,1,8,0:0:0:0:
308,229,112621,1,10,0:0:0:0:
315,309,112781,1,10,0:0:0:0:
321,377,112942,1,10,0:0:0:0:
308,229,113102,1,10,0:0:0:0:
295,81,113263,6,0,L|169:92,1,107.999996704102,6|0,2:0|0:0,0:0:0:0:
308,229,113584,2,0,L|434:218,1,107.999996704102,8|0,0:0|0:0,0:0:0:0:
415,219,113824,1,2,0:0:0:0:
415,219,113904,1,2,2:0:0:0:
227,162,114065,5,2,0:0:0:0:
308,229,114225,1,10,0:0:0:0:
375,148,114386,1,2,0:0:0:0:
217,54,114546,6,0,L|228:173,1,107.999996704102,2|0,2:0|0:0,0:0:0:0:
384,256,114867,2,0,L|374:136,1,107.999996704102,8|0,0:0|0:0,0:0:0:0:
227,161,115188,6,0,L|238:280,1,107.999996704102,2|0,2:0|2:0,0:0:0:0:
375,148,115509,2,0,L|365:28,1,107.999996704102,8|0,0:0|0:0,0:0:0:0:
237,268,115830,6,0,L|357:257,1,107.999996704102,2|0,2:0|0:0,0:0:0:0:
366,40,116150,2,0,L|247:50,1,107.999996704102,8|2,0:0|0:0,0:0:0:0:
258,49,116391,1,2,0:0:0:0:
258,49,116471,1,2,2:0:0:0:
237,268,116632,1,0,2:0:0:0:
344,259,116792,2,0,L|463:249,1,107.999996704102,8|2,0:0|0:0,0:0:0:0:
228,160,117113,5,2,2:0:0:0:
237,268,117273,1,0,0:0:0:0:
344,259,117434,2,0,L|464:248,1,107.999996704102,8|0,0:0|0:0,0:0:0:0:
260,49,117755,5,0,2:0:0:0:
228,160,117915,1,0,0:0:0:0:
344,259,118076,1,8,0:0:0:0:
375,148,118236,1,0,2:0:0:0:
170,223,118396,5,2,2:0:0:0:
170,223,118717,1,8,0:0:0:0:
339,69,118878,1,2,2:0:0:0:
339,69,118958,1,2,2:0:0:0:
339,69,119038,1,2,2:0:0:0:
388,293,119199,1,2,0:0:0:0:
339,69,119359,1,10,0:0:0:0:
170,223,119519,1,2,0:0:0:0:
339,69,119680,6,0,P|398:100|428:140,1,107.999996704102,2|0,2:0|0:0,0:0:0:0:
326,258,120001,2,0,P|324:190|343:144,1,107.999996704102,8|0,0:0|0:0,0:0:0:0:
449,256,120321,1,2,2:0:0:0:
307,378,120482,1,0,2:0:0:0:
233,175,120642,2,0,P|188:130|129:122,1,107.999996704102,8|0,0:0|0:0,0:0:0:0:
146,338,120963,6,0,L|158:195,1,135.000005149842,6|2,2:0|2:0,0:0:0:0:
256,320,121284,1,10,0:0:0:0:
36,356,121444,1,2,2:0:0:0:
366,338,121605,6,0,L|353:195,1,135.000005149842,2|2,2:0|2:0,0:0:0:0:
256,320,121926,1,10,0:0:0:0:
476,356,122086,1,2,0:0:0:0:
256,320,122247,5,6,2:0:0:0:
256,128,122407,1,10,0:0:0:0:
256,96,122487,1,8,0:0:0:0:
256,64,122567,1,10,0:0:0:0:
256,384,122728,5,2,2:0:0:0:
256,288,122888,1,14,0:0:0:0:
256,192,123049,1,2,2:0:0:0:
256,96,123209,1,2,2:0:0:0:
256,0,123370,1,14,0:0:0:0:
256,192,123530,5,6,2:0:0:0:
96,160,123690,1,2,0:0:0:0:
64,320,123851,1,10,0:0:0:0:
224,352,124011,1,2,2:0:0:0:
224,352,124092,1,0,2:0:0:0:
224,352,124172,5,2,2:0:0:0:
256,192,124332,1,2,2:0:0:0:
288,32,124493,1,10,0:0:0:0:
256,192,124653,1,2,0:0:0:0:
410,139,124813,2,0,L|436:6,1,112.5,2|2,2:0|0:0,0:0:0:0:
256,192,125134,1,10,0:0:0:0:
256,192,125455,5,2,2:0:0:0:
336,208,125616,1,0,2:0:0:0:
352,128,125776,1,8,0:0:0:0:
272,112,125936,1,0,2:0:0:0:
256,192,126097,5,2,2:0:0:0:
256,192,126418,1,10,0:0:0:0:
224,32,126578,1,2,0:0:0:0:
64,64,126739,1,2,2:0:0:0:
256,192,126899,1,2,2:0:0:0:
256,192,127220,5,2,0:0:0:0:
416,160,127380,1,2,2:0:0:0:
448,320,127541,1,2,0:0:0:0:
288,352,127701,1,10,0:0:0:0:
256,192,127862,1,2,0:0:0:0:
240,112,128022,5,2,2:0:0:0:
80,144,128182,1,2,0:0:0:0:
88,184,128263,1,0,0:0:0:0:
96,224,128343,1,2,2:0:0:0:
256,192,128503,1,2,0:0:0:0:
416,160,128664,5,6,2:0:0:0:
363,314,128824,1,2,0:0:0:0:
256,192,128985,1,10,0:0:0:0:
256,192,129305,5,2,2:0:0:0:
224,32,129466,1,2,0:0:0:0:
64,64,129626,1,10,0:0:0:0:
96,224,129787,1,2,2:0:0:0:
288,32,129947,6,0,L|416:43,1,112.5,2|0,2:0|0:0,0:0:0:0:
224,352,130268,2,0,L|112:342,1,112.5,10|0,0:0|0:0,0:0:0:0:
256,192,130589,1,2,2:0:0:0:
288,256,130749,1,0,2:0:0:0:
256,192,130910,1,8,0:0:0:0:
80,272,131070,1,2,0:0:0:0:
256,192,131231,6,0,L|245:56,1,112.5,6|0,2:0|2:0,0:0:0:0:
80,272,131551,1,8,0:0:0:0:
256,224,131712,1,2,2:0:0:0:
256,192,131792,1,0,2:0:0:0:
256,160,131872,1,2,2:0:0:0:
432,272,132033,1,0,2:0:0:0:
256,192,132193,1,8,0:0:0:0:
80,112,132354,5,2,2:0:0:0:
256,192,132514,2,0,L|268:327,1,112.5,2|0,2:0|2:0,0:0:0:0:
80,112,132835,1,8,0:0:0:0:
256,160,132995,1,2,2:0:0:0:
256,192,133076,1,0,2:0:0:0:
256,224,133156,1,2,2:0:0:0:
432,112,133316,1,0,2:0:0:0:
256,192,133477,1,12,0:0:0:0:
80,272,133637,5,2,2:0:0:0:
256,192,133797,2,0,L|245:56,1,112.5,6|0,2:0|2:0,0:0:0:0:
80,272,134118,1,8,0:0:0:0:
256,224,134279,1,2,2:0:0:0:
256,192,134359,1,0,2:0:0:0:
256,160,134439,1,2,2:0:0:0:
432,272,134600,1,0,2:0:0:0:
256,192,134760,1,8,0:0:0:0:
80,112,134920,5,2,2:0:0:0:
304,48,135081,2,0,L|298:119,1,56.25,6|0,2:0|0:0,0:0:0:0:
208,336,135241,2,0,L|215:264,1,56.25,8|0,0:0|0:0,0:0:0:0:
208,48,135402,2,0,L|215:119,1,56.25,8|0,0:0|0:0,0:0:0:0:
304,336,135562,2,0,L|298:264,1,56.25,2|0,2:0|2:0,0:0:0:0:
336,192,135723,5,10,0:0:0:0:
256,192,135803,1,8,0:0:0:0:
176,192,135883,1,8,0:0:0:0:
16,192,136043,1,8,0:0:0:0:
496,192,136204,1,10,0:0:0:0:
256,192,136364,5,2,0:0:0:0:
