osu file format v14

[General]
AudioFilename: audio.mp3
AudioLeadIn: 0
PreviewTime: 32407
Countdown: 0
SampleSet: Drum
StackLeniency: 0.5
Mode: 0
LetterboxInBreaks: 0
WidescreenStoryboard: 1

[Editor]
Bookmarks: 322,1605,11872,22140,32407,42674,52942,61926,72193,82461,92728,102995,113263,123530
DistanceSpacing: 1
BeatDivisor: 2
GridSize: 32
TimelineZoom: 1.2

[Metadata]
Title:Tokoshizume
TitleUnicode:とこしずめ
Artist:inabakumori
ArtistUnicode:稲葉曇
Creator:xyperX
Version:Mniam's Normal
Source:
Tags:mniam itscactus kardshark mahiru shiina seapodeerman bluenation japanese pop jpop j-pop vocaloid inabacumori cumori 星界 SEKAI nukunuku nigirimeshi ぬくぬくにぎりめし nknk_ngrms CeVIO AI
BeatmapID:3643861
BeatmapSetID:1777533

[Difficulty]
HPDrainRate:3
CircleSize:3.2
OverallDifficulty:3.8
ApproachRate:5.6
SliderMultiplier:1.07
SliderTickRate:1

[Events]
//Background and Video events
0,0,"maxresdefault (2)_waifu2x_art_scale_tta_1.png",0,0
Video,-88,"Zamn.m4v"
//Break Periods
2,82461,91444
//Storyboard Layer 0 (Background)
//Storyboard Layer 1 (Fail)
//Storyboard Layer 2 (Pass)
//Storyboard Layer 3 (Foreground)
//Storyboard Layer 4 (Overlay)
//Storyboard Sound Samples

[TimingPoints]
322,320.855614973262,4,3,1,80,1,0
1605,-100,4,3,1,70,0,0
11872,-111.111111111111,4,3,1,60,0,0
14439,-100,4,3,2,60,0,0
14760,-100,4,3,1,60,0,0
17006,-111.111111111111,4,3,1,60,0,0
19573,-100,4,3,1,60,0,0
22140,-100,4,3,1,80,0,0
31124,-125,4,3,1,30,0,0
31444,-125,4,3,1,85,0,0
31765,-125,4,3,1,90,0,0
32086,-125,4,3,1,95,0,0
32407,-100,4,3,1,100,0,0
36578,-100,4,3,1,80,0,0
36899,-100,4,3,1,100,0,0
37220,-100,4,3,1,60,0,0
37541,-100,4,3,1,100,0,0
42674,-100,4,3,1,80,0,0
52942,-100,4,3,1,70,0,0
61926,-111.111111111111,4,3,1,60,0,0
64493,-100,4,3,2,60,0,0
64813,-100,4,3,1,60,0,0
67059,-111.111111111111,4,3,1,60,0,0
69627,-100,4,3,2,60,0,0
69787,-100,4,3,1,60,0,0
72193,-100,4,3,2,50,0,0
74439,-100,4,3,1,50,0,0
74760,-100,4,3,1,60,0,0
77327,-111.111111111111,4,3,1,60,0,0
79894,-100,4,3,1,60,0,0
81819,-100,4,3,1,40,0,0
92728,-100,4,3,1,80,0,0
101712,-100,4,3,1,40,0,0
102033,-100,4,3,1,85,0,0
102354,-100,4,3,1,90,0,0
102674,-100,4,3,1,95,0,0
102995,-100,4,3,1,40,0,0
103316,-100,4,3,1,100,0,0
107166,-100,4,3,1,80,0,0
107487,-100,4,3,1,100,0,0
113263,-100,4,3,1,80,0,0
120963,-100,4,3,2,80,0,0
121284,-100,4,3,1,80,0,0
122247,-100,4,3,1,50,0,0
122888,-100,4,3,1,65,0,0
123209,-100,4,3,1,80,0,0
123530,-100,4,3,1,90,0,0
133637,-100,4,3,1,90,0,0
136364,-100,4,3,1,40,0,0

[Colours]
Combo1 : 91,91,91
Combo2 : 178,178,178

[HitObjects]
37,123,322,6,0,P|91:39|162:99,1,214,2|2,0:0|0:0,0:0:0:0:
173,202,1284,1,8,0:0:0:0:
238,286,1605,6,0,P|296:305|364:297,1,107,6|10,2:0|0:0,0:0:0:0:
419,229,2247,2,0,L|427:154,1,53.5,2|2,2:0|0:0,0:0:0:0:
408,136,2567,1,10,0:0:0:0:
308,175,2888,2,0,P|247:160|199:116,1,107,2|10,2:0|0:0,0:0:0:0:
190,97,3370,2,0,L|185:33,1,53.5,2|2,0:0|2:0,0:0:0:0:
81,67,3851,1,10,0:0:0:0:
17,155,4172,6,0,P|26:212|71:263,1,107,2|10,2:0|0:0,0:0:0:0:
133,323,4813,2,0,L|197:320,1,53.5,2|2,2:0|2:0,0:0:0:0:
220,294,5134,2,0,L|278:296,1,53.5,10|2,0:0|0:0,0:0:0:0:
305,324,5455,1,2,2:0:0:0:
399,273,5776,1,10,0:0:0:0:
354,176,6097,1,2,2:0:0:0:
165,74,6739,6,0,P|210:37|266:24,1,107,6|10,2:0|0:0,0:0:0:0:
360,49,7380,2,0,L|368:124,1,53.5,2|2,2:0|0:0,0:0:0:0:
338,135,7701,2,0,L|330:210,1,53.5,10|2,0:0|0:0,0:0:0:0:
307,223,8022,1,2,2:0:0:0:
208,264,8343,2,0,L|213:345,1,53.5,10|2,0:0|0:0,0:0:0:0:
239,349,8664,1,2,2:0:0:0:
343,371,8985,2,0,L|402:364,1,53.5,10|2,0:0|0:0,0:0:0:0:
433,344,9305,6,0,P|442:291|415:232,1,107,2|10,2:0|0:0,0:0:0:0:
391,213,9787,1,2,0:0:0:0:
248,138,10268,2,0,L|189:135,1,53.5,10|2,0:0|0:0,0:0:0:0:
155,153,10589,1,2,2:0:0:0:
61,240,10910,1,10,0:0:0:0:
106,360,11231,1,10,0:0:0:0:
264,251,11872,6,0,L|268:100,1,144.449995591736,2|2,2:0|0:0,0:0:0:0:
234,78,12514,1,2,2:0:0:0:
143,110,12835,1,10,0:0:0:0:
55,148,13156,2,0,L|53:305,1,144.449995591736,2|2,2:0|0:0,0:0:0:0:
87,319,13798,1,2,2:0:0:0:
179,291,14119,1,10,0:0:0:0:
279,249,14439,6,0,P|288:184|265:135,1,107,6|10,2:0|0:0,0:0:0:0:
180,93,15081,1,2,2:0:0:0:
237,2,15402,1,10,0:0:0:0:
321,67,15723,2,0,P|385:76|434:53,1,107,2|10,2:0|0:0,0:0:0:0:
511,0,16364,1,2,2:0:0:0:
462,182,17006,5,2,2:0:0:0:
436,216,17166,2,0,L|315:225,1,96.2999970611573,2|2,0:0|0:0,0:0:0:0:
310,192,17648,2,0,L|187:199,1,96.2999970611573,2|10,2:0|0:0,0:0:0:0:
128,242,18289,2,0,L|3:250,2,96.2999970611573,2|10|2,2:0|0:0|2:0,0:0:0:0:
218,276,19252,1,10,0:0:0:0:
307,335,19573,6,0,P|360:335|410:317,1,107,6|10,2:0|0:0,0:0:0:0:
436,283,20054,1,2,0:0:0:0:
394,189,20375,1,10,0:0:0:0:
394,189,20535,1,10,0:0:0:0:
479,124,20856,1,10,0:0:0:0:
122,31,22140,6,0,P|90:60|68:133,1,107,6|10,2:0|0:0,0:0:0:0:
77,225,22781,2,0,P|88:267|97:280,1,53.5,2|2,2:0|0:0,0:0:0:0:
125,302,23102,1,10,0:0:0:0:
223,342,23423,2,0,P|266:344|281:339,1,53.5,2|2,2:0|0:0,0:0:0:0:
312,321,23744,1,10,0:0:0:0:
386,244,24065,1,2,2:0:0:0:
485,283,24386,1,10,0:0:0:0:
486,175,24707,6,0,P|472:124|435:86,1,107,2|10,2:0|0:0,0:0:0:0:
330,63,25348,2,0,P|288:74|275:83,1,53.5,2|2,2:0|0:0,0:0:0:0:
253,111,25669,1,10,0:0:0:0:
227,216,25990,2,0,P|243:266|283:302,1,107,2|10,2:0|0:0,0:0:0:0:
389,314,26632,2,0,P|437:292|468:249,1,107,2|10,2:0|0:0,0:0:0:0:
402,165,27273,5,6,2:0:0:0:
465,79,27594,1,10,0:0:0:0:
380,12,27915,2,0,P|338:-1|322:-1,1,53.5,2|2,2:0|0:0,0:0:0:0:
290,11,28236,1,10,0:0:0:0:
207,78,28557,2,0,L|213:142,1,53.5,2|2,2:0|2:0,0:0:0:0:
244,159,28878,2,0,L|240:224,1,53.5,10|2,0:0|0:0,0:0:0:0:
213,245,29199,1,2,2:0:0:0:
296,311,29519,1,10,0:0:0:0:
192,362,29840,1,10,0:0:0:0:
245,13,31124,6,0,L|152:8,1,85.6,2|4,0:0|0:0,0:0:0:0:
61,58,31765,1,14,0:0:0:0:
123,149,32086,1,14,0:0:0:0:
16,183,32407,6,0,P|8:235|26:285,1,107,6|10,2:0|0:0,0:0:0:0:
114,346,33049,2,0,L|176:351,1,53.5,2|2,2:0|2:0,0:0:0:0:
219,337,33370,1,10,0:0:0:0:
260,238,33690,2,0,L|322:233,1,53.5,2|2,2:0|0:0,0:0:0:0:
365,247,34011,1,10,0:0:0:0:
462,291,34332,1,2,2:0:0:0:
497,189,34653,1,10,0:0:0:0:
397,149,34974,6,0,P|352:141|286:166,1,107,2|10,2:0|0:0,0:0:0:0:
226,242,35616,2,0,L|164:247,1,53.5,2|2,2:0|2:0,0:0:0:0:
121,233,35937,1,10,0:0:0:0:
66,141,36257,1,2,2:0:0:0:
112,46,36578,1,14,0:0:0:0:
218,48,36899,1,2,2:0:0:0:
250,150,37220,1,14,0:0:0:0:
157,204,37541,6,0,L|151:280,1,53.5,6|2,2:0|0:0,0:0:0:0:
199,284,37862,2,0,L|208:362,1,53.5,10|2,0:0|0:0,0:0:0:0:
173,380,38182,1,2,2:0:0:0:
71,345,38503,1,10,0:0:0:0:
34,244,38824,2,0,L|29:174,1,53.5,2|2,2:0|2:0,0:0:0:0:
67,152,39145,2,0,L|78:83,1,53.5,10|2,0:0|0:0,0:0:0:0:
115,63,39466,2,0,P|138:32|208:2,1,107,2|8,2:0|0:0,0:0:0:0:
320,2,40108,6,0,L|332:70,1,53.5,2|2,2:0|2:0,0:0:0:0:
328,97,40428,1,10,0:0:0:0:
296,130,40589,2,0,P|254:147|184:136,1,107,2|2,2:0|2:0,0:0:0:0:
161,112,41070,1,10,0:0:0:0:
89,192,41391,5,6,2:0:0:0:
147,288,41712,1,10,0:0:0:0:
264,279,42033,1,10,0:0:0:0:
323,165,42354,1,10,0:0:0:0:
267,44,42674,6,0,P|194:87|204:222,1,214,6|2,2:0|2:0,0:0:0:0:
280,266,43637,1,10,0:0:0:0:
384,286,43958,1,2,2:0:0:0:
179,348,44600,1,2,2:0:0:0:
33,191,45241,6,0,P|47:125|143:108,1,160.5,2|2,2:0|0:0,0:0:0:0:
166,139,45883,1,2,2:0:0:0:
252,273,46364,1,2,0:0:0:0:
283,316,46525,2,0,P|357:299|378:226,1,160.5,2|0,2:0|0:0,0:0:0:0:
189,11,47808,5,8,0:0:0:0:
174,138,48129,1,8,0:0:0:0:
160,265,48450,2,0,P|196:295|262:303,1,107,2|10,2:0|0:0,0:0:0:0:
353,263,49092,1,2,2:0:0:0:
398,54,49733,1,2,2:0:0:0:
196,125,50375,5,6,2:0:0:0:
260,210,50696,2,0,L|265:289,1,53.5,10|2,0:0|2:0,0:0:0:0:
242,300,51017,1,2,2:0:0:0:
137,277,51338,1,10,0:0:0:0:
42,327,51658,1,2,2:0:0:0:
16,292,51819,2,0,L|19:230,1,53.5,10|10,0:0|0:0,0:0:0:0:
66,142,52300,2,0,L|132:138,1,53.5,10|10,0:0|0:0,0:0:0:0:
155,162,52621,2,0,L|221:158,1,53.5,10|10,0:0|0:0,0:0:0:0:
246,179,52942,5,2,2:0:0:0:
321,138,53263,1,2,2:0:0:0:
412,193,53584,2,0,L|420:252,1,53.5,6|2,2:0|0:0,0:0:0:0:
407,287,53904,1,10,0:0:0:0:
320,350,54225,2,0,P|258:357|211:339,1,107,2|10,2:0|0:0,0:0:0:0:
184,313,54707,1,2,0:0:0:0:
169,272,54867,1,2,2:0:0:0:
208,172,55188,1,10,0:0:0:0:
115,117,55509,6,0,P|64:134|27:171,1,107,2|10,2:0|0:0,0:0:0:0:
12,277,56150,1,2,2:0:0:0:
83,356,56471,1,8,0:0:0:0:
167,290,56792,2,0,L|232:287,1,53.5,2|2,2:0|0:0,0:0:0:0:
258,307,57113,1,10,2:0:0:0:
346,366,57434,2,0,L|409:370,1,53.5,10|2,0:0|2:0,0:0:0:0:
437,349,57755,1,14,0:0:0:0:
492,257,58076,6,0,P|502:204|488:153,1,107,6|10,2:0|0:0,0:0:0:0:
455,126,58557,1,2,0:0:0:0:
413,115,58717,2,0,L|348:118,1,53.5,2|2,2:0|0:0,0:0:0:0:
320,134,59038,1,10,0:0:0:0:
280,233,59359,1,2,2:0:0:0:
180,272,59680,2,0,P|116:269|67:234,1,107,10|2,0:0|2:0,0:0:0:0:
30,152,60321,2,0,L|27:87,1,53.5,10|2,0:0|0:0,0:0:0:0:
67,63,60642,5,2,2:0:0:0:
173,191,61124,1,2,2:0:0:0:
173,191,61284,1,2,2:0:0:0:
268,42,61765,1,2,2:0:0:0:
311,63,61926,6,0,L|324:222,1,144.449995591736,2|2,2:0|0:0,0:0:0:0:
327,249,62567,1,2,2:0:0:0:
338,344,62888,1,10,0:0:0:0:
433,328,63209,2,0,L|444:179,1,144.449995591736,2|2,2:0|0:0,0:0:0:0:
450,141,63850,1,2,2:0:0:0:
458,45,64171,1,10,0:0:0:0:
367,102,64493,6,0,P|314:106|265:86,1,107,6|10,2:0|0:0,0:0:0:0:
235,55,64974,1,2,2:0:0:0:
205,23,65134,2,0,P|156:3|103:8,1,107,2|10,2:0|0:0,0:0:0:0:
23,80,65776,1,2,2:0:0:0:
14,186,66097,2,0,L|12:245,1,53.5,10|2,0:0|2:0,0:0:0:0:
36,275,66418,1,2,2:0:0:0:
195,382,67059,6,0,L|207:229,1,144.449995591736,2|2,2:0|0:0,0:0:0:0:
211,194,67701,1,2,2:0:0:0:
307,200,68022,1,10,0:0:0:0:
403,208,68343,2,0,L|391:47,1,144.449995591736,2|2,2:0|0:0,0:0:0:0:
389,20,68985,1,2,2:0:0:0:
293,29,69306,1,10,0:0:0:0:
195,42,69626,5,6,2:0:0:0:
195,42,69787,1,2,0:0:0:0:
142,135,70108,1,2,0:0:0:0:
124,173,70268,2,0,L|127:243,1,53.5,2|2,2:0|2:0,0:0:0:0:
160,252,70589,2,0,L|173:320,1,53.5,10|0,0:0|0:0,0:0:0:0:
203,332,70910,1,2,2:0:0:0:
306,357,71231,2,0,L|375:354,2,53.5,10|2|2,0:0|2:0|2:0,0:0:0:0:
101,294,72193,6,0,B|4:243|16:104|122:19|195:153|282:31|282:31|222:101|207:194|262:274|357:270,1,749,6|10,2:0|0:0,0:0:0:0:
459,262,74760,6,0,P|479:217|461:152,1,107,6|10,2:0|0:0,0:0:0:0:
415,68,75402,2,0,L|352:62,1,53.5,2|2,2:0|0:0,0:0:0:0:
331,91,75723,2,0,L|254:98,1,53.5,10|2,0:0|0:0,0:0:0:0:
236,85,76043,1,2,2:0:0:0:
149,147,76364,2,0,L|141:220,1,53.5,10|2,0:0|2:0,0:0:0:0:
170,233,76685,1,2,2:0:0:0:
331,337,77327,5,2,2:0:0:0:
305,365,77487,2,0,L|158:369,1,144.449995591736,2|2,0:0|2:0,0:0:0:0:
66,346,78289,1,10,0:0:0:0:
20,261,78610,2,0,L|11:193,1,48.1499985305787,2|2,2:0|0:0,0:0:0:0:
34,174,78931,2,0,L|26:112,1,48.1499985305787,10|2,0:0|0:0,0:0:0:0:
42,85,79252,1,2,2:0:0:0:
124,35,79573,1,10,0:0:0:0:
218,85,79894,6,0,L|274:90,1,53.5,6|10,2:0|0:0,0:0:0:0:
293,126,80215,2,0,L|350:119,1,53.5,10|2,0:0|2:0,0:0:0:0:
378,92,80535,1,2,2:0:0:0:
444,146,80856,2,0,L|451:203,1,53.5,10|2,0:0|2:0,0:0:0:0:
432,238,81177,1,10,0:0:0:0:
270,191,81819,1,2,0:0:0:0:
390,31,92728,6,0,P|422:60|444:133,1,107,6|10,2:0|0:0,0:0:0:0:
435,225,93369,2,0,P|424:267|415:280,1,53.5,2|2,2:0|0:0,0:0:0:0:
387,302,93690,1,10,0:0:0:0:
289,342,94011,2,0,P|246:344|231:339,1,53.5,2|2,2:0|0:0,0:0:0:0:
200,321,94332,1,10,0:0:0:0:
126,244,94653,1,2,2:0:0:0:
27,283,94974,1,10,0:0:0:0:
7,177,95295,6,0,P|21:126|58:88,1,107,2|10,2:0|0:0,0:0:0:0:
157,48,95936,2,0,P|183:43|209:47,1,53.5,2|2,2:0|0:0,0:0:0:0:
247,67,96257,1,10,0:0:0:0:
312,151,96578,2,0,P|320:202|301:253,1,107,2|10,2:0|0:0,0:0:0:0:
215,318,97220,2,0,P|164:331|112:317,1,107,2|10,2:0|0:0,0:0:0:0:
51,229,97862,6,0,P|47:202|52:176,1,53.5,6|2,2:0|0:0,0:0:0:0:
74,132,98182,2,0,P|77:105|72:79,1,53.5,10|2,0:0|0:0,0:0:0:0:
50,42,98503,2,0,P|22:34|-5:36,2,53.5,2|2|10,2:0|0:0|0:0,0:0:0:0:
152,74,99145,2,0,P|179:78|205:73,1,53.5,2|2,2:0|2:0,0:0:0:0:
229,38,99466,2,0,P|256:34|282:39,1,53.5,10|2,0:0|0:0,0:0:0:0:
313,67,99787,1,2,2:0:0:0:
413,30,100108,1,10,0:0:0:0:
499,124,100428,5,6,2:0:0:0:
472,227,100749,2,0,P|446:236|419:237,1,53.5,10|0,0:0|0:0,0:0:0:0:
378,227,101070,1,2,2:0:0:0:
315,140,101391,2,0,P|289:130|262:129,1,53.5,10|2,0:0|2:0,0:0:0:0:
220,140,101712,1,2,0:0:0:0:
151,222,102033,1,4,2:0:0:0:
131,327,102354,2,0,P|75:353|7:345,1,107,6|14,2:0|0:0,0:0:0:0:
13,246,102995,5,2,2:0:0:0:
74,158,103316,2,0,P|125:131|193:138,1,107,14|2,0:0|2:0,0:0:0:0:
223,151,103797,1,2,2:0:0:0:
256,198,103958,1,10,0:0:0:0:
208,293,104279,2,0,L|145:304,1,53.5,2|2,2:0|0:0,0:0:0:0:
103,290,104600,1,10,0:0:0:0:
135,188,104920,1,2,2:0:0:0:
47,125,105241,1,10,0:0:0:0:
100,32,105562,6,0,P|152:27|201:47,1,107,2|8,2:0|0:0,0:0:0:0:
245,78,106043,1,2,0:0:0:0:
273,123,106204,2,0,L|277:186,1,53.5,2|2,2:0|2:0,0:0:0:0:
249,222,106525,1,10,0:0:0:0:
160,282,106846,1,2,2:0:0:0:
206,377,107167,1,14,0:0:0:0:
312,375,107488,1,2,2:0:0:0:
344,273,107809,1,14,0:0:0:0:
249,222,108129,6,0,L|242:158,1,53.5,6|2,2:0|0:0,0:0:0:0:
330,106,108610,2,0,L|349:44,1,53.5,2|2,0:0|2:0,0:0:0:0:
446,15,109092,1,10,0:0:0:0:
470,118,109412,2,0,L|479:189,1,53.5,2|2,2:0|2:0,0:0:0:0:
444,199,109733,2,0,L|436:275,1,53.5,10|2,0:0|0:0,0:0:0:0:
407,281,110054,2,0,P|360:308|303:308,1,107,2|8,2:0|0:0,0:0:0:0:
216,260,110696,6,0,L|228:192,1,53.5,2|2,2:0|2:0,0:0:0:0:
247,170,111016,1,10,0:0:0:0:
282,145,111177,2,0,P|330:143|389:162,1,107,2|2,2:0|2:0,0:0:0:0:
420,185,111658,1,10,0:0:0:0:
484,273,111979,5,6,2:0:0:0:
426,369,112300,1,10,0:0:0:0:
309,360,112621,1,10,0:0:0:0:
250,246,112942,1,10,0:0:0:0:
306,125,113262,6,0,P|379:168|369:303,1,214,6|2,2:0|2:0,0:0:0:0:
293,348,114225,1,10,0:0:0:0:
186,352,114546,1,2,2:0:0:0:
344,208,115188,1,2,2:0:0:0:
154,108,115830,6,0,P|186:41|274:15,1,160.5,2|2,2:0|0:0,0:0:0:0:
305,20,116472,1,2,2:0:0:0:
447,92,116953,1,2,0:0:0:0:
465,132,117114,2,0,P|460:210|402:262,1,160.5,2|0,2:0|0:0,0:0:0:0:
139,314,118396,5,2,2:0:0:0:
100,157,118878,2,0,L|97:93,2,53.5,2|2|2,2:0|2:0|0:0,0:0:0:0:
70,188,119359,2,0,L|75:252,1,53.5,10|2,0:0|0:0,0:0:0:0:
56,280,119680,1,2,2:0:0:0:
256,360,120321,2,0,P|290:308|290:251,1,107,2|8,2:0|0:0,0:0:0:0:
235,173,120963,5,6,2:0:0:0:
141,224,121284,1,10,0:0:0:0:
35,206,121605,2,0,L|29:146,1,53.5,2|2,2:0|0:0,0:0:0:0:
55,118,121926,2,0,L|64:58,1,53.5,10|2,0:0|0:0,0:0:0:0:
95,36,122247,1,6,2:0:0:0:
303,84,122888,1,14,0:0:0:0:
375,4,123209,1,2,2:0:0:0:
479,31,123530,6,0,L|483:93,1,53.5,6|2,2:0|0:0,0:0:0:0:
451,113,123851,2,0,L|455:175,1,53.5,10|2,0:0|2:0,0:0:0:0:
485,195,124172,1,2,2:0:0:0:
408,270,124493,2,0,L|404:332,1,53.5,10|2,0:0|0:0,0:0:0:0:
424,360,124813,1,2,2:0:0:0:
318,378,125134,1,10,0:0:0:0:
232,314,125455,1,2,2:0:0:0:
209,94,126097,6,0,P|261:68|321:69,1,107,2|10,2:0|0:0,0:0:0:0:
347,86,126578,1,2,0:0:0:0:
379,114,126739,2,0,L|383:176,1,53.5,2|2,2:0|2:0,0:0:0:0:
357,271,127220,1,2,0:0:0:0:
327,300,127381,2,0,P|275:313|225:300,1,107,2|10,2:0|0:0,0:0:0:0:
194,269,127862,1,2,0:0:0:0:
76,28,128664,6,0,L|72:90,1,53.5,6|2,2:0|0:0,0:0:0:0:
86,121,128985,1,10,0:0:0:0:
181,169,129305,2,0,L|185:231,1,53.5,2|2,2:0|0:0,0:0:0:0:
152,251,129626,2,0,L|148:313,1,53.5,10|2,0:0|2:0,0:0:0:0:
174,338,129947,1,2,2:0:0:0:
274,300,130268,1,10,0:0:0:0:
326,206,130589,1,2,2:0:0:0:
264,63,131070,5,2,0:0:0:0:
264,63,131231,2,0,L|135:75,1,107,6|8,2:0|0:0,0:0:0:0:
108,78,131712,1,2,2:0:0:0:
108,78,131873,1,2,2:0:0:0:
249,163,132354,5,2,2:0:0:0:
249,163,132515,2,0,L|120:175,1,107,2|8,2:0|0:0,0:0:0:0:
93,178,132996,1,2,2:0:0:0:
93,178,133157,1,2,2:0:0:0:
233,265,133637,5,2,2:0:0:0:
233,265,133797,2,0,L|104:277,1,107,6|8,2:0|0:0,0:0:0:0:
77,280,134279,1,2,2:0:0:0:
77,280,134440,1,2,2:0:0:0:
216,369,134920,5,2,2:0:0:0:
216,369,135081,2,0,P|283:359|325:333,1,107,6|8,2:0|0:0,0:0:0:0:
343,306,135562,1,2,2:0:0:0:
364,265,135723,2,0,L|359:191,2,53.5,10|8|8,0:0|0:0|0:0,0:0:0:0:
393,296,136204,1,10,0:0:0:0:
433,309,136364,1,2,0:0:0:0:
