osu file format v14

[General]
AudioFilename: audio.mp3
AudioLeadIn: 0
PreviewTime: 32407
Countdown: 0
SampleSet: Drum
StackLeniency: 0
Mode: 0
LetterboxInBreaks: 0
WidescreenStoryboard: 1

[Editor]
Bookmarks: 322,1605,11872,22140,32407,42674,52942,61926,72193,82461,92728,102995,113263,123530,136364
DistanceSpacing: 1
BeatDivisor: 4
GridSize: 4
TimelineZoom: 1.8

[Metadata]
Title:Tokoshizume
TitleUnicode:とこしずめ
Artist:inabakumori
ArtistUnicode:稲葉曇
Creator:xyperX
Version:Mahiru's Expert
Source:
Tags:mniam itscactus kardshark mahiru shiina seapodeerman bluenation japanese pop jpop j-pop vocaloid inabacumori cumori 星界 SEKAI nukunuku nigirimeshi ぬくぬくにぎりめし nknk_ngrms CeVIO AI
BeatmapID:3674557
BeatmapSetID:1777533

[Difficulty]
HPDrainRate:5
CircleSize:3.8
OverallDifficulty:8.5
ApproachRate:8.5
SliderMultiplier:1.8
SliderTickRate:0.5

[Events]
//Background and Video events
0,0,"maxresdefault (2)_waifu2x_art_scale_tta_1.png",0,0
Video,-88,"Zamn.m4v"
//Break Periods
2,42995,46846
2,48771,51979
2,113462,122855
//Storyboard Layer 0 (Background)
//Storyboard Layer 1 (Fail)
//Storyboard Layer 2 (Pass)
//Storyboard Layer 3 (Foreground)
//Storyboard Layer 4 (Overlay)
//Storyboard Sound Samples

[TimingPoints]
322,320.855614973262,4,3,1,80,1,0
322,-133.333333333333,4,3,1,80,0,0
1605,-95.2380952380952,4,3,1,70,0,0
11872,-181.818181818182,4,3,1,60,0,0
12273,-181.818181818182,4,3,1,5,0,0
12354,-181.818181818182,4,3,1,60,0,0
13557,-181.818181818182,4,3,1,5,0,0
13637,-181.818181818182,4,3,1,60,0,0
14439,-95.2380952380953,4,3,2,60,0,0
14760,-95.2380952380953,4,3,1,60,0,0
17006,-181.818181818182,4,3,1,60,0,0
17407,-181.818181818182,4,3,1,5,0,0
17487,-181.818181818182,4,3,1,60,0,0
22140,-95.2380952380952,4,3,1,80,0,0
22781,-47.6190476190476,4,3,1,80,0,0
24065,-64.5161290322581,4,3,1,80,0,0
24707,-95.2380952380952,4,3,1,80,0,0
25348,-47.6190476190476,4,3,1,80,0,0
27273,-95.2380952380952,4,3,1,80,0,0
31444,-64.5161290322581,4,3,1,85,0,0
31685,-64.5161290322581,4,3,1,5,0,0
31765,-64.5161290322581,4,3,1,90,0,0
32086,-64.5161290322581,4,3,1,95,0,0
32407,-48.780487804878,4,3,1,100,0,0
36578,-48.780487804878,4,3,1,80,0,0
36899,-48.780487804878,4,3,1,100,0,0
37220,-48.780487804878,4,3,1,60,0,0
37541,-48.780487804878,4,3,1,100,0,0
42674,-48.780487804878,4,3,1,80,0,0
52942,-95.2380952380952,4,3,1,70,0,0
61926,-181.818181818182,4,3,1,60,0,0
62327,-181.818181818182,4,3,1,5,0,0
62407,-181.818181818182,4,3,1,60,0,0
63610,-181.818181818182,4,3,1,5,0,0
63690,-181.818181818182,4,3,1,60,0,0
64493,-181.818181818182,4,3,2,60,0,0
64813,-181.818181818182,4,3,1,60,0,0
67461,-181.818181818182,4,3,1,5,0,0
67541,-181.818181818182,4,3,1,60,0,0
68744,-181.818181818182,4,3,1,5,0,0
68824,-181.818181818182,4,3,1,60,0,0
69626,-181.818181818182,4,3,2,60,0,0
69787,-181.818181818182,4,3,1,60,0,0
72193,-181.818181818182,4,3,2,50,0,0
72674,-181.818181818182,4,3,1,50,0,0
74760,-95.2380952380952,4,3,1,60,0,0
77327,-181.818181818182,4,3,1,60,0,0
77728,-95.2380952380952,4,3,1,5,0,0
77808,-95.2380952380952,4,3,1,60,0,0
81819,-95.2380952380952,4,3,1,40,0,0
82461,-181.818181818182,4,3,1,30,0,0
92728,-95.2380952380952,4,3,1,80,0,0
93370,-48.780487804878,4,3,1,80,0,0
95295,-95.2380952380952,4,3,1,80,0,0
95936,-48.780487804878,4,3,1,80,0,0
97862,-80,4,3,1,80,0,0
100428,-95.2380952380952,4,3,1,80,0,0
101712,-95.2380952380952,4,3,1,40,0,0
102033,-95.2380952380952,4,3,1,85,0,0
102354,-86.9565217391304,4,3,1,90,0,0
102674,-86.9565217391304,4,3,1,95,0,0
102995,-86.9565217391304,4,3,1,40,0,0
103316,-86.9565217391304,4,3,1,100,0,0
103637,-48.780487804878,4,3,1,100,0,0
105562,-48.780487804878,4,3,1,100,0,0
107166,-48.780487804878,4,3,1,80,0,0
107487,-48.780487804878,4,3,1,100,0,0
113263,-48.780487804878,4,3,1,80,0,0
123530,-48.780487804878,4,3,1,90,0,0
124813,-64.5161290322581,4,3,1,90,0,0
129947,-95.2380952380952,4,3,1,90,0,0
133477,-95.2380952380952,4,3,1,60,0,0
133637,-95.2380952380952,4,3,1,90,0,0
135081,-48.780487804878,4,3,1,90,0,0
136364,-95.2380952380952,4,3,1,40,0,0

[Colours]
Combo1 : 91,91,91
Combo2 : 178,178,178

[HitObjects]
108,128,322,5,2,0:0:0:0:
77,141,402,1,2,0:0:0:0:
82,175,482,1,2,0:0:0:0:
114,181,562,1,2,0:0:0:0:
131,151,642,1,2,0:0:0:0:
88,39,803,5,2,0:0:0:0:
127,263,963,1,2,0:0:0:0:
127,263,1284,5,8,0:0:0:0:
440,20,1605,6,0,L|419:134,1,94.499997116089,6|0,2:0|0:0,0:0:0:0:
352,240,1926,2,0,L|335:147,1,94.499997116089,10|0,0:0|0:0,0:0:0:0:
440,267,2247,2,0,L|424:360,2,94.499997116089,2|2|10,2:0|0:0|0:0,0:0:0:0:
456,188,2888,5,2,2:0:0:0:
238,331,3209,2,0,L|332:348,2,94.499997116089,10|2|2,0:0|0:0|2:0,0:0:0:0:
352,240,3690,1,2,2:0:0:0:
168,272,3851,2,0,B|150:364,1,94.499997116089,10|0,0:0|0:0,0:0:0:0:
184,172,4172,1,2,2:0:0:0:
204,28,4493,5,10,0:0:0:0:
384,60,4813,6,0,L|277:41,1,94.499997116089,2|2,2:0|2:0,0:0:0:0:
184,172,5134,2,0,L|277:155,1,94.499997116089,10|2,0:0|0:0,0:0:0:0:
96,88,5455,1,2,2:0:0:0:
96,88,5616,1,2,0:0:0:0:
44,176,5776,5,10,0:0:0:0:
44,3,5936,1,2,2:0:0:0:
193,89,6097,1,2,2:0:0:0:
96,88,6257,5,0,2:0:0:0:
96,88,6418,1,8,0:0:0:0:
480,356,6739,6,0,L|366:335,1,94.499997116089,6|0,2:0|0:0,0:0:0:0:
260,268,7060,2,0,L|353:251,1,94.499997116089,10|0,0:0|0:0,0:0:0:0:
232,356,7381,2,0,L|140:340,2,94.499997116089,2|2|10,2:0|0:0|0:0,0:0:0:0:
313,368,7862,1,2,0:0:0:0:
156,204,8022,1,2,2:0:0:0:
452,136,8343,6,0,L|435:229,2,94.499997116089,10|2|2,0:0|0:0|2:0,0:0:0:0:
313,254,8985,5,10,0:0:0:0:
281,74,9145,1,2,0:0:0:0:
452,136,9305,1,2,2:0:0:0:
351,155,9626,5,10,0:0:0:0:
351,155,9787,1,2,0:0:0:0:
44,356,10268,5,10,0:0:0:0:
82,135,10428,1,2,0:0:0:0:
62,246,10589,5,2,2:0:0:0:
62,246,10749,1,2,0:0:0:0:
62,246,10910,1,10,0:0:0:0:
62,246,11070,1,2,2:0:0:0:
62,246,11231,1,10,0:0:0:0:
98,41,11391,6,0,L|80:139,1,94.499997116089,0|8,2:0|0:0,0:0:0:0:
360,352,11872,6,0,L|382:225,1,123.75000377655,2|0,2:0|0:0,0:0:0:0:
288,274,12354,5,2,0:0:0:0:
453,303,12514,1,2,2:0:0:0:
398,131,12835,5,10,0:0:0:0:
360,352,13156,6,0,L|382:225,1,123.75000377655,2|0,2:0|0:0,0:0:0:0:
288,274,13638,5,2,0:0:0:0:
453,303,13798,1,2,2:0:0:0:
398,131,14119,5,10,0:0:0:0:
20,24,14439,6,0,L|55:224,1,188.999994232178,6|10,2:0|0:0,0:0:0:0:
29,342,15081,5,2,2:0:0:0:
160,365,15241,1,2,0:0:0:0:
183,234,15402,1,10,0:0:0:0:
52,210,15562,1,2,0:0:0:0:
104,288,15723,5,2,2:0:0:0:
104,288,15883,1,2,0:0:0:0:
104,288,16043,1,10,0:0:0:0:
104,288,16204,1,2,2:0:0:0:
104,288,16364,1,2,2:0:0:0:
216,84,16685,5,8,0:0:0:0:
376,200,17006,5,2,2:0:0:0:
376,200,17166,2,0,L|388:274,1,74.2500022659302,2|0,0:0|0:0,0:0:0:0:
304,253,17487,5,2,0:0:0:0:
461,225,17648,1,2,2:0:0:0:
361,117,17808,5,2,0:0:0:0:
403,353,17969,1,10,0:0:0:0:
96,372,18289,5,2,2:0:0:0:
96,155,18450,1,2,0:0:0:0:
223,330,18610,1,10,0:0:0:0:
17,263,18771,1,2,2:0:0:0:
223,197,18931,1,2,2:0:0:0:
128,264,19252,5,10,0:0:0:0:
223,197,19573,5,6,2:0:0:0:
17,263,19733,1,2,0:0:0:0:
223,330,19894,1,10,0:0:0:0:
96,155,20054,1,2,0:0:0:0:
96,372,20215,1,2,2:0:0:0:
128,264,20375,5,10,0:0:0:0:
128,264,20455,1,8,0:0:0:0:
128,264,20535,1,10,0:0:0:0:
223,330,20696,5,0,2:0:0:0:
96,155,20856,1,10,0:0:0:0:
424,20,22140,6,0,L|457:209,1,188.999994232178,6|10,2:0|0:0,0:0:0:0:
327,31,22781,6,0,L|360:220,2,188.999994232178,2|2|10,2:0|0:0|0:0,0:0:0:0:
359,217,23423,2,0,L|327:31,2,188.999994232178,2|2|10,2:0|0:0|0:0,0:0:0:0:
384,336,24065,6,0,L|315:323,1,69.7500005321503,2|0,2:0|0:0,0:0:0:0:
168,300,24386,2,0,L|237:313,1,69.7500005321503,10|0,0:0|0:0,0:0:0:0:
88,20,24707,6,0,L|54:209,1,188.999994232178,2|10,2:0|0:0,0:0:0:0:
184,32,25348,6,0,L|150:221,2,188.999994232178,2|2|10,2:0|0:0|0:0,0:0:0:0:
326,154,25830,1,0,2:0:0:0:
150,218,25990,5,2,2:0:0:0:
423,156,26311,6,0,L|396:305,1,94.499997116089,10|0,0:0|0:0,0:0:0:0:
367,72,26632,2,0,L|509:20,1,94.499997116089,2|0,2:0|2:0,0:0:0:0:
326,154,26953,2,0,L|209:56,1,94.499997116089,10|0,0:0|0:0,0:0:0:0:
156,316,27273,6,0,L|41:336,2,94.499997116089,6|2|10,2:0|0:0|0:0,0:0:0:0:
356,316,27915,2,0,L|470:336,2,94.499997116089,2|2|10,2:0|0:0|0:0,0:0:0:0:
156,316,28557,6,0,L|41:336,2,94.499997116089,2|2|10,2:0|2:0|0:0,0:0:0:0:
256,316,29038,1,2,0:0:0:0:
356,316,29199,2,0,L|470:336,2,94.499997116089,2|2|10,2:0|2:0|0:0,0:0:0:0:
256,220,29680,5,2,2:0:0:0:
256,32,29840,1,10,0:0:0:0:
16,76,31444,6,0,L|279:122,1,209.250001596451,4|0,0:0|0:0,0:0:0:0:
333,271,31765,5,14,0:0:0:0:
198,246,31926,1,8,0:0:0:0:
356,136,32086,1,14,0:0:0:0:
222,112,32247,1,8,0:0:0:0:
56,364,32407,6,0,L|406:302,1,276.75000422287,6|0,2:0|0:0,0:0:0:0:
332,336,32728,2,0,L|59:384,1,276.75000422287,10|0,0:0|0:0,0:0:0:0:
56,364,33049,6,0,L|23:182,2,184.500002815247,2|2|10,2:0|2:0|0:0,0:0:0:0:
198,246,33530,1,0,0:0:0:0:
231,64,33690,2,0,L|198:245,2,184.500002815247,2|2|10,2:0|0:0|0:0,0:0:0:0:
383,239,34172,1,0,0:0:0:0:
420,56,34332,6,0,L|399:174,1,92.2500014076233,2|0,2:0|0:0,0:0:0:0:
368,330,34653,2,0,L|388:211,1,92.2500014076233,10|0,0:0|0:0,0:0:0:0:
147,8,34974,6,0,L|420:56,1,276.75000422287,2|0,2:0|0:0,0:0:0:0:
416,76,35295,2,0,L|144:28,1,276.75000422287,10|0,0:0|0:0,0:0:0:0:
144,28,35616,6,0,L|111:210,2,184.500002815247,2|2|10,2:0|2:0|0:0,0:0:0:0:
255,168,36097,1,2,0:0:0:0:
216,344,36257,1,2,2:0:0:0:
216,344,36578,6,0,L|304:376,1,92.2500014076233,14|0,0:0|0:0,0:0:0:0:
176,256,36899,2,0,L|103:316,1,92.2500014076233,2|0,2:0|2:0,0:0:0:0:
271,258,37220,2,0,L|254:165,1,92.2500014076233,14|0,0:0|0:0,0:0:0:0:
244,76,37541,6,0,L|425:107,3,184.500002815247,6|2|10|2,2:0|0:0|0:0|0:0,0:0:0:0:
255,167,38182,6,0,L|73:198,3,184.500002815247,2|0|10|2,2:0|2:0|0:0|0:0,0:0:0:0:
272,260,38824,6,0,L|453:291,3,184.500002815247,2|2|10|2,2:0|2:0|0:0|0:0,0:0:0:0:
404,16,39466,1,2,2:0:0:0:
288,360,39787,1,8,0:0:0:0:
141,70,40108,5,2,2:0:0:0:
181,302,40268,1,2,2:0:0:0:
161,188,40428,1,10,0:0:0:0:
161,188,40589,1,2,2:0:0:0:
303,164,40749,5,2,2:0:0:0:
24,212,40909,1,2,2:0:0:0:
161,188,41069,1,10,0:0:0:0:
161,188,41230,1,2,2:0:0:0:
303,164,41391,5,6,2:0:0:0:
325,37,41551,1,10,0:0:0:0:
46,85,41712,5,10,0:0:0:0:
24,212,41872,1,10,0:0:0:0:
24,212,41953,1,8,0:0:0:0:
24,212,42033,5,10,0:0:0:0:
130,271,42193,1,10,0:0:0:0:
222,187,42353,1,10,0:0:0:0:
171,73,42513,1,10,0:0:0:0:
46,85,42674,1,6,2:0:0:0:
197,293,47808,5,8,0:0:0:0:
197,90,47969,1,8,0:0:0:0:
197,90,48049,1,8,0:0:0:0:
197,90,48129,1,8,0:0:0:0:
373,192,48289,1,8,0:0:0:0:
256,192,48450,5,2,2:0:0:0:
336,16,52942,6,0,L|319:109,1,94.499997116089,2|0,2:0|0:0,0:0:0:0:
483,149,53263,2,0,L|410:88,1,94.499997116089,2|0,2:0|0:0,0:0:0:0:
293,210,53584,2,0,L|381:177,2,94.499997116089,6|2|10,2:0|0:0|0:0,0:0:0:0:
196,240,54225,1,2,2:0:0:0:
160,144,54546,6,0,L|127:56,2,94.499997116089,10|2|2,0:0|0:0|2:0,0:0:0:0:
232,56,55027,1,2,2:0:0:0:
55,136,55188,2,0,L|88:224,1,94.499997116089,10|0,0:0|0:0,0:0:0:0:
128,336,55509,1,2,2:0:0:0:
456,284,55830,6,0,L|337:304,1,94.499997116089,10|0,0:0|0:0,0:0:0:0:
288,208,56150,1,2,2:0:0:0:
288,208,56311,1,2,2:0:0:0:
307,97,56471,5,8,0:0:0:0:
268,318,56632,1,2,0:0:0:0:
397,188,56792,5,2,2:0:0:0:
176,228,56953,1,2,0:0:0:0:
176,228,57033,1,0,2:0:0:0:
176,228,57113,1,10,2:0:0:0:
424,84,57273,1,0,2:0:0:0:
424,84,57353,1,0,2:0:0:0:
424,84,57433,1,10,0:0:0:0:
188,108,57594,1,2,2:0:0:0:
362,299,57755,1,14,0:0:0:0:
0,140,58076,6,0,L|93:123,1,94.499997116089,6|0,2:0|0:0,0:0:0:0:
176,228,58396,1,10,0:0:0:0:
176,228,58557,1,2,0:0:0:0:
266,301,58717,5,2,2:0:0:0:
188,108,58877,1,2,0:0:0:0:
60,270,59038,1,10,0:0:0:0:
176,228,59199,1,0,0:0:0:0:
374,140,59359,6,0,L|187:107,2,188.999994232178,2|10|2,2:0|0:0|2:0,0:0:0:0:
456,276,60321,5,10,0:0:0:0:
500,23,60482,1,2,0:0:0:0:
478,149,60642,1,2,2:0:0:0:
478,149,61124,5,2,2:0:0:0:
456,276,61284,1,2,2:0:0:0:
340,384,61766,5,2,2:0:0:0:
318,257,61926,2,0,L|180:281,1,123.75000377655,2|0,2:0|0:0,0:0:0:0:
80,296,62407,5,2,0:0:0:0:
184,196,62567,1,2,2:0:0:0:
212,360,62888,1,10,0:0:0:0:
318,257,63209,6,0,L|180:281,1,123.75000377655,2|0,2:0|0:0,0:0:0:0:
80,296,63690,5,2,0:0:0:0:
184,196,63850,1,2,2:0:0:0:
212,360,64171,1,10,0:0:0:0:
168,88,64493,5,6,2:0:0:0:
364,216,64813,1,10,0:0:0:0:
408,116,64974,5,2,2:0:0:0:
268,281,65135,1,2,2:0:0:0:
477,228,65295,1,2,0:0:0:0:
277,148,65456,1,10,0:0:0:0:
392,330,65616,1,2,0:0:0:0:
277,148,65776,5,2,2:0:0:0:
477,228,65937,1,2,0:0:0:0:
268,281,66097,1,10,0:0:0:0:
408,116,66258,1,2,2:0:0:0:
392,330,66418,1,2,2:0:0:0:
288,36,66739,5,8,0:0:0:0:
124,128,67059,6,0,B|78:171|78:171|106:228,1,123.75000377655,2|0,2:0|0:0,0:0:0:0:
192,188,67541,1,2,0:0:0:0:
136,32,67701,5,2,2:0:0:0:
92,324,68022,1,10,0:0:0:0:
124,128,68343,6,0,B|78:171|78:171|106:228,1,123.75000377655,2|0,2:0|0:0,0:0:0:0:
192,188,68825,1,2,0:0:0:0:
136,32,68985,5,2,2:0:0:0:
92,324,69306,1,10,0:0:0:0:
488,88,69626,6,0,L|424:99,1,49.5000015106202,6|2,2:0|0:0,0:0:0:0:
220,355,70108,5,2,0:0:0:0:
192,188,70268,1,2,2:0:0:0:
357,159,70429,1,2,2:0:0:0:
386,324,70589,2,0,L|373:254,1,49.5000015106202,10|0,0:0|0:0,0:0:0:0:
144,88,70910,5,2,2:0:0:0:
160,302,71071,1,2,2:0:0:0:
275,120,71231,1,10,0:0:0:0:
75,200,71392,1,2,2:0:0:0:
284,253,71552,1,2,2:0:0:0:
264,4,71872,5,8,0:0:0:0:
52,336,72193,6,0,L|60:287,1,49.5000015106202,6|0,2:0|0:0,0:0:0:0:
92,104,72674,5,2,0:0:0:0:
60,287,72835,1,2,0:0:0:0:
108,24,73156,5,10,0:0:0:0:
60,287,73477,6,0,L|52:336,1,49.5000015106202,2|0,0:0|0:0,0:0:0:0:
92,104,73958,5,2,0:0:0:0:
60,287,74119,1,2,0:0:0:0:
108,24,74440,5,10,0:0:0:0:
417,47,74760,5,6,2:0:0:0:
376,275,74920,1,2,0:0:0:0:
199,125,75081,1,10,0:0:0:0:
412,168,75402,5,2,2:0:0:0:
396,382,75563,1,2,0:0:0:0:
281,200,75723,1,10,0:0:0:0:
481,280,75884,1,2,0:0:0:0:
272,333,76044,5,2,2:0:0:0:
481,280,76204,1,2,0:0:0:0:
281,200,76364,1,10,0:0:0:0:
396,382,76525,1,2,2:0:0:0:
396,382,76605,1,0,2:0:0:0:
396,382,76685,1,2,2:0:0:0:
416,76,77006,5,8,0:0:0:0:
231,30,77327,5,2,2:0:0:0:
231,30,77487,2,0,L|215:120,1,74.2500022659302,2|0,0:0|0:0,0:0:0:0:
200,186,77808,5,2,0:0:0:0:
192,233,77888,1,2,0:0:0:0:
184,280,77968,1,2,2:0:0:0:
160,384,78289,1,10,0:0:0:0:
128,110,78450,5,2,0:0:0:0:
9,246,78610,1,2,2:0:0:0:
184,280,78771,1,2,0:0:0:0:
28,144,78931,5,10,0:0:0:0:
88,314,79091,1,2,0:0:0:0:
200,184,79252,1,2,2:0:0:0:
110,206,79573,5,10,0:0:0:0:
300,204,79894,5,6,2:0:0:0:
261,98,80054,1,10,0:0:0:0:
482,137,80215,1,10,0:0:0:0:
411,223,80375,1,2,2:0:0:0:
333,11,80535,1,2,2:0:0:0:
445,31,80696,1,10,0:0:0:0:
445,31,80776,1,8,0:0:0:0:
445,31,80856,1,10,0:0:0:0:
300,204,81017,5,2,2:0:0:0:
445,31,81177,1,10,0:0:0:0:
492,312,81819,5,2,0:0:0:0:
400,340,82461,6,0,L|296:340,1,99.0000030212403,2|2,0:0|0:0,0:0:0:0:
158,340,83102,6,0,L|207:340,2,49.5000015106202,2|2|2,0:0|0:0|0:0,0:0:0:0:
65,340,83744,6,0,L|16:340,2,49.5000015106202,2|2|2,0:0|0:0|0:0,0:0:0:0:
207,340,84386,1,2,0:0:0:0:
400,340,84707,1,2,0:0:0:0:
400,340,85027,6,0,L|296:340,1,99.0000030212403
158,340,85668,6,0,L|207:340,2,49.5000015106202
59,340,86310,6,0,L|177:340,1,99.0000030212403
301,340,86952,1,0,0:0:0:0:
480,340,87273,1,0,0:0:0:0:
480,192,87594,6,0,L|376:192,1,99.0000030212403,2|2,0:0|0:0,0:0:0:0:
232,192,88236,6,0,L|281:192,2,49.5000015106202,2|2|2,0:0|0:0|0:0,0:0:0:0:
136,192,88717,1,2,0:0:0:0:
12,192,88878,1,2,0:0:0:0:
136,192,89199,5,2,0:0:0:0:
232,192,89519,1,2,0:0:0:0:
328,192,89840,1,2,0:0:0:0:
430,192,90161,6,0,L|480:192,2,49.5000015106202,2|2|2,0:0|0:0|0:0,0:0:0:0:
328,192,90803,1,2,0:0:0:0:
280,192,90963,1,2,0:0:0:0:
232,192,91124,1,2,0:0:0:0:
184,192,91284,1,2,0:0:0:0:
136,192,91444,6,0,L|86:192,3,49.5000015106202,2|2|2|2,0:0|0:0|0:0|0:0,0:0:0:0:
328,192,92086,1,2,0:0:0:0:
86,192,92728,6,0,L|119:378,1,188.999994232178,6|10,2:0|0:0,0:0:0:0:
184,192,93370,6,0,L|217:378,2,184.500002815247,2|2|10,2:0|0:0|0:0,0:0:0:0:
216,373,94011,2,0,L|184:192,2,184.500002815247,2|2|10,2:0|0:0|0:0,0:0:0:0:
72,72,94653,6,0,L|162:87,1,92.2500014076233,2|0,2:0|0:0,0:0:0:0:
440,72,94974,2,0,L|349:87,1,92.2500014076233,10|0,0:0|0:0,0:0:0:0:
308,364,95295,6,0,L|494:331,1,188.999994232178,2|10,2:0|0:0,0:0:0:0:
292,280,95936,6,0,L|478:247,2,184.500002815247,2|2|10,2:0|0:0|0:0,0:0:0:0:
356,108,96418,5,2,2:0:0:0:
473,247,96578,1,2,2:0:0:0:
133,184,96899,6,0,L|110:57,1,92.2500014076233,10|0,0:0|0:0,0:0:0:0:
205,248,97220,2,0,L|325:291,1,92.2500014076233,2|0,2:0|2:0,0:0:0:0:
113,278,97541,2,0,L|14:360,1,92.2500014076233,10|0,0:0|2:0,0:0:0:0:
352,40,97862,6,0,L|462:20,2,112.5,6|2|10,2:0|0:0|0:0,0:0:0:0:
256,136,98343,1,2,0:0:0:0:
160,40,98503,2,0,L|49:20,2,112.5,2|2|10,2:0|0:0|0:0,0:0:0:0:
352,136,99145,6,0,L|462:116,2,112.5,2|2|10,2:0|2:0|0:0,0:0:0:0:
256,44,99626,1,2,0:0:0:0:
160,136,99786,2,0,L|49:116,2,112.5,2|2|10,2:0|0:0|0:0,0:0:0:0:
256,340,100268,5,2,0:0:0:0:
256,136,100428,2,0,L|256:252,1,94.499997116089,6|2,2:0|0:0,0:0:0:0:
148,340,100749,5,10,0:0:0:0:
458,340,101070,2,0,L|364:340,1,94.499997116089,2|0,2:0|2:0,0:0:0:0:
344,200,101391,5,10,0:0:0:0:
318,55,101551,1,2,2:0:0:0:
455,105,101712,1,2,0:0:0:0:
168,48,102033,5,4,2:0:0:0:
300,384,102354,5,6,2:0:0:0:
344,200,102514,1,8,0:0:0:0:
168,200,102674,5,14,0:0:0:0:
212,384,102834,1,0,2:0:0:0:
256,192,102995,5,2,2:0:0:0:
40,36,103316,1,14,0:0:0:0:
72,217,103637,6,0,L|36:16,2,184.500002815247,2|2|10,2:0|2:0|0:0,0:0:0:0:
168,200,104279,2,0,L|135:381,2,184.500002815247,2|2|10,2:0|0:0|0:0,0:0:0:0:
360,120,104920,6,0,L|376:29,1,92.2500014076233,2|0,2:0|0:0,0:0:0:0:
256,192,105241,2,0,L|239:282,1,92.2500014076233,10|0,0:0|0:0,0:0:0:0:
249,91,105562,6,0,L|32:52,1,184.500002815247,2|0,2:0|0:0,0:0:0:0:
68,59,105883,1,8,0:0:0:0:
37,160,106043,1,2,0:0:0:0:
120,220,106204,1,2,2:0:0:0:
204,158,106364,1,2,2:0:0:0:
172,59,106525,1,10,0:0:0:0:
68,60,106685,1,0,0:0:0:0:
156,308,106846,5,2,2:0:0:0:
376,380,107166,6,0,L|-2:313,2,369.000005630493,14|2|14,0:0|2:0|0:0,0:0:0:0:
360,96,108129,6,0,L|397:308,1,184.500002815247,6|2,2:0|0:0,0:0:0:0:
200,96,108610,1,2,0:0:0:0:
18,129,108771,6,0,L|199:96,3,184.500002815247,2|2|10|2,2:0|2:0|0:0|0:0,0:0:0:0:
210,245,109412,6,0,L|391:277,3,184.500002815247,2|2|10|2,2:0|2:0|0:0|0:0,0:0:0:0:
336,72,110054,1,2,2:0:0:0:
283,367,110375,1,8,0:0:0:0:
233,114,110696,5,2,2:0:0:0:
188,373,110856,1,2,2:0:0:0:
210,245,111016,1,10,0:0:0:0:
210,245,111177,1,2,2:0:0:0:
51,219,111337,5,2,2:0:0:0:
363,272,111497,1,2,2:0:0:0:
210,245,111657,1,10,0:0:0:0:
210,245,111818,1,2,2:0:0:0:
51,219,111979,5,6,2:0:0:0:
27,77,112139,1,10,0:0:0:0:
339,130,112300,5,10,0:0:0:0:
363,272,112460,1,8,0:0:0:0:
363,272,112541,1,8,0:0:0:0:
363,272,112621,5,10,0:0:0:0:
199,117,112781,1,10,0:0:0:0:
245,338,112941,1,10,0:0:0:0:
339,130,113101,1,10,0:0:0:0:
142,244,113262,1,6,2:0:0:0:
492,64,123530,6,0,L|454:276,3,184.500002815247,6|2|10|2,2:0|0:0|0:0|2:0,0:0:0:0:
444,324,124092,1,0,2:0:0:0:
444,324,124172,6,0,L|232:286,3,184.500002815247,2|2|10|2,2:0|2:0|0:0|0:0,0:0:0:0:
304,76,124813,6,0,L|277:218,1,139.500001064301,2|2,2:0|0:0,0:0:0:0:
192,200,125054,1,0,0:0:0:0:
192,200,125134,6,0,L|49:173,1,139.500001064301,10|0,0:0|0:0,0:0:0:0:
148,56,125455,1,2,2:0:0:0:
100,344,125776,5,8,0:0:0:0:
368,380,126097,6,0,L|226:353,1,139.500001064301,2|0,2:0|0:0,0:0:0:0:
388,284,126418,1,10,0:0:0:0:
408,190,126578,1,2,0:0:0:0:
428,96,126739,1,2,2:0:0:0:
408,190,126899,1,2,2:0:0:0:
116,192,127220,5,2,0:0:0:0:
35,248,127380,1,2,2:0:0:0:
59,111,127541,1,2,0:0:0:0:
196,135,127701,1,10,0:0:0:0:
172,272,127862,1,2,0:0:0:0:
216,44,128182,5,2,0:0:0:0:
216,44,128263,1,0,0:0:0:0:
216,44,128343,1,2,2:0:0:0:
328,268,128664,5,6,2:0:0:0:
402,176,128824,1,2,0:0:0:0:
287,156,128985,1,10,0:0:0:0:
146,316,129305,5,2,2:0:0:0:
256,335,129466,1,2,0:0:0:0:
366,354,129626,1,10,0:0:0:0:
366,354,129787,1,2,2:0:0:0:
477,373,129947,6,0,L|514:160,2,188.999994232178,2|10|2,2:0|0:0|2:0,0:0:0:0:
485,94,131070,5,2,0:0:0:0:
377,75,131231,2,0,L|283:58,1,94.499997116089,6|0,2:0|2:0,0:0:0:0:
176,39,131551,1,8,0:0:0:0:
69,20,131712,1,2,2:0:0:0:
69,20,131793,1,0,2:0:0:0:
69,20,131873,1,2,2:0:0:0:
284,58,132033,5,0,2:0:0:0:
485,94,132193,1,8,0:0:0:0:
468,185,132354,5,2,2:0:0:0:
361,165,132515,2,0,L|267:148,1,94.499997116089,2|0,2:0|2:0,0:0:0:0:
160,130,132835,1,8,0:0:0:0:
53,111,132996,1,2,2:0:0:0:
53,111,133077,1,0,2:0:0:0:
53,111,133157,1,2,2:0:0:0:
268,149,133317,5,0,2:0:0:0:
468,185,133477,1,12,0:0:0:0:
451,276,133637,5,2,2:0:0:0:
344,256,133798,2,0,L|250:239,1,94.499997116089,6|0,2:0|2:0,0:0:0:0:
143,220,134118,1,8,0:0:0:0:
36,201,134279,1,2,2:0:0:0:
36,201,134360,1,0,2:0:0:0:
36,201,134440,1,2,2:0:0:0:
251,239,134600,5,0,2:0:0:0:
451,276,134760,1,8,0:0:0:0:
232,330,134920,5,2,2:0:0:0:
283,57,135081,2,0,L|247:260,1,184.500002815247,6|8,2:0|0:0,0:0:0:0:
232,330,135402,1,8,0:0:0:0:
101,24,135562,2,0,L|282:56,1,184.500002815247,2|10,2:0|0:0,0:0:0:0:
485,94,135883,1,8,0:0:0:0:
438,86,135963,1,0,0:0:0:0:
390,78,136043,1,8,0:0:0:0:
232,330,136204,1,10,0:0:0:0:
36,356,136364,5,2,0:0:0:0:
