osu file format v14

[General]
AudioFilename: audio.mp3
AudioLeadIn: 0
PreviewTime: 32407
Countdown: 0
SampleSet: Drum
StackLeniency: 0.7
Mode: 0
LetterboxInBreaks: 0
WidescreenStoryboard: 0

[Editor]
DistanceSpacing: 0.2
BeatDivisor: 4
GridSize: 4
TimelineZoom: 1.5

[Metadata]
Title:Tokoshizume
TitleUnicode:とこしずめ
Artist:inabakumori
ArtistUnicode:稲葉曇
Creator:xyperX
Version:Bluenation's Insane
Source:
Tags:mniam itscactus kardshark mahiru shiina seapodeerman bluenation japanese pop jpop j-pop vocaloid inabacumori cumori 星界 SEKAI nukunuku nigirimeshi ぬくぬくにぎりめし nknk_ngrms CeVIO AI
BeatmapID:3699296
BeatmapSetID:1777533

[Difficulty]
HPDrainRate:5
CircleSize:4.6
OverallDifficulty:8
ApproachRate:9
SliderMultiplier:2
SliderTickRate:1

[Events]
//Background and Video events
0,0,"maxresdefault (2)_waifu2x_art_scale_tta_1.png",0,0
Video,-88,"Zamn.m4v"
//Break Periods
2,82339,92128
//Storyboard Layer 0 (Background)
//Storyboard Layer 1 (Fail)
//Storyboard Layer 2 (Pass)
//Storyboard Layer 3 (Foreground)
//Storyboard Layer 4 (Overlay)
//Storyboard Sound Samples

[TimingPoints]
322,320.855614973262,4,3,1,80,1,0
1605,-100,4,3,1,70,0,0
11872,-100,4,3,1,60,0,0
14439,-100,4,3,2,60,0,0
14600,-100,4,3,1,60,0,0
22140,-100,4,3,1,80,0,0
30803,-100,4,3,1,30,0,0
31444,-100,4,3,1,85,0,0
31765,-100,4,3,1,90,0,0
32086,-100,4,3,1,95,0,0
32407,-86.9565217391304,4,3,1,100,0,0
36578,-86.9565217391304,4,3,1,80,0,0
36819,-86.9565217391304,4,3,1,100,0,0
37220,-86.9565217391304,4,3,1,60,0,0
37541,-86.9565217391304,4,3,1,100,0,0
40428,-100,4,3,1,100,0,0
42674,-100,4,3,1,80,0,0
52942,-100,4,3,1,70,0,0
60723,-100,4,3,1,5,0,0
61124,-100,4,3,1,70,0,0
61204,-100,4,3,1,5,0,0
61284,-100,4,3,1,70,0,0
61364,-100,4,3,1,5,0,0
61765,-100,4,3,1,70,0,0
61846,-100,4,3,1,5,0,0
61926,-100,4,3,1,60,0,0
64493,-100,4,3,2,60,0,0
64653,-100,4,3,1,60,0,0
69626,-100,4,3,2,60,0,0
69787,-100,4,3,1,60,0,0
72193,-166.666666666667,4,3,2,50,0,0
73156,-166.666666666667,4,3,1,50,0,0
74760,-100,4,3,1,60,0,0
81819,-100,4,3,1,40,0,0
92728,-100,4,3,1,80,0,0
101712,-100,4,3,1,40,0,0
102033,-100,4,3,1,85,0,0
102354,-100,4,3,1,90,0,0
102674,-100,4,3,1,95,0,0
102995,-100,4,3,1,40,0,0
103316,-86.9565217391304,4,3,1,100,0,0
107166,-86.9565217391304,4,3,1,80,0,0
107327,-86.9565217391304,4,3,1,100,0,0
113263,-100,4,3,1,80,0,0
120963,-100,4,3,2,80,0,0
121124,-100,4,3,1,80,0,0
122247,-100,4,3,1,50,0,0
122407,-100,4,3,1,80,0,0
122888,-100,4,3,1,65,0,0
123049,-100,4,3,1,80,0,0
123370,-100,4,3,1,50,0,0
123530,-100,4,3,1,90,0,0
133477,-100,4,3,1,60,0,0
133637,-100,4,3,1,90,0,0
136364,-100,4,3,1,40,0,0

[Colours]
Combo1 : 91,91,91
Combo2 : 178,178,178

[HitObjects]
72,140,322,5,2,0:0:0:0:
92,97,402,1,2,0:0:0:0:
139,96,482,1,2,0:0:0:0:
161,138,562,1,2,0:0:0:0:
134,176,642,1,2,0:0:0:0:
32,203,803,5,2,0:0:0:0:
0,119,963,1,2,0:0:0:0:
95,27,1284,69,8,0:0:0:0:
139,96,1605,2,0,B|251:123,1,100,6|0,2:0|0:0,0:0:0:0:
380,106,1926,2,0,B|413:76|401:38|401:38|376:22,1,100,10|0,0:0|0:0,0:0:0:0:
296,15,2247,5,2,2:0:0:0:
306,82,2407,1,2,0:0:0:0:
409,185,2567,1,10,0:0:0:0:
398,253,2728,1,0,0:0:0:0:
328,290,2888,2,0,P|273:246|235:243,1,100,2|0,2:0|0:0,0:0:0:0:
135,206,3209,2,0,P|182:193|217:158,2,100,10|2|2,0:0|0:0|2:0,0:0:0:0:
143,129,3690,1,2,2:0:0:0:
171,314,3851,70,0,B|123:278|72:281|72:281|50:302|12:304,1,150,10|0,0:0|0:0,0:0:0:0:
24,225,4172,2,0,P|44:179|56:131,1,100,2|0,2:0|0:0,0:0:0:0:
221,153,4493,2,0,P|200:107|188:59,1,100,10|0,0:0|0:0,0:0:0:0:
264,37,4813,1,2,2:0:0:0:
340,50,4974,1,2,2:0:0:0:
492,34,5134,5,10,0:0:0:0:
417,19,5295,1,2,0:0:0:0:
363,139,5455,2,0,L|492:106,2,100,2|2|10,2:0|0:0|0:0,0:0:0:0:
251,234,5936,69,2,2:0:0:0:
247,249,6017,1,0,2:0:0:0:
243,263,6097,2,0,B|277:294|277:294|344:282|340:217,1,150,2|0,2:0|0:0,0:0:0:0:
277,164,6418,2,0,B|192:135|223:218|122:184,1,150,8|0,0:0|0:0,0:0:0:0:
135,114,6739,2,0,B|144:66|144:66|149:62|149:62|157:17,1,100,6|0,2:0|0:0,0:0:0:0:
68,252,7059,2,0,B|58:204|58:204|54:200|54:200|46:155,1,100,10|0,0:0|0:0,0:0:0:0:
36,0,7380,5,2,2:0:0:0:
91,44,7541,1,2,0:0:0:0:
44,147,7701,2,0,P|91:116|136:108,1,100,10|2,0:0|0:0,0:0:0:0:
166,17,8022,2,0,P|213:48|258:56,1,100,2|0,2:0|0:0,0:0:0:0:
341,37,8343,2,0,B|385:21|349:-27|299:14|339:37,1,100,10|2,0:0|0:0,0:0:0:0:
388,113,8584,1,0,0:0:0:0:
388,113,8664,2,0,P|318:130|270:167,1,100,2|0,2:0|0:0,0:0:0:0:
221,210,8985,69,10,0:0:0:0:
255,278,9145,1,2,0:0:0:0:
256,67,9305,2,0,P|206:62|160:42,1,100,2|0,2:0|0:0,0:0:0:0:
189,147,9626,1,10,0:0:0:0:
24,141,9787,2,0,P|73:136|119:116,2,100,2|0|0,0:0|2:0|2:0,0:0:0:0:
181,272,10268,2,0,P|127:242|68:239,1,100,10|2,0:0|0:0,0:0:0:0:
7,310,10589,1,2,2:0:0:0:
302,239,10910,5,10,0:0:0:0:
243,189,11070,1,2,2:0:0:0:
272,121,11231,5,10,0:0:0:0:
416,150,11391,1,0,2:0:0:0:
272,121,11551,5,8,0:0:0:0:
416,150,11711,1,0,0:0:0:0:
337,18,11872,6,0,P|264:43|227:44,1,100,2|0,2:0|0:0,0:0:0:0:
173,75,12193,1,8,0:0:0:0:
131,17,12354,1,2,0:0:0:0:
146,149,12514,2,0,P|95:132|29:131,1,100,2|0,2:0|0:0,0:0:0:0:
48,137,12835,2,0,P|97:140|144:157,1,100,10|0,0:0|0:0,0:0:0:0:
192,243,13156,70,0,P|265:218|302:217,1,100,2|0,2:0|0:0,0:0:0:0:
356,186,13477,1,8,0:0:0:0:
398,244,13638,1,2,0:0:0:0:
383,112,13798,2,0,P|434:129|500:130,1,100,2|0,2:0|0:0,0:0:0:0:
479,124,14119,2,0,P|429:120|382:103,1,100,10|0,0:0|0:0,0:0:0:0:
254,47,14439,6,0,B|247:31|256:11|256:11|297:19|289:56,1,100,6|0,2:0|0:0,0:0:0:0:
284,149,14760,2,0,B|293:160|298:185|298:185|328:164|308:129,1,100,10|0,0:0|0:0,0:0:0:0:
147,133,15081,1,2,2:0:0:0:
215,115,15241,1,2,0:0:0:0:
93,81,15402,2,0,P|72:55|98:80,1,100,10|2,0:0|0:0,0:0:0:0:
113,232,15723,70,0,P|163:204|224:206,1,100,2|2,2:0|0:0,0:0:0:0:
262,256,16043,2,0,P|317:290|373:282,1,100,10|2,0:0|2:0,0:0:0:0:
382,155,16364,2,0,L|367:43,1,100,2|0,2:0|0:0,0:0:0:0:
415,229,16685,2,0,P|425:256|417:226,1,100,8|0,0:0|0:0,0:0:0:0:
459,153,17006,5,2,2:0:0:0:
382,147,17166,1,2,0:0:0:0:
328,196,17327,1,8,0:0:0:0:
459,153,17487,69,2,0:0:0:0:
328,196,17648,1,2,2:0:0:0:
459,153,17808,5,2,0:0:0:0:
328,196,17969,2,0,B|257:164|257:164|218:186,1,100,10|0,0:0|0:0,0:0:0:0:
138,193,18289,6,0,P|170:246|172:298,1,100,2|2,2:0|0:0,0:0:0:0:
185,383,18610,2,0,P|219:347|266:330,2,100,10|2|2,0:0|2:0|2:0,0:0:0:0:
93,266,19092,1,0,2:0:0:0:
182,128,19252,70,0,P|118:114|66:88,1,100,10|0,0:0|0:0,0:0:0:0:
207,204,19573,2,0,P|253:185|302:176,1,100,6|2,2:0|0:0,0:0:0:0:
381,230,19813,1,0,0:0:0:0:
381,230,19894,2,0,B|360:301|360:301|367:320|365:338,1,100,10|2,0:0|0:0,0:0:0:0:
440,349,20215,1,2,2:0:0:0:
434,150,20375,5,10,0:0:0:0:
416,152,20455,1,8,0:0:0:0:
399,155,20535,1,10,0:0:0:0:
512,140,20696,69,0,2:0:0:0:
342,106,20856,1,10,0:0:0:0:
288,352,21338,5,2,2:0:0:0:
209,319,21498,1,2,2:0:0:0:
371,244,21819,70,0,P|277:270|241:269,1,100,2|0,2:0|0:0,0:0:0:0:
113,292,22140,2,0,P|162:299|208:318,1,100,6|0,2:0|0:0,0:0:0:0:
6,206,22461,2,0,P|55:198|101:179,1,100,10|0,0:0|0:0,0:0:0:0:
227,39,22781,5,2,2:0:0:0:
129,69,22942,1,2,0:0:0:0:
258,160,23102,2,0,P|211:141|162:133,1,100,10|0,0:0|0:0,0:0:0:0:
293,231,23423,69,2,2:0:0:0:
199,325,23584,1,2,0:0:0:0:
271,359,23744,2,0,P|330:332|381:333,1,100,10|0,0:0|0:0,0:0:0:0:
120,220,24065,2,0,P|164:242|213:248,1,100,2|0,2:0|0:0,0:0:0:0:
275,365,24386,2,0,P|334:338|385:339,1,100,10|0,0:0|0:0,0:0:0:0:
290,274,24707,6,0,L|313:167,1,100,2|0,2:0|0:0,0:0:0:0:
239,138,25027,2,0,L|217:235,1,100,10|0,0:0|0:0,0:0:0:0:
448,165,25348,69,2,2:0:0:0:
328,101,25509,1,2,0:0:0:0:
448,165,25669,5,10,0:0:0:0:
328,101,25830,1,0,2:0:0:0:
268,204,25990,2,0,P|336:218|358:253,1,100,2|0,2:0|0:0,0:0:0:0:
464,322,26311,2,0,P|396:336|374:371,1,100,10|0,0:0|0:0,0:0:0:0:
307,322,26632,2,0,P|301:294|288:278,2,50,2|0|0,2:0|2:0|2:0,0:0:0:0:
136,350,26953,2,0,L|274:330,1,100,10|0,0:0|0:0,0:0:0:0:
74,277,27273,6,0,P|71:240|125:224,2,100,6|2|10,2:0|0:0|0:0,0:0:0:0:
421,133,27915,1,2,2:0:0:0:
405,26,28076,1,2,0:0:0:0:
330,181,28236,1,10,0:0:0:0:
466,329,28557,70,0,P|366:294|338:292,1,100,2|2,2:0|2:0,0:0:0:0:
251,125,28878,2,0,P|206:146|157:159,1,100,10|2,0:0|0:0,0:0:0:0:
95,108,29118,1,0,0:0:0:0:
98,93,29199,1,2,2:0:0:0:
74,240,29359,1,2,2:0:0:0:
22,166,29519,1,10,0:0:0:0:
95,108,29680,1,2,2:0:0:0:
189,239,29840,6,0,P|233:217|285:207,2,100,10|2|2,0:0|0:0|2:0,0:0:0:0:
333,331,30482,1,2,2:0:0:0:
374,269,30803,2,0,B|331:260|359:204|411:239|375:270,1,100,2|2,2:0|0:0,0:0:0:0:
401,350,31124,2,0,B|348:380|309:339|309:339|266:291|202:340,2,200,2|4|14,0:0|0:0|0:0,0:0:0:0:
280,245,31926,1,8,0:0:0:0:
460,159,32086,2,0,L|437:32,1,100,14|8,0:0|0:0,0:0:0:0:
367,188,32407,70,0,L|344:61,1,115.000002193451,6|0,2:0|0:0,0:0:0:0:
183,33,32728,2,0,L|161:148,1,115.000002193451,10|0,0:0|0:0,0:0:0:0:
179,249,33049,1,2,2:0:0:0:
259,170,33209,1,2,2:0:0:0:
57,180,33370,2,0,P|100:151|204:162,1,115.000002193451,10|0,0:0|0:0,0:0:0:0:
359,27,33690,6,0,P|303:21|246:-9,2,115.000002193451,2|2|10,2:0|0:0|0:0,0:0:0:0:
250,90,34172,1,0,0:0:0:0:
326,232,34332,2,0,L|345:107,1,115.000002193451,2|0,2:0|2:0,0:0:0:0:
461,23,34653,2,0,L|481:150,1,115.000002193451,10|0,0:0|0:0,0:0:0:0:
126,361,34974,70,0,L|143:247,1,115.000002193451,2|0,2:0|0:0,0:0:0:0:
244,205,35295,2,0,L|264:318,1,115.000002193451,10|0,0:0|0:0,0:0:0:0:
406,220,35615,1,2,2:0:0:0:
486,318,35777,2,0,P|429:312|384:345,2,115.000002193451,2|10|2,2:0|0:0|0:0,0:0:0:0:
426,106,36257,6,0,L|402:240,1,115.000002193451,2|0,2:0|0:0,0:0:0:0:
246,259,36578,2,0,B|218:218|241:181|241:181|273:134|235:87,1,172.500003290176,14|0,0:0|0:0,0:0:0:0:
153,37,36899,2,0,P|214:29|294:-24,1,115.000002193451,2|0,2:0|2:0,0:0:0:0:
338,127,37220,69,14,0:0:0:0:
310,218,37380,1,0,0:0:0:0:
69,110,37541,2,0,P|156:124|196:159,2,115.000002193451,6|2|10,2:0|0:0|0:0,0:0:0:0:
242,97,38022,1,2,0:0:0:0:
145,295,38182,2,0,P|209:291|255:238,1,115.000002193451,2|0,2:0|2:0,0:0:0:0:
310,218,38423,1,0,0:0:0:0:
310,218,38503,2,0,L|318:93,1,115.000002193451,10|2,0:0|0:0,0:0:0:0:
401,75,38824,5,2,2:0:0:0:
287,28,38985,1,2,2:0:0:0:
408,191,39145,2,0,P|462:150|514:144,2,115.000002193451,10|2|2,0:0|0:0|2:0,0:0:0:0:
454,303,39626,1,0,2:0:0:0:
345,327,39787,2,0,P|289:290|237:288,1,115.000002193451,8|0,0:0|2:0,0:0:0:0:
131,297,40108,69,2,2:0:0:0:
136,320,40268,1,2,2:0:0:0:
44,360,40428,2,0,L|66:248,1,100,10|2,0:0|2:0,0:0:0:0:
84,163,40749,5,2,2:0:0:0:
79,186,40909,1,2,2:0:0:0:
171,226,41069,2,0,L|149:114,1,100,10|2,0:0|2:0,0:0:0:0:
129,35,41391,69,6,2:0:0:0:
134,58,41551,1,10,0:0:0:0:
232,161,41712,1,10,0:0:0:0:
255,71,41872,1,10,0:0:0:0:
266,65,41953,1,8,0:0:0:0:
274,60,42033,2,0,B|319:45|346:82|346:82|377:118|425:100,1,150,10|0,0:0|0:0,0:0:0:0:
406,33,42354,5,10,0:0:0:0:
311,152,42514,1,10,0:0:0:0:
498,236,42674,2,0,B|468:229|446:251|446:251|422:198|343:194,1,150,6|0,2:0|0:0,0:0:0:0:
302,237,42995,1,8,0:0:0:0:
289,325,43156,2,0,P|350:297|409:288,1,100,0|2,0:0|2:0,0:0:0:0:
233,200,43477,2,0,P|188:177|140:165,2,100,2|10|2,2:0|0:0|0:0,0:0:0:0:
326,78,43958,2,0,P|370:55|418:43,1,100,2|0,2:0|0:0,0:0:0:0:
496,128,44279,69,8,0:0:0:0:
487,254,44439,1,0,0:0:0:0:
492,268,44519,1,0,0:0:0:0:
496,278,44600,2,0,P|451:255|403:243,1,100,2|0,2:0|2:0,0:0:0:0:
348,189,44920,2,0,P|303:211|255:223,1,100,8|0,0:0|0:0,0:0:0:0:
146,151,45241,2,0,B|121:120|143:85|143:85|146:111|166:142,1,100,2|0,2:0|0:0,0:0:0:0:
224,156,45562,5,8,0:0:0:0:
327,95,45723,1,2,0:0:0:0:
229,73,45883,2,0,P|284:98|358:90,1,100,2|0,2:0|2:0,0:0:0:0:
152,254,46204,2,0,P|207:229|281:237,2,100,8|2|2,0:0|0:0|2:0,0:0:0:0:
136,335,46685,1,0,0:0:0:0:
64,184,46846,2,0,P|62:233|78:280,1,100,8|0,0:0|0:0,0:0:0:0:
299,370,47166,2,0,P|314:322|313:273,1,100,0|0,2:0|0:0,0:0:0:0:
226,156,47487,1,8,0:0:0:0:
153,195,47648,1,0,0:0:0:0:
380,228,47808,5,8,0:0:0:0:
358,86,47969,1,8,0:0:0:0:
358,86,48049,1,8,0:0:0:0:
358,86,48129,1,8,0:0:0:0:
487,15,48289,1,8,0:0:0:0:
491,185,48450,6,0,P|447:160|399:150,2,100,2|2|10,2:0|0:0|0:0,0:0:0:0:
424,50,48931,1,2,0:0:0:0:
329,169,49092,2,0,P|285:193|237:203,1,100,2|0,2:0|0:0,0:0:0:0:
145,289,49412,2,0,P|193:298|236:323,1,100,8|0,0:0|0:0,0:0:0:0:
310,373,49653,69,0,0:0:0:0:
310,373,49733,2,0,P|333:324|390:363,1,100,2|0,2:0|2:0,0:0:0:0:
491,281,50054,2,0,P|468:232|411:271,1,100,8|0,0:0|2:0,0:0:0:0:
457,373,50375,1,6,2:0:0:0:
354,244,50535,1,2,2:0:0:0:
485,143,50696,2,0,P|435:135|387:122,1,100,10|2,0:0|2:0,0:0:0:0:
234,51,51017,5,2,2:0:0:0:
311,18,51177,1,2,2:0:0:0:
310,184,51338,1,10,0:0:0:0:
224,132,51498,69,2,2:0:0:0:
379,47,51658,2,0,B|440:48|387:104|492:100,1,100,2|10,2:0|0:0,0:0:0:0:
484,23,51979,1,10,0:0:0:0:
362,126,52140,5,2,2:0:0:0:
362,126,52220,1,0,2:0:0:0:
362,126,52300,2,0,L|411:117,1,50,10|0,0:0|0:0,0:0:0:0:
468,277,52461,2,0,L|418:268,1,50,10|0,0:0|0:0,0:0:0:0:
329,55,52621,2,0,L|378:46,1,50,10|0,0:0|0:0,0:0:0:0:
481,207,52782,2,0,L|431:198,1,50,10|0,0:0|0:0,0:0:0:0:
306,177,52942,70,0,P|247:192|244:252,1,100,2|0,2:0|0:0,0:0:0:0:
168,295,53263,2,0,P|227:310|230:370,1,100,2|0,2:0|0:0,0:0:0:0:
297,272,53584,1,6,2:0:0:0:
167,222,53744,1,2,0:0:0:0:
234,96,53904,2,0,P|166:116|112:121,1,100,10|0,0:0|0:0,0:0:0:0:
49,108,54145,5,0,0:0:0:0:
49,108,54225,2,0,P|76:81|91:20,1,100,2|0,2:0|0:0,0:0:0:0:
235,241,54546,2,0,P|208:214|193:153,1,100,10|2,0:0|0:0,0:0:0:0:
312,54,54867,1,2,2:0:0:0:
241,26,55027,1,2,2:0:0:0:
277,152,55188,6,0,P|341:129|395:127,1,100,10|0,0:0|0:0,0:0:0:0:
267,292,55509,2,0,P|203:269|149:267,1,100,2|0,2:0|0:0,0:0:0:0:
30,250,55830,2,0,B|47:273|42:318|42:318|64:231|127:195,1,200,10|2,0:0|2:0,0:0:0:0:
63,140,56311,1,2,2:0:0:0:
182,151,56471,2,0,P|135:121|148:69,1,100,8|2,0:0|0:0,0:0:0:0:
226,35,56792,6,0,B|284:53|272:-3|345:24,1,100,2|2,2:0|0:0,0:0:0:0:
325,96,57113,2,0,P|312:127|322:94,1,100,10|0,2:0|2:0,0:0:0:0:
396,55,57354,1,0,2:0:0:0:
408,57,57434,1,10,0:0:0:0:
362,199,57594,1,2,2:0:0:0:
503,142,57755,2,0,P|457:132|438:174,1,100,14|0,0:0|0:0,0:0:0:0:
495,310,58076,6,0,P|421:275|373:270,1,100,6|0,2:0|0:0,0:0:0:0:
270,238,58396,2,0,P|318:224|361:199,2,100,10|2|2,0:0|0:0|2:0,0:0:0:0:
332,326,58878,1,2,0:0:0:0:
175,299,59038,2,0,P|197:237|197:188,1,100,10|0,0:0|0:0,0:0:0:0:
249,64,59359,2,0,P|253:113|272:159,1,100,2|0,2:0|2:0,0:0:0:0:
427,100,59680,2,0,L|322:78,1,100,10|0,0:0|0:0,0:0:0:0:
270,238,60001,2,0,L|375:216,1,100,2|0,2:0|0:0,0:0:0:0:
460,208,60321,5,10,0:0:0:0:
498,272,60482,1,2,0:0:0:0:
360,355,60642,2,0,L|369:301,1,50,2|0,2:0|0:0,0:0:0:0:
368,305,61124,6,0,L|359:354,1,50,2|0,2:0|0:0,0:0:0:0:
389,213,61284,2,0,L|397:163,1,50,2|0,2:0|0:0,0:0:0:0:
179,118,61765,6,0,L|187:167,1,50,2|0,2:0|0:0,0:0:0:0:
214,340,61925,2,0,L|197:231,1,100,2|0,2:0|0:0,0:0:0:0:
259,42,62247,2,0,P|183:35|135:-2,2,100,8|2|2,0:0|0:0|2:0,0:0:0:0:
259,196,62888,2,0,P|312:160|354:157,1,100,10|0,0:0|0:0,0:0:0:0:
406,228,63209,2,0,P|421:259|400:231,1,100,2|0,2:0|0:0,0:0:0:0:
464,113,63530,2,0,P|415:104|376:73,2,100,8|2|2,0:0|0:0|2:0,0:0:0:0:
259,39,64172,1,10,0:0:0:0:
309,306,64493,6,0,B|260:293|260:293|257:294|257:294|210:280,1,100,6|0,2:0|0:0,0:0:0:0:
159,352,64813,2,0,B|110:365|110:365|107:364|107:364|60:378,2,100,10|2|2,0:0|2:0|2:0,0:0:0:0:
76,248,65295,1,2,0:0:0:0:
200,204,65455,2,0,P|181:165|126:156,1,100,10|2,0:0|0:0,0:0:0:0:
6,138,65776,2,0,P|53:131|77:88,1,100,2|2,2:0|0:0,0:0:0:0:
65,18,66097,1,10,0:0:0:0:
0,0,66257,1,2,2:0:0:0:
152,81,66418,2,0,P|195:57|244:49,1,100,2|0,2:0|0:0,0:0:0:0:
348,168,66739,2,0,P|296:164|255:136,1,100,8|0,0:0|0:0,0:0:0:0:
338,79,67059,6,0,P|352:68|334:79,1,100,2|0,2:0|0:0,0:0:0:0:
441,118,67380,1,8,0:0:0:0:
460,46,67541,1,2,0:0:0:0:
410,245,67701,2,0,P|452:208|506:217,1,100,2|0,2:0|0:0,0:0:0:0:
429,323,68022,2,0,P|380:322|345:288,1,100,10|0,0:0|0:0,0:0:0:0:
316,210,68343,2,0,P|311:191|319:212,1,100,2|0,2:0|0:0,0:0:0:0:
231,145,68664,1,8,0:0:0:0:
212,73,68825,1,2,0:0:0:0:
262,272,68985,2,0,P|220:235|166:244,1,100,2|0,2:0|0:0,0:0:0:0:
112,350,69306,2,0,P|161:349|196:315,1,100,10|0,0:0|0:0,0:0:0:0:
75,178,69626,6,0,P|97:224|110:276,2,100,6|2|8,2:0|0:0|0:0,0:0:0:0:
12,134,70108,1,2,0:0:0:0:
132,94,70268,1,2,2:0:0:0:
59,73,70428,1,2,2:0:0:0:
153,167,70589,2,0,B|220:148|220:148|238:157|262:161,1,100,10|0,0:0|0:0,0:0:0:0:
297,227,70910,2,0,P|276:253|294:226,1,100,2|2,2:0|2:0,0:0:0:0:
325,145,71150,1,0,2:0:0:0:
325,145,71231,2,0,B|337:166|337:166|406:196,1,100,10|2,0:0|2:0,0:0:0:0:
491,130,71551,2,0,B|490:107|462:91|462:91|445:122|464:150,1,100,2|0,2:0|2:0,0:0:0:0:
506,252,71872,2,0,P|453:267|394:314,1,100,8|0,0:0|2:0,0:0:0:0:
329,186,72193,6,0,B|327:245|405:268|490:181|369:65|305:98|331:250|269:273|145:167|254:92|279:133,1,359.999989013672,6|10,2:0|0:0,0:0:0:0:
285,265,73477,2,0,B|214:274|177:215|177:215|191:283|138:337|138:337|188:366|233:344,1,359.999989013672,2|10,0:0|0:0,0:0:0:0:
448,95,74760,6,0,P|379:77|315:75,1,100,6|2,2:0|0:0,0:0:0:0:
192,45,75081,2,0,P|241:38|289:24,1,100,10|0,0:0|0:0,0:0:0:0:
276,112,75402,1,2,2:0:0:0:
255,183,75562,1,2,0:0:0:0:
134,101,75723,1,10,0:0:0:0:
113,30,75883,1,2,0:0:0:0:
163,193,76043,6,0,P|105:170|55:163,1,100,2|2,2:0|0:0,0:0:0:0:
218,280,76364,2,0,P|276:257|326:250,1,100,10|2,0:0|2:0,0:0:0:0:
386,305,76605,1,0,2:0:0:0:
386,305,76685,2,0,P|376:338|383:305,1,100,2|0,2:0|2:0,0:0:0:0:
388,228,77006,2,0,B|379:168|424:194|419:111,1,100,8|0,0:0|2:0,0:0:0:0:
342,57,77327,6,0,B|291:64|291:64|285:62|285:62|228:71,1,100,2|2,2:0|0:0,0:0:0:0:
334,133,77648,1,8,0:0:0:0:
274,173,77808,1,2,0:0:0:0:
158,81,77969,2,0,B|192:106|196:135|196:135|184:154|185:177,1,100,2|0,2:0|0:0,0:0:0:0:
228,250,78289,6,0,P|179:259|136:284,2,100,10|2|2,0:0|0:0|2:0,0:0:0:0:
330,321,78771,1,2,0:0:0:0:
315,242,78931,1,10,0:0:0:0:
431,214,79092,6,0,P|448:186|447:155,1,50,2|0,0:0|0:0,0:0:0:0:
374,167,79252,2,0,P|397:221|402:281,1,100,2|0,2:0|2:0,0:0:0:0:
484,375,79573,2,0,P|491:325|512:280,1,100,10|0,0:0|2:0,0:0:0:0:
444,74,79894,5,6,2:0:0:0:
307,111,80054,1,10,0:0:0:0:
350,3,80215,1,10,0:0:0:0:
367,70,80375,1,2,2:0:0:0:
331,173,80535,2,0,P|272:139|211:134,1,100,2|10,2:0|0:0,0:0:0:0:
181,185,80776,1,8,0:0:0:0:
181,185,80856,2,0,P|167:187|183:185,1,100,10|2,0:0|2:0,0:0:0:0:
146,10,81177,2,0,L|170:114,1,100,10|0,0:0|0:0,0:0:0:0:
3,335,81819,2,0,B|21:266|135:309|70:356|128:392|177:369,1,200,2|0,0:0|0:0,0:0:0:0:
460,319,92728,6,0,B|481:270|454:219,1,100,6|0,2:0|0:0,0:0:0:0:
399,63,93049,2,0,B|376:108|408:159,1,100,10|0,0:0|0:0,0:0:0:0:
503,88,93370,1,2,2:0:0:0:
482,157,93530,1,2,0:0:0:0:
278,217,93690,2,0,L|377:237,1,100,10|0,0:0|0:0,0:0:0:0:
325,55,94011,5,2,2:0:0:0:
254,70,94171,1,2,0:0:0:0:
191,307,94331,2,0,L|171:208,1,100,10|0,0:0|0:0,0:0:0:0:
381,242,94653,2,0,L|361:340,1,100,2|0,2:0|0:0,0:0:0:0:
152,139,94974,2,0,P|177:87|234:76,1,100,10|0,0:0|0:0,0:0:0:0:
322,182,95295,6,0,P|256:155|205:149,1,100,2|0,2:0|0:0,0:0:0:0:
253,249,95616,2,0,P|279:268|258:247,1,100,10|0,0:0|0:0,0:0:0:0:
182,42,95936,2,0,P|140:66|74:57,2,100,2|2|10,2:0|0:0|0:0,0:0:0:0:
261,0,96418,1,2,2:0:0:0:
335,118,96578,2,0,P|312:90|242:80,1,100,2|0,2:0|0:0,0:0:0:0:
266,155,96899,2,0,P|280:181|297:251,1,100,10|0,0:0|0:0,0:0:0:0:
189,337,97220,2,0,B|163:312|166:284|166:284|184:260|215:262|215:262|238:282|237:312|237:312|217:337|185:333,2,200,2|10|6,2:0|0:0|2:0,0:0:0:0:
37,248,98022,5,2,0:0:0:0:
64,379,98182,2,0,B|88:360|88:360|99:268,1,100,10|2,0:0|0:0,0:0:0:0:
180,37,98503,1,2,2:0:0:0:
312,105,98664,1,2,0:0:0:0:
124,150,98824,2,0,P|180:133|230:128,1,100,10|0,0:0|0:0,0:0:0:0:
426,324,99145,5,2,2:0:0:0:
322,269,99305,1,2,2:0:0:0:
480,210,99465,2,0,B|504:191|504:191|515:99,1,100,10|2,0:0|0:0,0:0:0:0:
332,37,99787,1,2,2:0:0:0:
256,60,99948,1,2,0:0:0:0:
388,150,100108,2,0,B|311:136|311:136|277:151,1,100,10|2,0:0|0:0,0:0:0:0:
242,225,100428,6,0,P|259:253|244:223,1,100,6|2,2:0|0:0,0:0:0:0:
212,130,100749,2,0,P|146:115|86:88,1,100,10|0,0:0|0:0,0:0:0:0:
256,60,101070,2,0,P|302:43|351:33,1,100,2|0,2:0|2:0,0:0:0:0:
437,79,101311,1,0,2:0:0:0:
437,79,101391,2,0,B|452:142|405:121|417:184,1,100,10|2,0:0|2:0,0:0:0:0:
432,293,101712,2,0,P|386:252|353:266,1,100,2|0,0:0|0:0,0:0:0:0:
268,332,102033,6,0,B|283:351|290:377|290:377|289:348|301:320,1,100,4|0,2:0|0:0,0:0:0:0:
167,229,102354,2,0,B|170:252|163:278|163:278|177:253|201:235,1,100,6|8,2:0|0:0,0:0:0:0:
144,71,102674,2,0,B|135:93|116:112|116:112|140:97|170:93,1,100,14|0,0:0|2:0,0:0:0:0:
344,131,102995,2,0,L|241:110,1,100,2|0,2:0|0:0,0:0:0:0:
80,38,103316,2,0,P|124:-1|197:19,1,115.000002193451,14|0,0:0|0:0,0:0:0:0:
278,163,103637,5,2,2:0:0:0:
242,102,103797,1,2,2:0:0:0:
450,15,103958,2,0,P|430:56|413:137,1,115.000002193451,10|0,0:0|0:0,0:0:0:0:
426,246,104279,2,0,P|448:264|427:238,1,115.000002193451,2|2,2:0|0:0,0:0:0:0:
403,336,104600,2,0,P|339:306|263:295,1,115.000002193451,10|0,0:0|0:0,0:0:0:0:
159,375,104920,5,2,2:0:0:0:
187,307,105081,1,0,2:0:0:0:
56,231,105241,2,0,P|120:201|189:192,1,115.000002193451,10|0,0:0|0:0,0:0:0:0:
233,121,105562,2,0,P|183:97|114:88,1,115.000002193451,2|0,2:0|0:0,0:0:0:0:
211,26,105883,1,8,0:0:0:0:
119,88,106043,1,2,0:0:0:0:
296,197,106204,2,0,P|314:144|321:62,1,115.000002193451,2|2,2:0|2:0,0:0:0:0:
415,10,106525,2,0,P|421:59|442:129,1,115.000002193451,10|0,0:0|0:0,0:0:0:0:
483,220,106846,2,0,P|513:195|480:215,1,115.000002193451,2|0,2:0|0:0,0:0:0:0:
483,383,107166,6,0,P|442:351|371:336,1,115.000002193451,14|0,0:0|0:0,0:0:0:0:
221,305,107487,2,0,P|277:295|335:260,1,115.000002193451,2|0,2:0|2:0,0:0:0:0:
338,66,107808,2,0,L|356:186,1,115.000002193451,14|0,0:0|0:0,0:0:0:0:
512,277,108129,2,0,P|454:272|396:243,1,115.000002193451,6|2,2:0|0:0,0:0:0:0:
432,112,108450,2,0,P|469:105|433:118,1,115.000002193451,8|2,0:0|0:0,0:0:0:0:
246,24,108771,5,2,2:0:0:0:
222,95,108931,1,2,2:0:0:0:
79,80,109092,2,0,P|108:41|179:41,1,115.000002193451,10|2,0:0|0:0,0:0:0:0:
302,166,109412,2,0,P|270:231|257:308,2,115.000002193451,2|2|10,2:0|2:0|0:0,0:0:0:0:
206,161,109894,1,2,0:0:0:0:
155,343,110054,2,0,P|139:295|103:224,1,115.000002193451,2|0,2:0|0:0,0:0:0:0:
58,126,110375,2,0,B|54:144|17:172|17:172|63:145|126:146,1,172.500003290176,8|0,0:0|0:0,0:0:0:0:
211,179,110696,5,2,2:0:0:0:
216,198,110856,1,2,2:0:0:0:
299,168,111017,1,10,0:0:0:0:
281,240,111177,1,2,2:0:0:0:
440,250,111338,5,2,2:0:0:0:
445,231,111498,1,2,2:0:0:0:
356,217,111659,1,10,0:0:0:0:
374,289,111819,1,2,2:0:0:0:
509,380,111979,6,0,P|460:356|401:355,1,115.000002193451,6|10,2:0|0:0,0:0:0:0:
300,273,112300,2,0,P|251:300|186:299,1,115.000002193451,10|8,0:0|0:0,0:0:0:0:
118,253,112541,1,8,0:0:0:0:
118,253,112621,2,0,P|95:227|123:250,1,115.000002193451,10|10,0:0|0:0,0:0:0:0:
61,384,112942,1,10,0:0:0:0:
124,335,113102,1,10,0:0:0:0:
40,179,113263,2,0,P|95:147|168:158,1,100,6|0,2:0|0:0,0:0:0:0:
204,229,113584,1,8,0:0:0:0:
246,125,113744,5,0,0:0:0:0:
238,131,113824,1,2,0:0:0:0:
231,136,113904,2,0,P|185:91|215:45,1,100,2|2,2:0|0:0,0:0:0:0:
356,26,114225,2,0,P|301:17|224:-6,1,100,10|2,0:0|0:0,0:0:0:0:
337,118,114546,2,0,P|385:105|434:98,1,100,2|0,2:0|0:0,0:0:0:0:
478,177,114867,1,8,0:0:0:0:
391,316,115027,5,0,0:0:0:0:
387,308,115108,1,0,0:0:0:0:
383,301,115188,2,0,B|365:251|413:254|393:192,1,100,2|0,2:0|2:0,0:0:0:0:
307,192,115509,2,0,P|293:224|311:194,1,100,8|0,0:0|0:0,0:0:0:0:
250,109,115830,1,2,2:0:0:0:
182,90,115990,1,0,0:0:0:0:
115,196,116150,2,0,L|212:171,1,100,8|2,0:0|0:0,0:0:0:0:
311,293,116471,6,0,P|266:291|223:251,1,100,2|0,2:0|2:0,0:0:0:0:
306,193,116712,1,0,0:0:0:0:
306,193,116792,2,0,P|313:144|341:83,1,100,8|2,0:0|0:0,0:0:0:0:
458,28,117113,2,0,P|477:74|485:124,1,100,2|0,2:0|0:0,0:0:0:0:
379,236,117434,1,8,0:0:0:0:
488,326,117594,2,0,L|366:306,2,100,0|0|0,0:0|2:0|0:0,0:0:0:0:
442,184,118076,5,8,0:0:0:0:
469,251,118236,1,0,2:0:0:0:
356,371,118396,2,0,P|278:334|228:329,1,100,2|0,2:0|0:0,0:0:0:0:
193,369,118717,1,8,0:0:0:0:
158,242,118878,5,2,2:0:0:0:
161,255,118958,1,2,2:0:0:0:
164,266,119038,1,2,2:0:0:0:
111,331,119199,1,2,0:0:0:0:
43,198,119359,1,10,0:0:0:0:
116,179,119519,1,2,0:0:0:0:
240,260,119680,2,0,P|253:212|276:158,1,100,2|0,2:0|0:0,0:0:0:0:
156,57,120001,2,0,P|175:103|188:151,1,100,8|0,0:0|0:0,0:0:0:0:
251,92,120241,5,0,0:0:0:0:
251,92,120321,2,0,B|347:68|300:138|411:109,1,150,2|0,2:0|0:0,0:0:0:0:
389,25,120642,2,0,P|357:39|389:29,1,100,8|0,0:0|0:0,0:0:0:0:
512,0,120963,2,0,L|495:112,1,100,6|2,2:0|0:0,0:0:0:0:
411,180,121284,5,10,0:0:0:0:
350,133,121444,1,2,2:0:0:0:
487,170,121605,2,0,L|471:268,1,100,2|2,2:0|0:0,0:0:0:0:
335,289,121926,1,10,0:0:0:0:
396,336,122086,1,2,0:0:0:0:
295,384,122247,2,0,P|229:359|159:348,1,100,6|10,2:0|0:0,0:0:0:0:
94,362,122487,5,8,0:0:0:0:
94,362,122567,2,0,P|123:382|96:360,1,100,10|2,0:0|2:0,0:0:0:0:
63,273,122888,2,0,B|70:204|104:252|101:161,1,100,14|2,0:0|2:0,0:0:0:0:
150,282,123209,1,2,2:0:0:0:
41,144,123370,2,0,P|87:108|141:120,2,100,14|6|2,0:0|2:0|0:0,0:0:0:0:
178,210,123851,2,0,L|286:232,1,100,10|2,0:0|2:0,0:0:0:0:
304,94,124172,5,2,2:0:0:0:
243,150,124332,1,2,2:0:0:0:
390,220,124493,2,0,P|366:164|317:193,2,100,10|2|2,0:0|0:0|2:0,0:0:0:0:
304,309,124974,1,2,0:0:0:0:
299,317,125054,1,0,0:0:0:0:
294,325,125134,2,0,P|365:310|431:312,1,100,10|0,0:0|0:0,0:0:0:0:
512,343,125455,5,2,2:0:0:0:
453,267,125616,1,0,2:0:0:0:
506,187,125776,2,0,P|499:142|447:147,1,100,8|0,0:0|2:0,0:0:0:0:
363,94,126097,2,0,P|325:148|281:142,1,100,2|0,2:0|0:0,0:0:0:0:
229,96,126418,2,0,B|240:49|240:49|238:46|238:46|248:-2,2,100,10|2|2,0:0|0:0|2:0,0:0:0:0:
179,166,126899,1,2,2:0:0:0:
104,180,127059,2,0,L|1:192,1,100,8|2,0:0|0:0,0:0:0:0:
133,106,127380,5,2,2:0:0:0:
36,79,127541,1,2,0:0:0:0:
103,40,127701,1,10,0:0:0:0:
0,153,127862,2,0,B|-19:227|38:191|13:278,1,100,2|2,0:0|2:0,0:0:0:0:
0,366,128182,5,2,0:0:0:0:
0,366,128263,1,0,0:0:0:0:
0,366,128343,2,0,P|49:332|101:337,1,100,2|2,2:0|0:0,0:0:0:0:
198,364,128664,1,6,2:0:0:0:
185,291,128824,1,2,0:0:0:0:
295,244,128985,2,0,P|229:229|180:206,1,100,10|0,0:0|0:0,0:0:0:0:
383,128,129305,5,2,2:0:0:0:
369,201,129465,1,2,0:0:0:0:
273,81,129626,2,0,P|339:66|388:43,2,100,10|2|2,0:0|2:0|2:0,0:0:0:0:
434,248,130268,5,10,0:0:0:0:
160,152,130589,1,2,2:0:0:0:
188,80,130749,1,0,2:0:0:0:
295,181,130910,2,0,P|237:210|166:211,1,100,8|2,0:0|0:0,0:0:0:0:
63,193,131231,5,6,2:0:0:0:
35,127,131391,1,0,2:0:0:0:
35,259,131551,2,0,P|93:222|146:226,1,100,8|2,0:0|2:0,0:0:0:0:
191,314,131872,1,2,2:0:0:0:
219,248,132032,1,0,2:0:0:0:
219,380,132192,2,0,P|161:343|108:347,1,100,8|2,0:0|2:0,0:0:0:0:
269,308,132514,5,2,2:0:0:0:
338,339,132674,1,0,2:0:0:0:
413,230,132835,2,0,P|370:224|326:266,1,100,8|2,0:0|2:0,0:0:0:0:
304,178,133156,1,2,2:0:0:0:
227,152,133316,1,0,2:0:0:0:
160,256,133477,2,0,P|202:261|247:220,1,100,12|2,0:0|2:0,0:0:0:0:
205,79,133797,6,0,B|137:103|137:103|121:103|108:94,2,100,6|0|8,2:0|2:0|0:0,0:0:0:0:
136,29,134279,1,2,2:0:0:0:
55,183,134439,2,0,P|42:134|25:87,1,100,2|0,2:0|2:0,0:0:0:0:
158,172,134760,2,0,P|140:218|128:267,1,100,8|2,0:0|2:0,0:0:0:0:
287,348,135081,5,6,2:0:0:0:
190,307,135241,1,8,0:0:0:0:
345,188,135402,1,8,0:0:0:0:
223,236,135562,1,2,2:0:0:0:
388,269,135723,5,10,0:0:0:0:
414,260,135803,1,8,0:0:0:0:
434,255,135883,1,8,0:0:0:0:
481,384,136044,5,8,0:0:0:0:
397,355,136204,1,10,0:0:0:0:
307,369,136364,2,0,B|327:344|326:314|326:314|307:283|316:246,1,100,2|0,0:0|0:0,0:0:0:0:
