osu file format v14

[General]
AudioFilename: audioRB.mp3
AudioLeadIn: 0
PreviewTime: 3787
Countdown: 0
SampleSet: Soft
StackLeniency: 0.7
Mode: 3
LetterboxInBreaks: 0
SpecialStyle: 0
WidescreenStoryboard: 1

[Editor]
Bookmarks: 3787,17120,30454,43787,57120,70454,83787,97120,110454,123787,137120,150454,163787,177120
DistanceSpacing: 0.6
BeatDivisor: 4
GridSize: 8
TimelineZoom: 1.4

[Metadata]
Title:Rainy Boots
TitleUnicode:レイニーブーツ
Artist:inabakumori
ArtistUnicode:稲葉曇
Creator:Ballistic
Version:Hard
Source:
Tags:Weather Station ウェザーステーション Kaai Yuki 歌愛ユキ MichouP 視長P 因幡プカリ Pukari きゐな kiwina Inaba Cumori ぬくぬくにぎりめし nukunukunigirimeshi Vocaloid Japanese Rock JRock J-Rock FAMoss
BeatmapID:3388431
BeatmapSetID:1566347

[Difficulty]
HPDrainRate:8
CircleSize:4
OverallDifficulty:7
ApproachRate:5
SliderMultiplier:1.4
SliderTickRate:1

[Events]
//Background and Video events
0,0,"background22.png",0,0
//Break Periods
//Storyboard Layer 0 (Background)
//Storyboard Layer 1 (Fail)
//Storyboard Layer 2 (Pass)
//Storyboard Layer 3 (Foreground)
//Storyboard Layer 4 (Overlay)
//Storyboard Sound Samples
Sample,66222,0,"ride00.wav",70
Sample,132889,0,"ride00.wav",70

[TimingPoints]
394,416.666666666667,4,2,1,50,1,0
3727,-100,4,2,1,50,0,1
17060,-100,4,2,1,50,0,0
70394,-100,4,2,1,50,0,1
83519,-100,4,2,1,50,0,0
137060,-100,4,2,1,50,0,1
150394,-100,4,2,1,50,0,0

[HitObjects]
64,192,394,5,2,0:0:0:0:
192,192,394,1,4,0:0:0:0:
320,192,498,1,8,0:0:0:0:
64,192,602,1,8,0:0:0:0:
320,192,706,1,8,0:0:0:0:
192,192,810,1,10,0:0:0:0:
448,192,914,1,8,0:0:0:0:
192,192,1019,1,8,0:0:0:0:
448,192,1123,1,8,0:0:0:0:
64,192,1227,1,10,0:0:0:0:
320,192,1331,1,8,0:0:0:0:
64,192,1435,1,8,0:0:0:0:
320,192,1539,1,8,0:0:0:0:
192,192,1644,1,10,0:0:0:0:
448,192,1748,1,8,0:0:0:0:
192,192,1852,1,8,0:0:0:0:
448,192,1956,1,8,0:0:0:0:
64,192,2060,1,10,0:0:0:0:
192,192,2164,1,8,0:0:0:0:
320,192,2269,1,8,0:0:0:0:
64,192,2373,1,8,0:0:0:0:
448,192,2477,1,10,0:0:0:0:
320,192,2581,1,8,0:0:0:0:
192,192,2685,1,8,0:0:0:0:
448,192,2789,1,8,0:0:0:0:
192,192,2894,1,0,0:0:0:0:
64,192,2894,1,2,0:0:0:0:
320,192,3206,1,2,0:0:0:0:
192,192,3310,1,0,0:0:0:0:
64,192,3310,1,2,0:0:0:0:
448,192,3519,1,0,0:0:0:0:
320,192,3519,1,2,0:0:0:0:
448,192,3727,128,4,4144:0:0:0:0:
64,192,3727,1,2,0:0:0:0:
192,192,3935,1,0,0:0:0:0:
320,192,4039,1,0,0:0:0:0:
192,192,4144,128,2,4560:0:0:0:0:
64,192,4144,1,8,0:0:0:0:
448,192,4352,1,0,0:0:0:0:
320,192,4560,128,2,4769:0:0:0:0:
64,192,4769,1,0,0:0:0:0:
192,192,4873,1,0,0:0:0:0:
448,192,4977,128,2,5394:0:0:0:0:
320,192,4977,128,8,5185:0:0:0:0:
64,192,5185,128,0,5394:0:0:0:0:
320,192,5394,128,2,5602:0:0:0:0:
192,192,5602,128,0,5810:0:0:0:0:
448,192,5706,1,0,0:0:0:0:
320,192,5810,1,2,0:0:0:0:
64,192,5810,128,8,5914:0:0:0:0:
448,192,6019,128,0,6123:0:0:0:0:
448,192,6227,128,2,6539:0:0:0:0:
64,192,6435,1,0,0:0:0:0:
192,192,6539,1,0,0:0:0:0:
448,192,6644,128,2,6852:0:0:0:0:
320,192,6644,128,8,7060:0:0:0:0:
64,192,6852,128,0,7060:0:0:0:0:
192,192,7060,128,2,7269:0:0:0:0:
448,192,7269,1,0,0:0:0:0:
320,192,7373,1,0,0:0:0:0:
192,192,7477,1,8,0:0:0:0:
64,192,7477,128,2,7685:0:0:0:0:
320,192,7685,1,0,0:0:0:0:
192,192,7789,1,0,0:0:0:0:
320,192,7894,128,2,8102:0:0:0:0:
192,192,8102,128,0,8310:0:0:0:0:
448,192,8206,1,0,0:0:0:0:
320,192,8310,1,8,0:0:0:0:
64,192,8310,128,2,8519:0:0:0:0:
192,192,8519,1,0,0:0:0:0:
320,192,8623,1,0,0:0:0:0:
192,192,8727,128,2,8935:0:0:0:0:
320,192,8935,128,0,9144:0:0:0:0:
64,192,9039,1,0,0:0:0:0:
448,192,9144,128,8,9352:0:0:0:0:
192,192,9144,1,2,0:0:0:0:
320,192,9352,1,0,0:0:0:0:
64,192,9456,1,0,0:0:0:0:
448,192,9560,128,2,9769:0:0:0:0:
320,192,9769,128,0,9977:0:0:0:0:
64,192,9873,1,0,0:0:0:0:
448,192,9977,1,8,0:0:0:0:
192,192,9977,128,2,10081:0:0:0:0:
320,192,10185,1,0,0:0:0:0:
192,192,10185,128,8,10394:0:0:0:0:
448,192,10394,128,2,10810:0:0:0:0:
64,192,10394,1,4,0:0:0:0:
192,192,10602,1,0,0:0:0:0:
320,192,10706,1,0,0:0:0:0:
192,192,10810,128,8,11227:0:0:0:0:
64,192,10810,1,2,0:0:0:0:
448,192,11019,1,0,0:0:0:0:
320,192,11227,128,2,11435:0:0:0:0:
64,192,11435,1,0,0:0:0:0:
192,192,11539,1,0,0:0:0:0:
448,192,11644,128,8,12060:0:0:0:0:
320,192,11644,128,2,11852:0:0:0:0:
64,192,11852,128,0,12060:0:0:0:0:
320,192,12060,128,2,12269:0:0:0:0:
192,192,12269,128,0,12477:0:0:0:0:
448,192,12373,1,0,0:0:0:0:
320,192,12477,1,8,0:0:0:0:
64,192,12477,128,2,12581:0:0:0:0:
448,192,12685,128,0,12894:0:0:0:0:
192,192,12894,128,2,13206:0:0:0:0:
448,192,13102,1,0,0:0:0:0:
320,192,13206,1,0,0:0:0:0:
192,192,13310,128,8,13519:0:0:0:0:
64,192,13310,128,2,13727:0:0:0:0:
448,192,13519,128,0,13727:0:0:0:0:
320,192,13727,128,2,13935:0:0:0:0:
64,192,13935,1,0,0:0:0:0:
192,192,14039,1,0,0:0:0:0:
448,192,14144,128,2,14352:0:0:0:0:
320,192,14144,1,8,0:0:0:0:
192,192,14352,1,0,0:0:0:0:
320,192,14456,1,0,0:0:0:0:
192,192,14560,128,2,14769:0:0:0:0:
320,192,14769,128,0,14977:0:0:0:0:
64,192,14873,1,0,0:0:0:0:
448,192,14977,1,2,0:0:0:0:
192,192,14977,128,8,15185:0:0:0:0:
320,192,15185,1,0,0:0:0:0:
64,192,15289,1,0,0:0:0:0:
448,192,15394,128,2,15602:0:0:0:0:
320,192,15602,128,0,15810:0:0:0:0:
64,192,15706,1,0,0:0:0:0:
448,192,15810,1,8,0:0:0:0:
192,192,15810,128,2,16019:0:0:0:0:
64,192,16019,1,0,0:0:0:0:
320,192,16123,1,8,0:0:0:0:
192,192,16227,1,0,0:0:0:0:
64,192,16227,128,2,16435:0:0:0:0:
448,192,16435,1,0,0:0:0:0:
320,192,16435,128,2,16644:0:0:0:0:
192,192,16644,128,0,17060:0:0:0:0:
64,192,16644,1,2,0:0:0:0:
448,192,17060,128,4,17269:0:0:0:0:
64,192,17060,1,2,0:0:0:0:
192,192,17269,128,0,17477:0:0:0:0:
448,192,17477,128,2,17685:0:0:0:0:
320,192,17477,128,8,17685:0:0:0:0:
64,192,17685,128,0,17894:0:0:0:0:
448,192,17894,128,0,18102:0:0:0:0:
192,192,17894,128,2,18102:0:0:0:0:
320,192,18102,128,0,18310:0:0:0:0:
448,192,18310,128,2,18519:0:0:0:0:
64,192,18310,128,8,18519:0:0:0:0:
192,192,18519,128,0,18727:0:0:0:0:
448,192,18727,1,0,0:0:0:0:
320,192,18727,1,2,0:0:0:0:
192,192,18831,1,0,0:0:0:0:
64,192,18935,128,0,19039:0:0:0:0:
320,192,19039,1,0,0:0:0:0:
448,192,19144,128,2,19352:0:0:0:0:
64,192,19144,128,8,19352:0:0:0:0:
320,192,19352,128,0,19560:0:0:0:0:
192,192,19560,128,0,19769:0:0:0:0:
64,192,19560,128,2,19769:0:0:0:0:
448,192,19769,128,0,19977:0:0:0:0:
320,192,19977,128,2,20185:0:0:0:0:
64,192,19977,128,8,20185:0:0:0:0:
448,192,20185,1,0,0:0:0:0:
320,192,20289,1,0,0:0:0:0:
192,192,20394,1,0,0:0:0:0:
64,192,20394,128,2,20602:0:0:0:0:
448,192,20602,128,0,20810:0:0:0:0:
320,192,20810,128,8,21019:0:0:0:0:
64,192,20810,1,2,0:0:0:0:
192,192,21019,128,0,21227:0:0:0:0:
448,192,21227,128,2,21435:0:0:0:0:
64,192,21435,128,0,21539:0:0:0:0:
192,192,21539,128,0,21644:0:0:0:0:
448,192,21644,128,8,21852:0:0:0:0:
320,192,21644,1,2,0:0:0:0:
64,192,21852,128,0,22060:0:0:0:0:
448,192,22060,128,0,22269:0:0:0:0:
320,192,22060,128,2,22269:0:0:0:0:
64,192,22269,128,0,22373:0:0:0:0:
448,192,22477,128,8,22685:0:0:0:0:
192,192,22477,128,2,22685:0:0:0:0:
64,192,22685,128,0,22789:0:0:0:0:
320,192,22894,128,0,23102:0:0:0:0:
192,192,22894,128,2,23102:0:0:0:0:
448,192,23102,128,0,23206:0:0:0:0:
192,192,23310,128,2,23727:0:0:0:0:
64,192,23310,128,8,23727:0:0:0:0:
448,192,23519,1,2,0:0:0:0:
448,192,23727,1,4,0:0:0:0:
320,192,23727,1,2,0:0:0:0:
320,192,23935,128,0,24144:0:0:0:0:
192,192,24144,128,2,24352:0:0:0:0:
64,192,24144,128,8,24352:0:0:0:0:
448,192,24352,128,0,24560:0:0:0:0:
320,192,24560,128,0,24769:0:0:0:0:
64,192,24560,128,2,24769:0:0:0:0:
192,192,24769,128,0,24977:0:0:0:0:
448,192,24977,128,2,25185:0:0:0:0:
64,192,24977,128,8,25185:0:0:0:0:
320,192,25185,128,0,25394:0:0:0:0:
192,192,25394,1,0,0:0:0:0:
64,192,25394,1,2,0:0:0:0:
320,192,25498,1,0,0:0:0:0:
448,192,25602,128,0,25706:0:0:0:0:
192,192,25706,1,0,0:0:0:0:
448,192,25810,128,2,26019:0:0:0:0:
64,192,25810,128,8,26019:0:0:0:0:
192,192,26019,128,0,26227:0:0:0:0:
448,192,26227,128,0,26435:0:0:0:0:
320,192,26227,128,2,26435:0:0:0:0:
64,192,26435,128,0,26644:0:0:0:0:
448,192,26644,128,2,26852:0:0:0:0:
192,192,26644,128,8,26852:0:0:0:0:
64,192,26852,1,0,0:0:0:0:
192,192,26956,1,0,0:0:0:0:
448,192,27060,128,0,27269:0:0:0:0:
320,192,27060,1,2,0:0:0:0:
64,192,27269,128,0,27477:0:0:0:0:
448,192,27477,1,8,0:0:0:0:
192,192,27477,128,2,27685:0:0:0:0:
320,192,27685,128,0,27894:0:0:0:0:
64,192,27894,128,2,28102:0:0:0:0:
448,192,28102,128,0,28206:0:0:0:0:
320,192,28206,128,0,28310:0:0:0:0:
192,192,28310,1,8,0:0:0:0:
64,192,28310,128,2,28519:0:0:0:0:
448,192,28519,128,0,28727:0:0:0:0:
192,192,28727,128,0,28935:0:0:0:0:
64,192,28727,128,2,28935:0:0:0:0:
448,192,28935,128,0,29039:0:0:0:0:
320,192,29144,128,8,29352:0:0:0:0:
64,192,29144,128,2,29352:0:0:0:0:
448,192,29352,128,0,29456:0:0:0:0:
320,192,29560,128,0,29769:0:0:0:70:ride00.wav
192,192,29560,128,2,29769:0:0:0:0:
64,192,29769,128,8,29873:0:0:0:0:
448,192,29977,128,0,30394:0:0:0:0:
320,192,29977,128,2,30394:0:0:0:0:
64,192,30185,1,2,0:0:0:0:
192,192,30394,1,2,0:0:0:0:
64,192,30394,1,4,0:0:0:0:
192,192,30602,128,0,30810:0:0:0:0:
448,192,30810,128,8,31019:0:0:0:0:
320,192,30810,128,2,31019:0:0:0:0:
64,192,31019,128,0,31227:0:0:0:0:
320,192,31227,128,2,31435:0:0:0:0:
192,192,31435,128,0,31644:0:0:0:0:
448,192,31644,128,8,31852:0:0:0:0:
64,192,31644,128,2,31852:0:0:0:0:
320,192,31852,128,0,32060:0:0:0:0:
64,192,32060,1,2,0:0:0:0:
192,192,32269,128,0,32685:0:0:0:0:
320,192,32477,128,8,32685:0:0:0:0:
64,192,32477,1,2,0:0:0:0:
448,192,32685,128,0,32894:0:0:0:0:
192,192,32894,128,2,33310:0:0:0:0:
448,192,33102,128,0,33310:0:0:0:0:
320,192,33310,128,8,33414:0:0:0:0:
64,192,33310,128,2,33519:0:0:0:0:
320,192,33519,128,0,33727:0:0:0:0:
192,192,33727,128,0,33935:0:0:0:0:
64,192,33727,128,2,33935:0:0:0:0:
448,192,33935,128,0,34144:0:0:0:0:
320,192,34144,128,2,34352:0:0:0:0:
64,192,34144,128,8,34352:0:0:0:0:
192,192,34456,1,0,0:0:0:0:
320,192,34560,128,2,34769:0:0:0:0:
192,192,34769,128,0,34977:0:0:0:0:
448,192,34977,128,2,35185:0:0:0:0:
64,192,34977,128,8,35185:0:0:0:0:
320,192,35185,128,0,35394:0:0:0:0:
192,192,35394,1,2,0:0:0:0:
448,192,35602,128,0,35810:0:0:0:0:
320,192,35810,1,2,0:0:0:0:
64,192,35810,1,8,0:0:0:0:
192,192,36019,128,0,36227:0:0:0:0:
448,192,36227,1,2,0:0:0:0:
320,192,36331,1,8,0:0:0:0:
192,192,36435,128,0,36644:0:0:0:0:
320,192,36644,128,8,36748:0:0:0:0:
64,192,36644,128,2,37060:0:0:0:0:
320,192,36852,128,0,37060:0:0:0:0:
448,192,37060,1,4,0:0:0:0:
192,192,37060,1,2,0:0:0:0:
64,192,37269,128,0,37477:0:0:0:0:
448,192,37477,128,2,37685:0:0:0:0:
192,192,37477,128,8,37685:0:0:0:0:
320,192,37685,128,0,37894:0:0:0:0:
64,192,37894,128,2,38102:0:0:0:0:
192,192,38102,128,0,38310:0:0:0:0:
448,192,38310,128,2,38519:0:0:0:0:
320,192,38310,128,8,38519:0:0:0:0:
64,192,38519,128,0,38727:0:0:0:0:
320,192,38727,1,2,0:0:0:0:
192,192,38935,128,0,39144:0:0:0:0:
448,192,39144,128,2,39352:0:0:0:0:
320,192,39144,128,8,39352:0:0:0:0:
64,192,39352,1,0,0:0:0:0:
192,192,39456,1,0,0:0:0:0:
320,192,39560,128,2,39769:0:0:0:0:
192,192,39769,128,0,39977:0:0:0:0:
448,192,39977,128,2,40185:0:0:0:0:
320,192,39977,128,8,40394:0:0:0:0:
64,192,40185,128,0,40394:0:0:0:0:
448,192,40394,128,0,40602:0:0:0:0:
192,192,40394,128,2,40602:0:0:0:0:
448,192,40810,128,8,41019:0:0:0:0:
64,192,40810,128,2,41019:0:0:0:0:
192,192,41019,1,0,0:0:0:0:
320,192,41123,1,0,0:0:0:0:
448,192,41227,1,2,0:0:0:0:
192,192,41435,128,0,41644:0:0:0:0:
64,192,41435,128,0,41644:0:0:0:0:
448,192,41644,1,8,0:0:0:0:
320,192,41644,1,2,0:0:0:0:
192,192,41852,1,0,0:0:0:0:
320,192,41956,1,0,0:0:0:0:
192,192,42060,128,0,42269:0:0:0:0:
64,192,42060,128,2,42269:0:0:0:0:
448,192,42269,1,0,0:0:0:0:
320,192,42373,1,0,0:0:0:0:
448,192,42477,128,8,42685:0:0:0:0:
64,192,42477,128,2,42685:0:0:0:0:
192,192,42685,128,0,42894:0:0:0:0:
448,192,42894,128,0,43102:0:0:0:70:ride00.wav
320,192,42894,128,2,43102:0:0:0:0:
192,192,43102,1,0,0:0:0:0:
64,192,43102,128,8,43310:0:0:0:0:
448,192,43310,128,8,43519:0:0:0:0:
320,192,43310,1,2,0:0:0:0:
64,192,43414,1,0,0:0:0:0:
320,192,43519,1,2,0:0:0:0:
192,192,43623,1,0,0:0:0:0:
448,192,43727,1,2,0:0:0:0:
64,192,43727,1,4,0:0:0:0:
320,192,43831,1,0,0:0:0:0:
192,192,43935,128,0,44144:0:0:0:0:
448,192,44144,128,8,44352:0:0:0:0:
320,192,44144,128,2,44352:0:0:0:0:
64,192,44352,128,0,44560:0:0:0:0:
320,192,44560,128,2,44769:0:0:0:0:
192,192,44769,128,0,44977:0:0:0:0:
448,192,44977,128,8,45185:0:0:0:0:
64,192,44977,128,2,45185:0:0:0:0:
320,192,45185,128,0,45394:0:0:0:0:
64,192,45394,1,2,0:0:0:0:
192,192,45498,1,0,0:0:0:0:
320,192,45602,128,0,46019:0:0:0:0:
448,192,45810,1,8,0:0:0:0:
192,192,45810,128,2,46019:0:0:0:0:
64,192,46019,128,0,46227:0:0:0:0:
320,192,46227,128,2,46644:0:0:0:0:
64,192,46435,128,0,46644:0:0:0:0:
448,192,46644,128,8,46852:0:0:0:0:
192,192,46644,128,2,46748:0:0:0:0:
192,192,46852,128,0,47060:0:0:0:0:
448,192,47060,1,0,0:0:0:0:
320,192,47060,128,2,47269:0:0:0:0:
64,192,47269,128,0,47477:0:0:0:0:
448,192,47477,128,2,47685:0:0:0:0:
192,192,47477,128,8,47685:0:0:0:0:
320,192,47685,128,0,47894:0:0:0:0:
192,192,47894,1,0,0:0:0:0:
64,192,47894,128,2,48102:0:0:0:0:
448,192,48102,1,0,0:0:0:0:
320,192,48102,128,0,48310:0:0:0:0:
192,192,48310,128,2,48519:0:0:0:0:
64,192,48310,128,8,48519:0:0:0:0:
448,192,48519,128,0,48727:0:0:0:0:
320,192,48727,1,2,0:0:0:0:
192,192,48935,128,0,49144:0:0:0:0:
448,192,49144,1,2,0:0:0:0:
64,192,49144,128,8,49352:0:0:0:0:
320,192,49352,128,0,49560:0:0:0:0:
192,192,49560,128,0,49769:0:0:0:0:
64,192,49560,1,2,0:0:0:0:
448,192,49769,128,0,49977:0:0:0:0:
320,192,49769,128,8,49977:0:0:0:0:
192,192,49977,1,8,0:0:0:0:
64,192,49977,128,2,50185:0:0:0:0:
320,192,50185,1,0,0:0:0:70:tom01.wav
192,192,50289,1,0,0:0:0:70:tom02.wav
448,192,50394,1,4,0:0:0:0:
64,192,50394,1,2,0:0:0:0:
320,192,50498,1,0,0:0:0:0:
192,192,50602,128,0,50810:0:0:0:0:
448,192,50810,128,2,51019:0:0:0:0:
64,192,50810,128,8,51019:0:0:0:0:
320,192,51019,128,0,51227:0:0:0:0:
64,192,51227,128,2,51435:0:0:0:0:
192,192,51435,128,0,51644:0:0:0:0:
448,192,51644,128,2,51852:0:0:0:0:
320,192,51644,128,8,51852:0:0:0:0:
64,192,51852,128,0,52060:0:0:0:0:
448,192,52060,1,2,0:0:0:0:
320,192,52164,1,0,0:0:0:0:
192,192,52269,128,0,52477:0:0:0:0:
448,192,52477,128,2,52685:0:0:0:0:
320,192,52477,128,8,52685:0:0:0:0:
64,192,52685,128,0,52894:0:0:0:0:
320,192,52894,128,2,53102:0:0:0:0:
64,192,53102,128,0,53310:0:0:0:0:
448,192,53310,128,2,53519:0:0:0:0:
320,192,53310,128,8,53727:0:0:0:0:
192,192,53519,128,0,53727:0:0:0:0:
448,192,53727,128,0,54144:0:0:0:0:
64,192,53727,128,2,53935:0:0:0:0:
192,192,54039,1,0,0:0:0:0:
320,192,54144,128,8,54352:0:0:0:0:
64,192,54144,128,2,54352:0:0:0:0:
448,192,54352,1,0,0:0:0:0:
192,192,54560,128,0,54769:0:0:0:0:
64,192,54560,1,2,0:0:0:0:
320,192,54769,128,0,54977:0:0:0:0:
192,192,54977,1,8,0:0:0:0:
64,192,54977,1,2,0:0:0:0:
320,192,55185,1,0,0:0:0:0:
192,192,55289,1,0,0:0:0:0:
448,192,55394,128,0,55602:0:0:0:0:
320,192,55394,1,2,0:0:0:0:
64,192,55602,1,0,0:0:0:0:
192,192,55706,1,0,0:0:0:0:
448,192,55810,128,8,56019:0:0:0:0:
320,192,55810,128,2,56019:0:0:0:0:
64,192,56019,128,0,56227:0:0:0:0:
448,192,56227,128,0,56435:0:0:0:70:ride00.wav
192,192,56227,128,2,56435:0:0:0:0:
320,192,56435,128,0,56644:0:0:0:0:
64,192,56435,1,8,0:0:0:0:
192,192,56644,1,0,0:0:0:0:
64,192,56644,128,2,56852:0:0:0:0:
320,192,56852,1,2,0:0:0:0:
448,192,57060,128,4,57269:0:0:0:0:
64,192,57060,1,2,0:0:0:0:
320,192,57269,128,0,57477:0:0:0:0:
192,192,57477,128,2,57685:0:0:0:0:
320,192,57894,128,2,58102:0:0:0:0:
192,192,58102,128,0,58310:0:0:0:0:
448,192,58310,1,8,0:0:0:0:
64,192,58310,128,2,58519:0:0:0:0:
320,192,58727,128,2,58935:0:0:0:0:
448,192,58935,128,0,59144:0:0:0:0:
192,192,59144,128,2,59352:0:0:0:0:
64,192,59560,128,2,59977:0:0:0:0:
320,192,59769,128,0,59977:0:0:0:0:
448,192,59977,1,2,0:0:0:0:
192,192,59977,1,8,0:0:0:0:
448,192,60185,1,0,0:0:0:0:
320,192,60289,1,0,0:0:0:0:
192,192,60394,128,2,60602:0:0:0:0:
448,192,60602,128,0,60810:0:0:0:0:
64,192,60810,128,2,61019:0:0:0:0:
320,192,61123,1,0,0:0:0:0:
192,192,61227,128,2,61435:0:0:0:0:
448,192,61435,128,0,61644:0:0:0:0:
320,192,61644,1,8,0:0:0:0:
64,192,61644,128,2,61852:0:0:0:0:
192,192,61956,1,0,0:0:0:0:
320,192,62060,128,2,62269:0:0:0:0:
192,192,62269,128,0,62685:0:0:0:0:
448,192,62477,128,2,62685:0:0:0:0:
320,192,62685,1,0,0:0:0:0:
64,192,62789,1,0,0:0:0:0:
320,192,62894,128,2,63102:0:0:0:0:
192,192,63102,128,0,63310:0:0:0:0:
448,192,63310,1,2,0:0:0:0:
64,192,63310,128,8,63519:0:0:0:0:
320,192,63623,1,0,0:0:0:0:
448,192,63727,128,0,63935:0:0:0:70:ride00.wav
64,192,63727,128,2,63935:0:0:0:0:
192,192,63935,128,0,64144:0:0:0:0:
320,192,64144,128,2,64352:0:0:0:0:
192,192,64560,128,2,64769:0:0:0:0:
320,192,64769,128,0,64977:0:0:0:0:
448,192,64977,128,8,65185:0:0:0:0:
64,192,64977,1,2,0:0:0:0:
192,192,65394,128,2,65602:0:0:0:0:
64,192,65602,128,0,65810:0:0:0:0:
320,192,65810,128,2,66019:0:0:0:0:
192,192,66019,1,0,0:0:0:0:
448,192,66227,128,2,66644:0:0:0:0:
320,192,66435,128,0,66644:0:0:0:0:
192,192,66644,128,8,66852:0:0:0:0:
64,192,66644,1,2,0:0:0:0:
448,192,66852,128,0,67060:0:0:0:0:
320,192,67060,1,2,0:0:0:0:
192,192,67060,1,4,0:0:0:0:
64,192,67164,1,8,0:0:0:0:
320,192,67269,1,0,0:0:0:0:
64,192,67373,1,8,0:0:0:0:
448,192,67477,1,2,0:0:0:0:
192,192,67477,1,8,0:0:0:0:
320,192,67581,1,8,0:0:0:0:
64,192,67685,1,8,0:0:0:0:
320,192,67789,1,8,0:0:0:0:
448,192,67894,1,0,0:0:0:0:
64,192,67894,1,2,0:0:0:0:
192,192,67998,1,0,0:0:0:0:
448,192,68102,1,2,0:0:0:0:
320,192,68206,1,0,0:0:0:0:
192,192,68310,1,0,0:0:0:0:
64,192,68310,1,2,0:0:0:0:
320,192,68414,1,0,0:0:0:0:
448,192,68519,1,8,0:0:0:0:
64,192,68623,1,8,0:0:0:0:
448,192,68727,128,0,68935:0:0:0:70:ride00.wav
320,192,68727,128,2,68935:0:0:0:0:
192,192,68935,128,0,69144:0:0:0:0:
64,192,69144,128,2,69352:0:0:0:0:
448,192,69352,128,2,69560:0:0:0:0:
320,192,69352,128,8,69560:0:0:0:0:
192,192,69560,1,0,0:0:0:0:
64,192,69560,1,2,0:0:0:0:
448,192,69769,1,0,0:0:0:0:
64,192,69769,128,8,69977:0:0:0:0:
320,192,69873,1,8,0:0:0:0:
192,192,69977,1,2,0:0:0:0:
320,192,70185,128,2,70394:0:0:0:0:
448,192,70394,1,2,0:0:0:0:
64,192,70394,128,4,70810:0:0:0:0:
320,192,70602,1,0,0:0:0:0:
192,192,70706,1,0,0:0:0:0:
448,192,70810,1,8,0:0:0:0:
320,192,70810,128,2,71227:0:0:0:0:
64,192,71019,1,0,0:0:0:0:
192,192,71227,128,2,71435:0:0:0:0:
448,192,71435,1,0,0:0:0:0:
320,192,71539,1,0,0:0:0:0:
192,192,71644,128,8,71852:0:0:0:0:
64,192,71644,128,2,72060:0:0:0:0:
448,192,71852,128,0,72060:0:0:0:0:
192,192,72060,128,2,72269:0:0:0:0:
320,192,72269,128,0,72477:0:0:0:0:
64,192,72373,1,0,0:0:0:0:
448,192,72477,128,8,72581:0:0:0:0:
192,192,72477,1,2,0:0:0:0:
64,192,72685,128,0,72789:0:0:0:0:
64,192,72894,128,2,73206:0:0:0:0:
448,192,73102,1,0,0:0:0:0:
320,192,73206,1,0,0:0:0:0:
192,192,73310,128,8,73727:0:0:0:0:
64,192,73310,128,2,73519:0:0:0:0:
448,192,73519,128,0,73727:0:0:0:0:
320,192,73727,128,2,73935:0:0:0:0:
64,192,73935,1,0,0:0:0:0:
192,192,74039,1,0,0:0:0:0:
448,192,74144,128,2,74352:0:0:0:0:
320,192,74144,1,8,0:0:0:0:
192,192,74352,1,0,0:0:0:0:
320,192,74456,1,0,0:0:0:0:
192,192,74560,128,2,74769:0:0:0:0:
320,192,74769,128,0,74977:0:0:0:0:
64,192,74873,1,0,0:0:0:0:
448,192,74977,128,2,75185:0:0:0:0:
192,192,74977,1,8,0:0:0:0:
320,192,75185,1,0,0:0:0:0:
192,192,75289,1,0,0:0:0:0:
320,192,75394,128,2,75602:0:0:0:0:
192,192,75602,128,0,75810:0:0:0:0:
448,192,75706,1,0,0:0:0:0:
320,192,75810,1,2,0:0:0:0:
64,192,75810,128,8,76019:0:0:0:0:
192,192,76019,1,0,0:0:0:0:
448,192,76123,1,0,0:0:0:0:
64,192,76227,128,2,76435:0:0:0:0:
192,192,76435,128,0,76644:0:0:0:0:
448,192,76539,1,0,0:0:0:0:
320,192,76644,128,2,76748:0:0:0:0:
64,192,76644,1,8,0:0:0:0:
320,192,76852,128,0,77060:0:0:0:0:
192,192,76852,1,8,0:0:0:0:
448,192,77060,1,4,0:0:0:0:
64,192,77060,128,2,77477:0:0:0:0:
320,192,77269,1,0,0:0:0:0:
192,192,77373,1,0,0:0:0:0:
448,192,77477,1,2,0:0:0:0:
320,192,77477,128,8,77894:0:0:0:0:
64,192,77685,1,0,0:0:0:0:
192,192,77894,128,2,78102:0:0:0:0:
448,192,78102,1,0,0:0:0:0:
320,192,78206,1,0,0:0:0:0:
192,192,78310,128,2,78519:0:0:0:0:
64,192,78310,128,8,78727:0:0:0:0:
448,192,78519,128,0,78727:0:0:0:0:
192,192,78727,128,2,78935:0:0:0:0:
320,192,78935,128,0,79144:0:0:0:0:
64,192,79039,1,0,0:0:0:0:
448,192,79144,128,2,79248:0:0:0:0:
192,192,79144,1,8,0:0:0:0:
64,192,79352,128,0,79560:0:0:0:0:
320,192,79560,128,2,79873:0:0:0:0:
64,192,79769,1,0,0:0:0:0:
192,192,79873,1,0,0:0:0:0:
448,192,79977,128,2,80394:0:0:0:0:
320,192,79977,128,8,80185:0:0:0:0:
64,192,80185,128,0,80394:0:0:0:0:
192,192,80394,128,2,80602:0:0:0:0:
448,192,80602,1,0,0:0:0:0:
320,192,80706,1,0,0:0:0:0:
192,192,80810,1,8,0:0:0:0:
64,192,80810,128,2,81019:0:0:0:0:
320,192,81019,1,0,0:0:0:0:
192,192,81123,1,0,0:0:0:0:
320,192,81227,128,2,81435:0:0:0:0:
192,192,81435,128,0,81644:0:0:0:0:
448,192,81539,1,0,0:0:0:0:
320,192,81644,128,8,81852:0:0:0:0:
64,192,81644,1,2,0:0:0:0:
192,192,81852,1,0,0:0:0:0:
448,192,81956,1,0,0:0:0:0:
64,192,82060,128,2,82269:0:0:0:0:
192,192,82269,128,0,82477:0:0:0:0:
448,192,82373,1,0,0:0:0:0:
320,192,82477,128,2,82685:0:0:0:0:
64,192,82477,1,8,0:0:0:0:
448,192,82685,1,0,0:0:0:0:
192,192,82789,1,8,0:0:0:0:
448,192,82894,128,0,82998:0:0:0:0:
320,192,82894,128,2,82998:0:0:0:0:
192,192,83102,128,0,83206:0:0:0:0:
64,192,83102,128,2,83206:0:0:0:0:
448,192,83310,128,0,83519:0:0:0:0:
64,192,83310,128,2,83519:0:0:0:0:
448,192,83727,128,2,83935:0:0:0:0:
320,192,83727,128,4,83935:0:0:0:0:
192,192,83935,1,0,0:0:0:0:
64,192,84039,1,0,0:0:0:0:
448,192,84144,128,8,84352:0:0:0:0:
320,192,84144,128,2,84352:0:0:0:0:
192,192,84352,1,0,0:0:0:0:
64,192,84456,1,0,0:0:0:0:
448,192,84560,128,0,84769:0:0:0:0:
320,192,84560,128,2,84769:0:0:0:0:
64,192,84769,1,0,0:0:0:0:
192,192,84873,1,0,0:0:0:0:
448,192,84977,128,8,85185:0:0:0:0:
64,192,84977,128,2,85185:0:0:0:0:
320,192,85185,128,0,85394:0:0:0:0:
192,192,85394,128,0,85602:0:0:0:0:
64,192,85394,128,2,85602:0:0:0:0:
448,192,85602,128,0,85810:0:0:0:0:
320,192,85810,1,8,0:0:0:0:
64,192,85810,128,2,86019:0:0:0:0:
320,192,86227,128,0,86644:0:0:0:0:
192,192,86227,128,2,86435:0:0:0:0:
64,192,86435,128,0,86852:0:0:0:0:
448,192,86644,128,8,86852:0:0:0:0:
192,192,86644,128,2,86852:0:0:0:0:
320,192,86852,128,0,87060:0:0:0:0:
448,192,87060,128,0,87373:0:0:0:0:
192,192,87060,1,2,0:0:0:0:
64,192,87373,1,0,0:0:0:0:
448,192,87477,1,2,0:0:0:0:
192,192,87477,128,8,87789:0:0:0:0:
320,192,87789,1,0,0:0:0:0:
192,192,87894,128,0,88102:0:0:0:0:
64,192,87894,128,2,88102:0:0:0:0:
448,192,88102,128,0,88310:0:0:0:0:
320,192,88310,128,2,88519:0:0:0:0:
64,192,88310,128,8,88519:0:0:0:0:
192,192,88519,128,0,88727:0:0:0:0:
448,192,88727,128,0,88935:0:0:0:0:
320,192,88727,128,2,88935:0:0:0:0:
64,192,88935,128,0,89144:0:0:0:0:
448,192,89144,128,2,89560:0:0:0:0:
192,192,89144,128,8,89352:0:0:0:0:
320,192,89352,128,0,89560:0:0:0:0:
192,192,89560,128,0,89769:0:0:0:0:
64,192,89560,128,2,89977:0:0:0:0:
448,192,89769,1,8,0:0:0:0:
320,192,89769,1,2,0:0:0:0:
448,192,89977,1,8,0:0:0:0:
192,192,89977,128,2,90394:0:0:0:0:
64,192,90185,128,0,90394:0:0:0:0:
448,192,90394,128,0,90602:0:0:0:70:ride00.wav
320,192,90394,128,2,90602:0:0:0:0:
64,192,90602,1,0,0:0:0:0:
192,192,90706,1,0,0:0:0:0:
448,192,90810,128,4,91019:0:0:0:0:
320,192,90810,128,10,91019:0:0:0:0:
64,192,91019,1,0,0:0:0:0:
192,192,91123,1,0,0:0:0:0:
320,192,91227,128,0,91435:0:0:0:0:
64,192,91227,128,2,91435:0:0:0:0:
448,192,91435,1,0,0:0:0:0:
320,192,91539,1,0,0:0:0:0:
192,192,91644,128,8,91852:0:0:0:0:
64,192,91644,128,2,91852:0:0:0:0:
320,192,91852,128,0,92060:0:0:0:0:
192,192,92060,128,0,92269:0:0:0:0:
64,192,92060,128,2,92269:0:0:0:0:
448,192,92269,128,0,92477:0:0:0:0:
320,192,92477,1,8,0:0:0:0:
64,192,92477,128,2,92685:0:0:0:0:
320,192,92894,128,0,93102:0:0:0:0:
192,192,92894,128,2,93310:0:0:0:0:
448,192,93102,128,0,93310:0:0:0:0:
320,192,93310,128,8,93519:0:0:0:0:
64,192,93310,128,2,93519:0:0:0:0:
192,192,93519,128,0,93727:0:0:0:0:
320,192,93727,1,0,0:0:0:0:
64,192,93727,128,2,94039:0:0:0:0:
448,192,94039,1,0,0:0:0:0:
320,192,94144,128,2,94456:0:0:0:0:
64,192,94144,1,8,0:0:0:0:
192,192,94456,1,0,0:0:0:0:
448,192,94560,128,0,94769:0:0:0:0:
320,192,94560,128,2,94769:0:0:0:0:
64,192,94769,128,0,94977:0:0:0:0:
448,192,94977,128,2,95185:0:0:0:0:
192,192,94977,128,8,95185:0:0:0:0:
320,192,95185,128,0,95394:0:0:0:0:
192,192,95394,128,0,95602:0:0:0:0:
64,192,95394,128,2,95602:0:0:0:0:
448,192,95602,128,0,95810:0:0:0:0:
320,192,95810,128,2,96019:0:0:0:0:
64,192,95810,128,8,96019:0:0:0:0:
192,192,96019,128,0,96227:0:0:0:0:
448,192,96227,1,8,0:0:0:0:
320,192,96227,1,6,0:0:0:0:
192,192,96331,1,8,0:0:0:0:
448,192,96435,1,8,0:0:0:0:
64,192,96435,1,2,0:0:0:0:
320,192,96539,1,8,0:0:0:0:
192,192,96644,1,8,0:0:0:0:
64,192,96644,1,2,0:0:0:0:
448,192,96748,1,8,0:0:0:0:
320,192,96852,1,8,0:0:0:0:
64,192,96852,1,2,0:0:0:0:
192,192,96956,1,8,0:0:0:0:
448,192,97060,128,0,97269:0:0:0:70:ride00.wav
64,192,97060,128,2,97269:0:0:0:0:
448,192,97477,128,4,97685:0:0:0:0:
64,192,97477,128,10,97685:0:0:0:0:
448,192,97894,128,2,98102:0:0:0:0:
320,192,98102,128,0,98310:0:0:0:0:
192,192,98310,128,2,98519:0:0:0:0:
64,192,98310,128,8,98519:0:0:0:0:
320,192,98727,128,0,98935:0:0:0:0:
64,192,98727,128,2,98935:0:0:0:0:
320,192,99144,128,2,99352:0:0:0:0:
64,192,99144,128,8,99352:0:0:0:0:
448,192,99352,1,0,0:0:0:70:ride00.wav
192,192,99560,128,2,99769:0:0:0:0:
320,192,99769,128,0,99977:0:0:0:0:
448,192,99977,128,2,100185:0:0:0:0:
64,192,99977,128,8,100185:0:0:0:0:
320,192,100394,128,2,100602:0:0:0:0:
192,192,100394,128,4,100602:0:0:0:0:
320,192,100810,1,8,0:0:0:0:
192,192,100810,128,2,101019:0:0:0:0:
448,192,101227,128,2,101435:0:0:0:0:
320,192,101435,128,0,101644:0:0:0:0:
192,192,101644,128,8,101852:0:0:0:0:
64,192,101644,128,2,101852:0:0:0:0:
192,192,102060,1,0,0:0:0:0:
64,192,102060,128,2,102269:0:0:0:0:
448,192,102269,1,0,0:0:0:0:
320,192,102373,1,0,0:0:0:0:
192,192,102477,128,8,102685:0:0:0:0:
64,192,102477,128,2,102685:0:0:0:0:
448,192,102685,128,0,102894:0:0:0:70:ride00.wav
192,192,102894,1,2,0:0:0:0:
64,192,102894,1,8,0:0:0:0:
320,192,102998,1,0,0:0:0:0:
448,192,103102,1,0,0:0:0:0:
64,192,103102,1,8,0:0:0:0:
192,192,103206,1,8,0:0:0:0:
448,192,103310,1,2,0:0:0:0:
320,192,103310,128,8,103519:0:0:0:0:
192,192,103519,128,0,103727:0:0:0:0:
448,192,103727,128,2,103935:0:0:0:0:
64,192,103727,128,4,103935:0:0:0:0:
448,192,104144,128,8,104352:0:0:0:0:
64,192,104144,128,2,104352:0:0:0:0:
64,192,104560,128,2,104769:0:0:0:0:
192,192,104769,128,0,104977:0:0:0:0:
448,192,104977,128,8,105185:0:0:0:0:
320,192,104977,128,2,105185:0:0:0:0:
448,192,105394,128,0,105602:0:0:0:0:
192,192,105394,128,2,105602:0:0:0:0:
448,192,105810,128,8,106019:0:0:0:0:
192,192,105810,128,2,106019:0:0:0:0:
320,192,106227,128,2,106435:0:0:0:0:
192,192,106435,128,0,106644:0:0:0:0:
448,192,106644,128,8,106852:0:0:0:0:
64,192,106644,128,2,106852:0:0:0:0:
320,192,107060,128,0,107269:0:0:0:70:ride00.wav
192,192,107060,128,2,107269:0:0:0:0:
320,192,107477,128,2,107685:0:0:0:0:
192,192,107477,1,8,0:0:0:0:
64,192,107894,128,2,108102:0:0:0:0:
192,192,108102,128,0,108310:0:0:0:0:
448,192,108310,128,2,108519:0:0:0:0:
320,192,108310,128,8,108519:0:0:0:0:
448,192,108727,128,0,108935:0:0:0:0:
320,192,108727,1,2,0:0:0:0:
64,192,108935,1,0,0:0:0:0:
192,192,109039,1,0,0:0:0:0:
448,192,109144,128,2,109352:0:0:0:0:
320,192,109144,128,8,109352:0:0:0:0:
64,192,109352,128,0,109560:0:0:0:0:
448,192,109560,128,2,109769:0:0:0:0:
320,192,109560,1,8,0:0:0:0:
192,192,109769,1,0,0:0:0:0:
64,192,109769,1,2,0:0:0:0:
320,192,109873,1,2,0:0:0:0:
192,192,109977,1,0,0:0:0:0:
64,192,109977,1,2,0:0:0:0:
448,192,110185,1,0,0:0:0:0:
320,192,110185,1,2,0:0:0:0:
448,192,110394,128,0,110602:0:0:0:70:ride00.wav
64,192,110394,128,2,110602:0:0:0:0:
448,192,110810,128,4,111019:0:0:0:0:
64,192,110810,128,10,111019:0:0:0:0:
192,192,111227,128,0,111435:0:0:0:0:
64,192,111227,128,2,111435:0:0:0:0:
320,192,111435,128,0,111644:0:0:0:0:
448,192,111644,128,2,111852:0:0:0:0:
64,192,111644,128,8,111852:0:0:0:0:
448,192,112060,128,0,112269:0:0:0:0:
320,192,112060,128,2,112269:0:0:0:0:
64,192,112269,128,0,112477:0:0:0:0:
448,192,112477,128,2,112685:0:0:0:0:
192,192,112477,128,8,112685:0:0:0:0:
320,192,112685,128,0,112894:0:0:0:70:ride00.wav
192,192,112894,1,0,0:0:0:0:
64,192,112894,128,2,113102:0:0:0:0:
448,192,113102,128,0,113310:0:0:0:0:
320,192,113310,128,2,113519:0:0:0:0:
64,192,113310,128,8,113519:0:0:0:0:
192,192,113519,128,0,113727:0:0:0:0:
448,192,113727,128,2,114144:0:0:0:0:
320,192,113727,128,4,114144:0:0:0:0:
192,192,114144,128,8,114352:0:0:0:0:
64,192,114144,128,2,114352:0:0:0:0:
320,192,114456,1,0,0:0:0:0:
192,192,114560,128,0,114769:0:0:0:0:
64,192,114560,128,2,114769:0:0:0:0:
448,192,114769,128,0,114977:0:0:0:0:
320,192,114977,128,8,115185:0:0:0:0:
64,192,114977,128,2,115185:0:0:0:0:
192,192,115185,128,0,115394:0:0:0:0:
448,192,115394,128,0,115602:0:0:0:0:
320,192,115394,128,2,115602:0:0:0:0:
64,192,115602,128,0,115810:0:0:0:0:
448,192,115810,128,8,116019:0:0:0:0:
192,192,115810,128,2,116019:0:0:0:0:
64,192,116019,128,0,116227:0:0:0:70:ride00.wav
448,192,116227,128,0,116435:0:0:0:0:
320,192,116227,128,2,116435:0:0:0:0:
192,192,116435,128,10,116644:0:0:0:0:
448,192,116644,128,8,116852:0:0:0:0:
64,192,116644,128,6,116852:0:0:0:0:
192,192,117060,128,6,117269:0:0:0:0:
448,192,117477,128,0,117894:0:0:0:0:
320,192,117477,128,2,117894:0:0:0:0:
192,192,117894,128,0,118102:0:0:0:0:
64,192,118102,128,0,118310:0:0:0:0:
448,192,118310,128,0,118519:0:0:0:70:ride00.wav
192,192,118310,1,2,0:0:0:0:
192,192,118727,128,0,118935:0:0:0:0:
320,192,118935,128,0,119144:0:0:0:0:
448,192,119144,128,0,119352:0:0:0:70:ride00.wav
192,192,119144,1,2,0:0:0:0:
64,192,119352,128,0,119560:0:0:0:0:
448,192,119769,1,0,0:0:0:0:
320,192,119873,1,0,0:0:0:0:
448,192,119977,1,0,0:0:0:70:ride00.wav
192,192,119977,128,2,120185:0:0:0:0:
64,192,120185,128,0,120394:0:0:0:0:
448,192,120394,128,0,120602:0:0:0:0:
192,192,120498,1,0,0:0:0:0:
320,192,120602,1,8,0:0:0:0:
64,192,120706,1,8,0:0:0:0:
448,192,120810,128,0,121123:0:0:0:70:ride00.wav
192,192,120810,1,2,0:0:0:0:
320,192,121123,1,0,0:0:0:0:
64,192,121227,128,2,121435:0:0:0:0:
448,192,121331,1,0,0:0:0:0:
192,192,121435,1,0,0:0:0:0:
448,192,121539,1,0,0:0:0:0:
320,192,121644,1,0,0:0:0:0:
64,192,121644,128,2,121852:0:0:0:0:
448,192,121852,128,2,122060:0:0:0:0:
320,192,122060,128,2,122269:0:0:0:0:
192,192,122269,128,0,122477:0:0:0:0:
448,192,122477,128,2,122685:0:0:0:0:
64,192,122477,128,8,122685:0:0:0:0:
320,192,122685,128,0,122894:0:0:0:70:ride00.wav
192,192,122894,1,2,0:0:0:0:
448,192,123102,128,8,123310:0:0:0:0:
320,192,123102,128,2,123310:0:0:0:0:
192,192,123310,128,8,123519:0:0:0:0:
64,192,123310,128,2,123519:0:0:0:0:
448,192,123727,128,2,123935:0:0:0:0:
64,192,123727,128,4,123935:0:0:0:0:
192,192,123935,128,0,124144:0:0:0:0:
448,192,124144,128,0,124352:0:0:0:0:
320,192,124144,128,2,124352:0:0:0:0:
192,192,124560,128,0,124769:0:0:0:0:
64,192,124560,128,2,124769:0:0:0:0:
448,192,124769,128,0,124977:0:0:0:0:
320,192,124769,128,0,124977:0:0:0:0:
192,192,124977,128,2,125185:0:0:0:0:
64,192,124977,128,8,125185:0:0:0:0:
448,192,125394,128,0,125602:0:0:0:0:
192,192,125394,128,2,125602:0:0:0:0:
64,192,125602,128,0,125810:0:0:0:0:
448,192,125810,128,0,126019:0:0:0:0:
320,192,125810,128,2,126019:0:0:0:0:
448,192,126227,128,2,126644:0:0:0:0:
192,192,126435,128,0,126644:0:0:0:0:
320,192,126644,1,8,0:0:0:0:
64,192,126644,1,2,0:0:0:0:
64,192,126852,1,0,0:0:0:0:
192,192,126956,1,0,0:0:0:0:
448,192,127060,128,0,127269:0:0:0:0:
320,192,127060,128,2,127269:0:0:0:0:
64,192,127269,128,0,127477:0:0:0:0:
448,192,127477,128,0,127685:0:0:0:0:
192,192,127477,128,2,127685:0:0:0:0:
320,192,127789,1,0,0:0:0:0:
192,192,127894,128,0,128102:0:0:0:0:
64,192,127894,128,2,128102:0:0:0:0:
448,192,128102,128,0,128310:0:0:0:0:
320,192,128102,128,0,128310:0:0:0:0:
192,192,128310,128,2,128519:0:0:0:0:
64,192,128310,128,8,128519:0:0:0:0:
448,192,128623,1,0,0:0:0:0:
320,192,128727,128,2,128935:0:0:0:0:
64,192,128935,128,0,129352:0:0:0:0:
448,192,129144,128,2,129352:0:0:0:0:
320,192,129352,1,0,0:0:0:0:
192,192,129456,1,0,0:0:0:0:
64,192,129560,128,2,129769:0:0:0:0:
448,192,129769,128,0,129977:0:0:0:0:
192,192,129977,128,8,130185:0:0:0:0:
64,192,129977,1,2,0:0:0:0:
320,192,130289,1,0,0:0:0:0:
448,192,130394,128,0,130602:0:0:0:70:ride00.wav
64,192,130394,128,2,130602:0:0:0:0:
192,192,130602,128,0,130810:0:0:0:0:
448,192,130810,128,0,131019:0:0:0:0:
320,192,130810,128,2,131019:0:0:0:0:
192,192,131123,1,0,0:0:0:0:
448,192,131227,128,0,131435:0:0:0:0:
320,192,131227,128,2,131435:0:0:0:0:
192,192,131435,128,0,131644:0:0:0:0:
64,192,131435,128,0,131644:0:0:0:0:
448,192,131644,128,2,131852:0:0:0:0:
320,192,131644,128,8,131852:0:0:0:0:
64,192,131956,1,0,0:0:0:0:
320,192,132060,128,0,132269:0:0:0:0:
192,192,132060,128,2,132269:0:0:0:0:
448,192,132269,128,0,132477:0:0:0:0:
192,192,132477,128,0,132685:0:0:0:0:
64,192,132477,128,2,132685:0:0:0:0:
448,192,132685,128,0,132894:0:0:0:0:
320,192,132894,128,2,133310:0:0:0:0:
64,192,133102,128,0,133310:0:0:0:0:
448,192,133310,1,2,0:0:0:0:
192,192,133310,128,8,133519:0:0:0:0:
320,192,133519,128,0,133727:0:0:0:0:
192,192,133727,1,4,0:0:0:0:
64,192,133727,1,2,0:0:0:0:
448,192,133831,1,8,0:0:0:0:
192,192,133935,1,8,0:0:0:0:
320,192,134039,1,8,0:0:0:0:
448,192,134144,1,2,0:0:0:0:
64,192,134144,1,8,0:0:0:0:
192,192,134248,1,8,0:0:0:0:
320,192,134352,1,8,0:0:0:0:
64,192,134456,1,8,0:0:0:0:
448,192,134560,1,2,0:0:0:0:
320,192,134560,1,8,0:0:0:0:
192,192,134664,1,8,0:0:0:0:
448,192,134769,1,8,0:0:0:0:
192,192,134873,1,8,0:0:0:0:
448,192,134977,1,2,0:0:0:0:
64,192,134977,1,8,0:0:0:0:
320,192,135081,1,8,0:0:0:0:
192,192,135185,1,8,0:0:0:0:
448,192,135289,1,8,0:0:0:0:
192,192,135394,1,8,0:0:0:0:
64,192,135394,1,2,0:0:0:0:
320,192,135498,1,8,0:0:0:0:
448,192,135602,1,8,0:0:0:0:
192,192,135706,1,8,0:0:0:0:
448,192,135810,1,8,0:0:0:0:
320,192,135810,1,2,0:0:0:0:
64,192,135914,1,8,0:0:0:0:
320,192,136019,1,8,0:0:0:0:
192,192,136123,1,8,0:0:0:0:
448,192,136227,128,0,136331:0:0:0:0:
64,192,136227,128,2,136331:0:0:0:0:
448,192,136539,128,0,136644:0:0:0:0:
320,192,136539,128,2,136644:0:0:0:0:
192,192,136644,128,0,136748:0:0:0:0:
64,192,136644,128,2,136748:0:0:0:0:
448,192,136852,128,0,136956:0:0:0:0:
320,192,136852,128,2,136956:0:0:0:0:
448,192,137060,128,2,137477:0:0:0:0:
64,192,137060,1,4,0:0:0:0:
192,192,137269,1,0,0:0:0:0:
320,192,137373,1,0,0:0:0:0:
192,192,137477,128,8,137894:0:0:0:0:
64,192,137477,1,2,0:0:0:0:
448,192,137685,1,0,0:0:0:0:
320,192,137894,128,2,138102:0:0:0:0:
64,192,138102,1,0,0:0:0:0:
192,192,138206,1,0,0:0:0:0:
448,192,138310,128,8,138727:0:0:0:0:
320,192,138310,128,2,138519:0:0:0:0:
64,192,138519,128,0,138727:0:0:0:0:
320,192,138727,128,2,138935:0:0:0:0:
192,192,138935,128,0,139144:0:0:0:0:
448,192,139039,1,0,0:0:0:0:
320,192,139144,1,8,0:0:0:0:
64,192,139144,128,2,139248:0:0:0:0:
448,192,139352,128,0,139456:0:0:0:0:
448,192,139560,128,2,139873:0:0:0:0:
64,192,139769,1,0,0:0:0:0:
192,192,139873,1,0,0:0:0:0:
448,192,139977,128,8,140185:0:0:0:0:
320,192,139977,128,2,140394:0:0:0:0:
64,192,140185,128,0,140394:0:0:0:0:
192,192,140394,128,2,140602:0:0:0:0:
448,192,140602,1,0,0:0:0:0:
320,192,140706,1,0,0:0:0:0:
192,192,140810,1,2,0:0:0:0:
64,192,140810,128,8,141019:0:0:0:0:
320,192,141019,1,0,0:0:0:0:
192,192,141123,1,0,0:0:0:0:
320,192,141227,128,2,141435:0:0:0:0:
192,192,141435,128,0,141644:0:0:0:0:
448,192,141539,1,0,0:0:0:0:
320,192,141644,1,2,0:0:0:0:
64,192,141644,128,8,141852:0:0:0:0:
192,192,141852,1,0,0:0:0:0:
320,192,141956,1,0,0:0:0:0:
192,192,142060,128,2,142269:0:0:0:0:
320,192,142269,128,0,142477:0:0:0:0:
64,192,142373,1,0,0:0:0:0:
448,192,142477,128,2,142685:0:0:0:0:
192,192,142477,1,8,0:0:0:0:
320,192,142685,1,0,0:0:0:0:
64,192,142789,1,0,0:0:0:0:
448,192,142894,128,2,143102:0:0:0:0:
320,192,143102,128,0,143310:0:0:0:0:
64,192,143206,1,0,0:0:0:0:
448,192,143310,1,2,0:0:0:0:
192,192,143310,128,8,143414:0:0:0:0:
320,192,143519,1,0,0:0:0:0:
192,192,143519,128,8,143727:0:0:0:0:
448,192,143727,128,4,144144:0:0:0:0:
64,192,143727,1,2,0:0:0:0:
192,192,143935,1,0,0:0:0:0:
320,192,144039,1,0,0:0:0:0:
192,192,144144,128,2,144560:0:0:0:0:
64,192,144144,1,8,0:0:0:0:
448,192,144352,1,0,0:0:0:0:
320,192,144560,128,2,144769:0:0:0:0:
64,192,144769,1,0,0:0:0:0:
192,192,144873,1,0,0:0:0:0:
448,192,144977,128,2,145394:0:0:0:0:
320,192,144977,128,8,145185:0:0:0:0:
64,192,145185,128,0,145394:0:0:0:0:
320,192,145394,128,2,145602:0:0:0:0:
192,192,145602,128,0,145810:0:0:0:0:
448,192,145706,1,0,0:0:0:0:
320,192,145810,1,2,0:0:0:0:
64,192,145810,128,8,145914:0:0:0:0:
448,192,146019,128,0,146227:0:0:0:0:
192,192,146227,128,2,146539:0:0:0:0:
448,192,146435,1,0,0:0:0:0:
320,192,146539,1,0,0:0:0:0:
192,192,146644,128,2,146852:0:0:0:0:
64,192,146644,128,8,147060:0:0:0:0:
448,192,146852,128,0,147060:0:0:0:0:
320,192,147060,128,2,147269:0:0:0:0:
64,192,147269,1,0,0:0:0:0:
192,192,147373,1,0,0:0:0:0:
448,192,147477,128,8,147685:0:0:0:0:
320,192,147477,1,2,0:0:0:0:
192,192,147685,1,0,0:0:0:0:
320,192,147789,1,0,0:0:0:0:
192,192,147894,128,2,148102:0:0:0:0:
320,192,148102,128,0,148310:0:0:0:0:
64,192,148206,1,0,0:0:0:0:
448,192,148310,1,8,0:0:0:0:
192,192,148310,128,2,148519:0:0:0:0:
320,192,148519,1,0,0:0:0:0:
64,192,148623,1,0,0:0:0:0:
448,192,148727,128,2,148935:0:0:0:0:
320,192,148935,128,0,149144:0:0:0:0:
64,192,149039,1,0,0:0:0:0:
448,192,149144,1,8,0:0:0:0:
192,192,149144,128,2,149352:0:0:0:0:
64,192,149352,1,0,0:0:0:0:
320,192,149456,1,8,0:0:0:0:
192,192,149560,1,0,0:0:0:0:
64,192,149560,128,2,149769:0:0:0:0:
448,192,149769,1,0,0:0:0:0:
320,192,149769,128,2,149977:0:0:0:0:
192,192,149977,128,0,150394:0:0:0:0:
64,192,149977,128,2,150394:0:0:0:0:
448,192,150394,128,2,150602:0:0:0:0:
320,192,150394,128,4,150602:0:0:0:0:
192,192,150602,1,0,0:0:0:0:
64,192,150706,1,0,0:0:0:0:
448,192,150810,128,8,151019:0:0:0:0:
320,192,150810,128,2,151019:0:0:0:0:
192,192,151019,1,0,0:0:0:0:
64,192,151123,1,0,0:0:0:0:
448,192,151227,128,0,151435:0:0:0:0:
320,192,151227,128,2,151435:0:0:0:0:
64,192,151435,1,0,0:0:0:0:
192,192,151539,1,0,0:0:0:0:
448,192,151644,128,8,151852:0:0:0:0:
64,192,151644,128,2,151852:0:0:0:0:
320,192,151852,128,0,152060:0:0:0:0:
192,192,152060,128,0,152269:0:0:0:0:
64,192,152060,128,2,152269:0:0:0:0:
448,192,152269,128,0,152477:0:0:0:0:
320,192,152477,1,8,0:0:0:0:
64,192,152477,128,2,152685:0:0:0:0:
320,192,152894,128,0,153310:0:0:0:0:
192,192,152894,128,2,153102:0:0:0:0:
64,192,153102,128,0,153310:0:0:0:0:
448,192,153310,128,8,153519:0:0:0:0:
192,192,153310,128,2,153519:0:0:0:0:
320,192,153519,128,0,153727:0:0:0:0:
448,192,153727,128,0,153935:0:0:0:0:
192,192,153727,1,2,0:0:0:0:
320,192,153935,1,0,0:0:0:0:
64,192,154039,1,0,0:0:0:0:
448,192,154144,1,2,0:0:0:0:
192,192,154144,128,8,154456:0:0:0:0:
320,192,154456,1,0,0:0:0:0:
192,192,154560,128,0,154769:0:0:0:0:
64,192,154560,128,2,154769:0:0:0:0:
448,192,154769,128,0,154977:0:0:0:0:
320,192,154977,128,2,155185:0:0:0:0:
64,192,154977,128,8,155185:0:0:0:0:
192,192,155185,128,0,155394:0:0:0:0:
448,192,155394,128,0,155602:0:0:0:0:
320,192,155394,128,2,155602:0:0:0:0:
64,192,155602,128,0,155810:0:0:0:0:
448,192,155810,128,2,156019:0:0:0:0:
192,192,155810,128,8,156019:0:0:0:0:
320,192,156019,128,0,156227:0:0:0:0:
192,192,156227,128,0,156435:0:0:0:0:
64,192,156227,128,2,156644:0:0:0:0:
448,192,156435,1,8,0:0:0:0:
320,192,156435,1,2,0:0:0:0:
448,192,156644,1,8,0:0:0:0:
192,192,156644,128,2,157060:0:0:0:0:
64,192,156852,128,0,157060:0:0:0:0:
448,192,157060,128,0,157269:0:0:0:70:ride00.wav
320,192,157060,128,2,157269:0:0:0:0:
64,192,157269,1,0,0:0:0:0:
192,192,157373,1,0,0:0:0:0:
448,192,157477,128,4,157685:0:0:0:0:
320,192,157477,128,10,157685:0:0:0:0:
64,192,157685,1,0,0:0:0:0:
192,192,157789,1,0,0:0:0:0:
320,192,157894,128,0,158102:0:0:0:0:
64,192,157894,128,2,158102:0:0:0:0:
448,192,158102,1,0,0:0:0:0:
320,192,158206,1,0,0:0:0:0:
192,192,158310,128,8,158519:0:0:0:0:
64,192,158310,128,2,158519:0:0:0:0:
320,192,158519,128,0,158727:0:0:0:0:
192,192,158727,128,0,158935:0:0:0:0:
64,192,158727,128,2,158935:0:0:0:0:
448,192,158935,128,0,159144:0:0:0:0:
320,192,159144,1,8,0:0:0:0:
64,192,159144,128,2,159352:0:0:0:0:
320,192,159560,128,0,159769:0:0:0:0:
192,192,159560,128,2,159977:0:0:0:0:
448,192,159769,128,0,159977:0:0:0:0:
320,192,159977,128,8,160185:0:0:0:0:
64,192,159977,128,2,160185:0:0:0:0:
192,192,160185,128,0,160394:0:0:0:0:
320,192,160394,1,0,0:0:0:0:
64,192,160394,128,2,160706:0:0:0:0:
448,192,160706,1,0,0:0:0:0:
320,192,160810,128,2,161123:0:0:0:0:
64,192,160810,1,8,0:0:0:0:
192,192,161123,1,0,0:0:0:0:
448,192,161227,128,0,161435:0:0:0:0:
320,192,161227,128,2,161435:0:0:0:0:
64,192,161435,128,0,161644:0:0:0:0:
448,192,161644,128,2,161852:0:0:0:0:
192,192,161644,128,8,161852:0:0:0:0:
320,192,161852,128,0,162060:0:0:0:0:
192,192,162060,128,0,162269:0:0:0:0:
64,192,162060,128,2,162269:0:0:0:0:
448,192,162269,128,8,162477:0:0:0:0:
320,192,162477,128,2,162685:0:0:0:0:
64,192,162477,128,8,162685:0:0:0:0:
448,192,162685,128,0,162894:0:0:0:70:tom01.wav
192,192,162894,1,8,0:0:0:0:
64,192,162894,1,2,0:0:0:0:
320,192,162998,1,8,0:0:0:0:
448,192,163102,1,8,0:0:0:0:
64,192,163102,1,2,0:0:0:0:
192,192,163206,1,8,0:0:0:0:
448,192,163310,1,8,0:0:0:0:
320,192,163310,1,2,0:0:0:0:
64,192,163414,1,8,0:0:0:0:
448,192,163519,1,8,0:0:0:0:
192,192,163519,1,2,0:0:0:0:
320,192,163623,1,8,0:0:0:0:
192,192,163727,128,2,163935:0:0:0:0:
64,192,163727,128,4,163935:0:0:0:0:
320,192,163935,1,0,0:0:0:0:
448,192,164039,1,0,0:0:0:0:
192,192,164144,128,8,164352:0:0:0:0:
64,192,164144,128,2,164352:0:0:0:0:
320,192,164352,1,0,0:0:0:0:
448,192,164456,1,0,0:0:0:0:
192,192,164560,128,0,164769:0:0:0:0:
64,192,164560,128,2,164769:0:0:0:0:
448,192,164769,1,0,0:0:0:0:
320,192,164873,1,0,0:0:0:0:
448,192,164977,128,8,165185:0:0:0:0:
64,192,164977,128,2,165185:0:0:0:0:
192,192,165185,128,0,165394:0:0:0:0:
448,192,165394,128,0,165602:0:0:0:0:
320,192,165394,128,2,165602:0:0:0:0:
64,192,165602,128,0,165810:0:0:0:0:
448,192,165810,128,8,166019:0:0:0:0:
192,192,165810,1,2,0:0:0:0:
320,192,166227,128,0,166435:0:0:0:0:
192,192,166227,128,2,166644:0:0:0:0:
448,192,166435,128,0,166852:0:0:0:0:
320,192,166644,128,8,166852:0:0:0:0:
64,192,166644,128,2,166852:0:0:0:0:
192,192,166852,128,0,167060:0:0:0:0:
320,192,167060,1,0,0:0:0:0:
64,192,167060,128,2,167373:0:0:0:0:
448,192,167373,1,0,0:0:0:0:
320,192,167477,128,2,167789:0:0:0:0:
64,192,167477,1,8,0:0:0:0:
192,192,167789,1,0,0:0:0:0:
448,192,167894,128,0,168102:0:0:0:0:
320,192,167894,128,2,168102:0:0:0:0:
64,192,168102,128,0,168310:0:0:0:0:
448,192,168310,128,2,168519:0:0:0:0:
192,192,168310,128,8,168519:0:0:0:0:
320,192,168519,128,0,168727:0:0:0:0:
192,192,168727,128,0,168935:0:0:0:0:
64,192,168727,128,2,168935:0:0:0:0:
448,192,168935,128,0,169144:0:0:0:0:
320,192,169144,128,2,169352:0:0:0:0:
64,192,169144,128,8,169560:0:0:0:0:
192,192,169352,128,0,169560:0:0:0:0:
448,192,169560,128,0,169977:0:0:0:0:
320,192,169560,128,2,169769:0:0:0:0:
192,192,169769,1,8,0:0:0:0:
64,192,169769,1,2,0:0:0:0:
320,192,169977,128,8,170394:0:0:0:0:
64,192,169977,1,2,0:0:0:0:
448,192,170185,128,8,170394:0:0:0:0:
192,192,170394,128,0,170602:0:0:0:70:ride00.wav
64,192,170394,128,2,170602:0:0:0:0:
448,192,170602,1,0,0:0:0:0:
320,192,170706,1,0,0:0:0:0:
192,192,170810,128,4,171019:0:0:0:0:
64,192,170810,128,10,171019:0:0:0:0:
448,192,171019,1,0,0:0:0:0:
320,192,171123,1,0,0:0:0:0:
448,192,171227,128,0,171435:0:0:0:0:
192,192,171227,128,2,171435:0:0:0:0:
64,192,171435,1,0,0:0:0:0:
192,192,171539,1,0,0:0:0:0:
448,192,171644,128,8,171852:0:0:0:0:
320,192,171644,128,2,171852:0:0:0:0:
192,192,171852,128,0,172060:0:0:0:0:
448,192,172060,128,0,172269:0:0:0:0:
320,192,172060,128,2,172269:0:0:0:0:
64,192,172269,128,0,172477:0:0:0:0:
448,192,172477,128,8,172685:0:0:0:0:
192,192,172477,1,2,0:0:0:0:
320,192,172894,128,0,173310:0:0:0:0:
192,192,172894,128,2,173102:0:0:0:0:
64,192,173102,128,0,173310:0:0:0:0:
448,192,173310,128,8,173519:0:0:0:0:
192,192,173310,128,2,173519:0:0:0:0:
320,192,173519,128,0,173727:0:0:0:0:
448,192,173727,128,0,174039:0:0:0:0:
192,192,173727,1,2,0:0:0:0:
64,192,174039,1,0,0:0:0:0:
448,192,174144,1,2,0:0:0:0:
192,192,174144,128,8,174456:0:0:0:0:
320,192,174456,1,0,0:0:0:0:
192,192,174560,128,0,174769:0:0:0:0:
64,192,174560,128,2,174769:0:0:0:0:
448,192,174769,128,0,174977:0:0:0:0:
320,192,174977,128,2,175185:0:0:0:0:
64,192,174977,128,8,175185:0:0:0:0:
192,192,175185,128,0,175394:0:0:0:0:
448,192,175394,128,0,175602:0:0:0:0:
320,192,175394,128,2,175602:0:0:0:0:
64,192,175602,128,0,175810:0:0:0:70:tom01.wav
448,192,175810,128,2,176019:0:0:0:0:
192,192,175810,128,8,176019:0:0:0:0:
320,192,176019,128,0,176227:0:0:0:70:tom01.wav
192,192,176227,1,2,0:0:0:0:
64,192,176227,1,4,0:0:0:0:
320,192,176331,1,0,0:0:0:0:
448,192,176435,1,0,0:0:0:0:
64,192,176435,1,2,0:0:0:0:
192,192,176539,1,0,0:0:0:0:
448,192,176644,128,0,177060:0:0:0:0:
320,192,176644,1,2,0:0:0:0:
192,192,177060,1,2,0:0:0:0:
64,192,177060,1,4,0:0:0:0:
