osu file format v14

[General]
AudioFilename: audio.mp3
AudioLeadIn: 0
PreviewTime: 13469
Countdown: 0
SampleSet: Soft
StackLeniency: 0.7
Mode: 2
LetterboxInBreaks: 0
WidescreenStoryboard: 1

[Editor]
DistanceSpacing: 0.3
BeatDivisor: 4
GridSize: 32
TimelineZoom: 1.9

[Metadata]
Title:Mochi
TitleUnicode:もち
Artist:inabakumori
ArtistUnicode:稲葉曇
Creator:Mochi -
Version:Rain
Source:
Tags:japanese rock jrock j-rock kaai yuki 歌愛ユキ nukunuku nigirimeshi ぬくぬくにぎりめし inaba kumori vocaloid stardust prism muya- -hex-
BeatmapID:4444536
BeatmapSetID:2116409

[Difficulty]
HPDrainRate:5
CircleSize:4.5
OverallDifficulty:8.5
ApproachRate:8.5
SliderMultiplier:2.1
SliderTickRate:2

[Events]
//Background and Video events
0,0,"whitemochi.png",0,0
//Break Periods
//Storyboard Layer 0 (Background)
//Storyboard Layer 1 (Fail)
//Storyboard Layer 2 (Pass)
//Storyboard Layer 3 (Foreground)
//Storyboard Layer 4 (Overlay)
//Storyboard Sound Samples

[TimingPoints]
497,405.405405405405,4,2,1,70,1,0
497,-36.7132867132867,4,2,1,70,0,0
2929,-36.7132867132867,4,2,2,70,0,0
3334,-36.7132867132867,4,2,3,70,0,0
3537,-36.7132867132867,4,2,4,70,0,0
3740,-36.7132867132867,4,2,1,70,0,0
4348,-36.7132867132867,4,2,4,70,0,0
4551,-36.7132867132867,4,2,1,70,0,0
6172,-36.7132867132867,4,2,2,70,0,0
6578,-36.7132867132867,4,2,3,70,0,0
6780,-36.7132867132867,4,2,4,70,0,0
6983,-36.7132867132867,4,2,1,70,0,0
7591,-36.7132867132867,4,2,4,70,0,0
7794,-36.7132867132867,4,2,1,70,0,0
8605,-36.7132867132867,4,2,4,75,0,0
9010,-36.7132867132867,4,2,5,75,0,0
9213,-36.7132867132867,4,2,4,75,0,0
9415,-36.7132867132867,4,2,6,75,0,0
9821,-36.7132867132867,4,2,5,75,0,0
10024,-36.7132867132867,4,2,4,75,0,0
10226,-36.7132867132867,4,2,6,75,0,0
10834,-36.7132867132867,4,2,4,75,0,0
11037,-36.7132867132867,4,2,6,75,0,0
11645,-36.7132867132867,4,2,1,75,0,0
11848,-36.7132867132867,4,2,7,75,0,0
12051,-36.7132867132867,4,2,8,75,0,0
12456,-36.7132867132867,4,2,4,75,0,0
12659,-36.7132867132867,4,2,8,75,0,0
13064,-36.7132867132867,4,2,2,75,0,0
13267,-36.7132867132867,4,2,3,75,0,0
13469,-36.7132867132867,4,2,1,80,0,0
13875,-36.7132867132867,4,2,8,80,0,0
14280,-36.7132867132867,4,2,9,80,0,0
14686,-36.7132867132867,4,2,10,80,0,0
14888,-36.7132867132867,4,2,4,80,0,0
15091,-36.7132867132867,4,2,8,80,0,0
15699,-36.7132867132867,4,2,4,80,0,0
15902,-36.7132867132867,4,2,8,80,0,0
16713,-36.7132867132867,4,2,4,80,0,0
17118,-36.7132867132867,4,2,8,80,0,0
17524,-36.7132867132867,4,2,9,80,0,0
17929,-36.7132867132867,4,2,10,80,0,0
18132,-36.7132867132867,4,2,4,80,0,0
18334,-36.7132867132867,4,2,8,80,0,0
18942,-36.7132867132867,4,2,4,80,0,0
19145,-36.7132867132867,4,2,8,80,0,0
19753,-36.7132867132867,4,2,1,80,0,0
19956,-36.7132867132867,4,2,4,80,0,0
20361,-36.7132867132867,4,2,5,80,0,0
20564,-36.7132867132867,4,2,4,80,0,0
20767,-36.7132867132867,4,2,6,80,0,0
21172,-36.7132867132867,4,2,5,80,0,0
21375,-36.7132867132867,4,2,4,80,0,0
21578,-36.7132867132867,4,2,6,80,0,0
22186,-36.7132867132867,4,2,4,80,0,0
22388,-36.7132867132867,4,2,6,80,0,0
22996,-36.7132867132867,4,2,3,80,0,0
23199,-36.7132867132867,4,2,2,80,0,0
23605,-36.7132867132867,4,2,4,80,0,0
24618,-36.7132867132867,4,2,1,80,0,0
24821,-36.7132867132867,4,2,1,70,0,0
25328,-36.7132867132867,4,2,4,70,0,0
25632,-36.7132867132867,4,2,1,70,0,0
26037,-36.7132867132867,4,2,3,70,0,0
26240,-36.7132867132867,4,2,4,70,0,0
26442,-36.7132867132867,4,2,1,70,0,0
26949,-36.7132867132867,4,2,4,70,0,0
27253,-36.7132867132867,4,2,1,70,0,0
27659,-36.7132867132867,4,2,3,70,0,0
27861,-36.7132867132867,4,2,4,70,0,0
28064,-36.7132867132867,4,2,1,70,0,0
28571,-36.7132867132867,4,2,4,70,0,0
28875,-36.7132867132867,4,2,1,70,0,0
29483,-36.7132867132867,4,2,4,70,0,0
29686,-36.7132867132867,4,2,1,70,0,0
29888,-36.7132867132867,4,2,4,70,0,0
30091,-36.7132867132867,4,2,1,70,0,0
30699,-36.7132867132867,4,2,4,70,0,0
30902,-36.7132867132867,4,2,1,70,0,0
31814,-36.7132867132867,4,2,4,70,0,0
32118,-36.7132867132867,4,2,1,70,0,0
32524,-36.7132867132867,4,2,3,70,0,0
32726,-36.7132867132867,4,2,4,70,0,0
32929,-36.7132867132867,4,2,1,70,0,0
33436,-36.7132867132867,4,2,4,70,0,0
33740,-36.7132867132867,4,2,1,70,0,0
34145,-36.7132867132867,4,2,3,70,0,0
34348,-36.7132867132867,4,2,4,70,0,0
34551,-36.7132867132867,4,2,1,70,0,0
35057,-36.7132867132867,4,2,4,70,0,0
35361,-36.7132867132867,4,2,1,70,0,0
35969,-36.7132867132867,4,2,4,70,0,0
36172,-36.7132867132867,4,2,1,65,0,0
36375,-36.7132867132867,4,2,4,65,0,0
36578,-36.7132867132867,4,2,1,65,0,0
36983,-36.7132867132867,4,2,1,60,0,0
37186,-36.7132867132867,4,2,4,60,0,0
37388,-36.7132867132867,4,2,1,60,0,0
37794,-36.7132867132867,4,2,1,55,0,0
38199,-36.7132867132867,4,2,6,55,0,0
38301,-36.7132867132867,4,2,4,55,0,0
38605,-36.7132867132867,4,2,6,50,0,0
39010,-36.7132867132867,4,2,5,50,0,0
39213,-36.7132867132867,4,2,4,50,0,0
39415,-36.7132867132867,4,2,6,40,0,0
39922,-36.7132867132867,4,2,4,40,0,0
40226,-36.7132867132867,4,2,6,30,0,0
40632,-36.7132867132867,4,2,5,30,0,0
40834,-36.7132867132867,4,2,4,30,0,0
41037,-36.7132867132867,4,2,4,20,0,0
41442,-36.7132867132867,4,2,4,15,0,0
41848,-36.7132867132867,4,2,4,10,0,0
42253,-36.7132867132867,4,2,4,8,0,0

[Colours]
Combo1 : 192,192,192
Combo2 : 128,128,128

[HitObjects]
357,297,2118,6,0,L|371:180|371:180|357:12|357:12,1,286,4|0,1:2|0:0,0:0:0:0:
251,189,2524,1,10,2:2:0:0:
357,191,2726,1,0,1:1:0:0:
178,320,2929,2,0,B|162:250|162:250|130:186|130:186|96:123|96:123|105:52|105:52|118:169|118:169|175:328|175:328,1,572,2|10,1:2|2:2,0:0:0:0:
280,212,3537,1,2,2:2:0:0:
101,42,3740,6,0,B|99:160|99:160|96:328|96:328,1,286,2|0,1:2|0:0,0:0:0:0:
369,136,4145,1,10,2:2:0:0:
264,133,4348,1,2,1:2:0:0:
369,136,4551,2,0,L|426:239|426:239|474:78|474:78,1,286,2|0,1:2|0:0,0:0:0:0:
295,344,4956,2,0,B|259:232|259:232|190:78|190:78,1,286,10|0,2:2|0:0,0:0:0:0:
474,110,5361,5,2,1:3:0:0:
264,113,5767,1,10,2:2:0:0:
369,115,5969,1,0,1:1:0:0:
190,368,6172,2,0,B|178:297|178:297|155:229|155:229|133:161|133:161|152:92|152:92|190:203|190:203|241:363|241:363,1,572,2|10,1:2|2:2,0:0:0:0:
346,261,6780,1,2,2:2:0:0:
167,163,6983,6,0,L|161:280|161:280|164:112|164:112,1,286,2|0,1:2|0:0,0:0:0:0:
448,95,7388,2,0,L|440:166|440:166|404:227|404:227|351:275|351:275|343:346|343:346|369:231|369:231|448:82|448:82,2,286,10|2|2,2:2|1:2|1:2,0:0:0:0:
238,265,8199,2,0,B|268:379|268:379|343:228|343:228,1,286,10|4,2:2|2:3,0:0:0:0:
79,325,8605,6,0,B|62:256|62:256|53:185|53:185|15:125|15:125|28:55|28:55|46:171|46:171|108:327|108:327,1,572,6|10,1:2|2:2,0:0:0:0:
287,173,9213,1,2,1:2:0:0:
109,93,9415,2,0,L|149:152|149:152|164:222|164:222|188:289|188:289|214:356|214:356|271:253|271:253|319:92|319:92,1,572,2|10,1:2|2:2,0:0:0:0:
213,92,10024,1,2,2:2:0:0:
391,320,10226,6,0,B|425:383|425:383|430:312|430:312|401:247|401:247|404:176|404:176|371:63|371:63|311:220|311:220,1,572,2|10,1:2|2:2,0:0:0:0:
416,140,10834,1,2,1:2:0:0:
153,101,11037,1,2,1:2:0:0:
383,319,11442,2,0,L|390:202|390:202|386:34|386:34,1,286,10|4,2:2|2:3,0:0:0:0:
122,261,11848,5,14,2:2:0:0:
227,264,12051,1,0,1:1:0:0:
405,98,12253,1,10,2:2:0:0:
300,100,12456,1,2,1:2:0:0:
479,112,12659,1,10,2:2:0:0:
301,183,12861,1,8,2:2:0:0:
354,186,12963,2,0,L|406:319|406:319,1,143,8|10,2:2|2:3,0:0:0:0:
301,321,13267,1,6,2:3:0:0:
24,163,13469,6,0,L|22:281|22:281|20:113|20:113,1,286,4|0,1:2|0:0,0:0:0:0:
200,287,13875,1,10,2:2:0:0:
95,289,14077,1,0,1:1:0:0:
274,247,14280,2,0,L|281:318|281:318|332:369|332:369|348:299|348:299|379:235|379:235|405:120|405:120|484:269|484:269,1,572,2|10,1:2|2:2,0:0:0:0:
379,184,14888,1,2,1:2:0:0:
200,70,15091,6,0,B|181:186|181:186|195:354|195:354,1,286,2|0,1:2|0:0,0:0:0:0:
468,164,15496,1,10,2:2:0:0:
363,164,15699,1,2,1:2:0:0:
184,348,15902,2,0,L|168:232|168:232|181:64|181:64,1,286,2|0,1:2|0:0,0:0:0:0:
360,67,16307,2,0,B|386:182|386:182|465:331|465:331,1,286,10|0,2:2|0:0,0:0:0:0:
180,109,16713,5,2,1:3:0:0:
390,115,17118,2,0,B|338:220|338:220|285:380|285:380,1,286,10|0,2:2|1:1,0:0:0:0:
106,369,17523,2,0,L|121:299|121:299|100:231|100:231|115:161|115:161|103:90|103:90|84:206|84:206|101:374|101:374,1,572,2|10,1:2|2:2,0:0:0:0:
206,164,18131,1,2,1:2:0:0:
27,46,18334,6,0,B|33:163|33:163|25:331|25:331,1,286,2|0,1:2|0:0,0:0:0:0:
309,108,18739,1,10,2:2:0:0:
204,107,18942,1,2,1:2:0:0:
383,335,19145,2,0,L|370:218|370:218|389:51|389:51,1,286,2|0,1:2|0:0,0:0:0:0:
210,294,19551,2,0,L|164:186|164:186|105:28|105:28,1,286,10|4,2:2|2:3,0:0:0:0:
420,226,19956,6,0,B|455:288|455:288|468:358|468:358|494:291|494:291|490:220|490:220|494:102|494:102|422:254|422:254,1,572,6|10,1:2|2:2,0:0:0:0:
243,347,20564,1,2,1:2:0:0:
422,336,20767,2,0,L|438:266|438:266|415:198|415:198|436:130|436:130|424:59|424:59|429:176|429:176|427:344|427:344,1,572,2|10,1:2|2:2,0:0:0:0:
248,130,21375,1,2,1:2:0:0:
353,144,21578,6,0,L|364:261|364:261|354:93|354:93,1,286,2|0,1:2|0:0,0:0:0:0:
71,192,21983,2,0,L|89:261|89:261|124:323|124:323|133:252|133:252|176:195|176:195|149:81|149:81|71:230|71:230,2,286,10|2|2,2:2|1:2|1:2,0:0:0:0:
281,306,22794,1,10,2:2:0:0:
103,327,22996,1,6,2:3:0:0:
397,327,23199,6,0,L|394:209|394:209|401:41|401:41,1,286,4|0,1:2|1:1,0:0:0:0:
221,213,23605,1,10,2:2:0:0:
400,222,23808,1,10,2:2:0:0:
222,344,24010,2,0,L|200:228|200:228|214:60|214:60,1,286,10|0,2:2|1:1,0:0:0:0:
393,146,24415,2,0,L|386:263|386:263|401:95|401:95,1,286,14|8,2:2|2:3,0:0:0:0:
84,76,24821,5,4,1:2:0:0:
294,275,25226,1,10,2:2:0:0:
241,275,25327,1,2,2:2:0:0:
241,275,25428,1,0,1:1:0:0:
420,126,25632,2,0,L|384:188|384:188|364:256|364:256|334:321|334:321|315:252|315:252|286:138|286:138|210:288|210:288,1,572,2|10,1:2|2:2,0:0:0:0:
315,297,26240,1,2,2:2:0:0:
43,291,26442,5,2,1:2:0:0:
253,305,26848,1,10,2:2:0:0:
200,308,26949,1,2,2:2:0:0:
147,310,27050,1,0,1:1:0:0:
326,344,27253,2,0,B|354:278|354:278|383:212|383:212|383:141|383:141|392:70|392:70|372:186|372:186|320:346|320:346,1,572,2|10,1:2|2:2,0:0:0:0:
215,233,27861,1,2,2:2:0:0:
488,85,28064,5,2,1:2:0:0:
278,325,28469,1,10,2:2:0:0:
225,325,28570,1,2,2:2:0:0:
225,325,28671,1,0,1:1:0:0:
405,261,28875,2,0,B|426:329|426:329|430:258|430:258|410:189|410:189|405:118|405:118|365:7|365:7|312:167|312:167,1,572,2|10,1:2|2:2,0:0:0:0:
207,143,29482,1,2,2:2:0:0:
482,325,29686,6,0,L|444:385|444:385|428:315|428:315|421:244|421:244|377:188|377:188|436:86|436:86|482:248|482:248,2,286,2|2|10,1:2|2:2|2:2,0:0:0:0:
209,96,30496,1,2,1:2:0:0:
388,198,30699,1,2,2:2:0:0:
335,197,30800,1,2,2:2:0:0:
282,198,30901,1,10,2:2:0:0:
388,84,31105,1,4,2:3:0:0:
95,79,31307,5,4,1:2:0:0:
305,85,31712,1,10,2:2:0:0:
308,85,31813,1,2,2:2:0:0:
311,86,31914,1,0,1:1:0:0:
131,298,32118,2,0,B|121:369|121:369|117:298|117:298|141:231|141:231|153:160|153:160|193:49|193:49|250:207|250:207,1,572,2|10,1:2|2:2,0:0:0:0:
145,102,32726,1,2,2:2:0:0:
417,232,32928,5,2,1:2:0:0:
207,90,33334,1,10,2:2:0:0:
202,90,33435,1,2,2:2:0:0:
254,94,33536,1,0,1:1:0:0:
433,333,33739,2,0,B|421:263|421:263|451:198|451:198|414:137|414:137|409:66|409:66|364:175|364:175|311:335|311:335,1,572,2|10,1:2|2:2,0:0:0:0:
416,201,34347,1,2,2:2:0:0:
132,107,34550,5,2,1:2:0:0:
341,327,34955,1,10,2:2:0:0:
288,329,35057,1,2,2:2:0:0:
235,329,35159,1,0,1:1:0:0:
413,255,35361,2,0,L|376:316|376:316|368:245|368:245|340:179|340:179|308:115|308:115|259:8|259:8|203:167|203:167,1,572,2|10,1:2|2:2,0:0:0:0:
308,257,35969,1,2,2:2:0:0:
35,126,36172,6,0,L|75:185|75:185|80:256|80:256|103:324|103:324|140:385|140:385|104:273|104:273|35:119|35:119,2,286,2|2|10,1:2|2:2|2:2,0:0:0:0:
307,42,36982,1,2,1:2:0:0:
128,327,37185,1,10,2:2:0:0:
181,328,37286,1,2,2:2:0:0:
234,324,37387,1,10,2:2:0:0:
128,266,37591,1,8,2:2:0:0:
412,166,37794,5,4,1:2:0:0:
256,192,38199,12,2,42253,2:2:0:0:
