osu file format v14

[General]
AudioFilename: audio.mp3
AudioLeadIn: 0
PreviewTime: 13469
Countdown: 0
SampleSet: Soft
StackLeniency: 0.7
Mode: 2
LetterboxInBreaks: 0
WidescreenStoryboard: 0

[Editor]
DistanceSpacing: 0.3
BeatDivisor: 6
GridSize: 32
TimelineZoom: 2.4

[Metadata]
Title:Mochi
TitleUnicode:もち
Artist:inabakumori
ArtistUnicode:稲葉曇
Creator:Mochi -
Version:Mochi
Source:
Tags:japanese rock jrock j-rock kaai yuki 歌愛ユキ nukunuku nigirimeshi ぬくぬくにぎりめし inaba kumori vocaloid stardust prism muya- -hex-
BeatmapID:4444538
BeatmapSetID:2116409

[Difficulty]
HPDrainRate:6
CircleSize:5
OverallDifficulty:9
ApproachRate:9
SliderMultiplier:2.4
SliderTickRate:2

[Events]
//Background and Video events
0,0,"whitemochi.png",0,0
//Break Periods
//Storyboard Layer 0 (Background)
//Storyboard Layer 1 (Fail)
//Storyboard Layer 2 (Pass)
//Storyboard Layer 3 (Foreground)
//Storyboard Layer 4 (Overlay)
//Storyboard Sound Samples

[TimingPoints]
497,405.405405405405,4,2,1,70,1,0
497,-39.4736842105263,4,2,1,70,0,0
1645,-39.4736842105263,4,2,1,70,0,0
2118,-39.4736842105263,4,2,1,70,0,0
2929,-23.0769230769231,4,2,2,70,0,0
3334,-39.4736842105263,4,2,3,70,0,0
3537,-39.4736842105263,4,2,4,70,0,0
3740,-23.0769230769231,4,2,1,70,0,0
4348,-39.4736842105263,4,2,4,70,0,0
4551,-23.0769230769231,4,2,1,70,0,0
4956,-39.4736842105263,4,2,1,70,0,0
6172,-23.0769230769231,4,2,2,70,0,0
6578,-39.4736842105263,4,2,3,70,0,0
6780,-39.4736842105263,4,2,4,70,0,0
6983,-23.0769230769231,4,2,1,70,0,0
7591,-39.4736842105263,4,2,4,70,0,0
7794,-23.0769230769231,4,2,1,70,0,0
8605,-23.0769230769231,4,2,4,75,0,0
9010,-39.4736842105263,4,2,5,75,0,0
9213,-39.4736842105263,4,2,4,75,0,0
9415,-23.0769230769231,4,2,6,75,0,0
9821,-39.4736842105263,4,2,5,75,0,0
10024,-39.4736842105263,4,2,4,75,0,0
10226,-23.0769230769231,4,2,6,75,0,0
10834,-39.4736842105263,4,2,4,75,0,0
11037,-23.0769230769231,4,2,6,75,0,0
11645,-39.4736842105263,4,2,1,75,0,0
11848,-39.4736842105263,4,2,7,75,0,0
12051,-39.4736842105263,4,2,8,75,0,0
12456,-39.4736842105263,4,2,4,75,0,0
12659,-39.4736842105263,4,2,8,75,0,0
13064,-39.4736842105263,4,2,2,75,0,0
13267,-39.4736842105263,4,2,3,75,0,0
13469,-39.4736842105263,4,2,1,80,0,0
13875,-39.4736842105263,4,2,8,80,0,0
14280,-23.0769230769231,4,2,9,80,0,0
14686,-39.4736842105263,4,2,10,80,0,0
14888,-39.4736842105263,4,2,4,80,0,0
15091,-23.0769230769231,4,2,8,80,0,0
15699,-39.4736842105263,4,2,4,80,0,0
15902,-39.4736842105263,4,2,8,80,0,0
16713,-39.4736842105263,4,2,4,80,0,0
17118,-39.4736842105263,4,2,8,80,0,0
17524,-23.0769230769231,4,2,9,80,0,0
17929,-39.4736842105263,4,2,10,80,0,0
18132,-39.4736842105263,4,2,4,80,0,0
18334,-23.0769230769231,4,2,8,80,0,0
18942,-39.4736842105263,4,2,4,80,0,0
19145,-39.4736842105263,4,2,8,80,0,0
19753,-39.4736842105263,4,2,1,80,0,0
19956,-23.0769230769231,4,2,4,80,0,0
20361,-39.4736842105263,4,2,5,80,0,0
20564,-39.4736842105263,4,2,4,80,0,0
20767,-23.0769230769231,4,2,6,80,0,0
21172,-39.4736842105263,4,2,5,80,0,0
21375,-39.4736842105263,4,2,4,80,0,0
21578,-23.0769230769231,4,2,6,80,0,0
22186,-39.4736842105263,4,2,4,80,0,0
22388,-23.0769230769231,4,2,6,80,0,0
22996,-39.4736842105263,4,2,3,80,0,0
23199,-39.4736842105263,4,2,2,80,0,0
23605,-39.4736842105263,4,2,4,80,0,0
24618,-39.4736842105263,4,2,1,80,0,0
24821,-39.4736842105263,4,2,1,70,0,0
25328,-39.4736842105263,4,2,4,70,0,0
25632,-23.7341772151899,4,2,1,70,0,0
26037,-39.4736842105263,4,2,3,70,0,0
26240,-39.4736842105263,4,2,4,70,0,0
26442,-39.4736842105263,4,2,1,70,0,0
26949,-39.4736842105263,4,2,4,70,0,0
27253,-23.7341772151899,4,2,1,70,0,0
27659,-39.4736842105263,4,2,3,70,0,0
27861,-39.4736842105263,4,2,4,70,0,0
28064,-39.4736842105263,4,2,1,70,0,0
28571,-39.4736842105263,4,2,4,70,0,0
28875,-23.7341772151899,4,2,1,70,0,0
29483,-39.4736842105263,4,2,4,70,0,0
29686,-39.4736842105263,4,2,1,70,0,0
29888,-39.4736842105263,4,2,4,70,0,0
30091,-39.4736842105263,4,2,1,70,0,0
30699,-39.4736842105263,4,2,4,70,0,0
30902,-39.4736842105263,4,2,1,70,0,0
31814,-39.4736842105263,4,2,4,70,0,0
32118,-23.7341772151899,4,2,1,70,0,0
32524,-39.4736842105263,4,2,3,70,0,0
32726,-39.4736842105263,4,2,4,70,0,0
32929,-39.4736842105263,4,2,1,70,0,0
33436,-39.4736842105263,4,2,4,70,0,0
33740,-23.7341772151899,4,2,1,70,0,0
34145,-39.4736842105263,4,2,3,70,0,0
34348,-39.4736842105263,4,2,4,70,0,0
34551,-39.4736842105263,4,2,1,70,0,0
35057,-39.4736842105263,4,2,4,70,0,0
35361,-23.7341772151899,4,2,1,70,0,0
35969,-39.4736842105263,4,2,4,70,0,0
36172,-39.4736842105263,4,2,1,65,0,0
36375,-39.4736842105263,4,2,4,65,0,0
36578,-39.4736842105263,4,2,1,65,0,0
36983,-39.4736842105263,4,2,1,60,0,0
37186,-39.4736842105263,4,2,4,60,0,0
37388,-39.4736842105263,4,2,1,60,0,0
37794,-39.4736842105263,4,2,1,55,0,0
38199,-39.4736842105263,4,2,6,55,0,0
38301,-39.4736842105263,4,2,4,55,0,0
38605,-39.4736842105263,4,2,6,50,0,0
39010,-39.4736842105263,4,2,5,50,0,0
39213,-39.4736842105263,4,2,4,50,0,0
39415,-39.4736842105263,4,2,6,40,0,0
39922,-39.4736842105263,4,2,4,40,0,0
40226,-39.4736842105263,4,2,6,30,0,0
40632,-39.4736842105263,4,2,5,30,0,0
40834,-39.4736842105263,4,2,4,30,0,0
41037,-39.4736842105263,4,2,4,20,0,0
41442,-39.4736842105263,4,2,4,15,0,0
41848,-39.4736842105263,4,2,4,10,0,0
42253,-39.4736842105263,4,2,4,8,0,0

[Colours]
Combo1 : 192,192,192
Combo2 : 128,128,128

[HitObjects]
386,321,1645,5,0,0:0:0:0:
424,326,1712,1,0,0:0:0:0:
453,301,1780,1,0,0:0:0:0:
452,262,1847,1,0,0:0:0:0:
422,238,1915,1,0,0:0:0:0:
384,245,1982,1,0,0:0:0:0:
151,280,2118,6,0,B|126:158|126:158|152:335|152:335,1,304,4|0,1:2|0:0,0:0:0:0:
333,168,2524,1,10,2:2:0:0:
213,163,2726,1,0,1:1:0:0:
394,364,2929,2,0,B|436:241|436:241|439:111|439:111|410:238|410:238|396:367|396:367|274:192|274:192|100:444|100:444,1,1040,2|10,1:2|2:2,0:0:0:0:
93,129,3537,1,2,2:2:0:0:
273,336,3740,6,0,B|225:215|225:215|216:85|216:85|211:215|211:215|206:347|206:347|329:158|329:158|475:427|475:427,1,1039.99998677572,2|10,1:2|2:2,0:0:0:0:
481,221,4348,1,2,1:2:0:0:
284,358,4551,2,0,B|318:233|318:233|351:107|351:107|361:237|361:237|334:364|334:364|245:169|245:169|73:422|73:422,1,1040,2|10,1:2|2:2,0:0:0:0:
254,254,5159,1,0,0:0:0:0:
75,155,5361,6,0,L|82:280|82:280|72:101|72:101,1,304,2|0,1:3|0:0,0:0:0:0:
254,282,5767,1,10,2:2:0:0:
134,286,5969,1,0,1:1:0:0:
315,63,6172,2,0,B|346:189|346:189|386:313|386:313|417:187|417:187|447:60|447:60|359:255|359:255|192:-2|192:-2,1,1040,2|10,1:2|2:2,0:0:0:0:
312,155,6780,1,2,2:2:0:0:
132,333,6983,6,0,B|71:218|71:218|65:88|65:88|59:218|59:218|74:348|74:348|188:160|188:160|334:429|334:429,1,1039.99998677572,2|10,1:2|2:2,0:0:0:0:
154,215,7591,1,2,1:2:0:0:
334,321,7794,2,0,B|343:191|343:191|338:61|338:61|375:185|375:185|371:315|371:315|267:128|267:128|76:367|76:367,1,1040,2|10,1:2|2:2,0:0:0:0:
59,54,8402,1,4,2:3:0:0:
315,358,8605,6,0,B|262:239|262:239|219:116|219:116|196:244|196:244|156:368|156:368|264:184|264:184|420:448|420:448,1,1040,6|10,1:2|2:2,0:0:0:0:
239,242,9213,1,2,1:2:0:0:
418,48,9415,2,0,B|432:177|432:177|476:299|476:299|473:169|473:169|472:39|472:39|346:212|346:212|208:-61|208:-61,1,1040,2|10,1:2|2:2,0:0:0:0:
329,150,10024,1,2,2:2:0:0:
150,340,10226,6,0,B|126:212|126:212|122:82|122:82|113:212|113:212|123:342|123:342|256:174|256:174|413:437|413:437,1,1040,2|10,1:2|2:2,0:0:0:0:
425,94,10834,1,2,1:2:0:0:
245,337,11037,2,0,B|272:210|272:210|319:89|319:89|354:214|354:214|369:343|369:343|253:164|253:164|69:409|69:409,1,1040,2|10,1:2|2:2,0:0:0:0:
63,67,11645,1,4,2:3:0:0:
375,291,11848,5,14,2:2:0:0:
98,309,12051,1,0,1:1:0:0:
277,239,12253,1,10,2:2:0:0:
98,309,12456,1,2,1:2:0:0:
375,144,12659,5,10,2:2:0:0:
196,138,12861,1,8,2:2:0:0:
190,138,12963,1,8,2:2:0:0:
429,45,13064,1,10,2:3:0:0:
436,45,13267,1,6,2:3:0:0:
53,340,13469,6,0,L|35:216|35:216|49:38|49:38,1,304,4|0,1:2|0:0,0:0:0:0:
230,302,13875,2,0,L|229:177|229:177|235:356|235:356,1,304,10|0,2:2|1:1,0:0:0:0:
415,347,14280,2,0,B|428:218|428:218|422:88|422:88|437:217|437:217|432:347|432:347|326:161|326:161|132:398|132:398,1,1040,2|10,1:2|2:2,0:0:0:0:
313,132,14888,1,2,1:2:0:0:
133,345,15091,6,0,B|99:220|99:220|61:96|61:96|84:224|84:224|83:354|83:354|209:181|209:181|380:435|380:435,1,1040,2|10,1:2|2:2,0:0:0:0:
199,193,15699,1,2,1:2:0:0:
463,316,15902,2,0,L|474:192|474:192|466:13|466:13,1,304,2|0,1:2|0:0,0:0:0:0:
286,282,16307,1,10,2:2:0:0:
467,196,16510,1,0,0:0:0:0:
154,151,16713,6,0,L|145:276|145:276|151:97|151:97,1,304,2|0,1:3|0:0,0:0:0:0:
331,207,17118,2,0,L|381:321|381:321|451:156|451:156,1,304,10|0,2:2|1:1,0:0:0:0:
271,345,17524,2,0,B|222:224|222:224|224:94|224:94|171:213|171:213|148:341|148:341|262:160|262:160|448:403|448:403,1,1040,2|10,1:2|2:2,0:0:0:0:
268,179,18132,1,2,1:2:0:0:
447,53,18334,6,0,B|461:182|461:182|477:311|477:311|469:181|469:181|458:51|458:51|352:236|352:236|161:-3|161:-3,1,1040,2|10,1:2|2:2,0:0:0:0:
342,153,18943,1,2,1:2:0:0:
41,202,19146,2,0,L|42:327|42:327|38:148|38:148,1,304,2|0,1:2|0:0,0:0:0:0:
218,82,19551,1,10,2:2:0:0:
38,82,19753,1,4,2:3:0:0:
348,336,19956,6,0,B|361:207|361:207|351:77|351:77|351:207|351:207|360:337|360:337|246:156|246:156|60:400|60:400,1,1040,6|10,1:2|2:2,0:0:0:0:
241,177,20564,1,2,1:2:0:0:
420,357,20767,2,0,B|433:228|433:228|421:99|421:99|418:229|418:229|432:358|432:358|297:192|297:192|132:450|132:450,1,1040,2|10,1:2|2:2,0:0:0:0:
313,149,21375,1,2,1:2:0:0:
133,52,21578,6,0,B|99:177|99:177|100:307|100:307|93:177|93:177|85:47|85:47|196:230|196:230|374:-19|374:-19,1,1040,2|10,1:2|2:2,0:0:0:0:
253,232,22186,1,2,1:2:0:0:
431,336,22388,2,0,B|469:212|469:212|474:82|474:82|478:212|478:212|467:341|467:341|371:150|371:150|193:399|193:399,1,1040,2|10,1:2|2:2,0:0:0:0:
373,190,22996,1,6,2:3:0:0:
55,94,23199,5,4,1:2:0:0:
48,94,23402,1,0,1:1:0:0:
228,307,23605,1,10,2:2:0:0:
49,311,23807,1,10,2:2:0:0:
325,170,24010,5,10,2:2:0:0:
332,170,24213,1,0,1:1:0:0:
45,160,24415,1,14,2:2:0:0:
38,160,24618,1,8,2:3:0:0:
392,295,24821,6,0,L|382:370|382:370|411:300|411:300|387:228|387:228|394:152|394:152|403:27|403:27|396:206|396:206,1,608,4|10,1:2|2:2,0:0:0:0:
173,87,25328,1,2,2:2:0:0:
167,87,25429,1,0,1:1:0:0:
345,354,25632,2,0,B|356:228|356:228|356:102|356:102|355:228|355:228|367:354|367:354|245:186|245:186|86:438|86:438,1,1011.19996914063,2|10,1:2|2:2,0:0:0:0:
267,217,26240,1,2,2:2:0:0:
88,340,26442,6,0,L|76:265|76:265|94:191|94:191|82:116|82:116|85:40|85:40|88:165|88:165|83:344|83:344,1,608,2|10,1:2|2:2,0:0:0:0:
306,107,26949,1,2,2:2:0:0:
312,107,27050,1,0,1:1:0:0:
132,30,27253,2,0,B|126:156|126:156|133:282|133:282|113:157|113:157|110:31|110:31|226:203|226:203|391:-45|391:-45,1,1011.19996914063,2|10,1:2|2:2,0:0:0:0:
210,188,27861,1,2,2:2:0:0:
474,301,28064,6,0,L|474:377|474:377|491:303|491:303|488:227|488:227|475:152|475:152|458:28|458:28|476:206|476:206,1,608,2|10,1:2|2:2,0:0:0:0:
252,142,28571,1,2,2:2:0:0:
246,142,28672,1,0,1:1:0:0:
425,348,28875,2,0,B|445:223|445:223|461:98|461:98|474:224|474:224|463:350|463:350|365:166|365:166|203:416|203:416,1,1011.19996914063,2|10,1:2|2:2,0:0:0:0:
324,279,29483,1,2,2:2:0:0:
144,275,29686,5,2,1:2:0:0:
324,279,29888,1,2,2:2:0:0:
35,183,30091,2,0,L|19:307|19:307|31:128|31:128,1,304,10|0,2:2|1:1,0:0:0:0:
212,297,30496,5,2,1:2:0:0:
32,284,30699,1,2,2:2:0:0:
32,284,30801,1,2,2:2:0:0:
241,143,30902,1,10,2:2:0:0:
121,139,31105,1,4,2:3:0:0:
414,358,31307,6,0,B|452:292|452:292|466:217|466:217|456:142|456:142|449:66|449:66|394:178|394:178|346:351|346:351,1,608,4|10,1:2|2:2,0:0:0:0:
123,104,31814,1,2,2:2:0:0:
183,104,31915,1,0,1:1:0:0:
364,331,32118,2,0,B|397:209|397:209|408:83|408:83|443:205|443:205|449:331|449:331|340:154|340:154|166:396|166:396,1,1011.19996914063,2|10,1:2|2:2,0:0:0:0:
347,182,32726,1,2,2:2:0:0:
167,39,32929,6,0,B|154:114|154:114|140:189|140:189|142:265|142:265|154:340|154:340|194:222|194:222|258:55|258:55,1,608,2|10,1:2|2:2,0:0:0:0:
488,226,33436,1,2,2:2:0:0:
428,228,33537,1,0,1:1:0:0:
255,102,33740,2,0,B|305:218|305:218|344:338|344:338|385:219|385:219|409:95|409:95|300:272|300:272|150:15|150:15,1,1011.19996914063,2|10,1:2|2:2,0:0:0:0:
330,146,34348,1,2,2:2:0:0:
54,315,34551,6,0,B|52:239|52:239|23:169|23:169|10:94|10:94|33:22|33:22|53:145|53:145|137:303|137:303,1,608,2|10,1:2|2:2,0:0:0:0:
359,144,35057,1,2,2:2:0:0:
298,146,35159,1,0,1:1:0:0:
118,66,35361,2,0,B|73:184|73:184|40:306|40:306|29:180|29:180|17:54|17:54|109:240|109:240|271:-10|271:-10,1,1011.19996914063,2|10,1:2|2:2,0:0:0:0:
151,141,35969,1,2,2:2:0:0:
331,145,36172,5,2,1:2:0:0:
151,141,36374,1,2,2:2:0:0:
440,237,36577,2,0,L|422:361|422:361|444:183|444:183,1,304,10|0,2:2|1:1,0:0:0:0:
263,123,36982,5,2,1:2:0:0:
443,136,37185,1,10,2:2:0:0:
443,136,37287,1,2,2:2:0:0:
234,277,37388,1,10,2:2:0:0:
354,281,37591,1,8,2:2:0:0:
53,105,37794,5,4,1:2:0:0:
256,192,37996,12,2,42253,2:2:0:0:
