osu file format v14

[General]
AudioFilename: audio.mp3
AudioLeadIn: 0
PreviewTime: 13469
Countdown: 0
SampleSet: Soft
StackLeniency: 0.7
Mode: 2
LetterboxInBreaks: 0
WidescreenStoryboard: 1

[Editor]
DistanceSpacing: 0.3
BeatDivisor: 4
GridSize: 32
TimelineZoom: 2.7

[Metadata]
Title:Mochi
TitleUnicode:もち
Artist:inabakumori
ArtistUnicode:稲葉曇
Creator:Mochi -
Version:Hex's Platter
Source:
Tags:japanese rock jrock j-rock kaai yuki 歌愛ユキ nukunuku nigirimeshi ぬくぬくにぎりめし inaba kumori vocaloid stardust prism muya- -hex-
BeatmapID:4444534
BeatmapSetID:2116409

[Difficulty]
HPDrainRate:4
CircleSize:4
OverallDifficulty:8
ApproachRate:8
SliderMultiplier:1.85
SliderTickRate:1

[Events]
//Background and Video events
0,0,"whitemochi.png",0,0
//Break Periods
//Storyboard Layer 0 (Background)
//Storyboard Layer 1 (Fail)
//Storyboard Layer 2 (Pass)
//Storyboard Layer 3 (Foreground)
//Storyboard Layer 4 (Overlay)
//Storyboard Sound Samples

[TimingPoints]
497,405.405405405405,4,2,1,70,1,0
497,-34.1328413284133,4,2,1,70,0,0
2929,-34.1328413284133,4,2,2,70,0,0
3334,-34.1328413284133,4,2,3,70,0,0
3537,-34.1328413284133,4,2,4,70,0,0
3740,-34.1328413284133,4,2,1,70,0,0
4348,-34.1328413284133,4,2,4,70,0,0
4551,-34.1328413284133,4,2,1,70,0,0
6172,-34.1328413284133,4,2,2,70,0,0
6578,-34.1328413284133,4,2,3,70,0,0
6780,-34.1328413284133,4,2,4,70,0,0
6983,-34.1328413284133,4,2,1,70,0,0
7591,-34.1328413284133,4,2,4,70,0,0
7794,-34.1328413284133,4,2,1,70,0,0
8605,-34.1328413284133,4,2,4,75,0,0
9010,-34.1328413284133,4,2,5,75,0,0
9213,-34.1328413284133,4,2,4,75,0,0
9415,-34.1328413284133,4,2,6,75,0,0
9821,-34.1328413284133,4,2,5,75,0,0
10024,-34.1328413284133,4,2,4,75,0,0
10226,-34.1328413284133,4,2,6,75,0,0
10834,-34.1328413284133,4,2,4,75,0,0
11037,-34.1328413284133,4,2,6,75,0,0
11645,-34.1328413284133,4,2,1,75,0,0
11848,-34.1328413284133,4,2,7,75,0,0
12051,-34.1328413284133,4,2,8,75,0,0
12456,-34.1328413284133,4,2,4,75,0,0
12659,-34.1328413284133,4,2,8,75,0,0
13064,-34.1328413284133,4,2,2,75,0,0
13267,-34.1328413284133,4,2,3,75,0,0
13469,-34.1328413284133,4,2,1,80,0,0
13875,-34.1328413284133,4,2,8,80,0,0
14280,-34.1328413284133,4,2,9,80,0,0
14686,-34.1328413284133,4,2,10,80,0,0
14888,-34.1328413284133,4,2,4,80,0,0
15091,-34.1328413284133,4,2,8,80,0,0
15699,-34.1328413284133,4,2,4,80,0,0
15902,-34.1328413284133,4,2,8,80,0,0
16713,-34.1328413284133,4,2,4,80,0,0
17118,-34.1328413284133,4,2,8,80,0,0
17524,-34.1328413284133,4,2,9,80,0,0
17929,-34.1328413284133,4,2,10,80,0,0
18132,-34.1328413284133,4,2,4,80,0,0
18334,-34.1328413284133,4,2,8,80,0,0
18942,-34.1328413284133,4,2,4,80,0,0
19145,-34.1328413284133,4,2,8,80,0,0
19753,-34.1328413284133,4,2,1,80,0,0
19956,-34.1328413284133,4,2,4,80,0,0
20361,-34.1328413284133,4,2,5,80,0,0
20564,-34.1328413284133,4,2,4,80,0,0
20767,-34.1328413284133,4,2,6,80,0,0
21172,-34.1328413284133,4,2,5,80,0,0
21375,-34.1328413284133,4,2,4,80,0,0
21578,-34.1328413284133,4,2,6,80,0,0
22186,-34.1328413284133,4,2,4,80,0,0
22388,-34.1328413284133,4,2,6,80,0,0
22996,-34.1328413284133,4,2,3,80,0,0
23199,-34.1328413284133,4,2,2,80,0,0
23605,-34.1328413284133,4,2,4,80,0,0
24618,-34.1328413284133,4,2,1,80,0,0
24821,-34.1328413284133,4,2,1,70,0,0
25328,-34.1328413284133,4,2,4,70,0,0
25632,-34.1328413284133,4,2,1,70,0,0
26037,-34.1328413284133,4,2,3,70,0,0
26240,-34.1328413284133,4,2,4,70,0,0
26442,-34.1328413284133,4,2,1,70,0,0
26949,-34.1328413284133,4,2,4,70,0,0
27253,-34.1328413284133,4,2,1,70,0,0
27659,-34.1328413284133,4,2,3,70,0,0
27861,-34.1328413284133,4,2,4,70,0,0
28064,-34.1328413284133,4,2,1,70,0,0
28571,-34.1328413284133,4,2,4,70,0,0
28875,-34.1328413284133,4,2,1,70,0,0
29483,-34.1328413284133,4,2,4,70,0,0
29686,-34.1328413284133,4,2,1,70,0,0
29888,-34.1328413284133,4,2,4,70,0,0
30091,-34.1328413284133,4,2,1,70,0,0
30699,-34.1328413284133,4,2,4,70,0,0
30902,-34.1328413284133,4,2,1,70,0,0
31814,-34.1328413284133,4,2,4,70,0,0
32118,-34.1328413284133,4,2,1,70,0,0
32524,-34.1328413284133,4,2,3,70,0,0
32726,-34.1328413284133,4,2,4,70,0,0
32929,-34.1328413284133,4,2,1,70,0,0
33436,-34.1328413284133,4,2,4,70,0,0
33740,-34.1328413284133,4,2,1,70,0,0
34145,-34.1328413284133,4,2,3,70,0,0
34348,-34.1328413284133,4,2,4,70,0,0
34551,-34.1328413284133,4,2,1,70,0,0
35057,-34.1328413284133,4,2,4,70,0,0
35361,-34.1328413284133,4,2,1,70,0,0
35969,-34.1328413284133,4,2,4,70,0,0
36172,-34.1328413284133,4,2,1,65,0,0
36375,-34.1328413284133,4,2,4,65,0,0
36578,-34.1328413284133,4,2,1,65,0,0
36983,-34.1328413284133,4,2,1,60,0,0
37186,-34.1328413284133,4,2,4,60,0,0
37388,-34.1328413284133,4,2,1,60,0,0
37794,-34.1328413284133,4,2,1,55,0,0
38199,-34.1328413284133,4,2,6,55,0,0
38301,-34.1328413284133,4,2,4,55,0,0
38605,-34.1328413284133,4,2,6,50,0,0
39010,-34.1328413284133,4,2,5,50,0,0
39213,-34.1328413284133,4,2,4,50,0,0
39415,-34.1328413284133,4,2,6,40,0,0
39922,-34.1328413284133,4,2,4,40,0,0
40226,-34.1328413284133,4,2,6,30,0,0
40632,-34.1328413284133,4,2,5,30,0,0
40834,-34.1328413284133,4,2,4,30,0,0
41037,-34.1328413284133,4,2,4,20,0,0
41442,-34.1328413284133,4,2,4,15,0,0
41848,-34.1328413284133,4,2,4,10,0,0
42253,-34.1328413284133,4,2,4,8,0,0

[Colours]
Combo1 : 192,192,192
Combo2 : 128,128,128

[HitObjects]
173,279,2118,6,0,B|150:158|150:158|131:36|131:36|136:159|136:159|186:323|186:323,1,542,4|10,1:2|2:2,0:0:0:0:
280,167,2726,1,0,1:1:0:0:
373,106,2929,2,0,B|324:219|324:219|285:336|285:336|262:215|262:215|206:53|206:53,1,542,2|10,1:2|2:2,0:0:0:0:
112,29,3537,1,2,2:2:0:0:
296,31,3740,6,0,B|335:148|335:148|370:266|370:266|356:143|356:143|302:306|302:306,1,542,2|10,1:2|2:2,0:0:0:0:
207,190,4348,1,2,1:2:0:0:
394,181,4551,2,0,L|406:292|406:292|397:133|397:133,1,271,2|0,1:2|0:0,0:0:0:0:
303,325,4956,2,0,L|344:221|344:221|395:70|395:70,1,271,10|0,2:2|0:0,0:0:0:0:
205,230,5361,6,0,L|150:340|150:340|118:221|118:221|89:101|89:101|23:259|23:259,1,542,2|10,1:3|2:2,0:0:0:0:
116,128,5969,1,0,1:1:0:0:
210,133,6172,2,0,B|246:251|246:251|301:361|301:361|304:238|304:238|277:68|277:68,1,542,2|10,1:2|2:2,0:0:0:0:
185,21,6780,1,2,2:2:0:0:
371,220,6983,6,0,L|311:328|311:328|270:211|270:211|233:93|233:93|187:258|187:258,1,542,2|10,1:2|2:2,0:0:0:0:
281,329,7591,1,2,1:2:0:0:
96,324,7794,2,0,L|100:213|100:213|89:54|89:54,1,271,2|0,1:2|0:0,0:0:0:0:
272,110,8199,2,0,L|250:219|250:219|180:362|180:362,1,271,10|4,2:2|2:3,0:0:0:0:
451,33,8605,6,0,B|477:154|477:154|516:271|516:271|500:149|500:149|455:315|455:315,1,542,6|10,1:2|2:2,0:0:0:0:
364,148,9213,1,2,1:2:0:0:
181,144,9415,2,0,B|154:265|154:265|118:383|118:383|123:260|123:260|173:96|173:96,1,542,2|10,1:2|2:2,0:0:0:0:
264,244,10024,1,2,2:2:0:0:
449,346,10226,6,0,L|393:236|393:236|379:113|379:113|341:230|341:230|264:383|264:383,1,542,2|10,1:2|2:2,0:0:0:0:
175,336,10834,1,2,1:2:0:0:
268,273,11037,1,2,1:2:0:0:
446,201,11442,2,0,L|463:311|463:311|450:152|450:152,1,271,10|4,2:2|2:3,0:0:0:0:
180,26,11848,6,0,L|144:83|144:83|117:145|117:145|111:212|111:212|88:276|88:276|132:379|132:379|180:227|180:227,2,271,14|0|10,2:2|1:1|2:2,0:0:0:0:
369,25,12456,1,2,1:2:0:0:
180,149,12659,2,0,L|178:260|178:260|174:100|174:100,1,271,10|8,2:2|2:2,0:0:0:0:
220,243,12963,1,8,2:2:0:0:
265,243,13064,1,10,2:3:0:0:
360,239,13267,1,6,2:3:0:0:
92,338,13469,6,0,B|36:228|36:228|42:105|42:105|40:228|40:228|91:64|91:64,1,542,4|10,1:2|2:2,0:0:0:0:
184,212,14078,1,0,1:1:0:0:
277,207,14280,2,0,B|305:327|305:327|337:208|337:208|363:87|363:87|396:255|396:255,1,542,2|10,1:2|2:2,0:0:0:0:
307,73,14888,1,2,1:2:0:0:
122,144,15091,6,0,L|149:264|149:264|189:381|189:381|239:268|239:268|306:110|306:110,1,542,2|10,1:2|2:2,0:0:0:0:
396,172,15699,1,2,1:2:0:0:
210,230,15902,2,0,L|225:340|225:340|206:182|206:182,1,271,2|0,1:2|0:0,0:0:0:0:
298,366,16307,2,0,L|255:263|255:263|206:111|206:111,1,271,10|0,2:2|0:0,0:0:0:0:
392,308,16713,6,0,B|445:196|445:196|482:78|482:78|465:200|465:200|466:372|466:372,1,542,2|10,1:3|2:2,0:0:0:0:
372,184,17321,1,0,1:1:0:0:
278,76,17524,2,0,B|248:196|248:196|206:312|206:312|226:190|226:190|275:26|275:26,1,542,2|10,1:2|2:2,0:0:0:0:
369,211,18132,1,2,1:2:0:0:
184,265,18334,6,0,L|235:377|235:377|267:258|267:258|319:146|319:146|368:310|368:310,1,542,2|10,1:2|2:2,0:0:0:0:
277,356,18942,1,2,1:2:0:0:
90,245,19145,2,0,L|89:356|89:356|87:196|87:196,1,271,2|0,1:2|0:0,0:0:0:0:
273,81,19551,2,0,L|328:178|328:178|365:333|365:333,1,271,10|4,2:2|2:3,0:0:0:0:
98,24,19956,6,0,B|72:145|72:145|27:260|27:260|57:380|57:380|97:213|97:213,1,542,6|10,1:2|2:2,0:0:0:0:
190,116,20564,1,2,1:2:0:0:
375,110,20767,2,0,B|434:219|434:219|440:342|440:342|436:219|436:219|375:59|375:59,1,542,2|10,1:2|2:2,0:0:0:0:
284,207,21375,1,2,1:2:0:0:
100,325,21578,6,0,L|134:206|134:206|185:94|185:94|209:215|209:215|285:369|285:369,1,542,2|10,1:2|2:2,0:0:0:0:
194,252,22186,1,2,1:2:0:0:
101,248,22388,1,2,1:2:0:0:
436,45,22794,2,0,L|454:155|454:155|441:314|441:314,1,271,10|6,2:2|2:3,0:0:0:0:
172,137,23199,6,0,L|144:199|144:199|107:256|107:256|93:322|93:322|80:256|80:256|108:148|108:148|172:2|172:2,2,271,4|0|10,1:2|1:1|2:2,0:0:0:0:
358,129,23807,1,10,2:2:0:0:
176,137,24010,2,0,L|171:248|171:248|173:88|173:88,1,271,10|0,2:2|1:1,0:0:0:0:
441,227,24415,2,0,L|435:338|435:338|443:179|443:179,1,271,14|8,2:2|2:3,0:0:0:0:
155,335,24821,5,4,1:2:0:0:
322,340,25226,2,0,L|329:273|329:273|368:218|368:218|322:91|322:91,2,135.5,10|2|0,2:2|2:2|1:1,0:0:0:0:
136,278,25632,1,2,1:2:0:0:
136,278,26037,2,0,L|188:377|188:377|228:223|228:223,1,271,10|2,2:2|2:2,0:0:0:0:
414,221,26442,5,2,1:2:0:0:
247,262,26848,2,0,L|226:326|226:326|201:263|201:263|247:136|247:136,2,135.5,10|2|0,2:2|2:2|1:1,0:0:0:0:
431,109,27253,1,2,1:2:0:0:
431,109,27659,2,0,L|402:217|402:217|338:363|338:363,1,271,10|2,2:2|2:2,0:0:0:0:
153,111,28064,5,2,1:2:0:0:
312,165,28469,1,10,2:2:0:0:
265,162,28570,1,2,2:2:0:0:
218,159,28672,1,0,1:1:0:0:
33,253,28875,1,2,1:2:0:0:
33,253,29280,2,0,L|66:359|66:359|125:211|125:211,1,271,10|2,2:2|2:2,0:0:0:0:
312,255,29686,6,0,L|326:321|326:321|354:383|354:383|390:326|390:326|404:260|404:260|375:152|375:152|312:5|312:5,2,271,2|2|10,1:2|2:2|2:2,0:0:0:0:
219,256,30294,1,0,1:1:0:0:
404,231,30496,2,0,L|397:342|397:342|403:183|403:183,1,271,2|2,1:2|2:2,0:0:0:0:
356,136,30801,1,2,2:2:0:0:
309,134,30902,1,10,2:2:0:0:
401,18,31105,1,4,2:3:0:0:
132,114,31307,5,4,1:2:0:0:
297,31,31713,2,0,L|298:166|298:166,1,135.5,10|2,2:2|2:2,0:0:0:0:
251,82,31915,1,0,1:1:0:0:
65,192,32118,1,2,1:2:0:0:
65,192,32524,2,0,L|89:301|89:301|158:157|158:157,1,271,10|2,2:2|2:2,0:0:0:0:
343,99,32929,5,2,1:2:0:0:
173,311,33334,1,10,2:2:0:0:
171,264,33435,1,2,2:2:0:0:
169,218,33536,1,0,1:1:0:0:
356,162,33740,1,2,1:2:0:0:
356,162,34145,2,0,L|311:264|311:264|264:112|264:112,1,271,10|2,2:2|2:2,0:0:0:0:
450,82,34551,5,2,1:2:0:0:
280,201,34956,2,0,L|245:259|245:259|234:326|234:326|280:199|280:199,2,135.5,10|2|0,2:2|2:2|1:1,0:0:0:0:
465,201,35361,1,2,1:2:0:0:
465,201,35767,2,0,L|425:305|425:305|373:154|373:154,1,271,10|2,2:2|2:2,0:0:0:0:
188,323,36172,6,0,L|229:377|229:377|250:313|250:313|254:245|254:245|280:183|280:183|234:81|234:81|188:234|188:234,2,271,2|2|10,1:2|2:2|2:2,0:0:0:0:
96,323,36780,1,0,1:1:0:0:
282,235,36983,2,0,L|326:337|326:337|374:185|374:185,1,271,2|10,1:2|2:2,0:0:0:0:
329,165,37287,1,2,2:2:0:0:
282,163,37388,1,10,2:2:0:0:
376,30,37591,1,8,2:2:0:0:
106,131,37794,5,4,1:2:0:0:
256,192,38199,12,2,42253,2:2:0:0:
