osu file format v14

[General]
AudioFilename: audio.mp3
AudioLeadIn: 0
PreviewTime: 62243
Countdown: 0
SampleSet: Normal
StackLeniency: 0.7
Mode: 1
LetterboxInBreaks: 0
WidescreenStoryboard: 0

[Editor]
Bookmarks: 930,20200,34214,48229,62243,74506,88521,102535,116550,134068,146331,172608,193630
DistanceSpacing: 1.4
BeatDivisor: 4
GridSize: 8
TimelineZoom: 2.650002

[Metadata]
Title:Lost Umbrella
TitleUnicode:Lost Umbrella
Artist:inabakumori
ArtistUnicode:inabakumori
Creator:Ulqui
Version:Wet
Source:
Tags:japanese rock j-rock jrock kaai yuki 歌愛ユキ vocaloid アンチサイクロン ANTICYCLONE [Zeth] Skull Kid
BeatmapID:2854284
BeatmapSetID:1381453

[Difficulty]
HPDrainRate:7
CircleSize:2
OverallDifficulty:7
ApproachRate:10
SliderMultiplier:1.4
SliderTickRate:1

[Events]
//Background and Video events
0,0,"beges.png",0,0
//Break Periods
2,13392,19312
2,117188,122231
2,134068,140076
//Storyboard Layer 0 (Background)
//Storyboard Layer 1 (Fail)
//Storyboard Layer 2 (Pass)
//Storyboard Layer 3 (Foreground)
//Storyboard Layer 4 (Overlay)
//Storyboard Sound Samples

[TimingPoints]
55,218.978102189781,4,1,0,80,1,8
930,218.978102189781,4,1,0,80,1,0
930,-200,4,1,0,80,0,0
7937,-111.111111111111,4,1,0,80,0,0
12316,-40,4,1,0,80,0,0
13192,-20,4,1,0,80,0,0
13302,-250,4,1,0,80,0,0
20200,-100,4,1,0,80,0,0
34214,-90.9090909090909,4,1,0,80,0,0
46477,-83.3333333333333,4,1,0,80,0,0
46586,-86.9565217391304,4,1,0,80,0,0
46696,-90.9090909090909,4,1,0,80,0,0
46805,-95.2380952380952,4,1,0,80,0,0
46915,-100,4,1,0,80,0,0
47024,-105.263157894737,4,1,0,80,0,0
47134,-111.111111111111,4,1,0,80,0,0
47243,-117.647058823529,4,1,0,80,0,0
47339,-125,4,1,0,80,0,0
47449,-133.333333333333,4,1,0,80,0,0
47558,-142.857142857143,4,1,0,80,0,0
47668,-153.846153846154,4,1,0,80,0,0
47777,-166.666666666667,4,1,0,80,0,0
47887,-181.818181818182,4,1,0,80,0,0
47996,-200,4,1,0,80,0,0
48229,-250,4,1,0,80,0,1
48284,-250,4,1,0,80,0,1
58740,-250,4,1,0,80,0,0
61805,-76.9230769230769,4,1,0,80,0,0
62243,-100,4,1,0,80,0,1
68375,-100,4,1,0,80,0,1
68429,-101.24826629681,4,1,0,80,0,1
68484,-102.552095527979,4,1,0,80,0,1
68539,-103.889943074004,4,1,0,80,0,1
68594,-105.263157894737,4,1,0,80,0,1
68703,-108.094768015795,4,1,0,80,0,1
68813,-111.111111111111,4,1,0,80,0,1
68867,-112.654320987654,4,1,0,80,0,1
68922,-114.270806157057,4,1,0,80,0,1
68977,-115.934356802541,4,1,0,80,0,1
69032,-117.647058823529,4,1,0,80,0,1
69086,-119.378577269011,4,1,0,80,0,1
69141,-121.195351411179,4,1,0,80,0,1
69196,-123.068277606069,4,1,0,80,0,1
69251,-125,4,1,0,80,0,0
69689,-100,4,1,0,80,0,1
73630,-76.9230769230769,4,1,0,80,0,1
74068,-125,4,1,0,80,0,0
74178,-121.951219512195,4,1,0,80,0,0
74287,-119.047619047619,4,1,0,80,0,0
74397,-116.279069767442,4,1,0,80,0,0
74506,-100,4,1,0,80,0,0
80638,-119.047619047619,4,1,0,80,0,0
80720,-116.279069767442,4,1,0,80,0,0
80829,-113.636363636364,4,1,0,80,0,0
80939,-111.111111111111,4,1,0,80,0,0
80993,-109.89010989011,4,1,0,80,0,0
81048,-108.695652173913,4,1,0,80,0,0
81158,-106.382978723404,4,1,0,80,0,0
81267,-104.166666666667,4,1,0,80,0,0
81377,-102.040816326531,4,1,0,80,0,0
81513,-100,4,1,0,80,0,0
94871,-111.111111111111,4,1,0,80,0,0
95528,-100,4,1,0,80,0,0
102535,-90.9090909090909,4,1,0,80,0,0
114771,-83.3333333333333,4,1,0,80,0,0
114880,-86.9565217391304,4,1,0,80,0,0
114990,-90.9090909090909,4,1,0,80,0,0
115099,-95.2380952380952,4,1,0,80,0,0
115209,-100,4,1,0,80,0,0
115318,-105.263157894737,4,1,0,80,0,0
115428,-111.111111111111,4,1,0,80,0,0
115537,-117.647058823529,4,1,0,80,0,0
115633,-125,4,1,0,80,0,0
115743,-133.333333333333,4,1,0,80,0,0
115852,-142.857142857143,4,1,0,80,0,0
115962,-153.846153846154,4,1,0,80,0,0
116071,-166.666666666667,4,1,0,80,0,0
116181,-181.818181818182,4,1,0,80,0,0
116290,-200,4,1,0,80,0,0
116523,-66.6666666666667,4,1,0,80,0,1
117097,-166.666666666667,4,1,0,80,0,0
123557,-165.975102112991,4,1,0,80,0,1
123776,-152.18253968254,4,1,0,80,0,1
123995,-140.014603870026,4,1,0,80,0,1
124214,-129.648411088573,4,1,0,80,0,1
124324,-125,4,1,0,80,0,1
124433,-166.666666666667,4,1,0,80,0,1
124652,-153.846153846154,4,1,0,80,0,1
124871,-142.857142857143,4,1,0,80,0,1
124981,-137.909319899244,4,1,0,80,0,1
125090,-133.333333333333,4,1,0,80,0,1
125200,-129.013254786451,4,1,0,80,0,1
125309,-166.666666666667,4,1,0,80,0,1
125528,-153.846153846154,4,1,0,80,0,1
125747,-142.857142857143,4,1,0,80,0,1
125966,-133.333333333333,4,1,0,80,0,1
126075,-129.051266941662,4,1,0,80,0,1
126185,-166.666666666667,4,1,0,80,0,1
126404,-153.846153846154,4,1,0,80,0,1
126623,-142.857142857143,4,1,0,80,0,1
126732,-137.952755905512,4,1,0,80,0,1
126842,-133.333333333333,4,1,0,80,0,1
126951,-129.051266941662,4,1,0,80,0,1
127061,-166.666666666667,4,1,0,80,0,1
127280,-153.846153846154,4,1,0,80,0,1
127499,-142.857142857143,4,1,0,80,0,1
127718,-133.333333333333,4,1,0,80,0,1
127827,-129.051266941662,4,1,0,80,0,1
127937,-166.666666666667,4,1,0,80,0,1
128156,-153.846153846154,4,1,0,80,0,1
128375,-142.857142857143,4,1,0,80,0,1
128484,-137.952755905512,4,1,0,80,0,1
128594,-133.333333333333,4,1,0,80,0,1
128703,-129.051266941662,4,1,0,80,0,1
128813,-166.666666666667,4,1,0,80,0,1
129032,-153.846153846154,4,1,0,80,0,1
129251,-142.857142857143,4,1,0,80,0,1
129470,-133.333333333333,4,1,0,80,0,1
129579,-129.051266941662,4,1,0,80,0,1
129689,-125,4,1,0,80,0,1
129835,-99.9984801992042,4,1,0,80,0,1
129981,-105.262315646114,4,1,0,80,0,1
130127,-111.731843026642,4,1,0,80,0,0
130565,-100,4,1,0,80,0,0
132316,-50,4,1,0,80,0,0
132535,-57.1428571428571,4,1,0,80,0,0
132754,-66.6666666666667,4,1,0,80,0,0
132973,-80,4,1,0,80,0,0
133192,218.978102189781,4,1,0,80,1,8
133192,-200.000004470348,4,1,0,80,0,0
134067,218.978102189781,4,1,0,80,1,0
134067,-200,4,1,0,80,0,0
140636,-200,4,1,0,80,0,0
146329,-100,4,1,0,80,0,1
152461,-100,4,1,0,80,0,1
152515,-101.271676300578,4,1,0,80,0,1
152570,-102.576112412178,4,1,0,80,0,1
152625,-103.914590747331,4,1,0,80,0,1
152680,-105.263157894737,4,1,0,80,0,1
152734,-106.673161227472,4,1,0,80,0,1
152789,-108.121451493458,4,1,0,80,0,1
152844,-109.60960960961,4,1,0,80,0,1
152899,-111.111111111111,4,1,0,80,0,1
152953,-112.683303318755,4,1,0,80,0,1
153008,-114.300626304802,4,1,0,80,0,1
153063,-115.965051628276,4,1,0,80,0,1
153118,-117.647058823529,4,1,0,80,0,1
153172,-119.411123227917,4,1,0,80,0,1
153227,-121.228895654581,4,1,0,80,0,1
153282,-123.102866779089,4,1,0,80,0,1
153337,-125,4,1,0,80,0,0
153665,-125.391850004223,4,1,0,80,0,0
153775,-100,4,1,0,80,0,1
157689,-76.9230769230769,4,1,0,80,0,1
158154,-100,4,1,0,80,0,0
158592,-100,4,1,0,80,0,1
172059,-100,4,1,0,80,0,0
172607,-90.9090909090909,4,1,0,80,0,0
191850,-83.3333333333333,4,1,0,80,0,0
191959,-86.9565217391304,4,1,0,80,0,0
192069,-90.9090909090909,4,1,0,80,0,0
192178,-95.2380952380952,4,1,0,80,0,0
192288,-100,4,1,0,80,0,0
192397,-105.263157894737,4,1,0,80,0,0
192507,-111.111111111111,4,1,0,80,0,0
192616,-117.647058823529,4,1,0,80,0,0
192712,-125,4,1,0,80,0,0
192822,-133.333333333333,4,1,0,80,0,0
192931,-142.857142857143,4,1,0,80,0,0
193041,-153.846153846154,4,1,0,80,0,0
193150,-166.666666666667,4,1,0,80,0,0
193260,-181.818181818182,4,1,0,80,0,0
193369,-200,4,1,0,80,0,0
193629,-90.9090909090909,4,1,0,80,0,0

[HitObjects]
138,120,930,5,8,0:0:0:0:
151,184,1805,1,0,0:0:0:0:
149,179,2681,1,8,0:0:0:0:
160,155,4433,1,0,0:0:0:0:
160,155,5309,1,8,0:0:0:0:
160,155,6185,1,0,0:0:0:0:
165,165,7499,1,8,0:0:0:0:
165,165,7937,1,4,0:0:0:0:
165,128,8156,1,8,0:0:0:0:
165,128,8375,1,0,0:0:0:0:
165,128,8484,1,0,0:0:0:0:
165,128,8594,1,8,0:0:0:0:
165,128,8813,1,0,0:0:0:0:
161,137,9032,1,8,0:0:0:0:
161,137,9141,1,0,0:0:0:0:
161,137,9360,1,0,0:0:0:0:
161,137,9470,1,8,0:0:0:0:
208,114,9689,1,0,0:0:0:0:
186,134,9908,1,8,0:0:0:0:
185,137,10127,1,0,0:0:0:0:
185,136,10236,1,0,0:0:0:0:
185,136,10346,1,8,0:0:0:0:
197,121,10565,1,0,0:0:0:0:
196,127,10784,1,8,0:0:0:0:
198,138,10893,1,0,0:0:0:0:
198,138,11112,1,0,0:0:0:0:
198,138,11221,1,8,0:0:0:0:
205,129,11440,1,0,0:0:0:0:
198,138,11659,1,8,0:0:0:0:
236,93,11769,1,8,0:0:0:0:
198,138,11878,1,0,0:0:0:0:
198,138,11988,1,0,0:0:0:0:
194,136,12097,1,8,0:0:0:0:
186,129,12316,1,4,0:0:0:0:
186,129,12535,1,4,0:0:0:0:
211,120,13192,1,12,0:0:0:0:
115,151,19762,5,0,0:0:0:0:
115,151,19981,1,8,0:0:0:0:
98,152,20200,5,12,0:0:0:0:
133,141,20309,1,0,0:0:0:0:
133,142,20419,1,8,0:0:0:0:
154,125,20473,1,8,0:0:0:0:
142,81,20528,1,0,0:0:0:0:
138,90,20638,1,8,0:0:0:0:
182,50,20692,1,8,0:0:0:0:
150,102,20747,1,0,0:0:0:0:
147,98,20857,1,0,0:0:0:0:
145,98,20966,1,0,0:0:0:0:
143,100,21075,1,8,0:0:0:0:
156,112,21130,1,0,0:0:0:0:
156,112,21185,1,0,0:0:0:0:
156,112,21240,1,0,0:0:0:0:
156,112,21294,1,0,0:0:0:0:
154,113,21404,1,8,0:0:0:0:
176,100,21459,1,0,0:0:0:0:
153,114,21513,1,0,0:0:0:0:
175,115,21623,1,0,0:0:0:0:
175,101,21732,1,8,0:0:0:0:
40,163,21787,1,8,0:0:0:0:
181,141,21842,1,8,0:0:0:0:
32,164,21897,1,8,0:0:0:0:
181,141,21951,1,0,0:0:0:0:
170,184,22061,1,0,0:0:0:0:
170,184,22170,1,8,0:0:0:0:
137,134,22225,1,0,0:0:0:0:
170,184,22280,1,0,0:0:0:0:
135,133,22389,1,8,0:0:0:0:
210,75,22444,1,8,0:0:0:0:
210,75,22499,1,0,0:0:0:0:
210,75,22608,1,0,0:0:0:0:
205,80,22718,1,0,0:0:0:0:
204,80,22827,1,8,0:0:0:0:
164,76,22882,1,0,0:0:0:0:
158,83,22937,1,0,0:0:0:0:
164,76,22992,1,0,0:0:0:0:
158,83,23046,1,0,0:0:0:0:
159,85,23101,1,0,0:0:0:0:
143,77,23156,1,8,0:0:0:0:
143,77,23211,1,8,0:0:0:0:
143,77,23265,1,8,0:0:0:0:
143,77,23320,1,8,0:0:0:0:
143,77,23375,1,8,0:0:0:0:
143,77,23429,1,8,0:0:0:0:
143,77,23484,1,0,0:0:0:0:
131,100,23594,1,0,0:0:0:0:
126,103,23703,1,8,0:0:0:0:
126,103,23813,1,0,0:0:0:0:
122,173,23922,1,8,0:0:0:0:
154,114,23977,1,8,0:0:0:0:
122,173,24032,1,0,0:0:0:0:
154,118,24141,1,8,0:0:0:0:
175,104,24196,1,8,0:0:0:0:
122,173,24251,1,0,0:0:0:0:
140,88,24360,1,8,0:0:0:0:
139,88,24470,1,0,0:0:0:0:
138,88,24579,1,8,0:0:0:0:
175,85,24634,1,0,0:0:0:0:
181,80,24689,1,0,0:0:0:0:
175,85,24743,1,0,0:0:0:0:
175,84,24798,1,0,0:0:0:0:
169,89,24908,1,8,0:0:0:0:
169,89,24962,1,0,0:0:0:0:
169,89,25017,1,0,0:0:0:0:
168,104,25127,1,0,0:0:0:0:
166,105,25236,1,8,0:0:0:0:
223,174,25291,1,8,0:0:0:0:
157,119,25346,1,8,0:0:0:0:
223,174,25400,1,8,0:0:0:0:
154,122,25455,1,0,0:0:0:0:
137,138,25565,1,0,0:0:0:0:
134,141,25674,1,8,0:0:0:0:
137,104,25729,1,0,0:0:0:0:
167,53,25784,1,0,0:0:0:0:
153,104,25893,1,8,0:0:0:0:
153,104,25948,1,8,0:0:0:0:
137,105,26002,1,0,0:0:0:0:
142,120,26112,1,0,0:0:0:0:
140,120,26221,1,0,0:0:0:0:
140,120,26331,1,8,0:0:0:0:
155,107,26386,1,0,0:0:0:0:
155,107,26440,1,0,0:0:0:0:
155,107,26495,1,0,0:0:0:0:
155,107,26550,1,0,0:0:0:0:
153,104,26605,1,0,0:0:0:0:
153,104,26659,1,8,0:0:0:0:
153,104,26714,1,8,0:0:0:0:
157,65,26769,1,0,0:0:0:0:
157,65,26824,1,0,0:0:0:0:
157,65,26878,1,8,0:0:0:0:
156,72,26933,1,0,0:0:0:0:
165,60,26988,1,8,0:0:0:0:
171,61,27097,1,0,0:0:0:0:
98,152,27207,5,12,0:0:0:0:
133,141,27316,1,0,0:0:0:0:
133,142,27426,1,8,0:0:0:0:
154,125,27481,1,8,0:0:0:0:
142,81,27535,1,0,0:0:0:0:
138,90,27645,1,8,0:0:0:0:
182,50,27700,1,8,0:0:0:0:
150,102,27754,1,0,0:0:0:0:
147,98,27864,1,0,0:0:0:0:
145,98,27973,1,0,0:0:0:0:
143,100,28083,1,8,0:0:0:0:
156,112,28138,1,0,0:0:0:0:
156,112,28192,1,0,0:0:0:0:
156,112,28247,1,0,0:0:0:0:
156,112,28302,1,0,0:0:0:0:
154,113,28411,1,8,0:0:0:0:
176,100,28466,1,0,0:0:0:0:
153,114,28521,1,0,0:0:0:0:
175,115,28630,1,0,0:0:0:0:
175,101,28740,1,8,0:0:0:0:
40,163,28794,1,8,0:0:0:0:
181,141,28849,1,8,0:0:0:0:
32,164,28904,1,8,0:0:0:0:
181,141,28959,1,0,0:0:0:0:
170,184,29068,1,0,0:0:0:0:
170,184,29178,1,8,0:0:0:0:
137,134,29232,1,0,0:0:0:0:
170,184,29287,1,0,0:0:0:0:
135,133,29397,1,8,0:0:0:0:
210,75,29451,1,8,0:0:0:0:
210,75,29506,1,0,0:0:0:0:
210,75,29616,1,0,0:0:0:0:
205,80,29725,1,0,0:0:0:0:
204,80,29835,1,8,0:0:0:0:
164,76,29889,1,0,0:0:0:0:
158,83,29944,1,0,0:0:0:0:
164,76,29999,1,0,0:0:0:0:
158,83,30054,1,0,0:0:0:0:
159,85,30108,1,0,0:0:0:0:
143,77,30163,1,8,0:0:0:0:
143,77,30218,1,8,0:0:0:0:
143,77,30273,1,8,0:0:0:0:
143,77,30327,1,8,0:0:0:0:
143,77,30382,1,8,0:0:0:0:
143,77,30437,1,8,0:0:0:0:
143,77,30492,1,0,0:0:0:0:
131,100,30601,1,0,0:0:0:0:
126,103,30711,1,8,0:0:0:0:
126,103,30820,1,0,0:0:0:0:
122,173,30929,1,8,0:0:0:0:
154,114,30984,1,8,0:0:0:0:
122,173,31039,1,0,0:0:0:0:
154,118,31148,1,8,0:0:0:0:
175,104,31203,1,8,0:0:0:0:
122,173,31258,1,0,0:0:0:0:
140,88,31367,1,8,0:0:0:0:
139,88,31477,1,0,0:0:0:0:
138,88,31586,1,8,0:0:0:0:
175,85,31641,1,0,0:0:0:0:
181,80,31696,1,0,0:0:0:0:
175,85,31751,1,0,0:0:0:0:
175,84,31805,1,0,0:0:0:0:
169,89,31915,1,8,0:0:0:0:
169,89,31970,1,0,0:0:0:0:
169,89,32024,1,0,0:0:0:0:
168,104,32134,1,0,0:0:0:0:
166,105,32243,1,8,0:0:0:0:
223,174,32298,1,8,0:0:0:0:
157,119,32353,1,8,0:0:0:0:
223,174,32408,1,8,0:0:0:0:
154,122,32462,1,0,0:0:0:0:
137,138,32572,1,0,0:0:0:0:
134,141,32681,1,8,0:0:0:0:
137,104,32736,1,0,0:0:0:0:
167,53,32791,1,0,0:0:0:0:
153,104,32900,1,8,0:0:0:0:
153,104,32955,1,8,0:0:0:0:
137,105,33010,1,0,0:0:0:0:
142,120,33119,1,0,0:0:0:0:
140,120,33229,1,0,0:0:0:0:
140,120,33338,1,8,0:0:0:0:
155,107,33393,1,0,0:0:0:0:
155,107,33448,1,0,0:0:0:0:
155,107,33502,1,0,0:0:0:0:
155,107,33557,1,0,0:0:0:0:
153,104,33612,1,0,0:0:0:0:
153,104,33667,1,8,0:0:0:0:
153,104,33721,1,8,0:0:0:0:
157,65,33776,1,0,0:0:0:0:
157,65,33831,1,0,0:0:0:0:
157,65,33886,1,8,0:0:0:0:
156,72,33940,1,0,0:0:0:0:
165,60,33995,1,8,0:0:0:0:
171,61,34105,1,8,0:0:0:0:
235,116,34214,1,4,0:0:0:0:
245,130,34324,1,8,0:0:0:0:
245,130,34433,1,4,0:0:0:0:
192,158,34543,1,8,0:0:0:0:
192,158,34652,1,8,0:0:0:0:
192,158,34762,1,8,0:0:0:0:
192,158,34871,1,8,0:0:0:0:
192,125,34981,1,8,0:0:0:0:
192,125,35090,1,8,0:0:0:0:
192,125,35200,1,8,0:0:0:0:
192,125,35309,1,8,0:0:0:0:
186,78,35419,1,8,0:0:0:0:
186,78,35528,1,8,0:0:0:0:
186,78,35638,1,8,0:0:0:0:
186,78,35747,1,8,0:0:0:0:
149,78,35857,1,8,0:0:0:0:
149,78,35966,1,4,0:0:0:0:
160,61,36075,1,8,0:0:0:0:
152,71,36185,1,4,0:0:0:0:
125,108,36294,1,8,0:0:0:0:
125,108,36404,1,8,0:0:0:0:
174,82,36513,1,8,0:0:0:0:
174,82,36623,1,8,0:0:0:0:
174,82,36732,1,8,0:0:0:0:
182,105,36842,1,8,0:0:0:0:
181,106,36951,1,8,0:0:0:0:
181,106,37061,1,8,0:0:0:0:
181,106,37170,1,8,0:0:0:0:
189,88,37280,1,8,0:0:0:0:
187,88,37389,1,8,0:0:0:0:
187,88,37499,1,8,0:0:0:0:
187,88,37608,1,8,0:0:0:0:
149,102,37718,1,4,0:0:0:0:
146,141,37827,1,8,0:0:0:0:
148,104,37937,1,4,0:0:0:0:
146,141,38046,1,8,0:0:0:0:
146,141,38156,1,8,0:0:0:0:
146,141,38265,1,8,0:0:0:0:
146,141,38375,1,8,0:0:0:0:
141,133,38484,1,8,0:0:0:0:
146,141,38594,1,8,0:0:0:0:
146,141,38703,1,8,0:0:0:0:
146,141,38813,1,8,0:0:0:0:
146,141,38922,1,8,0:0:0:0:
146,141,39032,1,8,0:0:0:0:
146,141,39141,1,8,0:0:0:0:
144,145,39251,1,8,0:0:0:0:
153,75,39360,1,8,0:0:0:0:
146,82,39470,1,4,0:0:0:0:
90,128,39579,1,8,0:0:0:0:
162,89,39689,1,4,0:0:0:0:
90,128,39798,1,8,0:0:0:0:
103,155,39908,1,8,0:0:0:0:
103,155,40017,1,8,0:0:0:0:
149,136,40127,1,8,0:0:0:0:
149,136,40236,1,8,0:0:0:0:
149,136,40346,1,8,0:0:0:0:
149,136,40455,1,8,0:0:0:0:
149,136,40565,1,8,0:0:0:0:
149,136,40674,1,8,0:0:0:0:
175,77,40784,1,8,0:0:0:0:
169,82,40893,1,8,0:0:0:0:
167,83,41002,1,8,0:0:0:0:
167,83,41112,1,8,0:0:0:0:
157,99,41221,1,4,0:0:0:0:
187,128,41331,1,8,0:0:0:0:
157,99,41440,1,4,0:0:0:0:
187,128,41550,1,8,0:0:0:0:
165,103,41659,1,8,0:0:0:0:
165,103,41769,1,8,0:0:0:0:
165,104,41878,1,8,0:0:0:0:
165,105,41988,1,8,0:0:0:0:
157,99,42097,1,4,0:0:0:0:
164,117,42207,1,8,0:0:0:0:
158,107,42316,1,4,0:0:0:0:
164,122,42426,1,8,0:0:0:0:
164,122,42535,1,8,0:0:0:0:
164,122,42645,1,8,0:0:0:0:
164,122,42754,1,8,0:0:0:0:
164,122,42864,1,8,0:0:0:0:
158,107,42973,1,4,0:0:0:0:
150,94,43083,1,8,0:0:0:0:
158,107,43192,1,4,0:0:0:0:
151,100,43302,1,8,0:0:0:0:
151,100,43411,1,8,0:0:0:0:
160,96,43521,1,8,0:0:0:0:
160,98,43630,1,8,0:0:0:0:
158,107,43740,1,8,0:0:0:0:
158,107,43849,1,4,0:0:0:0:
144,104,43959,1,8,0:0:0:0:
131,134,44068,1,4,0:0:0:0:
144,107,44178,1,8,0:0:0:0:
144,107,44287,1,8,0:0:0:0:
144,107,44397,1,8,0:0:0:0:
144,107,44506,1,8,0:0:0:0:
158,83,44616,1,8,0:0:0:0:
131,134,44725,1,4,0:0:0:0:
153,119,44835,1,8,0:0:0:0:
151,125,44944,1,8,0:0:0:0:
150,126,45054,1,8,0:0:0:0:
138,130,45163,1,4,0:0:0:0:
153,135,45273,1,8,0:0:0:0:
153,136,45382,1,8,0:0:0:0:
153,136,45492,1,8,0:0:0:0:
138,130,45601,1,4,0:0:0:0:
153,137,45711,1,8,0:0:0:0:
153,137,45820,1,8,0:0:0:0:
153,137,45929,1,8,0:0:0:0:
169,160,46039,1,4,0:0:0:0:
123,72,46148,1,8,0:0:0:0:
124,78,46258,1,8,0:0:0:0:
124,84,46367,1,8,0:0:0:0:
169,160,46477,1,4,0:0:0:0:
133,124,46586,1,8,0:0:0:0:
169,160,46696,1,4,0:0:0:0:
133,124,46805,1,8,0:0:0:0:
169,160,46915,1,4,0:0:0:0:
133,124,47024,1,8,0:0:0:0:
169,160,47134,1,4,0:0:0:0:
133,124,47243,1,8,0:0:0:0:
169,160,47353,1,4,0:0:0:0:
169,160,47462,1,12,0:0:0:0:
169,160,47572,1,4,0:0:0:0:
169,160,47681,1,4,0:0:0:0:
169,160,47791,1,12,0:0:0:0:
131,103,47900,1,12,0:0:0:0:
131,103,48010,1,4,0:0:0:0:
131,103,48229,1,12,0:0:0:0:
127,167,48448,1,0,0:0:0:0:
127,167,48667,1,0,0:0:0:0:
127,167,48886,1,0,0:0:0:0:
127,166,49105,1,8,0:0:0:0:
127,167,49324,1,0,0:0:0:0:
127,166,49543,1,8,0:0:0:0:
127,166,49762,1,8,0:0:0:0:
127,166,49981,1,8,0:0:0:0:
127,166,50200,1,0,0:0:0:0:
127,166,50419,1,8,0:0:0:0:
127,166,50638,1,8,0:0:0:0:
127,166,50857,1,8,0:0:0:0:
157,140,51075,1,0,0:0:0:0:
157,140,51294,1,8,0:0:0:0:
157,140,51513,1,0,0:0:0:0:
157,140,51732,1,8,0:0:0:0:
150,130,51951,1,0,0:0:0:0:
142,133,52170,1,0,0:0:0:0:
141,134,52389,1,0,0:0:0:0:
138,136,52608,1,8,0:0:0:0:
142,133,52827,1,0,0:0:0:0:
141,134,53046,1,8,0:0:0:0:
141,134,53265,1,8,0:0:0:0:
120,111,53484,1,8,0:0:0:0:
127,112,53703,1,0,0:0:0:0:
127,114,53922,1,8,0:0:0:0:
127,111,54141,1,0,0:0:0:0:
127,112,54360,1,0,0:0:0:0:
156,125,54579,1,8,0:0:0:0:
156,125,54798,1,0,0:0:0:0:
155,125,55017,1,8,0:0:0:0:
156,125,55236,1,12,0:0:0:0:
162,165,55455,1,0,0:0:0:0:
162,165,55674,1,0,0:0:0:0:
162,165,55893,1,8,0:0:0:0:
162,165,56112,1,8,0:0:0:0:
173,125,56331,1,0,0:0:0:0:
173,125,56550,1,8,0:0:0:0:
173,125,56769,1,0,0:0:0:0:
173,125,56988,1,8,0:0:0:0:
175,131,57207,1,0,0:0:0:0:
173,135,57426,1,8,0:0:0:0:
173,135,57645,1,8,0:0:0:0:
175,131,57864,1,0,0:0:0:0:
155,157,58083,1,8,0:0:0:0:
154,158,58302,1,8,0:0:0:0:
154,158,58521,1,0,0:0:0:0:
133,159,61805,1,12,0:0:0:0:
217,150,62243,1,4,0:0:0:0:
245,153,62353,1,8,0:0:0:0:
245,153,62408,1,8,0:0:0:0:
245,153,62462,1,0,0:0:0:0:
154,68,62572,1,0,0:0:0:0:
146,76,62681,1,8,0:0:0:0:
176,69,62736,1,0,0:0:0:0:
176,69,62791,1,0,0:0:0:0:
176,69,62846,1,0,0:0:0:0:
176,69,62900,1,0,0:0:0:0:
211,65,63010,1,0,0:0:0:0:
208,66,63119,1,8,0:0:0:0:
196,64,63174,1,0,0:0:0:0:
196,64,63229,1,8,0:0:0:0:
196,64,63284,1,0,0:0:0:0:
196,64,63338,1,8,0:0:0:0:
179,78,63448,1,0,0:0:0:0:
177,79,63557,1,8,0:0:0:0:
181,108,63667,1,0,0:0:0:0:
130,31,63721,1,0,0:0:0:0:
181,108,63776,1,8,0:0:0:0:
167,77,63886,1,8,0:0:0:0:
162,80,63995,1,0,0:0:0:0:
127,45,64050,1,0,0:0:0:0:
130,31,64105,1,0,0:0:0:0:
196,64,64159,1,0,0:0:0:0:
130,31,64214,1,8,0:0:0:0:
161,42,64324,1,0,0:0:0:0:
161,42,64433,1,8,0:0:0:0:
154,56,64543,1,0,0:0:0:0:
154,57,64597,1,8,0:0:0:0:
154,57,64652,1,8,0:0:0:0:
170,67,64762,1,0,0:0:0:0:
170,67,64871,1,8,0:0:0:0:
265,93,64926,1,8,0:0:0:0:
223,61,64981,1,0,0:0:0:0:
163,64,65035,1,8,0:0:0:0:
160,66,65090,1,0,0:0:0:0:
191,52,65200,1,8,0:0:0:0:
188,62,65309,1,0,0:0:0:0:
161,50,65419,1,0,0:0:0:0:
162,48,65473,1,0,0:0:0:0:
161,50,65528,1,8,0:0:0:0:
184,39,65638,1,0,0:0:0:0:
181,41,65747,1,8,0:0:0:0:
165,91,65857,1,0,0:0:0:0:
180,63,65966,1,8,0:0:0:0:
191,52,66021,1,0,0:0:0:0:
188,62,66075,1,8,0:0:0:0:
191,51,66130,1,0,0:0:0:0:
180,67,66185,1,8,0:0:0:0:
195,19,66240,1,8,0:0:0:0:
179,38,66294,1,0,0:0:0:0:
184,39,66349,1,0,0:0:0:0:
184,39,66404,1,8,0:0:0:0:
219,53,66513,1,0,0:0:0:0:
211,57,66623,1,8,0:0:0:0:
138,90,66732,1,0,0:0:0:0:
167,81,66787,1,8,0:0:0:0:
138,90,66842,1,0,0:0:0:0:
172,39,66951,1,8,0:0:0:0:
170,42,67061,1,0,0:0:0:0:
165,42,67116,1,0,0:0:0:0:
167,39,67170,1,0,0:0:0:0:
165,42,67225,1,0,0:0:0:0:
165,42,67280,1,8,0:0:0:0:
161,79,67389,1,0,0:0:0:0:
161,79,67499,1,8,0:0:0:0:
159,53,67608,1,0,0:0:0:0:
159,56,67718,1,8,0:0:0:0:
179,91,67773,1,0,0:0:0:0:
184,90,67827,1,0,0:0:0:0:
178,93,67882,1,0,0:0:0:0:
174,96,67937,1,8,0:0:0:0:
149,86,68046,1,0,0:0:0:0:
148,86,68156,1,8,0:0:0:0:
165,105,68265,1,8,0:0:0:0:
165,105,68375,1,0,0:0:0:0:
146,74,68429,1,0,0:0:0:0:
139,82,68484,1,0,0:0:0:0:
144,77,68539,1,0,0:0:0:0:
139,82,68594,1,8,0:0:0:0:
139,72,68703,1,0,0:0:0:0:
139,72,68813,1,8,0:0:0:0:
143,68,68867,1,8,0:0:0:0:
139,72,68922,1,0,0:0:0:0:
143,68,68977,1,0,0:0:0:0:
146,74,69032,1,8,0:0:0:0:
146,74,69086,1,8,0:0:0:0:
146,74,69141,1,8,0:0:0:0:
146,74,69196,1,8,0:0:0:0:
146,74,69251,1,0,0:0:0:0:
171,141,69579,1,12,0:0:0:0:
171,141,69689,1,4,0:0:0:0:
171,94,69798,1,8,0:0:0:0:
162,89,69853,1,8,0:0:0:0:
144,132,69908,1,0,0:0:0:0:
150,95,70017,1,0,0:0:0:0:
150,95,70127,1,8,0:0:0:0:
169,110,70181,1,0,0:0:0:0:
181,107,70236,1,8,0:0:0:0:
168,110,70291,1,0,0:0:0:0:
172,110,70346,1,8,0:0:0:0:
149,64,70455,1,0,0:0:0:0:
138,69,70565,1,8,0:0:0:0:
138,69,70674,1,0,0:0:0:0:
187,88,70729,1,0,0:0:0:0:
138,69,70784,1,8,0:0:0:0:
182,93,70893,1,0,0:0:0:0:
148,81,71002,1,8,0:0:0:0:
195,119,71057,1,8,0:0:0:0:
200,115,71112,1,0,0:0:0:0:
195,119,71167,1,0,0:0:0:0:
199,116,71221,1,8,0:0:0:0:
192,123,71331,1,0,0:0:0:0:
192,123,71440,1,8,0:0:0:0:
192,123,71550,1,0,0:0:0:0:
156,108,71605,1,8,0:0:0:0:
165,58,71659,1,8,0:0:0:0:
165,126,71769,1,0,0:0:0:0:
165,127,71878,1,8,0:0:0:0:
140,82,71988,1,0,0:0:0:0:
140,82,72043,1,8,0:0:0:0:
141,82,72097,1,0,0:0:0:0:
137,57,72207,1,0,0:0:0:0:
137,61,72316,1,8,0:0:0:0:
176,77,72371,1,0,0:0:0:0:
177,76,72426,1,0,0:0:0:0:
176,77,72481,1,0,0:0:0:0:
177,77,72535,1,8,0:0:0:0:
166,45,72590,1,0,0:0:0:0:
166,45,72645,1,8,0:0:0:0:
166,45,72700,1,8,0:0:0:0:
186,49,72754,1,0,0:0:0:0:
166,57,72864,1,0,0:0:0:0:
167,56,72919,1,0,0:0:0:0:
184,52,72973,1,8,0:0:0:0:
182,39,73083,1,8,0:0:0:0:
166,56,73192,1,0,0:0:0:0:
169,55,73247,1,8,0:0:0:0:
166,57,73302,1,0,0:0:0:0:
158,42,73357,1,0,0:0:0:0:
159,47,73411,1,8,0:0:0:0:
182,25,73521,1,0,0:0:0:0:
182,25,73630,1,12,0:0:0:0:
159,99,73849,1,12,0:0:0:0:
171,144,74068,1,0,0:0:0:0:
171,144,74178,1,0,0:0:0:0:
171,144,74287,1,0,0:0:0:0:
171,144,74397,1,0,0:0:0:0:
98,152,74506,5,12,0:0:0:0:
133,141,74616,1,0,0:0:0:0:
133,142,74725,1,8,0:0:0:0:
154,125,74780,1,8,0:0:0:0:
142,81,74835,1,0,0:0:0:0:
138,90,74944,1,8,0:0:0:0:
182,50,74999,1,8,0:0:0:0:
150,102,75054,1,0,0:0:0:0:
147,98,75163,1,0,0:0:0:0:
145,98,75273,1,0,0:0:0:0:
143,100,75382,1,8,0:0:0:0:
156,112,75437,1,0,0:0:0:0:
156,112,75492,1,0,0:0:0:0:
156,112,75546,1,0,0:0:0:0:
156,112,75601,1,0,0:0:0:0:
154,113,75711,1,8,0:0:0:0:
176,100,75765,1,0,0:0:0:0:
153,114,75820,1,0,0:0:0:0:
175,115,75929,1,0,0:0:0:0:
175,101,76039,1,8,0:0:0:0:
40,163,76094,1,8,0:0:0:0:
181,141,76148,1,8,0:0:0:0:
32,164,76203,1,8,0:0:0:0:
181,141,76258,1,0,0:0:0:0:
170,184,76367,1,0,0:0:0:0:
170,184,76477,1,8,0:0:0:0:
137,134,76532,1,0,0:0:0:0:
170,184,76586,1,0,0:0:0:0:
135,133,76696,1,8,0:0:0:0:
210,75,76751,1,8,0:0:0:0:
210,75,76805,1,0,0:0:0:0:
210,75,76915,1,0,0:0:0:0:
205,80,77024,1,0,0:0:0:0:
204,80,77134,1,8,0:0:0:0:
164,76,77189,1,0,0:0:0:0:
158,83,77243,1,0,0:0:0:0:
164,76,77298,1,0,0:0:0:0:
158,83,77353,1,0,0:0:0:0:
159,85,77408,1,0,0:0:0:0:
143,77,77462,1,8,0:0:0:0:
143,77,77517,1,8,0:0:0:0:
143,77,77572,1,8,0:0:0:0:
143,77,77627,1,0,0:0:0:0:
143,77,77681,1,8,0:0:0:0:
143,77,77736,1,8,0:0:0:0:
143,77,77791,1,0,0:0:0:0:
131,100,77900,1,0,0:0:0:0:
126,103,78010,1,8,0:0:0:0:
126,103,78119,1,0,0:0:0:0:
122,173,78229,1,8,0:0:0:0:
154,114,78284,1,8,0:0:0:0:
122,173,78338,1,0,0:0:0:0:
154,118,78448,1,8,0:0:0:0:
175,104,78502,1,8,0:0:0:0:
122,173,78557,1,0,0:0:0:0:
140,88,78667,1,8,0:0:0:0:
139,88,78776,1,0,0:0:0:0:
138,88,78886,1,8,0:0:0:0:
175,85,78940,1,0,0:0:0:0:
181,80,78995,1,0,0:0:0:0:
175,85,79050,1,0,0:0:0:0:
175,84,79105,1,0,0:0:0:0:
169,89,79214,1,8,0:0:0:0:
169,89,79269,1,0,0:0:0:0:
169,89,79324,1,0,0:0:0:0:
168,104,79433,1,0,0:0:0:0:
166,105,79543,1,8,0:0:0:0:
223,174,79597,1,8,0:0:0:0:
157,119,79652,1,8,0:0:0:0:
223,174,79707,1,8,0:0:0:0:
154,122,79762,1,0,0:0:0:0:
137,138,79871,1,0,0:0:0:0:
134,141,79981,1,8,0:0:0:0:
137,104,80035,1,0,0:0:0:0:
167,53,80090,1,0,0:0:0:0:
153,104,80200,1,8,0:0:0:0:
153,104,80254,1,8,0:0:0:0:
137,105,80309,1,0,0:0:0:0:
142,120,80419,1,0,0:0:0:0:
140,120,80528,1,0,0:0:0:0:
163,112,80638,1,8,0:0:0:0:
163,112,80747,1,0,0:0:0:0:
163,112,80857,1,0,0:0:0:0:
163,112,80966,1,0,0:0:0:0:
163,112,81021,1,0,0:0:0:0:
163,112,81075,1,8,0:0:0:0:
151,104,81185,1,8,0:0:0:0:
151,104,81294,1,8,0:0:0:0:
171,61,81404,1,8,0:0:0:0:
98,152,81513,5,12,0:0:0:0:
133,141,81623,1,0,0:0:0:0:
133,142,81732,1,8,0:0:0:0:
154,125,81787,1,8,0:0:0:0:
142,81,81842,1,0,0:0:0:0:
138,90,81951,1,8,0:0:0:0:
182,50,82006,1,8,0:0:0:0:
150,102,82061,1,0,0:0:0:0:
147,98,82170,1,0,0:0:0:0:
145,98,82280,1,0,0:0:0:0:
143,100,82389,1,8,0:0:0:0:
156,112,82444,1,0,0:0:0:0:
156,112,82499,1,0,0:0:0:0:
156,112,82554,1,0,0:0:0:0:
156,112,82608,1,0,0:0:0:0:
154,113,82718,1,8,0:0:0:0:
176,100,82773,1,0,0:0:0:0:
153,114,82827,1,0,0:0:0:0:
175,115,82937,1,0,0:0:0:0:
175,101,83046,1,8,0:0:0:0:
40,163,83101,1,8,0:0:0:0:
181,141,83156,1,8,0:0:0:0:
32,164,83211,1,8,0:0:0:0:
181,141,83265,1,0,0:0:0:0:
170,184,83375,1,0,0:0:0:0:
170,184,83484,1,8,0:0:0:0:
137,134,83539,1,0,0:0:0:0:
170,184,83594,1,0,0:0:0:0:
135,133,83703,1,8,0:0:0:0:
210,75,83758,1,8,0:0:0:0:
210,75,83813,1,0,0:0:0:0:
210,75,83922,1,0,0:0:0:0:
205,80,84032,1,0,0:0:0:0:
204,80,84141,1,8,0:0:0:0:
164,76,84196,1,0,0:0:0:0:
158,83,84251,1,0,0:0:0:0:
164,76,84305,1,0,0:0:0:0:
158,83,84360,1,0,0:0:0:0:
159,85,84415,1,0,0:0:0:0:
143,77,84470,1,8,0:0:0:0:
143,77,84524,1,8,0:0:0:0:
143,77,84579,1,8,0:0:0:0:
143,77,84634,1,0,0:0:0:0:
143,77,84689,1,8,0:0:0:0:
143,77,84743,1,8,0:0:0:0:
143,77,84798,1,0,0:0:0:0:
131,100,84908,1,0,0:0:0:0:
126,103,85017,1,8,0:0:0:0:
126,103,85127,1,0,0:0:0:0:
122,173,85236,1,8,0:0:0:0:
154,114,85291,1,8,0:0:0:0:
122,173,85346,1,0,0:0:0:0:
154,118,85455,1,8,0:0:0:0:
175,104,85510,1,8,0:0:0:0:
122,173,85565,1,0,0:0:0:0:
140,88,85674,1,8,0:0:0:0:
139,88,85784,1,0,0:0:0:0:
138,88,85893,1,8,0:0:0:0:
175,85,85948,1,0,0:0:0:0:
181,80,86002,1,0,0:0:0:0:
175,85,86057,1,0,0:0:0:0:
175,84,86112,1,0,0:0:0:0:
169,89,86221,1,8,0:0:0:0:
169,89,86276,1,0,0:0:0:0:
169,89,86331,1,0,0:0:0:0:
168,104,86440,1,0,0:0:0:0:
166,105,86550,1,8,0:0:0:0:
223,174,86605,1,8,0:0:0:0:
157,119,86659,1,8,0:0:0:0:
223,174,86714,1,8,0:0:0:0:
154,122,86769,1,0,0:0:0:0:
137,138,86878,1,0,0:0:0:0:
134,141,86988,1,8,0:0:0:0:
137,104,87043,1,0,0:0:0:0:
167,53,87097,1,0,0:0:0:0:
153,104,87207,1,8,0:0:0:0:
153,104,87262,1,8,0:0:0:0:
137,105,87316,1,0,0:0:0:0:
142,120,87426,1,0,0:0:0:0:
140,120,87535,1,0,0:0:0:0:
140,120,87645,1,8,0:0:0:0:
155,107,87700,1,0,0:0:0:0:
155,107,87754,1,0,0:0:0:0:
155,107,87809,1,0,0:0:0:0:
155,107,87864,1,8,0:0:0:0:
153,104,87919,1,0,0:0:0:0:
153,104,87973,1,8,0:0:0:0:
153,104,88028,1,8,0:0:0:0:
157,65,88083,1,0,0:0:0:0:
157,65,88138,1,0,0:0:0:0:
157,65,88192,1,8,0:0:0:0:
156,72,88247,1,0,0:0:0:0:
165,60,88302,1,8,0:0:0:0:
171,61,88411,1,8,0:0:0:0:
207,186,88521,1,4,0:0:0:0:
195,141,88740,1,8,0:0:0:0:
195,141,88849,1,0,0:0:0:0:
195,141,88904,1,0,0:0:0:0:
195,141,88959,1,0,0:0:0:0:
195,141,89068,1,0,0:0:0:0:
188,147,89178,1,8,0:0:0:0:
157,72,89287,1,0,0:0:0:0:
157,72,89342,1,0,0:0:0:0:
157,72,89397,1,8,0:0:0:0:
149,32,89506,1,0,0:0:0:0:
149,32,89616,1,8,0:0:0:0:
146,109,89725,1,0,0:0:0:0:
146,109,89780,1,0,0:0:0:0:
146,109,89835,1,0,0:0:0:0:
146,109,89944,1,8,0:0:0:0:
146,109,90054,1,0,0:0:0:0:
152,98,90108,1,0,0:0:0:0:
146,109,90163,1,0,0:0:0:0:
152,106,90218,1,0,0:0:0:0:
146,109,90273,1,0,0:0:0:0:
163,56,90382,1,8,0:0:0:0:
163,56,90492,1,0,0:0:0:0:
163,56,90601,1,0,0:0:0:0:
163,56,90711,1,8,0:0:0:0:
170,58,90820,1,0,0:0:0:0:
165,62,90875,1,8,0:0:0:0:
166,62,90929,1,0,0:0:0:0:
151,42,91039,1,8,0:0:0:0:
151,42,91148,1,0,0:0:0:0:
175,75,91258,1,8,0:0:0:0:
175,77,91367,1,8,0:0:0:0:
166,42,91477,1,0,0:0:0:0:
156,43,91532,1,0,0:0:0:0:
166,42,91586,1,8,0:0:0:0:
165,62,91696,1,0,0:0:0:0:
170,61,91805,1,8,0:0:0:0:
154,82,92024,1,0,0:0:0:0:
194,146,92134,1,8,0:0:0:0:
183,82,92189,1,0,0:0:0:0:
194,146,92243,1,8,0:0:0:0:
183,90,92353,1,0,0:0:0:0:
183,90,92462,1,8,0:0:0:0:
178,50,92572,1,0,0:0:0:0:
178,50,92627,1,0,0:0:0:0:
178,50,92681,1,8,0:0:0:0:
176,61,92791,1,0,0:0:0:0:
176,62,92900,1,8,0:0:0:0:
176,63,93010,1,0,0:0:0:0:
176,63,93119,1,8,0:0:0:0:
183,90,93229,1,0,0:0:0:0:
183,85,93284,1,0,0:0:0:0:
183,85,93338,1,0,0:0:0:0:
171,69,93448,1,8,0:0:0:0:
171,69,93557,1,0,0:0:0:0:
196,69,93612,1,0,0:0:0:0:
171,69,93667,1,0,0:0:0:0:
196,69,93721,1,0,0:0:0:0:
196,69,93776,1,8,0:0:0:0:
176,63,93886,1,0,0:0:0:0:
177,65,93995,1,8,0:0:0:0:
151,50,94105,1,0,0:0:0:0:
181,50,94159,1,8,0:0:0:0:
151,50,94214,1,0,0:0:0:0:
157,48,94324,1,8,0:0:0:0:
170,39,94378,1,0,0:0:0:0:
155,48,94433,1,0,0:0:0:0:
166,71,94543,1,8,0:0:0:0:
166,71,94652,1,0,0:0:0:0:
197,37,94871,1,8,0:0:0:0:
197,38,94981,1,0,0:0:0:0:
197,38,95035,1,0,0:0:0:0:
167,53,95090,1,0,0:0:0:0:
189,40,95309,1,8,0:0:0:0:
167,53,95528,1,4,0:0:0:0:
132,117,95638,1,8,0:0:0:0:
132,117,95747,1,8,0:0:0:0:
140,74,95857,1,0,0:0:0:0:
147,74,95911,1,0,0:0:0:0:
140,74,95966,1,0,0:0:0:0:
217,96,96021,1,8,0:0:0:0:
175,36,96075,1,0,0:0:0:0:
174,36,96185,1,8,0:0:0:0:
166,82,96294,1,0,0:0:0:0:
185,49,96349,1,0,0:0:0:0:
166,82,96404,1,8,0:0:0:0:
177,72,96513,1,0,0:0:0:0:
177,72,96623,1,0,0:0:0:0:
171,62,96732,1,8,0:0:0:0:
171,62,96787,1,8,0:0:0:0:
171,62,96842,1,0,0:0:0:0:
217,96,96897,1,0,0:0:0:0:
222,56,96951,1,0,0:0:0:0:
217,57,97061,1,8,0:0:0:0:
187,54,97170,1,8,0:0:0:0:
186,56,97280,1,0,0:0:0:0:
188,66,97389,1,8,0:0:0:0:
176,19,97444,1,0,0:0:0:0:
183,72,97499,1,8,0:0:0:0:
171,62,97608,1,0,0:0:0:0:
167,67,97718,1,8,0:0:0:0:
217,96,97773,1,0,0:0:0:0:
181,63,97827,1,0,0:0:0:0:
178,65,97882,1,0,0:0:0:0:
179,64,97937,1,8,0:0:0:0:
208,64,98046,1,8,0:0:0:0:
205,65,98156,1,0,0:0:0:0:
205,66,98265,1,8,0:0:0:0:
190,47,98320,1,8,0:0:0:0:
162,56,98375,1,0,0:0:0:0:
204,89,98484,1,8,0:0:0:0:
204,89,98594,1,0,0:0:0:0:
204,89,98703,1,8,0:0:0:0:
203,90,98813,1,8,0:0:0:0:
184,73,98922,1,0,0:0:0:0:
181,73,99032,1,0,0:0:0:0:
172,68,99141,1,8,0:0:0:0:
181,42,99196,1,0,0:0:0:0:
168,70,99251,1,8,0:0:0:0:
184,41,99360,1,0,0:0:0:0:
181,42,99415,1,0,0:0:0:0:
181,42,99470,1,0,0:0:0:0:
217,96,99524,1,0,0:0:0:0:
182,47,99579,1,8,0:0:0:0:
182,47,99689,1,8,0:0:0:0:
198,29,99798,1,0,0:0:0:0:
194,31,99908,1,8,0:0:0:0:
187,30,99962,1,0,0:0:0:0:
182,56,100017,1,0,0:0:0:0:
184,41,100072,1,0,0:0:0:0:
184,41,100127,1,8,0:0:0:0:
160,52,100236,1,8,0:0:0:0:
158,53,100346,1,0,0:0:0:0:
161,71,100455,1,0,0:0:0:0:
177,69,100510,1,0,0:0:0:0:
161,71,100565,1,8,0:0:0:0:
186,99,100674,1,8,0:0:0:0:
186,99,100784,1,0,0:0:0:0:
175,93,101002,1,8,0:0:0:0:
174,94,101112,1,8,0:0:0:0:
176,93,101167,1,8,0:0:0:0:
173,95,101221,1,0,0:0:0:0:
176,93,101331,1,8,0:0:0:0:
176,93,101386,1,0,0:0:0:0:
176,93,101440,1,0,0:0:0:0:
209,77,101550,1,0,0:0:0:0:
198,80,101659,1,8,0:0:0:0:
170,61,101878,1,8,0:0:0:0:
170,61,101988,1,0,0:0:0:0:
159,65,102097,1,8,0:0:0:0:
159,65,102207,1,0,0:0:0:0:
159,65,102316,1,8,0:0:0:0:
205,183,102535,5,4,0:0:0:0:
217,205,102645,1,8,0:0:0:0:
205,183,102754,1,4,0:0:0:0:
214,210,102864,1,8,0:0:0:0:
214,210,102973,1,8,0:0:0:0:
214,210,103083,1,8,0:0:0:0:
214,210,103192,1,8,0:0:0:0:
214,210,103302,1,8,0:0:0:0:
217,205,103411,1,8,0:0:0:0:
214,210,103521,1,8,0:0:0:0:
214,210,103630,1,8,0:0:0:0:
214,210,103740,1,8,0:0:0:0:
216,216,103849,1,8,0:0:0:0:
216,216,103959,1,8,0:0:0:0:
216,216,104068,1,8,0:0:0:0:
215,219,104178,1,8,0:0:0:0:
205,183,104287,1,4,0:0:0:0:
217,219,104397,1,8,0:0:0:0:
205,183,104506,1,4,0:0:0:0:
216,216,104616,1,8,0:0:0:0:
216,216,104725,1,8,0:0:0:0:
216,216,104835,1,8,0:0:0:0:
215,219,104944,1,8,0:0:0:0:
217,219,105054,1,8,0:0:0:0:
217,219,105163,1,8,0:0:0:0:
223,226,105273,1,8,0:0:0:0:
224,226,105382,1,8,0:0:0:0:
227,227,105492,1,8,0:0:0:0:
227,228,105601,1,8,0:0:0:0:
228,228,105711,1,8,0:0:0:0:
228,232,105820,1,8,0:0:0:0:
228,232,105929,1,8,0:0:0:0:
217,171,106039,1,4,0:0:0:0:
228,232,106148,1,8,0:0:0:0:
217,171,106258,1,4,0:0:0:0:
227,228,106367,1,8,0:0:0:0:
228,228,106477,1,8,0:0:0:0:
236,240,106586,1,8,0:0:0:0:
236,240,106696,1,8,0:0:0:0:
236,240,106805,1,8,0:0:0:0:
236,242,106915,1,8,0:0:0:0:
236,242,107024,1,8,0:0:0:0:
236,242,107134,1,8,0:0:0:0:
236,242,107243,1,8,0:0:0:0:
236,240,107353,1,8,0:0:0:0:
236,240,107462,1,8,0:0:0:0:
233,248,107572,1,8,0:0:0:0:
231,245,107681,1,8,0:0:0:0:
202,160,107791,1,4,0:0:0:0:
236,242,107900,1,8,0:0:0:0:
202,160,108010,1,4,0:0:0:0:
233,248,108119,1,8,0:0:0:0:
233,248,108229,1,8,0:0:0:0:
233,248,108338,1,8,0:0:0:0:
231,245,108448,1,8,0:0:0:0:
234,249,108557,1,8,0:0:0:0:
234,249,108667,1,8,0:0:0:0:
233,248,108776,1,8,0:0:0:0:
233,248,108886,1,8,0:0:0:0:
233,248,108995,1,8,0:0:0:0:
233,248,109105,1,8,0:0:0:0:
218,248,109214,1,8,0:0:0:0:
207,241,109324,1,8,0:0:0:0:
193,232,109433,1,8,0:0:0:0:
192,162,109543,1,4,0:0:0:0:
186,234,109652,1,8,0:0:0:0:
192,162,109762,1,4,0:0:0:0:
186,234,109871,1,8,0:0:0:0:
185,235,109981,1,8,0:0:0:0:
185,236,110090,1,8,0:0:0:0:
185,236,110200,1,8,0:0:0:0:
186,234,110309,1,8,0:0:0:0:
192,162,110419,1,4,0:0:0:0:
186,234,110528,1,8,0:0:0:0:
192,162,110638,1,4,0:0:0:0:
185,235,110747,1,8,0:0:0:0:
185,236,110857,1,8,0:0:0:0:
185,236,110966,1,8,0:0:0:0:
186,234,111075,1,8,0:0:0:0:
186,234,111185,1,8,0:0:0:0:
192,162,111294,1,4,0:0:0:0:
185,235,111404,1,8,0:0:0:0:
192,162,111513,1,4,0:0:0:0:
185,244,111623,1,8,0:0:0:0:
185,247,111732,1,8,0:0:0:0:
186,248,111842,1,8,0:0:0:0:
186,248,111951,1,8,0:0:0:0:
192,251,112061,1,8,0:0:0:0:
192,162,112170,1,4,0:0:0:0:
192,251,112280,1,8,0:0:0:0:
192,162,112389,1,4,0:0:0:0:
204,270,112499,1,8,0:0:0:0:
204,272,112608,1,8,0:0:0:0:
204,284,112718,1,8,0:0:0:0:
204,284,112827,1,8,0:0:0:0:
208,285,112937,1,8,0:0:0:0:
192,162,113046,1,4,0:0:0:0:
206,288,113156,1,8,0:0:0:0:
208,293,113265,1,8,0:0:0:0:
209,294,113375,1,8,0:0:0:0:
208,164,113484,1,4,0:0:0:0:
209,296,113594,1,8,0:0:0:0:
219,308,113703,1,8,0:0:0:0:
219,309,113813,1,8,0:0:0:0:
208,164,113922,1,4,0:0:0:0:
220,309,114032,1,8,0:0:0:0:
245,168,114141,1,8,0:0:0:0:
245,168,114251,1,8,0:0:0:0:
208,164,114360,1,4,0:0:0:0:
245,168,114470,1,8,0:0:0:0:
245,168,114579,1,8,0:0:0:0:
245,168,114689,1,8,0:0:0:0:
208,164,114798,1,4,0:0:0:0:
245,168,114908,1,8,0:0:0:0:
208,164,115017,1,4,0:0:0:0:
249,184,115127,1,8,0:0:0:0:
208,164,115236,1,4,0:0:0:0:
256,204,115346,1,8,0:0:0:0:
208,164,115455,1,4,0:0:0:0:
256,217,115565,1,8,0:0:0:0:
208,164,115674,1,4,0:0:0:0:
261,225,115784,1,4,0:0:0:0:
208,164,115893,1,12,0:0:0:0:
262,228,116002,1,4,0:0:0:0:
208,164,116112,1,12,0:0:0:0:
264,232,116221,1,12,0:0:0:0:
208,164,116331,1,4,0:0:0:0:
256,192,116550,12,0,116988,0:0:0:0:
204,299,122681,5,0,0:0:0:0:
204,299,123010,1,0,0:0:0:0:
164,196,123065,1,0,0:0:0:0:
204,299,123119,1,8,0:0:0:0:
164,196,123338,1,0,0:0:0:0:
164,196,123557,1,12,0:0:0:0:
189,128,123776,1,0,0:0:0:0:
189,128,123995,1,0,0:0:0:0:
189,128,124214,1,0,0:0:0:0:
224,109,124324,1,0,0:0:0:0:
189,128,124433,1,12,0:0:0:0:
189,128,124652,1,0,0:0:0:0:
189,128,124871,1,0,0:0:0:0:
186,146,124981,1,0,0:0:0:0:
167,183,125090,1,0,0:0:0:0:
224,109,125200,1,0,0:0:0:0:
167,183,125309,1,12,0:0:0:0:
167,183,125528,1,0,0:0:0:0:
192,125,125747,1,0,0:0:0:0:
192,125,125966,1,0,0:0:0:0:
224,109,126075,1,0,0:0:0:0:
192,125,126185,1,12,0:0:0:0:
165,140,126404,1,0,0:0:0:0:
165,140,126623,1,0,0:0:0:0:
203,138,126732,1,0,0:0:0:0:
165,140,126842,1,0,0:0:0:0:
224,109,126951,1,0,0:0:0:0:
165,140,127061,1,12,0:0:0:0:
224,109,127280,1,0,0:0:0:0:
224,109,127499,1,0,0:0:0:0:
224,109,127718,1,0,0:0:0:0:
224,109,127827,1,0,0:0:0:0:
224,109,127937,1,12,0:0:0:0:
186,118,128156,1,0,0:0:0:0:
186,118,128375,1,0,0:0:0:0:
204,140,128484,1,0,0:0:0:0:
186,118,128594,1,0,0:0:0:0:
186,118,128703,1,0,0:0:0:0:
186,118,128813,1,12,0:0:0:0:
189,134,129032,1,0,0:0:0:0:
189,134,129251,1,0,0:0:0:0:
189,134,129470,1,0,0:0:0:0:
169,89,129579,1,0,0:0:0:0:
169,89,129689,1,0,0:0:0:0:
182,178,129835,1,8,0:0:0:0:
182,178,129981,1,8,0:0:0:0:
170,34,130127,1,0,0:0:0:0:
179,54,130565,1,4,0:0:0:0:
158,136,130674,1,8,0:0:0:0:
158,136,130784,1,8,0:0:0:0:
111,185,130893,1,0,0:0:0:0:
123,179,130948,1,0,0:0:0:0:
111,185,131002,1,8,0:0:0:0:
181,77,131057,1,8,0:0:0:0:
153,57,131112,1,0,0:0:0:0:
153,57,131221,1,0,0:0:0:0:
177,81,131331,1,8,0:0:0:0:
181,77,131440,1,8,0:0:0:0:
180,38,131495,1,8,0:0:0:0:
179,39,131550,1,0,0:0:0:0:
192,75,131659,1,0,0:0:0:0:
191,76,131769,1,8,0:0:0:0:
191,79,131824,1,8,0:0:0:0:
191,79,131878,1,0,0:0:0:0:
172,98,131933,1,0,0:0:0:0:
165,114,131988,1,0,0:0:0:0:
202,72,132043,1,0,0:0:0:0:
165,115,132097,1,8,0:0:0:0:
186,87,132207,1,0,0:0:0:0:
186,87,132316,1,12,0:0:0:0:
184,123,132535,1,12,0:0:0:0:
184,123,132754,1,12,0:0:0:0:
184,123,132973,1,12,0:0:0:0:
231,165,140526,5,0,0:0:0:0:
231,165,140581,1,0,0:0:0:0:
217,200,140636,5,8,0:0:0:0:
217,200,141074,1,0,0:0:0:0:
224,165,141402,1,0,0:0:0:0:
224,165,141512,1,8,0:0:0:0:
219,176,141731,1,0,0:0:0:0:
223,173,141840,1,8,0:0:0:0:
199,100,141950,1,8,0:0:0:0:
223,173,142059,1,0,0:0:0:0:
223,173,142169,1,0,0:0:0:0:
180,117,142278,1,0,0:0:0:0:
217,184,142388,1,8,0:0:0:0:
180,117,142607,1,0,0:0:0:0:
180,104,142716,1,0,0:0:0:0:
180,104,142826,1,8,0:0:0:0:
184,109,143045,1,0,0:0:0:0:
180,117,143154,1,8,0:0:0:0:
184,109,143264,1,8,0:0:0:0:
202,118,143373,1,0,0:0:0:0:
202,118,143483,1,0,0:0:0:0:
199,119,143592,1,8,0:0:0:0:
199,119,143702,1,0,0:0:0:0:
198,119,143811,1,8,0:0:0:0:
198,120,143921,1,0,0:0:0:0:
180,103,144030,1,0,0:0:0:0:
180,103,144139,1,8,0:0:0:0:
177,98,144358,1,8,0:0:0:0:
177,98,144468,1,8,0:0:0:0:
177,98,144577,1,0,0:0:0:0:
160,69,145891,1,8,0:0:0:0:
160,69,146110,1,8,0:0:0:0:
229,162,146329,1,4,0:0:0:0:
222,169,146439,1,8,0:0:0:0:
218,172,146494,1,8,0:0:0:0:
219,171,146548,1,0,0:0:0:0:
218,174,146658,1,0,0:0:0:0:
218,175,146767,1,8,0:0:0:0:
170,68,146822,1,0,0:0:0:0:
218,175,146877,1,0,0:0:0:0:
170,68,146931,1,0,0:0:0:0:
174,75,146986,1,0,0:0:0:0:
207,61,147096,1,8,0:0:0:0:
202,62,147205,1,0,0:0:0:0:
201,73,147260,1,8,0:0:0:0:
201,73,147315,1,8,0:0:0:0:
201,73,147369,1,0,0:0:0:0:
201,73,147424,1,8,0:0:0:0:
199,51,147534,1,0,0:0:0:0:
199,51,147643,1,8,0:0:0:0:
194,33,147753,1,0,0:0:0:0:
194,33,147807,1,0,0:0:0:0:
194,33,147862,1,8,0:0:0:0:
193,40,147972,1,8,0:0:0:0:
188,41,148081,1,0,0:0:0:0:
186,41,148136,1,0,0:0:0:0:
186,41,148191,1,0,0:0:0:0:
186,41,148245,1,0,0:0:0:0:
186,41,148300,1,8,0:0:0:0:
192,53,148410,1,8,0:0:0:0:
192,53,148519,1,0,0:0:0:0:
191,54,148629,1,8,0:0:0:0:
191,54,148683,1,0,0:0:0:0:
191,54,148738,1,8,0:0:0:0:
191,54,148848,1,0,0:0:0:0:
191,54,148957,1,8,0:0:0:0:
198,129,149012,1,8,0:0:0:0:
173,25,149067,1,0,0:0:0:0:
170,27,149121,1,8,0:0:0:0:
171,26,149176,1,0,0:0:0:0:
183,34,149285,1,8,0:0:0:0:
181,36,149395,1,0,0:0:0:0:
176,105,149504,1,0,0:0:0:0:
195,94,149559,1,0,0:0:0:0:
176,105,149614,1,8,0:0:0:0:
195,91,149723,1,0,0:0:0:0:
192,91,149833,1,8,0:0:0:0:
208,134,149942,1,0,0:0:0:0:
216,148,149997,1,0,0:0:0:0:
190,56,150052,1,8,0:0:0:0:
183,34,150107,1,0,0:0:0:0:
168,46,150161,1,8,0:0:0:0:
181,40,150216,1,0,0:0:0:0:
182,48,150271,1,8,0:0:0:0:
64,64,150326,1,8,0:0:0:0:
64,64,150380,1,0,0:0:0:0:
64,64,150435,1,0,0:0:0:0:
180,71,150490,1,8,0:0:0:0:
201,35,150599,1,0,0:0:0:0:
142,47,150709,1,8,0:0:0:0:
163,90,150818,1,0,0:0:0:0:
163,90,150873,1,8,0:0:0:0:
163,88,150928,1,0,0:0:0:0:
156,108,151037,1,8,0:0:0:0:
155,109,151147,1,0,0:0:0:0:
155,109,151202,1,0,0:0:0:0:
154,109,151256,1,8,0:0:0:0:
155,109,151311,1,0,0:0:0:0:
154,109,151366,1,8,0:0:0:0:
185,59,151421,1,8,0:0:0:0:
176,56,151475,1,0,0:0:0:0:
182,57,151530,1,8,0:0:0:0:
175,57,151585,1,0,0:0:0:0:
170,71,151694,1,0,0:0:0:0:
166,30,151749,1,0,0:0:0:0:
170,71,151804,1,8,0:0:0:0:
172,77,151913,1,0,0:0:0:0:
164,84,152023,1,8,0:0:0:0:
177,77,152132,1,0,0:0:0:0:
174,80,152187,1,0,0:0:0:0:
175,80,152242,1,8,0:0:0:0:
174,81,152351,1,0,0:0:0:0:
162,85,152461,1,8,0:0:0:0:
274,57,152515,1,8,0:0:0:0:
162,85,152570,1,0,0:0:0:0:
159,87,152625,1,8,0:0:0:0:
160,87,152680,1,0,0:0:0:0:
199,43,152734,1,0,0:0:0:0:
199,43,152789,1,8,0:0:0:0:
199,43,152844,1,0,0:0:0:0:
199,43,152899,1,8,0:0:0:0:
177,39,152953,1,8,0:0:0:0:
185,48,153008,1,8,0:0:0:0:
177,40,153063,1,8,0:0:0:0:
185,48,153118,1,8,0:0:0:0:
177,40,153172,1,8,0:0:0:0:
185,48,153227,1,8,0:0:0:0:
185,48,153282,1,8,0:0:0:0:
182,62,153337,1,0,0:0:0:0:
175,80,153665,1,12,0:0:0:0:
160,82,153775,1,4,0:0:0:0:
154,141,153884,1,8,0:0:0:0:
159,122,153939,1,8,0:0:0:0:
154,141,153994,1,0,0:0:0:0:
145,119,154103,1,0,0:0:0:0:
137,121,154212,1,8,0:0:0:0:
143,65,154267,1,0,0:0:0:0:
154,58,154322,1,8,0:0:0:0:
143,65,154377,1,0,0:0:0:0:
143,64,154431,1,8,0:0:0:0:
160,36,154541,1,0,0:0:0:0:
187,60,154650,1,8,0:0:0:0:
165,64,154760,1,0,0:0:0:0:
177,98,154815,1,0,0:0:0:0:
164,68,154869,1,8,0:0:0:0:
181,55,154979,1,0,0:0:0:0:
150,61,155088,1,8,0:0:0:0:
206,60,155143,1,8,0:0:0:0:
171,54,155198,1,0,0:0:0:0:
171,60,155253,1,0,0:0:0:0:
171,59,155307,1,8,0:0:0:0:
201,36,155417,1,0,0:0:0:0:
162,117,155526,1,8,0:0:0:0:
199,62,155581,1,0,0:0:0:0:
162,117,155636,1,0,0:0:0:0:
198,73,155691,1,0,0:0:0:0:
162,117,155745,1,8,0:0:0:0:
202,64,155800,1,8,0:0:0:0:
157,136,155855,1,0,0:0:0:0:
202,65,155910,1,0,0:0:0:0:
155,136,155964,1,8,0:0:0:0:
178,9,156074,1,0,0:0:0:0:
203,48,156129,1,0,0:0:0:0:
179,67,156183,1,8,0:0:0:0:
179,67,156293,1,0,0:0:0:0:
168,37,156402,1,8,0:0:0:0:
193,63,156457,1,0,0:0:0:0:
184,97,156512,1,0,0:0:0:0:
179,99,156567,1,0,0:0:0:0:
192,62,156621,1,8,0:0:0:0:
193,54,156676,1,0,0:0:0:0:
179,113,156731,1,8,0:0:0:0:
193,54,156785,1,8,0:0:0:0:
179,113,156840,1,0,0:0:0:0:
177,117,156950,1,0,0:0:0:0:
174,78,157004,1,0,0:0:0:0:
177,117,157059,1,8,0:0:0:0:
197,73,157169,1,0,0:0:0:0:
192,78,157278,1,8,0:0:0:0:
198,41,157333,1,8,0:0:0:0:
192,47,157388,1,0,0:0:0:0:
191,56,157442,1,0,0:0:0:0:
162,50,157497,1,8,0:0:0:0:
191,61,157607,1,0,0:0:0:0:
191,61,157716,1,12,0:0:0:0:
205,82,157935,1,12,0:0:0:0:
182,132,158592,1,4,0:0:0:0:
195,95,158702,1,8,0:0:0:0:
210,97,158756,1,8,0:0:0:0:
195,95,158811,1,0,0:0:0:0:
195,95,158921,1,0,0:0:0:0:
195,95,159030,1,8,0:0:0:0:
197,77,159085,1,0,0:0:0:0:
178,58,159139,1,0,0:0:0:0:
178,58,159194,1,0,0:0:0:0:
195,78,159249,1,0,0:0:0:0:
188,97,159358,1,0,0:0:0:0:
182,100,159468,1,8,0:0:0:0:
144,45,159523,1,8,0:0:0:0:
144,45,159577,1,0,0:0:0:0:
169,65,159687,1,0,0:0:0:0:
169,66,159796,1,8,0:0:0:0:
175,60,159851,1,8,0:0:0:0:
167,67,159906,1,0,0:0:0:0:
221,56,159961,1,0,0:0:0:0:
172,120,160015,1,8,0:0:0:0:
167,125,160125,1,8,0:0:0:0:
167,125,160234,1,8,0:0:0:0:
205,86,160344,1,0,0:0:0:0:
185,98,160453,1,8,0:0:0:0:
215,48,160508,1,8,0:0:0:0:
185,98,160563,1,0,0:0:0:0:
185,76,160672,1,0,0:0:0:0:
185,76,160782,1,8,0:0:0:0:
177,30,160837,1,0,0:0:0:0:
177,30,160891,1,0,0:0:0:0:
177,30,160946,1,0,0:0:0:0:
177,30,161001,1,0,0:0:0:0:
201,70,161110,1,8,0:0:0:0:
193,71,161220,1,0,0:0:0:0:
184,42,161329,1,0,0:0:0:0:
179,46,161439,1,8,0:0:0:0:
179,59,161494,1,8,0:0:0:0:
179,59,161548,1,0,0:0:0:0:
179,59,161603,1,0,0:0:0:0:
179,59,161658,1,8,0:0:0:0:
192,66,161712,1,0,0:0:0:0:
187,42,161767,1,0,0:0:0:0:
203,56,161822,1,0,0:0:0:0:
205,55,161877,1,8,0:0:0:0:
225,45,161931,1,8,0:0:0:0:
225,45,161986,1,8,0:0:0:0:
225,45,162041,1,8,0:0:0:0:
222,47,162096,1,0,0:0:0:0:
183,82,162205,1,8,0:0:0:0:
181,86,162260,1,0,0:0:0:0:
158,47,162315,1,8,0:0:0:0:
172,76,162424,1,0,0:0:0:0:
172,76,162534,1,8,0:0:0:0:
160,66,162588,1,0,0:0:0:0:
172,77,162643,1,0,0:0:0:0:
160,66,162698,1,0,0:0:0:0:
160,66,162753,1,0,0:0:0:0:
160,74,162862,1,0,0:0:0:0:
160,74,162972,1,8,0:0:0:0:
160,74,163026,1,0,0:0:0:0:
160,76,163081,1,8,0:0:0:0:
152,54,163191,1,8,0:0:0:0:
152,54,163300,1,8,0:0:0:0:
152,54,163355,1,0,0:0:0:0:
152,54,163410,1,8,0:0:0:0:
224,48,163464,1,0,0:0:0:0:
179,76,163519,1,8,0:0:0:0:
179,76,163629,1,8,0:0:0:0:
179,77,163738,1,8,0:0:0:0:
186,79,163848,1,0,0:0:0:0:
186,79,163957,1,8,0:0:0:0:
197,15,164012,1,0,0:0:0:0:
186,79,164067,1,8,0:0:0:0:
175,57,164176,1,0,0:0:0:0:
172,62,164285,1,8,0:0:0:0:
192,109,164340,1,0,0:0:0:0:
172,63,164395,1,0,0:0:0:0:
191,110,164450,1,0,0:0:0:0:
191,110,164504,1,0,0:0:0:0:
188,119,164614,1,0,0:0:0:0:
188,120,164723,1,8,0:0:0:0:
171,88,164778,1,0,0:0:0:0:
171,89,164833,1,8,0:0:0:0:
171,88,164888,1,0,0:0:0:0:
171,91,164942,1,8,0:0:0:0:
150,49,165052,1,0,0:0:0:0:
150,49,165161,1,8,0:0:0:0:
195,83,165216,1,0,0:0:0:0:
197,80,165271,1,8,0:0:0:0:
195,83,165326,1,8,0:0:0:0:
196,82,165380,1,0,0:0:0:0:
197,65,165490,1,8,0:0:0:0:
196,66,165599,1,4,0:0:0:0:
202,132,165709,1,8,0:0:0:0:
173,128,165764,1,8,0:0:0:0:
202,132,165818,1,0,0:0:0:0:
202,132,165928,1,0,0:0:0:0:
202,132,166037,1,8,0:0:0:0:
185,115,166092,1,0,0:0:0:0:
202,132,166147,1,0,0:0:0:0:
185,114,166202,1,0,0:0:0:0:
202,132,166256,1,0,0:0:0:0:
202,132,166366,1,0,0:0:0:0:
202,132,166475,1,8,0:0:0:0:
184,113,166530,1,8,0:0:0:0:
202,132,166585,1,0,0:0:0:0:
202,132,166694,1,0,0:0:0:0:
202,132,166804,1,8,0:0:0:0:
184,113,166858,1,8,0:0:0:0:
202,132,166913,1,0,0:0:0:0:
238,111,166968,1,0,0:0:0:0:
202,132,167023,1,8,0:0:0:0:
202,132,167132,1,8,0:0:0:0:
202,132,167242,1,8,0:0:0:0:
202,132,167351,1,0,0:0:0:0:
189,117,167461,1,8,0:0:0:0:
185,96,167515,1,8,0:0:0:0:
187,116,167570,1,0,0:0:0:0:
184,117,167680,1,0,0:0:0:0:
184,113,167789,1,8,0:0:0:0:
186,59,167844,1,0,0:0:0:0:
190,70,167899,1,0,0:0:0:0:
181,65,167953,1,0,0:0:0:0:
181,69,168008,1,0,0:0:0:0:
201,86,168118,1,0,0:0:0:0:
201,86,168227,1,8,0:0:0:0:
199,86,168282,1,8,0:0:0:0:
199,86,168337,1,0,0:0:0:0:
165,57,168446,1,0,0:0:0:0:
163,67,168556,1,8,0:0:0:0:
184,78,168610,1,8,0:0:0:0:
183,79,168665,1,0,0:0:0:0:
233,82,168720,1,0,0:0:0:0:
227,80,168775,1,0,0:0:0:0:
227,82,168829,1,0,0:0:0:0:
185,80,168884,1,8,0:0:0:0:
221,47,168994,1,8,0:0:0:0:
182,46,169103,1,0,0:0:0:0:
207,75,169212,1,8,0:0:0:0:
207,75,169267,1,0,0:0:0:0:
207,75,169322,1,8,0:0:0:0:
215,156,169431,1,0,0:0:0:0:
215,156,169541,1,8,0:0:0:0:
209,122,169596,1,0,0:0:0:0:
209,122,169650,1,0,0:0:0:0:
209,123,169705,1,0,0:0:0:0:
209,123,169760,1,0,0:0:0:0:
187,135,169869,1,0,0:0:0:0:
187,134,169979,1,8,0:0:0:0:
191,137,170034,1,0,0:0:0:0:
189,138,170088,1,8,0:0:0:0:
177,79,170198,1,8,0:0:0:0:
187,53,170307,1,8,0:0:0:0:
177,78,170362,1,0,0:0:0:0:
187,59,170417,1,8,0:0:0:0:
201,63,170472,1,0,0:0:0:0:
191,71,170526,1,8,0:0:0:0:
191,72,170636,1,8,0:0:0:0:
204,105,170745,1,8,0:0:0:0:
204,105,170855,1,0,0:0:0:0:
204,105,170964,1,8,0:0:0:0:
204,96,171019,1,8,0:0:0:0:
204,105,171074,1,0,0:0:0:0:
222,97,171183,1,0,0:0:0:0:
222,96,171293,1,8,0:0:0:0:
221,66,171348,1,0,0:0:0:0:
227,59,171402,1,0,0:0:0:0:
222,64,171457,1,0,0:0:0:0:
227,59,171512,1,0,0:0:0:0:
225,133,171621,1,0,0:0:0:0:
221,128,171731,1,8,0:0:0:0:
210,72,171785,1,0,0:0:0:0:
210,73,171840,1,8,0:0:0:0:
204,96,171950,1,0,0:0:0:0:
207,94,172059,1,12,0:0:0:0:
233,202,172607,5,4,0:0:0:0:
170,141,172716,1,8,0:0:0:0:
233,209,172826,1,4,0:0:0:0:
232,233,172935,1,8,0:0:0:0:
232,233,173045,1,8,0:0:0:0:
232,233,173154,1,8,0:0:0:0:
232,233,173264,1,8,0:0:0:0:
232,233,173373,1,8,0:0:0:0:
232,233,173483,1,8,0:0:0:0:
232,233,173592,1,8,0:0:0:0:
232,233,173702,1,8,0:0:0:0:
232,233,173811,1,8,0:0:0:0:
265,127,173921,1,8,0:0:0:0:
265,127,174030,1,8,0:0:0:0:
265,127,174139,1,8,0:0:0:0:
265,127,174249,1,8,0:0:0:0:
203,141,174358,1,4,0:0:0:0:
265,127,174468,1,8,0:0:0:0:
203,141,174577,1,4,0:0:0:0:
265,127,174687,1,8,0:0:0:0:
265,127,174796,1,8,0:0:0:0:
265,127,174906,1,8,0:0:0:0:
265,127,175015,1,8,0:0:0:0:
265,127,175125,1,8,0:0:0:0:
265,127,175234,1,8,0:0:0:0:
265,127,175344,1,8,0:0:0:0:
265,127,175453,1,8,0:0:0:0:
265,127,175563,1,8,0:0:0:0:
259,131,175672,1,8,0:0:0:0:
259,131,175782,1,8,0:0:0:0:
259,131,175891,1,8,0:0:0:0:
259,131,176001,1,8,0:0:0:0:
210,138,176110,1,4,0:0:0:0:
265,127,176220,1,8,0:0:0:0:
210,138,176329,1,4,0:0:0:0:
259,131,176439,1,8,0:0:0:0:
259,131,176548,1,8,0:0:0:0:
259,131,176658,1,8,0:0:0:0:
259,131,176767,1,8,0:0:0:0:
265,127,176877,1,8,0:0:0:0:
265,127,176986,1,8,0:0:0:0:
259,131,177096,1,8,0:0:0:0:
259,131,177205,1,8,0:0:0:0:
259,131,177315,1,8,0:0:0:0:
259,131,177424,1,8,0:0:0:0:
259,131,177534,1,8,0:0:0:0:
265,127,177643,1,8,0:0:0:0:
265,127,177753,1,8,0:0:0:0:
213,137,177862,1,4,0:0:0:0:
271,132,177972,1,8,0:0:0:0:
213,137,178081,1,4,0:0:0:0:
268,124,178191,1,8,0:0:0:0:
288,127,178300,1,8,0:0:0:0:
265,127,178410,1,8,0:0:0:0:
288,127,178519,1,8,0:0:0:0:
271,132,178629,1,8,0:0:0:0:
271,132,178738,1,8,0:0:0:0:
268,124,178848,1,8,0:0:0:0:
268,124,178957,1,8,0:0:0:0:
265,127,179067,1,8,0:0:0:0:
265,127,179176,1,8,0:0:0:0:
271,132,179285,1,8,0:0:0:0:
271,132,179395,1,8,0:0:0:0:
271,132,179504,1,8,0:0:0:0:
210,141,179614,1,4,0:0:0:0:
170,85,179723,1,8,0:0:0:0:
210,141,179833,1,4,0:0:0:0:
170,85,179942,1,8,0:0:0:0:
170,85,180052,1,0,0:0:0:0:
199,111,180161,1,0,0:0:0:0:
197,112,180271,1,8,0:0:0:0:
197,113,180380,1,8,0:0:0:0:
196,114,180490,1,0,0:0:0:0:
187,110,180599,1,0,0:0:0:0:
186,112,180709,1,8,0:0:0:0:
184,113,180818,1,8,0:0:0:0:
184,114,180928,1,0,0:0:0:0:
199,77,181037,1,0,0:0:0:0:
198,77,181147,1,8,0:0:0:0:
216,75,181256,1,8,0:0:0:0:
225,131,181366,1,4,0:0:0:0:
207,95,181475,1,8,0:0:0:0:
225,131,181585,1,4,0:0:0:0:
207,95,181694,1,8,0:0:0:0:
207,109,181804,1,0,0:0:0:0:
207,109,181913,1,0,0:0:0:0:
206,111,182023,1,8,0:0:0:0:
205,111,182132,1,8,0:0:0:0:
205,111,182242,1,0,0:0:0:0:
209,112,182351,1,0,0:0:0:0:
209,113,182461,1,8,0:0:0:0:
207,109,182570,1,8,0:0:0:0:
207,109,182680,1,0,0:0:0:0:
205,111,182789,1,0,0:0:0:0:
173,81,182899,1,8,0:0:0:0:
173,81,183008,1,8,0:0:0:0:
225,134,183118,1,4,0:0:0:0:
167,107,183227,1,8,0:0:0:0:
225,134,183337,1,4,0:0:0:0:
167,111,183446,1,8,0:0:0:0:
168,112,183556,1,0,0:0:0:0:
168,112,183665,1,0,0:0:0:0:
167,107,183775,1,8,0:0:0:0:
167,107,183884,1,8,0:0:0:0:
167,111,183994,1,0,0:0:0:0:
201,68,184103,1,0,0:0:0:0:
168,112,184212,1,8,0:0:0:0:
191,97,184322,1,8,0:0:0:0:
190,98,184431,1,0,0:0:0:0:
186,99,184541,1,0,0:0:0:0:
183,101,184650,1,8,0:0:0:0:
150,39,184760,1,8,0:0:0:0:
227,132,184869,1,4,0:0:0:0:
150,39,184979,1,8,0:0:0:0:
227,132,185088,1,4,0:0:0:0:
150,39,185198,1,8,0:0:0:0:
161,94,185307,1,0,0:0:0:0:
159,97,185417,1,0,0:0:0:0:
161,94,185526,1,8,0:0:0:0:
161,94,185636,1,8,0:0:0:0:
161,94,185745,1,0,0:0:0:0:
160,58,185855,1,0,0:0:0:0:
160,60,185964,1,8,0:0:0:0:
161,94,186074,1,8,0:0:0:0:
159,97,186183,1,0,0:0:0:0:
161,94,186293,1,0,0:0:0:0:
161,94,186402,1,8,0:0:0:0:
168,66,186512,1,8,0:0:0:0:
222,142,186621,1,4,0:0:0:0:
152,104,186731,1,8,0:0:0:0:
222,142,186840,1,4,0:0:0:0:
152,104,186950,1,8,0:0:0:0:
151,104,187059,1,8,0:0:0:0:
150,104,187169,1,8,0:0:0:0:
152,104,187278,1,8,0:0:0:0:
152,104,187388,1,8,0:0:0:0:
222,142,187497,1,4,0:0:0:0:
152,104,187607,1,8,0:0:0:0:
222,142,187716,1,4,0:0:0:0:
146,110,187826,1,8,0:0:0:0:
146,111,187935,1,8,0:0:0:0:
146,112,188045,1,8,0:0:0:0:
144,113,188154,1,8,0:0:0:0:
143,114,188264,1,8,0:0:0:0:
222,142,188373,1,4,0:0:0:0:
146,110,188483,1,8,0:0:0:0:
222,142,188592,1,4,0:0:0:0:
146,111,188702,1,8,0:0:0:0:
146,112,188811,1,8,0:0:0:0:
144,113,188921,1,8,0:0:0:0:
143,114,189030,1,8,0:0:0:0:
146,110,189139,1,8,0:0:0:0:
222,142,189249,1,4,0:0:0:0:
146,111,189358,1,8,0:0:0:0:
222,142,189468,1,4,0:0:0:0:
146,112,189577,1,8,0:0:0:0:
144,113,189687,1,8,0:0:0:0:
143,114,189796,1,8,0:0:0:0:
139,114,189906,1,8,0:0:0:0:
138,112,190015,1,8,0:0:0:0:
222,142,190125,1,4,0:0:0:0:
137,113,190234,1,8,0:0:0:0:
135,114,190344,1,8,0:0:0:0:
133,117,190453,1,8,0:0:0:0:
222,142,190563,1,4,0:0:0:0:
133,117,190672,1,8,0:0:0:0:
133,117,190782,1,8,0:0:0:0:
137,113,190891,1,8,0:0:0:0:
222,142,191001,1,4,0:0:0:0:
135,114,191110,1,8,0:0:0:0:
133,117,191220,1,8,0:0:0:0:
133,117,191329,1,8,0:0:0:0:
222,142,191439,1,4,0:0:0:0:
133,117,191548,1,8,0:0:0:0:
131,119,191658,1,8,0:0:0:0:
131,120,191767,1,8,0:0:0:0:
222,142,191877,1,4,0:0:0:0:
195,87,191986,1,8,0:0:0:0:
222,142,192096,1,4,0:0:0:0:
195,87,192205,1,8,0:0:0:0:
222,142,192315,1,4,0:0:0:0:
195,87,192424,1,8,0:0:0:0:
219,97,192534,1,4,0:0:0:0:
195,87,192643,1,8,0:0:0:0:
219,97,192753,1,4,0:0:0:0:
195,87,192862,1,4,0:0:0:0:
219,97,192972,1,12,0:0:0:0:
187,55,193081,1,4,0:0:0:0:
219,97,193191,1,12,0:0:0:0:
219,97,193300,1,12,0:0:0:0:
186,56,193410,1,4,0:0:0:0:
219,97,193629,1,12,0:0:0:0:
