osu file format v14

[General]
AudioFilename: audio.mp3
AudioLeadIn: 0
PreviewTime: 62243
Countdown: 0
SampleSet: Normal
StackLeniency: 0.7
Mode: 1
LetterboxInBreaks: 0
WidescreenStoryboard: 1

[Editor]
Bookmarks: 930,20200,34214,48229,62243,74506,88521,102535,116550,134068,146331,172608,193630
DistanceSpacing: 1.4
BeatDivisor: 2
GridSize: 8
TimelineZoom: 2.050003

[Metadata]
Title:Lost Umbrella
TitleUnicode:Lost Umbrella
Artist:inabakumori
ArtistUnicode:inabakumori
Creator:Ulqui
Version:Muzukashii
Source:
Tags:japanese rock j-rock jrock kaai yuki 歌愛ユキ vocaloid アンチサイクロン ANTICYCLONE [Zeth] Skull Kid
BeatmapID:3311649
BeatmapSetID:1381453

[Difficulty]
HPDrainRate:6
CircleSize:2
OverallDifficulty:4
ApproachRate:10
SliderMultiplier:1.4
SliderTickRate:1

[Events]
//Background and Video events
0,0,"beges.png",0,0
//Break Periods
2,13392,19750
2,116750,122231
2,134068,140186
//Storyboard Layer 0 (Background)
//Storyboard Layer 1 (Fail)
//Storyboard Layer 2 (Pass)
//Storyboard Layer 3 (Foreground)
//Storyboard Layer 4 (Overlay)
//Storyboard Sound Samples

[TimingPoints]
55,218.978102189781,4,1,0,80,1,8
930,218.978102189781,4,1,0,80,1,0
930,-166.666666666667,4,1,0,80,0,0
7937,-111.111111111111,4,1,0,80,0,0
13192,-66.6666666666667,4,1,0,80,0,0
13411,-166.666666666667,4,1,0,80,0,0
20200,-111.111111111111,4,1,0,80,0,0
44725,-111.111111111111,4,1,0,80,0,0
44944,-113.475177304965,4,1,0,80,0,0
45163,-115.942028985507,4,1,0,80,0,0
45601,-121.212121212121,4,1,0,80,0,0
46039,-126.984126984127,4,1,0,80,0,0
46477,-133.333333333333,4,1,0,80,0,0
46696,-136.752136752137,4,1,0,80,0,0
46915,-140.350877192982,4,1,0,80,0,0
47134,-144.144144144144,4,1,0,80,0,0
47353,-148.148148148148,4,1,0,80,0,0
47572,-152.380952380952,4,1,0,80,0,0
47791,-156.862745098039,4,1,0,80,0,0
48229,-166.666666666667,4,1,0,80,0,1
58740,-166.666666666667,4,1,0,80,0,0
61805,-111.111111111111,4,1,0,80,0,0
62243,-111.111111111111,4,1,0,80,0,1
69251,-111.111111111111,4,1,0,80,0,0
69689,-111.111111111111,4,1,0,80,0,1
74068,-111.111111111111,4,1,0,80,0,0
113046,-111.111111111111,4,1,0,80,0,0
113484,-115.942028985507,4,1,0,80,0,0
113703,-118.518518518519,4,1,0,80,0,0
113922,-121.212121212121,4,1,0,80,0,0
114360,-126.984126984127,4,1,0,80,0,0
114798,-133.333333333333,4,1,0,80,0,0
115017,-136.752136752137,4,1,0,80,0,0
115236,-140.350877192982,4,1,0,80,0,0
115455,-144.144144144144,4,1,0,80,0,0
115674,-148.148148148148,4,1,0,80,0,0
116112,-156.862745098039,4,1,0,80,0,0
116550,-166.666666666667,4,1,0,80,0,0
123557,-111.731843398694,4,1,0,80,0,0
133192,218.978102189781,4,1,0,80,1,8
133192,-111.111111111111,4,1,0,80,0,8
134067,218.978102189781,4,1,0,80,1,0
134067,-168.067226490894,4,1,0,80,0,0
146329,-111.111111111111,4,1,0,80,0,1
153337,-111.111111111111,4,1,0,80,0,0
153775,-111.111111111111,4,1,0,80,0,1
158154,-111.111111111111,4,1,0,80,0,0
158592,-111.111111111111,4,1,0,80,0,1
172059,-111.111111111111,4,1,0,80,0,0
172607,-111.111111111111,4,1,0,80,0,0
190125,-111.111111111111,4,1,0,80,0,0
190344,-113.475866537091,4,1,0,80,0,0
190563,-115.943468043557,4,1,0,80,0,0
191000,-121.202684935299,4,1,0,80,0,0
191438,-126.975496592721,4,1,0,80,0,0
191876,-133.325721245338,4,1,0,80,0,0
192095,-136.745130186985,4,1,0,80,0,0
192314,-140.344551282051,4,1,0,80,0,0
192533,-144.138583713945,4,1,0,80,0,0
192752,-148.143449209169,4,1,0,80,0,0
192971,-152.377223889686,4,1,0,80,0,0
193190,-156.860111051406,4,1,0,80,0,0
193409,-161.290322580645,4,1,0,80,0,0
193628,-166.666666666667,4,1,0,80,0,0

[HitObjects]
113,172,930,5,8,0:0:0:0:
144,158,1805,1,0,0:0:0:0:
144,158,2681,1,8,0:0:0:0:
178,162,4433,1,0,0:0:0:0:
178,162,5309,1,8,0:0:0:0:
178,162,6185,1,0,0:0:0:0:
170,149,7937,1,0,0:0:0:0:
170,149,8156,1,8,0:0:0:0:
193,53,8375,1,0,0:0:0:0:
193,53,8484,1,0,0:0:0:0:
170,149,8594,1,8,0:0:0:0:
193,49,8813,1,0,0:0:0:0:
217,76,9032,1,8,0:0:0:0:
188,125,9470,1,8,0:0:0:0:
190,55,9689,1,0,0:0:0:0:
201,99,9908,1,8,0:0:0:0:
216,107,10127,1,0,0:0:0:0:
215,105,10236,1,0,0:0:0:0:
201,99,10346,1,8,0:0:0:0:
190,133,10565,1,0,0:0:0:0:
193,139,10784,1,8,0:0:0:0:
187,106,11221,1,8,0:0:0:0:
179,110,11440,1,0,0:0:0:0:
179,110,11659,1,8,0:0:0:0:
187,106,11878,1,0,0:0:0:0:
187,106,11988,1,0,0:0:0:0:
187,143,12097,1,8,0:0:0:0:
182,121,12316,1,4,0:0:0:0:
159,82,12535,1,4,0:0:0:0:
159,82,13192,1,12,0:0:0:0:
265,253,20200,5,4,0:0:0:0:
181,145,20419,1,8,0:0:0:0:
181,145,20638,1,8,0:0:0:0:
181,145,20857,1,0,0:0:0:0:
181,145,20966,1,0,0:0:0:0:
181,145,21075,1,0,0:0:0:0:
175,105,21404,1,8,0:0:0:0:
173,95,21951,1,0,0:0:0:0:
173,95,22170,1,8,0:0:0:0:
171,98,22389,1,8,0:0:0:0:
173,95,22608,1,0,0:0:0:0:
173,95,22718,1,8,0:0:0:0:
173,95,22827,1,0,0:0:0:0:
177,106,23156,1,8,0:0:0:0:
170,107,23703,1,0,0:0:0:0:
169,72,23922,1,8,0:0:0:0:
171,76,24141,1,8,0:0:0:0:
193,49,24360,1,0,0:0:0:0:
191,49,24470,1,0,0:0:0:0:
186,50,24579,1,0,0:0:0:0:
174,67,24908,1,8,0:0:0:0:
177,71,25455,1,0,0:0:0:0:
177,69,25674,1,8,0:0:0:0:
174,67,25893,1,8,0:0:0:0:
177,71,26112,1,0,0:0:0:0:
177,71,26221,1,8,0:0:0:0:
172,78,26331,1,0,0:0:0:0:
201,94,26659,1,8,0:0:0:0:
265,253,27207,5,4,0:0:0:0:
181,145,27426,1,8,0:0:0:0:
181,145,27645,1,8,0:0:0:0:
181,145,27864,1,0,0:0:0:0:
181,145,27973,1,0,0:0:0:0:
181,145,28083,1,0,0:0:0:0:
175,105,28411,1,8,0:0:0:0:
173,95,28959,1,0,0:0:0:0:
173,95,29178,1,8,0:0:0:0:
171,98,29397,1,8,0:0:0:0:
173,95,29616,1,0,0:0:0:0:
173,95,29725,1,8,0:0:0:0:
173,95,29835,1,0,0:0:0:0:
177,106,30163,1,8,0:0:0:0:
170,107,30711,1,0,0:0:0:0:
169,72,30929,1,8,0:0:0:0:
171,76,31148,1,8,0:0:0:0:
193,49,31367,1,0,0:0:0:0:
191,49,31477,1,0,0:0:0:0:
186,50,31586,1,0,0:0:0:0:
174,67,31915,1,8,0:0:0:0:
177,71,32462,1,0,0:0:0:0:
177,69,32681,1,8,0:0:0:0:
174,67,32900,1,8,0:0:0:0:
177,71,33119,1,0,0:0:0:0:
177,71,33229,1,8,0:0:0:0:
172,78,33338,1,0,0:0:0:0:
201,94,33667,1,8,0:0:0:0:
221,106,34214,1,4,0:0:0:0:
190,81,34433,1,4,0:0:0:0:
185,128,34871,1,8,0:0:0:0:
250,179,35090,1,0,0:0:0:0:
199,47,35309,1,0,0:0:0:0:
250,179,35528,1,8,0:0:0:0:
250,179,35747,1,8,0:0:0:0:
250,179,35966,1,4,0:0:0:0:
227,61,36185,1,4,0:0:0:0:
211,70,36623,1,8,0:0:0:0:
210,69,36842,1,0,0:0:0:0:
210,69,37061,1,0,0:0:0:0:
211,70,37280,1,8,0:0:0:0:
210,69,37718,1,4,0:0:0:0:
210,69,37937,1,4,0:0:0:0:
210,69,38375,1,8,0:0:0:0:
210,69,38594,1,0,0:0:0:0:
210,69,38813,1,0,0:0:0:0:
210,69,39032,1,8,0:0:0:0:
210,69,39251,1,8,0:0:0:0:
210,69,39470,1,4,0:0:0:0:
216,70,39689,1,4,0:0:0:0:
198,99,40127,1,8,0:0:0:0:
198,99,40346,1,0,0:0:0:0:
198,99,40565,1,8,0:0:0:0:
198,99,40784,1,8,0:0:0:0:
203,59,41221,1,4,0:0:0:0:
203,59,41440,1,4,0:0:0:0:
191,118,41878,1,8,0:0:0:0:
203,59,42097,1,4,0:0:0:0:
203,59,42316,1,4,0:0:0:0:
191,118,42754,1,8,0:0:0:0:
203,59,42973,1,4,0:0:0:0:
203,59,43192,1,4,0:0:0:0:
191,118,43630,1,8,0:0:0:0:
202,50,43849,1,4,0:0:0:0:
202,50,44068,1,4,0:0:0:0:
191,118,44506,1,8,0:0:0:0:
198,75,44725,1,12,0:0:0:0:
222,85,44944,1,0,0:0:0:0:
195,78,45163,1,12,0:0:0:0:
210,112,45601,1,12,0:0:0:0:
163,57,46039,1,12,0:0:0:0:
163,57,46477,1,12,0:0:0:0:
163,57,46696,1,4,0:0:0:0:
163,57,46915,1,12,0:0:0:0:
163,57,47134,1,12,0:0:0:0:
163,57,47353,1,4,0:0:0:0:
170,69,47572,1,4,0:0:0:0:
170,69,47791,1,12,0:0:0:0:
220,40,48229,1,12,0:0:0:0:
310,67,48448,1,0,0:0:0:0:
184,128,48667,1,0,0:0:0:0:
233,65,48886,1,0,0:0:0:0:
166,122,49105,1,8,0:0:0:0:
228,74,49324,1,0,0:0:0:0:
166,122,49543,1,0,0:0:0:0:
166,122,49762,1,8,0:0:0:0:
166,122,49981,1,8,0:0:0:0:
166,122,50419,1,8,0:0:0:0:
176,125,50638,1,0,0:0:0:0:
176,125,50857,1,8,0:0:0:0:
176,125,51294,1,8,0:0:0:0:
176,125,51732,1,8,0:0:0:0:
256,14,51951,1,0,0:0:0:0:
177,74,52170,1,0,0:0:0:0:
177,74,52389,1,0,0:0:0:0:
177,74,52608,1,8,0:0:0:0:
177,74,52827,1,0,0:0:0:0:
177,74,53046,1,8,0:0:0:0:
181,79,53265,1,8,0:0:0:0:
181,80,53484,1,8,0:0:0:0:
213,73,53922,1,8,0:0:0:0:
214,73,54141,1,0,0:0:0:0:
215,74,54360,1,8,0:0:0:0:
213,73,54579,1,0,0:0:0:0:
213,73,54798,1,0,0:0:0:0:
214,73,55017,1,8,0:0:0:0:
215,74,55236,1,12,0:0:0:0:
200,135,55893,1,0,0:0:0:0:
200,135,56112,1,8,0:0:0:0:
200,135,56550,1,8,0:0:0:0:
200,135,56988,1,0,0:0:0:0:
200,135,57426,1,8,0:0:0:0:
200,135,57645,1,0,0:0:0:0:
200,135,57864,1,8,0:0:0:0:
200,135,58083,1,0,0:0:0:0:
200,135,58302,1,8,0:0:0:0:
200,135,58521,1,8,0:0:0:0:
143,162,61805,1,12,0:0:0:0:
209,157,62243,1,4,0:0:0:0:
209,157,62681,1,8,0:0:0:0:
178,67,63119,1,0,0:0:0:0:
178,67,63229,1,8,0:0:0:0:
178,67,63338,1,8,0:0:0:0:
190,55,63557,1,8,0:0:0:0:
190,56,63776,1,0,0:0:0:0:
190,56,63886,1,0,0:0:0:0:
190,56,63995,1,8,0:0:0:0:
203,37,64214,1,8,0:0:0:0:
204,37,64433,1,0,0:0:0:0:
240,103,64652,1,8,0:0:0:0:
204,40,64871,1,8,0:0:0:0:
206,43,65090,1,8,0:0:0:0:
208,44,65309,1,0,0:0:0:0:
194,108,65747,1,8,0:0:0:0:
173,20,65966,1,0,0:0:0:0:
153,8,66075,1,8,0:0:0:0:
217,93,66185,1,0,0:0:0:0:
153,8,66294,1,8,0:0:0:0:
216,93,66404,1,0,0:0:0:0:
187,96,66623,1,8,0:0:0:0:
187,98,66842,1,0,0:0:0:0:
216,48,66951,1,8,0:0:0:0:
187,99,67061,1,0,0:0:0:0:
193,81,67389,1,8,0:0:0:0:
205,104,67499,1,0,0:0:0:0:
187,82,67718,1,8,0:0:0:0:
188,82,67937,1,8,0:0:0:0:
217,87,68156,1,0,0:0:0:0:
219,92,68265,1,0,0:0:0:0:
219,91,68375,1,8,0:0:0:0:
208,65,68594,1,8,0:0:0:0:
208,65,68703,1,8,0:0:0:0:
208,65,68813,1,0,0:0:0:0:
208,65,69251,1,0,0:0:0:0:
208,65,69689,1,12,0:0:0:0:
192,140,70127,1,0,0:0:0:0:
192,140,70236,1,8,0:0:0:0:
192,140,70346,1,8,0:0:0:0:
186,135,70565,1,8,0:0:0:0:
200,105,70784,1,0,0:0:0:0:
198,105,70893,1,0,0:0:0:0:
198,105,71002,1,8,0:0:0:0:
210,73,71221,1,8,0:0:0:0:
208,73,71440,1,0,0:0:0:0:
209,73,71659,1,8,0:0:0:0:
209,75,71878,1,8,0:0:0:0:
210,73,72097,1,0,0:0:0:0:
208,73,72316,1,0,0:0:0:0:
209,73,72535,1,8,0:0:0:0:
189,45,72645,1,0,0:0:0:0:
192,50,72973,1,8,0:0:0:0:
191,50,73083,1,8,0:0:0:0:
188,51,73192,1,8,0:0:0:0:
188,58,73411,1,0,0:0:0:0:
186,59,73630,1,12,0:0:0:0:
185,59,73849,1,12,0:0:0:0:
265,253,74506,5,4,0:0:0:0:
181,145,74725,1,8,0:0:0:0:
181,145,74944,1,8,0:0:0:0:
181,145,75163,1,0,0:0:0:0:
181,145,75273,1,0,0:0:0:0:
181,145,75382,1,0,0:0:0:0:
175,105,75711,1,8,0:0:0:0:
173,95,76258,1,0,0:0:0:0:
173,95,76477,1,8,0:0:0:0:
171,98,76696,1,8,0:0:0:0:
173,95,76915,1,0,0:0:0:0:
173,95,77024,1,8,0:0:0:0:
173,95,77134,1,0,0:0:0:0:
177,106,77462,1,8,0:0:0:0:
170,107,78010,1,0,0:0:0:0:
169,72,78229,1,8,0:0:0:0:
171,76,78448,1,8,0:0:0:0:
193,49,78667,1,0,0:0:0:0:
191,49,78776,1,0,0:0:0:0:
186,50,78886,1,0,0:0:0:0:
174,67,79214,1,8,0:0:0:0:
177,71,79762,1,0,0:0:0:0:
177,69,79981,1,8,0:0:0:0:
174,67,80200,1,8,0:0:0:0:
177,71,80419,1,0,0:0:0:0:
177,71,80528,1,8,0:0:0:0:
172,78,80638,1,0,0:0:0:0:
168,186,81075,1,8,0:0:0:0:
265,253,81513,5,4,0:0:0:0:
181,145,81732,1,8,0:0:0:0:
181,145,81951,1,8,0:0:0:0:
181,145,82170,1,0,0:0:0:0:
181,145,82280,1,0,0:0:0:0:
181,145,82389,1,0,0:0:0:0:
175,105,82718,1,8,0:0:0:0:
173,95,83265,1,0,0:0:0:0:
173,95,83484,1,8,0:0:0:0:
171,98,83703,1,8,0:0:0:0:
173,95,83922,1,0,0:0:0:0:
173,95,84032,1,8,0:0:0:0:
173,95,84141,1,0,0:0:0:0:
177,106,84470,1,8,0:0:0:0:
170,107,85017,1,0,0:0:0:0:
169,72,85236,1,8,0:0:0:0:
171,76,85455,1,8,0:0:0:0:
193,49,85674,1,0,0:0:0:0:
191,49,85784,1,0,0:0:0:0:
186,50,85893,1,0,0:0:0:0:
174,67,86221,1,8,0:0:0:0:
177,71,86769,1,0,0:0:0:0:
177,69,86988,1,8,0:0:0:0:
174,67,87207,1,8,0:0:0:0:
177,71,87426,1,0,0:0:0:0:
177,71,87535,1,8,0:0:0:0:
172,78,87645,1,0,0:0:0:0:
201,94,87973,1,8,0:0:0:0:
204,107,88521,1,4,0:0:0:0:
175,122,88740,1,8,0:0:0:0:
175,123,88959,1,8,0:0:0:0:
251,139,89178,1,0,0:0:0:0:
251,139,89287,1,0,0:0:0:0:
224,143,89397,1,0,0:0:0:0:
222,152,89725,1,0,0:0:0:0:
189,124,90054,1,8,0:0:0:0:
202,112,90273,1,0,0:0:0:0:
201,113,90492,1,0,0:0:0:0:
201,113,90711,1,0,0:0:0:0:
186,53,90929,1,8,0:0:0:0:
186,53,91039,1,8,0:0:0:0:
198,105,91148,1,8,0:0:0:0:
209,124,91477,1,8,0:0:0:0:
209,131,91805,1,8,0:0:0:0:
207,132,92024,1,0,0:0:0:0:
192,81,92243,1,8,0:0:0:0:
205,112,92462,1,8,0:0:0:0:
122,94,92681,1,0,0:0:0:0:
122,94,92791,1,0,0:0:0:0:
122,94,92900,1,0,0:0:0:0:
180,101,93229,1,0,0:0:0:0:
180,101,93557,1,8,0:0:0:0:
177,59,93776,1,0,0:0:0:0:
177,59,93995,1,0,0:0:0:0:
177,59,94214,1,0,0:0:0:0:
177,59,94433,1,8,0:0:0:0:
177,59,94543,1,8,0:0:0:0:
167,100,95309,1,0,0:0:0:0:
165,129,95528,1,4,0:0:0:0:
124,168,95747,1,8,0:0:0:0:
124,168,95966,1,8,0:0:0:0:
124,168,96185,1,0,0:0:0:0:
124,168,96294,1,0,0:0:0:0:
124,168,96404,1,0,0:0:0:0:
117,173,96732,1,0,0:0:0:0:
173,116,97061,1,8,0:0:0:0:
173,116,97280,1,0,0:0:0:0:
163,122,97499,1,0,0:0:0:0:
164,122,97718,1,0,0:0:0:0:
165,124,97937,1,8,0:0:0:0:
165,124,98046,1,8,0:0:0:0:
165,124,98156,1,8,0:0:0:0:
164,134,98484,1,8,0:0:0:0:
162,135,98813,1,8,0:0:0:0:
173,111,99032,1,0,0:0:0:0:
172,116,99251,1,8,0:0:0:0:
172,117,99470,1,8,0:0:0:0:
170,120,99689,1,0,0:0:0:0:
170,120,99798,1,0,0:0:0:0:
170,120,99908,1,0,0:0:0:0:
146,133,100236,1,0,0:0:0:0:
146,85,100565,1,8,0:0:0:0:
146,85,100784,1,0,0:0:0:0:
158,85,101221,1,8,0:0:0:0:
191,75,101440,1,8,0:0:0:0:
181,75,101659,1,0,0:0:0:0:
203,38,101878,1,0,0:0:0:0:
185,99,102097,1,8,0:0:0:0:
204,76,102535,1,4,0:0:0:0:
204,76,102754,1,4,0:0:0:0:
175,87,103192,1,8,0:0:0:0:
176,87,103411,1,0,0:0:0:0:
176,87,103630,1,0,0:0:0:0:
175,87,103849,1,8,0:0:0:0:
175,87,104068,1,8,0:0:0:0:
176,87,104287,1,4,0:0:0:0:
176,87,104506,1,4,0:0:0:0:
220,78,104944,1,8,0:0:0:0:
220,78,105163,1,0,0:0:0:0:
220,78,105382,1,0,0:0:0:0:
220,78,105601,1,8,0:0:0:0:
206,85,106039,1,4,0:0:0:0:
191,111,106258,1,4,0:0:0:0:
191,111,106696,1,8,0:0:0:0:
191,118,106915,1,0,0:0:0:0:
192,123,107134,1,0,0:0:0:0:
191,123,107353,1,8,0:0:0:0:
191,125,107572,1,8,0:0:0:0:
189,133,107791,1,4,0:0:0:0:
188,139,108010,1,4,0:0:0:0:
201,143,108448,1,8,0:0:0:0:
201,143,108667,1,0,0:0:0:0:
201,146,108886,1,8,0:0:0:0:
201,143,109105,1,8,0:0:0:0:
201,143,109324,1,8,0:0:0:0:
186,116,109543,1,4,0:0:0:0:
186,116,109762,1,4,0:0:0:0:
171,132,110200,1,8,0:0:0:0:
186,116,110419,1,4,0:0:0:0:
186,116,110638,1,4,0:0:0:0:
185,153,111075,1,8,0:0:0:0:
186,116,111294,1,4,0:0:0:0:
186,116,111513,1,4,0:0:0:0:
185,153,111951,1,8,0:0:0:0:
186,116,112170,1,4,0:0:0:0:
186,116,112389,1,4,0:0:0:0:
185,153,112827,1,8,0:0:0:0:
186,116,113046,1,12,0:0:0:0:
187,146,113484,1,12,0:0:0:0:
229,89,113703,1,0,0:0:0:0:
187,146,113922,1,12,0:0:0:0:
187,146,114360,1,12,0:0:0:0:
187,146,114798,1,12,0:0:0:0:
187,146,115017,1,12,0:0:0:0:
187,146,115236,1,4,0:0:0:0:
187,146,115455,1,4,0:0:0:0:
187,146,115674,1,12,0:0:0:0:
187,146,116112,1,12,0:0:0:0:
187,146,116550,1,4,0:0:0:0:
209,137,122681,5,0,0:0:0:0:
204,98,123010,1,0,0:0:0:0:
191,89,123119,1,8,0:0:0:0:
64,64,123338,1,0,0:0:0:0:
194,126,123557,1,12,0:0:0:0:
177,76,123776,1,0,0:0:0:0:
191,89,123995,1,0,0:0:0:0:
194,126,124433,1,12,0:0:0:0:
177,76,124652,1,0,0:0:0:0:
191,89,124871,1,0,0:0:0:0:
190,90,125090,1,0,0:0:0:0:
194,126,125309,1,12,0:0:0:0:
177,76,125528,1,0,0:0:0:0:
191,89,125747,1,0,0:0:0:0:
205,125,126185,1,12,0:0:0:0:
230,93,126404,1,0,0:0:0:0:
191,89,126623,1,0,0:0:0:0:
205,125,127061,1,12,0:0:0:0:
182,72,127280,1,0,0:0:0:0:
170,53,127499,1,0,0:0:0:0:
205,125,127937,1,12,0:0:0:0:
182,72,128156,1,0,0:0:0:0:
169,71,128375,1,0,0:0:0:0:
187,48,128594,1,0,0:0:0:0:
205,125,128813,1,12,0:0:0:0:
182,72,129032,1,0,0:0:0:0:
169,71,129251,1,0,0:0:0:0:
26,187,129689,1,8,0:0:0:0:
36,188,129835,1,8,0:0:0:0:
38,186,129981,1,8,0:0:0:0:
38,185,130127,1,8,0:0:0:0:
179,129,130565,1,4,0:0:0:0:
179,129,130784,1,8,0:0:0:0:
179,129,131002,1,8,0:0:0:0:
179,129,131440,1,8,0:0:0:0:
179,129,131769,1,8,0:0:0:0:
164,84,131988,1,0,0:0:0:0:
156,86,132097,1,0,0:0:0:0:
183,120,132316,1,12,0:0:0:0:
184,120,132535,1,12,0:0:0:0:
179,129,132754,1,12,0:0:0:0:
187,125,132973,1,12,0:0:0:0:
156,159,140636,5,8,0:0:0:0:
156,159,141074,1,0,0:0:0:0:
123,144,141512,1,8,0:0:0:0:
123,144,141731,1,0,0:0:0:0:
123,144,141840,1,0,0:0:0:0:
123,144,142059,1,0,0:0:0:0:
123,144,142169,1,0,0:0:0:0:
123,144,142388,1,8,0:0:0:0:
200,152,142826,1,0,0:0:0:0:
199,87,143264,1,8,0:0:0:0:
199,87,143483,1,0,0:0:0:0:
199,87,143592,1,8,0:0:0:0:
199,87,143811,1,8,0:0:0:0:
195,96,143921,1,0,0:0:0:0:
194,99,144139,1,8,0:0:0:0:
215,42,144358,1,0,0:0:0:0:
215,42,144468,1,0,0:0:0:0:
218,102,144577,1,8,0:0:0:0:
244,201,145891,5,8,0:0:0:0:
244,201,146110,1,8,0:0:0:0:
209,157,146329,5,4,0:0:0:0:
209,157,146767,1,8,0:0:0:0:
178,67,147205,1,0,0:0:0:0:
178,67,147315,1,8,0:0:0:0:
178,67,147424,1,8,0:0:0:0:
190,55,147643,1,8,0:0:0:0:
190,56,147862,1,0,0:0:0:0:
190,56,147972,1,0,0:0:0:0:
190,56,148081,1,8,0:0:0:0:
203,37,148300,1,8,0:0:0:0:
204,37,148519,1,0,0:0:0:0:
240,103,148738,1,8,0:0:0:0:
204,40,148957,1,8,0:0:0:0:
206,43,149176,1,8,0:0:0:0:
208,44,149395,1,0,0:0:0:0:
194,108,149833,1,8,0:0:0:0:
173,20,150052,1,0,0:0:0:0:
153,8,150161,1,8,0:0:0:0:
217,93,150271,1,0,0:0:0:0:
153,8,150380,1,8,0:0:0:0:
216,93,150490,1,0,0:0:0:0:
187,96,150709,1,8,0:0:0:0:
187,98,150928,1,0,0:0:0:0:
216,48,151037,1,8,0:0:0:0:
187,99,151147,1,0,0:0:0:0:
208,46,151475,1,8,0:0:0:0:
205,104,151585,1,0,0:0:0:0:
187,82,151804,1,8,0:0:0:0:
188,82,152023,1,8,0:0:0:0:
217,87,152242,1,0,0:0:0:0:
219,92,152351,1,0,0:0:0:0:
219,91,152461,1,8,0:0:0:0:
208,65,152680,1,8,0:0:0:0:
208,65,152789,1,8,0:0:0:0:
208,65,152899,1,0,0:0:0:0:
208,65,153337,1,0,0:0:0:0:
208,65,153775,1,12,0:0:0:0:
192,140,154212,1,0,0:0:0:0:
192,140,154322,1,8,0:0:0:0:
192,140,154431,1,8,0:0:0:0:
186,135,154650,1,8,0:0:0:0:
200,105,154869,1,0,0:0:0:0:
198,105,154979,1,0,0:0:0:0:
198,105,155088,1,8,0:0:0:0:
210,73,155307,1,8,0:0:0:0:
208,73,155526,1,0,0:0:0:0:
209,73,155745,1,8,0:0:0:0:
209,75,155964,1,8,0:0:0:0:
210,73,156183,1,0,0:0:0:0:
208,73,156402,1,0,0:0:0:0:
209,73,156621,1,8,0:0:0:0:
189,45,156731,1,0,0:0:0:0:
192,50,157059,1,8,0:0:0:0:
191,50,157169,1,8,0:0:0:0:
188,51,157278,1,8,0:0:0:0:
188,58,157497,1,0,0:0:0:0:
186,59,157716,1,12,0:0:0:0:
185,59,157935,1,12,0:0:0:0:
209,109,158592,1,4,0:0:0:0:
209,109,158811,1,8,0:0:0:0:
209,109,159030,1,8,0:0:0:0:
204,88,159249,1,0,0:0:0:0:
181,88,159358,1,0,0:0:0:0:
170,88,159468,1,0,0:0:0:0:
204,88,159796,1,8,0:0:0:0:
204,88,160344,1,8,0:0:0:0:
204,88,160563,1,0,0:0:0:0:
204,88,160782,1,0,0:0:0:0:
204,88,161001,1,8,0:0:0:0:
213,93,161110,1,8,0:0:0:0:
213,93,161220,1,8,0:0:0:0:
219,98,161548,1,0,0:0:0:0:
245,158,161877,1,8,0:0:0:0:
189,87,162096,1,0,0:0:0:0:
189,87,162315,1,8,0:0:0:0:
188,88,162534,1,8,0:0:0:0:
189,87,162753,1,0,0:0:0:0:
189,87,162862,1,0,0:0:0:0:
189,87,162972,1,0,0:0:0:0:
189,87,163300,1,8,0:0:0:0:
189,87,163848,1,8,0:0:0:0:
189,87,164067,1,0,0:0:0:0:
196,95,164285,1,0,0:0:0:0:
197,99,164504,1,8,0:0:0:0:
195,99,164614,1,8,0:0:0:0:
193,99,164723,1,8,0:0:0:0:
193,101,165052,1,0,0:0:0:0:
227,56,165380,1,8,0:0:0:0:
195,99,165599,1,4,0:0:0:0:
201,132,165818,1,8,0:0:0:0:
201,131,166037,1,8,0:0:0:0:
209,129,166256,1,0,0:0:0:0:
207,128,166366,1,0,0:0:0:0:
207,128,166475,1,0,0:0:0:0:
207,128,166804,1,8,0:0:0:0:
207,128,167351,1,8,0:0:0:0:
206,118,167570,1,0,0:0:0:0:
206,118,167789,1,0,0:0:0:0:
206,118,168008,1,8,0:0:0:0:
202,122,168118,1,8,0:0:0:0:
199,120,168227,1,8,0:0:0:0:
206,118,168556,1,0,0:0:0:0:
211,150,168884,1,8,0:0:0:0:
202,122,169103,1,0,0:0:0:0:
206,118,169322,1,8,0:0:0:0:
206,118,169541,1,8,0:0:0:0:
202,122,169760,1,0,0:0:0:0:
202,122,169869,1,0,0:0:0:0:
202,122,169979,1,0,0:0:0:0:
206,118,170307,1,8,0:0:0:0:
192,116,170855,1,8,0:0:0:0:
193,118,171074,1,0,0:0:0:0:
196,117,171293,1,0,0:0:0:0:
183,87,171512,1,8,0:0:0:0:
177,88,171731,1,8,0:0:0:0:
199,59,171840,1,8,0:0:0:0:
177,89,172059,1,0,0:0:0:0:
215,109,172607,1,4,0:0:0:0:
215,109,172826,1,4,0:0:0:0:
224,105,173264,1,8,0:0:0:0:
224,106,173483,1,0,0:0:0:0:
227,110,173702,1,8,0:0:0:0:
223,142,174139,1,8,0:0:0:0:
216,104,174358,1,4,0:0:0:0:
216,104,174577,1,4,0:0:0:0:
193,134,175015,1,8,0:0:0:0:
193,134,175234,1,0,0:0:0:0:
193,134,175453,1,8,0:0:0:0:
174,156,175891,1,8,0:0:0:0:
193,134,176110,1,4,0:0:0:0:
193,134,176329,1,4,0:0:0:0:
193,134,176767,1,8,0:0:0:0:
193,134,176986,1,0,0:0:0:0:
193,134,177205,1,8,0:0:0:0:
175,122,177643,1,8,0:0:0:0:
163,168,177862,1,4,0:0:0:0:
163,168,178081,1,4,0:0:0:0:
163,168,178519,1,8,0:0:0:0:
163,168,178738,1,0,0:0:0:0:
163,168,178957,1,8,0:0:0:0:
214,93,179395,1,8,0:0:0:0:
163,168,179614,1,4,0:0:0:0:
164,174,179833,1,4,0:0:0:0:
164,175,180271,1,8,0:0:0:0:
168,179,180490,1,0,0:0:0:0:
171,183,180709,1,0,0:0:0:0:
195,70,180928,1,8,0:0:0:0:
174,180,181147,1,8,0:0:0:0:
159,95,181366,1,4,0:0:0:0:
231,66,181585,1,4,0:0:0:0:
195,70,181804,1,8,0:0:0:0:
168,108,182023,1,8,0:0:0:0:
170,118,182242,1,0,0:0:0:0:
170,120,182461,1,0,0:0:0:0:
170,124,182680,1,8,0:0:0:0:
169,131,183118,1,4,0:0:0:0:
169,131,183337,1,4,0:0:0:0:
143,129,183775,1,8,0:0:0:0:
143,129,183994,1,0,0:0:0:0:
173,77,184212,1,0,0:0:0:0:
173,77,184431,1,8,0:0:0:0:
173,77,184650,1,8,0:0:0:0:
173,77,184869,1,4,0:0:0:0:
241,90,185088,1,4,0:0:0:0:
200,53,185307,1,8,0:0:0:0:
200,53,185526,1,8,0:0:0:0:
200,71,185745,1,0,0:0:0:0:
200,76,185964,1,8,0:0:0:0:
203,80,186183,1,8,0:0:0:0:
186,110,186621,1,4,0:0:0:0:
186,110,186840,1,4,0:0:0:0:
240,217,187278,1,8,0:0:0:0:
218,135,187497,1,4,0:0:0:0:
218,135,187716,1,4,0:0:0:0:
228,182,188154,1,8,0:0:0:0:
218,135,188373,1,4,0:0:0:0:
218,135,188592,1,4,0:0:0:0:
228,182,189030,1,8,0:0:0:0:
218,135,189249,1,4,0:0:0:0:
221,128,189468,1,4,0:0:0:0:
228,182,189906,1,8,0:0:0:0:
221,128,190125,1,12,0:0:0:0:
217,75,190344,1,0,0:0:0:0:
221,128,190563,1,12,0:0:0:0:
221,128,191001,1,12,0:0:0:0:
221,128,191439,1,12,0:0:0:0:
221,128,191877,1,12,0:0:0:0:
221,128,192096,1,4,0:0:0:0:
221,128,192315,1,12,0:0:0:0:
221,128,192534,1,4,0:0:0:0:
221,128,192753,1,12,0:0:0:0:
221,128,192972,1,12,0:0:0:0:
221,128,193191,1,4,0:0:0:0:
151,62,193410,1,4,0:0:0:0:
221,128,193629,1,12,0:0:0:0:
