osu file format v14

[General]
AudioFilename: audio.mp3
AudioLeadIn: 0
PreviewTime: 62299
Countdown: 0
SampleSet: Soft
StackLeniency: 1
Mode: 0
LetterboxInBreaks: 0
WidescreenStoryboard: 1

[Editor]
DistanceSpacing: 0.5
BeatDivisor: 4
GridSize: 8
TimelineZoom: 2.599999

[Metadata]
Title:Lost Umbrella
TitleUnicode:ロストアンブレラ
Artist:inabakumori
ArtistUnicode:稲葉曇
Creator:Ryuusei Aika
Version:kusano's Extra
Source:
Tags:Houshou Hari [Hatsune Miku] [Hatsune_Miku] Hatsune Miku kanor bongo kusano EvilElvis Evil Elvis Jounzan Natteke desu Natteke_desu SMOKELIND 稻叶昙 歌愛ユキ ボーカロイド Kaai Yuki Vocaloid Vocalsynth Female Vocal Japanese Rock Pop J-Rock JRock J-Pop JPop
BeatmapID:3003472
BeatmapSetID:1455997

[Difficulty]
HPDrainRate:6
CircleSize:4
OverallDifficulty:8
ApproachRate:9.3
SliderMultiplier:1.7
SliderTickRate:1

[Events]
//Background and Video events
0,0,"BG.png",0,0
//Break Periods
2,116860,122212
2,134178,140084
//Storyboard Layer 0 (Background)
//Storyboard Layer 1 (Fail)
//Storyboard Layer 2 (Pass)
//Storyboard Layer 3 (Foreground)
//Storyboard Layer 4 (Overlay)
//Storyboard Sound Samples

[TimingPoints]
1040,218.978102189781,4,2,77,47,1,0
1040,-200,4,2,77,47,0,0
1149,-200,4,2,0,5,0,0
1915,-200,4,2,77,47,0,0
2024,-200,4,2,0,5,0,0
2791,-200,4,2,77,47,0,0
2900,-200,4,2,0,5,0,0
4543,-200,4,2,77,47,0,0
4652,-200,4,2,0,5,0,0
5419,-200,4,2,77,47,0,0
5528,-200,4,2,0,5,0,0
6295,-200,4,2,77,47,0,0
6404,-200,4,2,0,5,0,0
7609,-200,4,2,77,47,0,0
8047,-117.647058823529,4,2,77,57,0,0
12426,-117.647058823529,4,2,77,67,0,0
13302,-200,4,2,77,77,0,0
13521,-66.6666666666667,4,2,77,77,0,0
14178,-133.333333333333,4,2,77,77,0,0
15054,-66.6666666666667,4,2,77,77,0,0
15930,-133.333333333333,4,2,77,77,0,0
16806,-66.6666666666667,4,2,77,77,0,0
17682,-100,4,2,77,77,0,0
18558,-66.6666666666667,4,2,77,77,0,0
19215,-66.6666666666667,4,2,77,77,0,0
19872,-100,4,2,77,77,0,0
20200,-100,4,2,0,5,0,0
20310,-76.9230769230769,4,2,77,77,0,1
20364,-76.9230769230769,4,2,77,77,0,0
20912,-76.9230769230769,4,2,0,5,0,0
20967,-76.9230769230769,4,2,77,77,0,0
21678,-76.9230769230769,4,2,0,5,0,0
21733,-76.9230769230769,4,2,77,77,0,0
24415,-76.9230769230769,4,2,0,5,0,0
24470,-76.9230769230769,4,2,77,77,0,0
31861,-76.9230769230769,4,2,0,5,0,0
31916,-76.9230769230769,4,2,77,77,0,0
34324,-133.333333333333,4,2,77,67,0,1
34379,-133.333333333333,4,2,77,67,0,0
36076,-133.333333333333,4,2,77,67,0,0
48339,-200,4,2,77,77,0,0
48503,-200,4,2,77,5,0,0
48558,-200,4,2,77,77,0,0
48722,-200,4,2,0,5,0,0
48777,-200,4,2,77,77,0,0
48941,-200,4,2,0,5,0,0
48996,-200,4,2,77,77,0,0
49160,-200,4,2,0,5,0,0
49215,-200,4,2,77,77,0,0
49379,-200,4,2,0,5,0,0
49434,-200,4,2,77,77,0,0
49598,-200,4,2,0,5,0,0
49653,-200,4,2,77,77,0,0
49817,-200,4,2,0,5,0,0
49872,-200,4,2,77,77,0,0
50036,-200,4,2,0,5,0,0
50091,-200,4,2,77,77,0,0
50255,-200,4,2,0,5,0,0
50310,-200,4,2,77,77,0,0
50474,-200,4,2,0,5,0,0
50529,-200,4,2,77,77,0,0
50693,-200,4,2,0,5,0,0
50748,-200,4,2,77,77,0,0
50912,-200,4,2,0,5,0,0
50967,-200,4,2,77,77,0,0
51131,-200,4,2,0,5,0,0
51186,-200,4,2,77,77,0,0
51350,-200,4,2,0,5,0,0
51405,-200,4,2,77,77,0,0
51568,-200,4,2,0,5,0,0
51623,-200,4,2,77,77,0,0
51788,-200,4,2,0,5,0,0
51842,-100,4,2,77,77,0,0
52006,-100,4,2,0,5,0,0
52061,-100,4,2,77,77,0,0
52225,-100,4,2,0,5,0,0
52280,-100,4,2,77,77,0,0
52444,-100,4,2,0,5,0,0
52499,-100,4,2,77,77,0,0
52663,-100,4,2,0,5,0,0
52718,-100,4,2,77,77,0,0
52883,-100,4,2,0,5,0,0
52938,-100,4,2,77,77,0,0
53102,-100,4,2,0,5,0,0
53157,-100,4,2,77,77,0,0
53321,-100,4,2,0,5,0,0
53376,-100,4,2,77,77,0,0
53539,-100,4,2,0,5,0,0
53594,-100,4,2,77,77,0,0
53758,-100,4,2,0,5,0,0
53813,-100,4,2,77,77,0,0
53977,-100,4,2,0,5,0,0
54032,-100,4,2,77,77,0,0
54196,-100,4,2,0,5,0,0
54251,-100,4,2,77,77,0,0
54415,-100,4,2,0,5,0,0
54470,-100,4,2,77,77,0,0
54634,-100,4,2,0,5,0,0
54689,-100,4,2,77,77,0,0
54853,-100,4,2,0,5,0,0
54908,-100,4,2,77,77,0,0
55072,-100,4,2,0,5,0,0
55127,-100,4,2,77,77,0,0
55291,-100,4,2,0,5,0,0
55346,-83.3333333333333,4,2,77,77,0,0
55510,-83.3333333333333,4,2,0,5,0,0
55565,-83.3333333333333,4,2,77,77,0,0
55729,-83.3333333333333,4,2,0,5,0,0
55784,-83.3333333333333,4,2,77,77,0,0
55948,-83.3333333333333,4,2,0,5,0,0
56003,-83.3333333333333,4,2,77,77,0,0
56167,-83.3333333333333,4,2,0,5,0,0
56222,-83.3333333333333,4,2,77,77,0,0
56386,-83.3333333333333,4,2,0,5,0,0
56441,-83.3333333333333,4,2,77,77,0,0
56605,-83.3333333333333,4,2,0,5,0,0
56660,-83.3333333333333,4,2,77,77,0,0
56824,-83.3333333333333,4,2,0,5,0,0
56879,-83.3333333333333,4,2,77,77,0,0
57043,-83.3333333333333,4,2,0,5,0,0
57098,-83.3333333333333,4,2,77,77,0,0
57262,-83.3333333333333,4,2,0,5,0,0
57317,-83.3333333333333,4,2,77,77,0,0
57481,-83.3333333333333,4,2,0,5,0,0
57536,-83.3333333333333,4,2,77,77,0,0
57700,-83.3333333333333,4,2,0,5,0,0
57755,-83.3333333333333,4,2,77,77,0,0
57919,-83.3333333333333,4,2,0,5,0,0
57974,-83.3333333333333,4,2,77,77,0,0
58138,-83.3333333333333,4,2,0,5,0,0
58193,-83.3333333333333,4,2,77,77,0,0
58357,-83.3333333333333,4,2,0,5,0,0
58412,-83.3333333333333,4,2,77,77,0,0
58576,-83.3333333333333,4,2,0,5,0,0
58631,-83.3333333333333,4,2,77,77,0,0
58795,-83.3333333333333,4,2,0,5,0,0
58850,-333.333333333333,4,2,77,77,0,0
59288,-1000,4,2,0,5,0,0
59726,-500,4,2,77,77,0,0
60164,-1000,4,2,0,5,0,0
60602,-1000,4,2,77,77,0,0
61039,-1000,4,2,0,5,0,0
61477,-1000,4,2,77,77,0,0
61915,-66.6666666666667,4,2,77,77,0,0
62244,-66.6666666666667,4,2,0,5,0,0
62353,-76.9230769230769,4,2,77,87,0,1
64269,-76.9230769230769,4,2,0,5,0,1
64323,-76.9230769230769,4,2,77,87,0,1
64488,-76.9230769230769,4,2,0,5,0,1
64542,-76.9230769230769,4,2,77,87,0,1
64707,-76.9230769230769,4,2,0,5,0,1
64761,-76.9230769230769,4,2,77,87,0,1
64926,-76.9230769230769,4,2,0,5,0,1
64980,-76.9230769230769,4,2,77,87,0,1
65145,-76.9230769230769,4,2,0,5,0,1
65199,-76.9230769230769,4,2,77,87,0,1
65364,-76.9230769230769,4,2,0,5,0,1
65418,-76.9230769230769,4,2,77,87,0,1
67773,-76.9230769230769,4,2,0,5,0,1
67827,-76.9230769230769,4,2,77,87,0,1
67992,-76.9230769230769,4,2,0,5,0,1
68046,-76.9230769230769,4,2,77,87,0,1
69361,-333.333333333333,4,2,77,87,0,0
69634,-333.333333333333,4,2,0,5,0,0
69689,-76.9230769230769,4,2,77,87,0,1
71277,-76.9230769230769,4,2,0,5,0,1
71331,-76.9230769230769,4,2,77,87,0,1
71496,-76.9230769230769,4,2,0,5,0,1
71550,-76.9230769230769,4,2,77,87,0,1
71715,-76.9230769230769,4,2,0,5,0,1
71769,-76.9230769230769,4,2,77,87,0,1
71934,-76.9230769230769,4,2,0,5,0,1
71988,-76.9230769230769,4,2,77,87,0,1
72153,-76.9230769230769,4,2,0,5,0,1
72207,-76.9230769230769,4,2,77,87,0,1
72372,-76.9230769230769,4,2,0,5,0,1
72426,-76.9230769230769,4,2,77,87,0,1
73740,-200,4,2,77,87,0,0
74616,-76.9230769230769,4,2,77,77,0,0
75218,-76.9230769230769,4,2,0,5,0,0
75273,-76.9230769230769,4,2,77,77,0,0
75985,-76.9230769230769,4,2,0,5,0,0
76040,-76.9230769230769,4,2,77,77,0,0
77791,-133.333333333333,4,2,77,77,0,0
78120,-76.9230769230769,4,2,77,77,0,0
79488,-76.9230769230769,4,2,0,5,0,0
79543,-76.9230769230769,4,2,77,77,0,0
80748,-200,4,2,77,57,0,0
80967,-133.333333333333,4,2,77,57,0,0
81185,-100,4,2,77,57,0,0
81623,-76.9230769230769,4,2,77,77,0,0
82226,-76.9230769230769,4,2,0,5,0,0
82281,-76.9230769230769,4,2,77,77,0,0
83977,-76.9230769230769,4,2,0,5,0,0
84032,-76.9230769230769,4,2,77,77,0,0
85729,-76.9230769230769,4,2,0,5,0,0
85784,-76.9230769230769,4,2,77,77,0,0
86496,-76.9230769230769,4,2,0,5,0,0
86551,-76.9230769230769,4,2,77,77,0,0
87481,-76.9230769230769,4,2,0,5,0,0
87536,-76.9230769230769,4,2,77,77,0,0
87919,-76.9230769230769,4,2,0,5,0,0
87974,-76.9230769230769,4,2,77,77,0,0
88631,-100,4,2,77,77,0,0
89014,-100,4,2,77,5,0,0
89069,-100,4,2,77,77,0,0
93175,-100,4,2,77,5,0,0
93230,-100,4,2,77,77,0,0
93612,-100,4,2,77,5,0,0
93667,-100,4,2,77,77,0,0
100620,-100,4,2,77,5,0,0
100675,-100,4,2,77,77,0,0
102645,-133.333333333333,4,2,77,67,0,0
115784,-111.111111111111,4,2,77,67,0,0
122791,-125,4,2,77,67,0,0
127171,-83.3333333333333,4,2,77,67,0,0
127609,-100,4,2,77,67,0,0
127937,-83.3333333333333,4,2,77,67,0,0
128485,-125,4,2,77,67,0,0
130675,-125,4,2,77,77,0,0
132426,-76.9230769230769,4,2,77,77,0,0
132536,-76.9230769230769,4,2,0,5,0,0
132645,-71.4285714285714,4,2,77,77,0,0
132755,-71.4285714285714,4,2,0,5,0,0
132864,-66.6666666666667,4,2,77,77,0,0
132974,-66.6666666666667,4,2,0,5,0,0
133083,-62.5,4,2,77,77,0,0
133193,-62.5,4,2,0,5,0,0
133302,-200,4,2,77,57,0,0
141076,-200,4,2,0,5,0,0
141185,-117.647058823529,4,2,77,57,0,0
146003,-133.333333333333,4,2,77,77,0,0
146441,-76.9230769230769,4,2,77,87,0,1
146605,-76.9230769230769,4,2,0,5,0,1
146659,-76.9230769230769,4,2,77,87,0,1
147919,-76.9230769230769,4,2,0,5,0,1
147973,-76.9230769230769,4,2,77,87,0,1
148357,-76.9230769230769,4,2,0,5,0,1
148411,-76.9230769230769,4,2,77,87,0,1
148576,-76.9230769230769,4,2,0,5,0,1
148630,-76.9230769230769,4,2,77,87,0,1
148795,-76.9230769230769,4,2,0,5,0,1
148849,-76.9230769230769,4,2,77,87,0,1
149014,-76.9230769230769,4,2,0,5,0,1
149068,-76.9230769230769,4,2,77,87,0,1
149233,-76.9230769230769,4,2,0,5,0,1
149287,-76.9230769230769,4,2,77,87,0,1
149452,-76.9230769230769,4,2,0,5,0,1
149506,-76.9230769230769,4,2,77,87,0,1
151423,-76.9230769230769,4,2,0,5,0,1
151477,-76.9230769230769,4,2,77,87,0,1
151861,-76.9230769230769,4,2,0,5,0,1
151915,-76.9230769230769,4,2,77,87,0,1
152080,-76.9230769230769,4,2,0,5,0,1
152134,-76.9230769230769,4,2,77,87,0,1
153448,-333.333333333333,4,2,77,87,0,0
153722,-333.333333333333,4,2,0,5,0,0
153777,-76.9230769230769,4,2,77,87,0,1
155364,-76.9230769230769,4,2,0,5,0,1
155418,-76.9230769230769,4,2,77,87,0,1
155583,-76.9230769230769,4,2,0,5,0,1
155637,-76.9230769230769,4,2,77,87,0,1
155802,-76.9230769230769,4,2,0,5,0,1
155856,-76.9230769230769,4,2,77,87,0,1
156021,-76.9230769230769,4,2,0,5,0,1
156075,-76.9230769230769,4,2,77,87,0,1
156240,-76.9230769230769,4,2,0,5,0,1
156294,-76.9230769230769,4,2,77,87,0,1
156678,-76.9230769230769,4,2,0,5,0,1
156732,-76.9230769230769,4,2,77,87,0,1
157116,-76.9230769230769,4,2,0,5,0,1
157170,-76.9230769230769,4,2,77,87,0,1
157828,-76.9230769230769,4,2,77,87,0,0
158704,-76.9230769230769,4,2,77,77,0,1
158758,-76.9230769230769,4,2,77,77,0,0
161058,-76.9230769230769,4,2,0,5,0,0
161112,-76.9230769230769,4,2,77,77,0,0
165875,-76.9230769230769,4,2,0,5,0,0
165929,-76.9230769230769,4,2,77,77,0,0
166313,-76.9230769230769,4,2,0,5,0,0
166367,-76.9230769230769,4,2,77,77,0,0
168065,-76.9230769230769,4,2,0,5,0,0
168119,-76.9230769230769,4,2,77,77,0,0
169817,-76.9230769230769,4,2,0,5,0,0
169871,-76.9230769230769,4,2,77,77,0,0
172007,-76.9230769230769,4,2,0,5,0,0
172061,-76.9230769230769,4,2,77,77,0,0
172171,-153.846153846153,4,2,77,77,0,0
172664,-153.846153846153,4,2,0,5,0,0
172718,-66.6666666666667,4,2,77,67,0,0
173156,-133.333333333333,4,2,77,67,0,0
191988,-76.9230769230769,4,2,77,67,0,0

[Colours]
Combo1 : 192,192,192
Combo2 : 128,128,128

[HitObjects]
88,204,1040,6,0,L|76:264,1,42.5,0|0,2:0|0:0,0:0:0:0:
132,160,1915,2,0,L|120:220,1,42.5,0|0,2:0|0:0,0:0:0:0:
176,116,2791,2,0,L|164:176,1,42.5,0|0,2:0|0:0,0:0:0:0:
344,157,4544,6,0,L|336:116,1,42.5,0|0,2:0|0:0,0:0:0:0:
388,201,5420,2,0,L|380:160,1,42.5,0|0,2:0|0:0,0:0:0:0:
432,245,6295,2,0,L|424:204,1,42.5,0|0,2:0|0:0,0:0:0:0:
480,288,7609,5,4,0:0:0:0:
480,288,8047,6,0,P|464:320|424:344,1,72.2500013780594,6|0,1:0|0:0,0:0:0:0:
352,320,8266,2,0,P|318:331|272:320,1,72.2500013780594,10|0,2:0|0:0,0:0:0:0:
434,340,8485,1,10,2:3:0:0:
312,248,8594,1,8,2:3:0:0:
352,320,8704,2,0,P|388:272|384:208,1,108.375002067089,10|0,2:0|0:0,0:0:0:0:
372,192,8923,6,0,P|356:160|352:112,1,72.2500013780594,10|0,2:3|0:0,0:0:0:0:
249,214,9142,2,0,P|277:236|312:248,1,72.2500013780594,10|0,2:0|0:0,0:0:0:0:
412,76,9361,2,0,P|383:54|348:48,1,72.2500013780594
280,84,9580,2,0,P|251:105|216:112,1,72.2500013780594,10|0,0:0|0:0,0:0:0:0:
136,104,9799,5,10,2:3:0:0:
440,152,10018,1,10,0:0:0:0:
168,180,10237,1,8,2:3:0:0:
412,76,10456,1,10,0:0:0:0:
140,256,10675,2,0,P|108:240|92:196,1,72.2500013780594,10|0,2:3|0:0,0:0:0:0:
168,180,10894,1,10,0:0:0:0:
168,180,11003,1,8,2:3:0:0:
172,332,11112,2,0,P|138:343|95:323,1,72.2500013780594
168,180,11331,2,0,P|201:168|244:188,1,72.2500013780594,10|0,0:0|0:0,0:0:0:0:
292,236,11550,5,10,2:3:0:0:
292,236,11769,1,10,0:0:0:0:
372,264,11879,1,0,0:0:0:0:
424,200,11988,1,8,2:3:0:0:
424,200,12207,1,10,0:0:0:0:
312,320,12317,1,0,0:0:0:0:
234,179,12426,5,14,2:0:0:0:
480,132,12645,1,14,2:0:0:0:
208,256,12864,1,0,0:0:0:0:
208,256,13302,6,0,P|176:247|132:268,1,63.75,4|0,1:0|0:0,0:0:0:0:
72,284,13521,2,0,B|20:248|20:248|44:164,1,127.500004863739,2|0,0:0|0:0,0:0:0:0:
168,80,13740,2,0,B|152:96|152:96|160:124|160:124|124:140|116:184,1,127.500004863739,2|0,0:0|0:0,0:0:0:0:
219,316,13959,2,0,P|219:280|201:247,1,63.7500024318696,2|0,0:0|0:0,0:0:0:0:
207,255,14068,2,0,P|206:286|219:315,1,63.7500024318696,2|0,0:0|0:0,0:0:0:0:
324,316,14178,2,0,P|328:236|244:168,2,191.250007295609,2|2|10,0:0|0:0|2:3,0:0:0:0:
160,180,15054,6,0,P|172:120|232:84,1,127.500004863739,2|0,0:0|0:0,0:0:0:0:
312,100,15273,2,0,P|362:66|430:83,1,127.500004863739,2|0,0:0|0:0,0:0:0:0:
496,128,15492,1,2,0:0:0:0:
392,205,15711,2,0,P|392:169|374:136,1,63.7500024318696,2|0,0:0|0:0,0:0:0:0:
380,144,15820,2,0,P|379:175|392:204,1,63.7500024318696,2|0,0:0|0:0,0:0:0:0:
444,264,15930,6,0,P|396:300|332:292,1,127.500004863739,2|0,0:0|0:0,0:0:0:0:
168,240,16258,2,0,P|216:204|280:212,1,127.500004863739,2|0,0:0|0:0,0:0:0:0:
104,304,16587,2,0,P|80:264|84:212,1,95.6250036478044,2|0,0:0|0:0,0:0:0:0:
144,156,16806,6,0,P|156:92|116:32,1,127.500004863739,2|0,0:0|0:0,0:0:0:0:
168,240,17025,2,0,P|192:296|260:324,1,127.500004863739,2|0,0:0|0:0,0:0:0:0:
368,212,17244,2,0,P|304:200|252:244,1,127.500004863739,2|0,0:0|0:0,0:0:0:0:
335,339,17463,2,0,P|335:303|319:271,1,63.7500024318696,2|0,0:0|0:0,0:0:0:0:
324,277,17572,2,0,P|323:308|336:340,1,63.7500024318696,2|0,0:0|0:0,0:0:0:0:
420,284,17682,6,0,P|456:232|412:136,1,170,2|0,0:0|0:0,0:0:0:0:
219,170,18010,2,0,B|252:172|275:156|275:156|303:200|371:212,1,170,2|0,0:0|0:0,0:0:0:0:
224,92,18339,2,0,B|168:104|168:104|160:112|160:112|100:124,1,127.5,10|0,0:3|0:0,0:0:0:0:
60,132,18558,6,0,P|48:72|92:24,1,127.500004863739,2|0,0:0|0:0,0:0:0:0:
300,52,18777,2,0,P|312:112|268:168,1,127.500004863739,2|0,0:0|0:0,0:0:0:0:
142,192,18996,2,0,P|123:251|156:304,1,127.5,2|0,0:0|0:0,0:0:0:0:
268,228,19215,2,0,P|232:228|200:244,1,63.7500024318696,2|0,0:0|0:0,0:0:0:0:
206,239,19324,2,0,P|237:240|269:227,1,63.7500024318696,2|0,0:0|0:0,0:0:0:0:
336,176,19434,1,10,2:3:0:0:
336,176,19872,2,0,B|367:179|380:160|380:160|384:136|384:136|428:128|428:128|396:92|396:92|416:44|476:60,1,255,2|0,0:0|0:0,0:0:0:0:
512,128,20310,6,0,P|504:168|448:208,1,110.499994941712,12|0,2:3|0:0,0:0:0:0:
276,244,20529,2,0,P|247:201|255:141,1,110.499994941712,8|0,0:0|0:0,0:0:0:0:
316,92,20748,2,0,P|248:60|176:108,1,165.749992412568,2|0,1:2|0:0,0:0:0:0:
160,148,20967,1,8,0:0:0:0:
252,144,21076,1,8,2:3:0:0:
276,244,21185,6,0,P|246:198|252:144,1,110.499994941712,2|0,0:0|0:0,0:0:0:0:
316,92,21404,1,8,0:0:0:0:
168,232,21514,2,0,P|96:208|76:128,1,165.749992412568,2|0,0:0|0:0,0:0:0:0:
84,84,21733,1,0,1:0:0:0:
24,252,21842,2,0,P|32:308|44:360,1,110.499994941712,8|0,0:0|0:0,0:0:0:0:
188,331,22061,6,0,B|199:278|199:278|167:230,1,110.499994941712,10|0,0:3|0:0,0:0:0:0:
312,212,22280,2,0,P|320:268|332:320,1,110.499994941712,8|0,0:0|0:0,0:0:0:0:
476,296,22499,2,0,B|487:243|487:243|455:195,1,110.499994941712,2|0,1:0|0:0,0:0:0:0:
304,136,22718,1,8,0:0:0:0:
380,172,22828,1,8,0:3:0:0:
444,116,22937,5,8,0:3:0:0:
212,360,23156,1,8,0:0:0:0:
300,360,23266,1,8,0:3:0:0:
68,116,23485,1,2,0:0:0:0:
132,172,23594,1,8,0:0:0:0:
208,136,23704,1,0,0:0:0:0:
147,79,23813,6,0,L|127:203,1,110.499994941712,0|0,1:0|0:0,0:0:0:0:
292,284,24032,2,0,P|304:228|280:180,1,110.499994941712,8|0,0:0|0:0,0:0:0:0:
76,280,24251,2,0,P|156:296|216:240,1,165.749992412568,8|0,0:3|0:0,0:0:0:0:
129,188,24470,1,8,0:0:0:0:
129,188,24580,1,0,0:0:0:0:
76,280,24689,6,0,P|64:336|88:384,1,110.499994941712,2|0,1:0|0:0,0:0:0:0:
292,284,24908,2,0,P|304:228|280:180,1,110.499994941712,8|0,0:0|0:0,0:0:0:0:
204,124,25127,1,0,1:0:0:0:
208,136,25237,1,0,1:0:0:0:
296,36,25346,1,8,0:0:0:0:
300,48,25456,1,0,1:0:0:0:
400,128,25565,6,0,P|428:84|424:16,1,110.499994941712,2|0,1:0|0:0,0:0:0:0:
281,181,25784,2,0,P|280:235|309:281,1,110.499994941712,8|0,0:0|0:0,0:0:0:0:
388,328,26003,2,0,P|480:284|464:168,1,220.999989883423,8|8,0:3|0:0,0:0:0:0:
400,128,26331,1,0,0:0:0:0:
281,181,26441,5,2,1:0:0:0:
316,100,26550,1,0,0:0:0:0:
316,100,26659,1,8,0:0:0:0:
186,109,26769,1,2,1:0:0:0:
248,44,26879,1,0,0:0:0:0:
248,44,26988,1,8,0:3:0:0:
122,7,27098,1,10,0:0:0:0:
122,7,27207,1,0,1:0:0:0:
36,32,27317,6,0,P|8:76|12:148,1,110.499994941712,12|0,2:3|0:0,0:0:0:0:
156,209,27536,2,0,P|184:165|180:93,1,110.499994941712,10|0,0:0|0:0,0:0:0:0:
6,132,27755,2,0,L|26:248,1,110.499994941712,8|0,0:3|0:0,0:0:0:0:
44,328,27974,1,8,0:0:0:0:
44,328,28083,1,0,1:0:0:0:
128,296,28193,6,0,P|183:296|237:304,1,110.499994941712,0|0,1:0|0:0,0:0:0:0:
320,268,28412,1,8,0:0:0:0:
404,240,28521,2,0,P|455:259|504:285,1,110.499994941712,8|0,0:3|0:3,0:3:0:0:
320,268,28740,1,0,0:0:0:0:
320,268,28850,2,0,P|300:219|316:149,1,110.499994941712,8|0,0:0|0:0,0:0:0:0:
388,44,29069,6,0,P|408:93|392:163,1,110.499994941712,0|0,1:0|0:0,0:0:0:0:
208,160,29288,2,0,P|228:111|289:73,1,110.499994941712,8|0,0:0|0:0,0:0:0:0:
500,160,29507,2,0,P|479:208|418:246,1,110.499994941712,8|0,0:3|0:0,0:0:0:0:
344,224,29726,1,8,0:0:0:0:
344,224,29835,1,0,1:0:0:0:
208,160,29945,6,0,P|152:164|92:184,1,110.499994941712,8|0,0:3|0:0,0:0:0:0:
28,232,30164,1,8,0:0:0:0:
136,368,30273,2,0,P|127:313|107:262,1,110.499994941712,8|0,0:3|0:0,0:0:0:0:
28,232,30492,1,8,0:3:0:0:
100,180,30602,2,0,P|121:128|129:74,1,110.499994941712,8|0,0:0|0:0,0:0:0:0:
252,236,30821,6,0,P|273:288|281:342,1,110.499994941712,0|0,1:0|0:0,0:0:0:0:
364,368,31039,2,0,P|385:316|393:262,1,110.499994941712,8|0,0:0|0:0,0:0:0:0:
336,192,31258,2,0,P|315:140|307:86,1,110.499994941712,8|0,0:3|0:0,0:0:0:0:
364,16,31477,1,8,0:0:0:0:
364,16,31587,1,0,1:0:0:0:
224,144,31696,6,0,P|148:156|80:84,1,165.749992412568,0|0,1:0|0:0,0:0:0:0:
76,60,31915,1,8,0:0:0:0:
224,144,32025,2,0,P|240:196|224:256,1,110.499994941712,8|0,0:3|0:0,0:0:0:0:
176,320,32244,1,8,0:3:0:0:
24,264,32353,2,0,P|8:212|24:152,1,110.499994941712,8|0,0:0|0:0,0:0:0:0:
168,72,32572,6,0,P|212:40|272:36,1,110.499994941712,0|0,1:0|0:0,0:0:0:0:
316,112,32791,2,0,P|369:120|414:160,1,110.499994941712,8|0,0:0|0:0,0:0:0:0:
368,236,33010,2,0,P|400:280|404:340,1,110.499994941712,8|0,0:3|0:0,0:0:0:0:
328,384,33229,1,8,0:0:0:0:
328,384,33339,1,0,1:0:0:0:
248,340,33448,6,0,L|116:352,1,110.499994941712,14|0,2:3|1:0,1:0:0:0:
137,350,33667,1,0,1:0:0:0:
24,256,33777,2,0,L|156:268,1,110.499994941712,10|0,2:0|0:0,0:0:0:0:
134,266,33996,1,8,2:3:0:0:
248,172,34105,2,0,L|116:184,1,110.499994941712,8|0,0:0|0:0,0:0:0:0:
52,168,34324,6,0,P|44:108|96:44,1,127.500004863739,4|8,1:0|0:3,0:0:0:0:
160,32,34653,1,0,0:0:0:0:
160,32,34762,2,0,L|244:44,1,63.7500024318696,8|0,0:3|0:0,0:0:0:0:
347,86,34981,2,0,L|284:96,1,63.7500024318696,10|0,0:0|0:0,0:0:0:0:
420,44,35200,6,0,L|504:56,2,63.7500024318696,8|8|10,0:3|0:3|0:0,0:0:0:0:
424,132,35529,1,0,0:0:0:0:
256,192,35638,2,0,L|172:204,2,63.7500024318696,8|8|10,0:3|0:3|0:0,0:0:0:0:
323,249,35967,1,0,0:0:0:0:
444,340,36076,6,0,P|460:276|416:216,1,127.500004863739,6|10,1:0|0:0,0:0:0:0:
352,192,36404,1,0,0:0:0:0:
352,192,36514,2,0,L|316:264,1,63.7500024318696,8|0,0:3|0:0,0:0:0:0:
272,333,36733,2,0,L|244:276,1,63.7500024318696,10|0,0:0|0:0,0:0:0:0:
192,201,36952,6,0,L|108:213,1,63.7500024318696,8|0,0:3|0:0,0:0:0:0:
232,124,37171,2,0,L|295:114,1,63.7500024318696,10|0,0:0|0:0,0:0:0:0:
172,56,37390,2,0,L|88:44,2,63.7500024318696,8|8|10,0:3|0:3|0:0,0:0:0:0:
232,124,37718,1,0,0:0:0:0:
52,168,37828,6,0,L|40:96,1,63.7500024318696,4|0,1:0|0:0,0:0:0:0:
232,124,38047,2,0,L|244:196,1,63.7500024318696,10|0,0:0|0:0,0:0:0:0:
96,300,38266,2,0,L|108:228,2,63.7500024318696,8|8|10,0:3|0:3|0:0,0:0:0:0:
152,368,38594,1,8,0:3:0:0:
256,264,38704,6,0,L|266:326,1,63.7500024318696,8|0,0:3|0:0,0:0:0:0:
456,348,38923,2,0,L|445:285,1,63.7500024318696,10|0,0:0|0:0,0:0:0:0:
312,144,39142,2,0,L|322:206,2,63.7500024318696,8|0|10,0:3|0:0|0:0,0:0:0:0:
368,76,39470,1,0,0:0:0:0:
232,176,39580,6,0,P|168:180|120:136,1,127.500004863739,4|10,1:0|0:0,0:0:0:0:
100,60,39908,1,0,0:0:0:0:
40,120,40018,2,0,P|40:160|56:196,1,63.7500024318696,8|0,0:3|0:0,0:0:0:0:
196,104,40237,2,0,P|196:64|180:28,1,63.7500024318696,10|0,0:0|0:0,0:0:0:0:
108,244,40456,6,0,P|108:284|124:320,2,63.7500024318696,8|8|10,0:3|0:3|0:0,0:0:0:0:
180,192,40784,1,0,0:0:0:0:
196,280,40894,2,0,P|224:308|261:322,1,63.7500024318696,8|0,0:3|0:0,0:0:0:0:
328,284,41112,2,0,P|368:284|404:268,1,63.7500024318696,10|0,0:0|0:0,0:0:0:0:
448,208,41331,6,0,P|444:144|436:80,1,127.500004863739,4|10,1:0|0:0,0:0:0:0:
340,40,41660,1,0,0:0:0:0:
340,40,41769,2,0,P|340:76|348:124,1,63.7500024318696,8|8,0:3|0:3,0:0:0:0:
268,220,41988,2,0,P|268:184|260:136,1,63.7500024318696,10|0,0:0|0:0,0:0:0:0:
180,60,42207,6,0,P|176:124|168:188,1,127.500004863739,4|10,1:0|0:0,0:0:0:0:
68,216,42536,1,0,0:0:0:0:
68,216,42645,2,0,P|68:180|76:132,1,63.7500024318696,8|8,0:3|0:3,0:0:0:0:
268,220,42864,2,0,P|271:251|271:283,1,63.7500024318696,10|0,0:0|0:0,0:0:0:0:
80,304,43083,6,0,P|148:296|200:336,1,127.500004863739,4|10,1:0|0:0,0:0:0:0:
270,283,43412,1,0,0:0:0:0:
270,283,43521,2,0,L|362:271,1,63.7500024318696,8|8,0:3|0:3,0:0:0:0:
448,200,43740,2,0,L|384:208,1,63.7500024318696,10|0,0:0|0:0,0:0:0:0:
300,192,43959,6,0,P|276:132|300:64,1,127.500004863739,4|10,1:0|0:0,0:0:0:0:
360,24,44288,1,0,0:0:0:0:
360,24,44397,2,0,P|392:24|432:40,2,63.7500024318696,8|8|0,0:3|0:3|0:0,0:0:0:0:
204,80,44726,1,0,0:0:0:0:
204,80,44835,6,0,P|140:80|88:44,1,127.500004863739,4|10,1:0|0:0,0:0:0:0:
308,304,45273,2,0,P|372:304|424:340,1,127.500004863739,4|10,1:0|0:0,0:0:0:0:
120,164,45711,6,0,P|120:228|88:284,1,127.500004863739,4|10,1:0|0:0,0:0:0:0:
392,220,46149,2,0,P|392:156|424:100,1,127.500004863739,4|10,1:0|0:0,0:0:0:0:
316,348,46587,5,4,1:0:0:0:
196,272,46806,1,10,0:0:0:0:
196,272,46916,1,8,0:3:0:0:
296,248,47025,5,10,0:0:0:0:
220,368,47244,1,8,0:3:0:0:
220,368,47353,1,0,0:0:0:0:
384,280,47463,5,10,0:0:0:0:
228,180,47682,1,10,0:0:0:0:
228,180,47792,1,8,0:3:0:0:
128,340,47901,2,0,P|96:336|64:312,1,63.7500024318696,8|0,0:3|0:0,0:0:0:0:
64,232,48120,2,0,P|44:206|38:166,1,63.7500024318696,8|0,0:3|0:0,0:0:0:0:
140,70,48339,6,0,P|112:85|84:100,1,63.75,6|0,1:0|0:0,0:0:0:0:
113,156,48558,2,0,P|98:127|83:99,1,63.75,0|0,1:0|0:0,0:0:0:0:
262,126,48777,6,0,P|245:153|227:179,1,63.75,0|0,1:0|0:0,0:0:0:0:
282,210,48996,2,0,P|252:194|225:177,1,63.75,0|0,1:0|0:0,0:0:0:0:
429,61,49215,6,0,P|400:76|372:90,1,63.75,2|0,1:0|0:0,0:0:0:0:
402,147,49434,2,0,P|387:118|372:90,1,63.75,0|0,1:0|0:0,0:0:0:0:
188,296,49653,6,0,P|173:268|158:240,1,63.75,2|0,1:0|0:0,0:0:0:0:
101,269,49872,2,0,P|130:254|158:239,1,63.75,2|0,1:0|0:0,0:0:0:0:
372,204,50091,6,0,P|387:176|402:148,1,63.75,2|0,1:0|0:0,0:0:0:0:
458,177,50310,2,0,P|429:162|401:147,1,63.75,0|0,1:0|0:0,0:0:0:0:
180,159,50529,6,0,P|188:132|198:98,1,63.75,2|0,1:0|0:0,0:0:0:0:
137,78,50748,2,0,P|168:87|198:97,1,63.75,0|0,1:0|0:0,0:0:0:0:
330,283,50967,6,0,P|322:256|311:222,1,63.75,2|0,1:0|0:0,0:0:0:0:
372,204,51186,2,0,P|340:213|310:223,1,63.75,0|0,1:0|0:0,0:0:0:0:
105,332,51404,6,0,P|103:303|101:268,1,63.75,2|0,1:0|0:0,0:0:0:0:
38,272,51623,2,0,P|71:269|102:268,1,63.75,0|0,1:0|0:0,0:0:0:0:
180,112,51842,6,0,L|228:248,1,127.5,6|0,1:0|0:0,0:0:0:0:
262,151,52061,2,0,L|141:193,1,127.5,0|0,1:0|0:0,0:0:0:0:
312,225,52280,6,0,L|432:267,1,127.5,0|0,1:0|0:0,0:0:0:0:
393,186,52499,2,0,L|345:322,1,127.5,0|0,1:0|0:0,0:0:0:0:
185,352,52718,6,0,L|69:296,1,127.5,2|0,1:0|0:0,0:0:0:0:
99,381,52937,2,0,L|155:267,1,127.5,0|0,1:0|0:0,0:0:0:0:
185,67,53156,6,0,L|228:188,1,127.5,0|0,1:0|0:0,0:0:0:0:
147,149,53375,2,0,L|267:106,1,127.5,0|0,1:0|0:0,0:0:0:0:
444,40,53594,6,0,L|402:161,1,127.5,2|0,1:0|0:0,0:0:0:0:
483,121,53813,2,0,L|362:78,1,127.5,2|0,1:0|0:0,0:0:0:0:
280,304,54032,6,0,L|401:261,1,127.5,2|0,1:0|0:0,0:0:0:0:
320,223,54251,2,0,L|362:344,1,127.5,0|0,1:0|0:0,0:0:0:0:
187,230,54470,6,0,L|66:188,1,127.5,2|0,1:0|0:0,0:0:0:0:
104,270,54689,2,0,L|147:149,1,127.5,0|0,1:0|0:0,0:0:0:0:
312,136,54908,6,0,L|433:94,1,127.5,2|0,1:0|0:0,0:0:0:0:
395,176,55127,2,0,L|352:55,1,127.5,2|0,1:0|0:0,0:0:0:0:
197,116,55346,6,0,P|141:164|57:188,1,152.999995330811,6|0,1:0|0:0,0:0:0:0:
66,187,55565,2,0,P|86:113|137:56,1,152.999995330811,0|0,1:0|0:0,0:0:0:0:
396,136,55784,6,0,P|391:210|348:286,1,152.999995330811,4|0,1:0|0:0,0:0:0:0:
354,279,56003,2,0,P|318:211|312:136,1,152.999995330811,0|0,1:0|0:0,0:0:0:0:
136,240,56222,6,0,P|184:296|208:380,1,152.999995330811,2|0,1:0|0:0,0:0:0:0:
207,370,56441,2,0,P|134:348|77:299,1,152.999995330811,0|0,1:0|0:0,0:0:0:0:
354,364,56660,6,0,P|428:358|504:315,1,152.999995330811,2|0,1:0|0:0,0:0:0:0:
496,321,56879,2,0,P|428:285|353:280,1,152.999995330811,0|0,1:0|0:0,0:0:0:0:
288,188,57098,6,0,P|232:140|148:116,1,152.999995330811,2|0,1:0|0:0,0:0:0:0:
157,116,57317,2,0,P|178:188|229:246,1,152.999995330811,0|0,1:0|0:0,0:0:0:0:
486,163,57536,6,0,P|481:89|438:13,1,152.999995330811,2|0,1:0|0:0,0:0:0:0:
445,20,57755,2,0,P|409:88|403:164,1,152.999995330811,2|0,1:0|0:0,0:0:0:0:
446,368,57974,6,0,P|398:312|374:228,1,152.999995330811,0|0,1:0|0:0,0:0:0:0:
374,237,58193,2,0,P|447:259|505:309,1,152.999995330811,2|0,1:0|0:0,0:0:0:0:
158,377,58412,6,0,P|206:320|229:236,1,152.999995330811,2|0,1:0|0:0,0:0:0:0:
228,245,58631,2,0,P|156:267|99:318,1,152.999995330811,2|0,1:0|0:0,0:0:0:0:
300,184,58850,6,0,P|324:140|324:88,1,101.999996887207
250,91,59726,2,0,P|251:124|228:148,1,68
172,96,60602,2,0,P|177:77|180:60,1,34
32,132,61477,1,0,0:0:0:0:
32,132,61915,6,0,B|59:171|59:171|16:204|16:264|16:264|52:296|48:348|48:348|144:368|164:276,1,382.500014591218,14|0,2:3|0:0,0:0:0:0:
184,212,62353,6,0,L|164:92,1,110.499994941712,4|0,1:0|0:0,0:0:0:0:
88,60,62572,1,10,0:0:0:0:
88,60,62682,1,0,0:0:0:0:
260,144,62791,2,0,B|316:156|316:156|372:116,1,110.499994941712,2|0,1:0|0:0,0:0:0:0:
384,8,63010,2,0,L|293:71,1,110.499994941712,8|0,0:0|0:0,0:0:0:0:
320,256,63229,6,0,L|410:192,2,110.499994941712,2|0|8,1:0|0:0|0:0,0:0:0:0:
244,304,63558,1,0,1:0:0:0:
244,304,63667,2,0,P|192:312|128:280,1,110.499994941712,2|0,1:0|0:0,0:0:0:0:
44,124,63886,2,0,P|86:155|109:222,1,110.499994941712,8|0,0:0|0:0,0:0:0:0:
139,290,64105,6,0,P|56:288|20:212,1,165.749992412568,2|0,1:0|0:0,0:0:0:0:
108,207,64324,2,0,P|148:139|228:140,1,165.749992412568,8|0,0:0|0:0,0:0:0:0:
320,288,64543,2,0,P|237:286|201:210,1,165.749992412568,2|0,1:0|0:0,0:0:0:0:
289,205,64762,6,0,P|329:137|409:138,1,165.749992412568,8|0,0:0|0:0,0:0:0:0:
500,286,64981,2,0,P|420:287|379:219,1,165.749992412568,2|0,1:0|0:0,0:0:0:0:
488,172,65200,2,0,P|486:89|410:53,1,165.749992412568,8|0,0:0|0:0,0:0:0:0:
336,44,65419,2,0,L|220:48,1,110.499994941712,2|0,1:0|1:0,0:0:0:0:
132,52,65638,1,8,0:0:0:0:
132,52,65748,1,0,0:0:0:0:
240,150,65857,6,0,P|248:94|220:42,1,110.499994941712,2|0,1:0|0:0,0:0:0:0:
36,72,66076,2,0,P|28:128|56:180,1,110.499994941712,8|0,0:0|0:0,0:0:0:0:
196,220,66295,1,2,1:0:0:0:
108,236,66404,1,0,1:0:0:0:
240,150,66514,2,0,P|276:180|280:248,1,110.499994941712,8|0,0:0|0:0,0:0:0:0:
32,274,66733,6,0,P|23:220|51:174,1,110.499994941712,2|0,1:0|0:0,0:0:0:0:
144,136,66952,1,8,0:0:0:0:
144,136,67061,1,0,0:0:0:0:
196,220,67171,2,0,P|188:272|164:336,1,110.499994941712,2|0,1:0|0:0,0:0:0:0:
80,356,67390,1,8,0:0:0:0:
80,356,67499,1,0,0:0:0:0:
308,360,67609,6,0,P|324:280|272:208,1,165.749992412568,2|0,1:0|0:0,0:0:0:0:
280,213,67828,2,0,B|304:180|304:180|272:160|256:136|256:136|276:112|292:64,1,165.749992412568,10|0,0:0|0:0,0:0:0:0:
276,0,68047,1,2,1:0:0:0:
276,0,68156,1,0,0:0:0:0:
364,116,68266,1,8,0:0:0:0:
364,116,68375,1,0,0:0:0:0:
192,200,68485,6,0,P|140:188|72:180,1,110.499994941712,2|0,1:0|1:0,0:0:0:0:
156,312,68704,2,0,P|208:300|276:292,1,110.499994941712,8|0,0:0|0:0,0:0:0:0:
288,204,68923,1,2,1:0:0:0:
288,204,69033,1,0,1:0:0:0:
72,268,69142,1,8,0:0:0:0:
72,268,69251,1,0,0:0:0:0:
56,96,69361,6,0,B|56:80|52:64|52:64|68:76|84:80,1,63.7499980545045,0|0,1:0|0:0,0:0:0:0:
168,108,69689,5,6,1:0:0:0:
168,108,69799,2,0,B|216:80|216:80|292:104,1,110.499994941712,2|0,1:0|0:0,0:0:0:0:
356,124,70018,2,0,B|408:140|408:140|456:112,1,110.499994941712,8|0,0:0|0:0,0:0:0:0:
228,180,70237,6,0,L|333:213,2,110.499994941712,2|0|8,1:0|1:0|0:0,0:0:0:0:
120,196,70565,1,0,0:0:0:0:
120,196,70675,2,0,P|92:240|92:304,1,110.499994941712,2|0,1:0|0:0,0:0:0:0:
303,314,70894,2,0,P|331:270|331:206,1,110.499994941712,8|0,0:0|0:0,0:0:0:0:
148,112,71112,6,0,P|65:114|29:190,1,165.749992412568,2|0,1:0|0:0,0:0:0:0:
120,196,71331,2,0,P|160:264|240:263,1,165.749992412568,8|0,0:0|0:0,0:0:0:0:
329,114,71550,2,0,P|246:116|210:192,1,165.749992412568,2|0,1:0|0:0,0:0:0:0:
301,198,71769,2,0,P|341:266|421:265,1,165.749992412568,8|0,0:0|0:0,0:0:0:0:
509,115,71988,6,0,P|429:115|389:182,1,165.749992412568,2|0,1:0|0:0,0:0:0:0:
429,349,72207,2,0,P|497:309|497:230,1,165.749992412568,8|0,0:0|0:0,0:0:0:0:
420,265,72426,2,0,P|364:276|308:224,1,110.499994941712,2|0,1:0|0:0,0:0:0:0:
280,168,72645,1,8,0:0:0:0:
280,168,72755,1,0,1:0:0:0:
192,192,72864,6,0,L|76:184,1,110.499994941712,2|0,1:0|0:0,0:0:0:0:
28,80,73083,2,0,L|138:87,1,110.499994941712,8|0,0:0|0:0,0:0:0:0:
232,284,73302,2,0,L|116:276,1,110.499994941712,2|0,1:0|1:0,0:0:0:0:
32,268,73521,1,8,0:0:0:0:
32,268,73630,1,0,1:0:0:0:
228,94,73740,5,6,1:0:0:0:
244,80,73959,1,6,1:0:0:0:
260,64,74178,2,0,L|252:20,3,42.5
312,132,74616,6,0,L|448:120,1,110.499994941712,6|0,1:0|0:0,0:0:0:0:
508,92,74835,2,0,P|476:48|416:32,1,110.499994941712,8|8,0:0|0:3,0:0:0:0:
224,140,75054,2,0,P|260:208|344:212,1,165.749992412568,2|0,1:0|0:0,0:0:0:0:
380,192,75273,1,8,0:0:0:0:
312,132,75382,1,8,0:3:0:0:
264,208,75492,6,0,P|248:260|240:316,1,110.499994941712,2|0,1:0|0:0,0:0:0:0:
296,384,75711,1,8,0:0:0:0:
240,315,75821,2,0,P|172:275|80:307,1,165.749992412568
56,324,76040,1,8,0:3:0:0:
0,256,76149,2,0,P|-2:198|32:152,1,110.499994941712,8|8,0:0|0:3,0:0:0:0:
140,88,76368,6,0,P|142:146|108:192,1,110.499994941712,0|0,1:0|0:0,0:0:0:0:
224,48,76587,2,0,B|272:24|272:24|328:76,1,110.499994941712,8|8,0:0|0:3,0:0:0:0:
345,231,76806,2,0,P|375:186|372:132,1,110.499994941712,0|0,1:0|0:0,0:0:0:0:
224,48,77025,2,0,B|272:24|272:24|313:62,1,110.499994941712,8|8,0:0|3:0,0:0:0:0:
420,280,77244,6,0,P|348:324|300:312,1,110.499994941712,0|0,1:0|0:0,0:0:0:0:
164,304,77463,1,8,0:0:0:0:
164,304,77572,2,0,P|236:260|284:272,1,110.499994941712,8|0,0:3|1:0,0:0:0:0:
420,280,77791,2,0,P|448:296|488:308,2,63.7500024318696,0|8|0,0:0|0:0|0:0,0:0:0:0:
345,231,78120,6,0,P|324:180|332:120,1,110.499994941712,0|0,1:0|0:0,0:0:0:0:
376,48,78339,1,8,0:0:0:0:
376,48,78448,1,8,0:3:0:0:
244,96,78558,2,0,L|112:80,1,110.499994941712,0|0,1:0|0:0,0:0:0:0:
80,16,78777,2,0,P|48:60|53:114,1,110.499994941712,8|0,0:0|0:0,0:0:0:0:
124,168,78996,6,0,L|233:181,1,110.499994941712,0|0,1:0|0:0,0:0:0:0:
40,200,79215,1,8,0:0:0:0:
40,200,79324,2,0,P|40:280|120:328,1,165.749992412568,0|0,1:0|0:0,0:0:0:0:
148,324,79543,1,8,0:3:0:0:
316,224,79652,2,0,P|276:268|224:272,1,110.499994941712,8|0,0:0|0:0,0:0:0:0:
233,181,79872,6,0,P|273:137|328:136,1,110.499994941712,0|0,1:0|0:0,0:0:0:0:
400,180,80091,2,0,P|420:132|408:76,1,110.499994941712,8|8,0:0|0:3,0:0:0:0:
340,16,80310,1,0,1:0:0:0:
340,16,80419,1,0,0:0:0:0:
236,92,80529,1,8,0:0:0:0:
236,92,80638,1,0,0:0:0:0:
104,56,80748,6,0,L|56:48,1,42.5,0|0,1:0|0:0,0:0:0:0:
0,128,80967,6,0,L|72:140,1,63.7500024318696,0|0,0:0|1:0,0:0:0:0:
156,148,81185,6,0,B|156:164|144:180|144:180|148:196|148:196|128:212|132:232,3,85,2|0|0|0,1:0|0:0|1:0|0:0,0:0:0:0:
36,224,81623,6,0,P|36:276|72:328,1,110.499994941712,4|0,1:0|0:0,0:0:0:0:
160,316,81842,1,8,0:0:0:0:
160,316,81952,1,0,0:0:0:0:
332,256,82061,2,0,P|260:236|188:284,1,165.749992412568,0|0,1:0|0:0,0:0:0:0:
160,316,82280,1,8,0:0:0:0:
272,328,82390,1,8,0:3:0:0:
380,332,82499,6,0,P|420:284|416:228,1,110.499994941712,0|0,1:0|0:0,0:0:0:0:
288,120,82718,1,8,0:0:0:0:
288,120,82828,2,0,P|248:168|252:224,1,110.499994941712,0|8,0:0|0:3,0:0:0:0:
419,238,83047,1,0,1:0:0:0:
419,238,83156,2,0,L|411:122,1,110.499994941712,8|0,0:0|0:0,0:0:0:0:
356,52,83375,6,0,P|304:28|240:36,1,110.499994941712,0|0,1:0|0:0,0:0:0:0:
188,96,83594,2,0,P|136:120|72:112,1,110.499994941712,8|8,0:0|0:3,0:0:0:0:
4,80,83813,2,0,P|-4:152|64:208,1,165.749992412568,0|0,1:0|0:0,0:0:0:0:
104,208,84032,2,0,L|216:188,1,110.499994941712,8|8,0:0|0:3,0:0:0:0:
304,172,84251,5,0,1:0:0:0:
304,172,84470,5,8,0:0:0:0:
104,208,84580,1,8,0:3:0:0:
104,208,84799,5,8,3:0:0:0:
204,191,84908,1,8,0:0:0:0:
304,172,85018,1,0,0:0:0:0:
388,208,85127,6,0,P|424:168|424:104,1,110.499994941712,0|0,1:0|0:0,0:0:0:0:
272,256,85346,2,0,P|236:296|236:360,1,110.499994941712,8|0,0:0|0:0,0:0:0:0:
304,172,85565,2,0,P|292:92|240:28,1,165.749992412568,0|0,1:0|0:0,0:0:0:0:
196,12,85784,1,8,0:0:0:0:
120,56,85894,1,8,0:3:0:0:
121,145,86003,6,0,P|165:176|220:172,1,110.499994941712,0|0,1:0|0:0,0:0:0:0:
328,76,86222,1,8,0:0:0:0:
328,76,86331,2,0,P|416:68|472:128,1,165.749992412568,8|0,0:3|0:0,0:0:0:0:
472,164,86550,1,8,0:3:0:0:
359,248,86660,2,0,P|355:194|384:148,1,110.499994941712,8|0,0:0|0:0,0:0:0:0:
456,256,86879,6,0,P|460:310|431:356,1,110.499994941712,0|0,1:0|0:0,0:0:0:0:
340,336,87098,2,0,P|285:340|239:311,1,110.499994941712,8|8,0:0|0:3,0:0:0:0:
196,236,87317,2,0,P|116:232|52:296,1,165.749992412568,0|0,1:0|0:0,0:0:0:0:
28,320,87536,2,0,P|0:272|4:216,1,110.499994941712,8|8,0:0|0:3,0:0:0:0:
44,140,87755,6,0,P|124:136|188:200,1,165.749992412568,4|0,1:0|0:0,0:0:0:0:
196,236,87974,1,0,1:0:0:0:
236,312,88083,1,8,0:0:0:0:
280,236,88193,1,8,0:0:0:0:
324,312,88302,1,10,0:0:0:0:
368,236,88412,1,8,0:3:0:0:
408,312,88521,1,8,0:0:0:0:
452,236,88631,6,0,P|468:196|472:140,1,85,4|0,1:0|0:0,0:0:0:0:
416,88,88850,2,0,P|360:108|288:92,1,127.5,8|0,0:0|0:0,0:0:0:0:
260,68,89069,2,0,P|220:44|176:36,2,85,0|8|8,1:0|0:3|0:0,0:0:0:0:
112,156,89397,1,8,0:3:0:0:
112,156,89507,6,0,P|152:132|196:124,1,85,0|0,1:0|0:0,0:0:0:0:
96,56,89726,2,0,P|56:32|12:24,1,85,8|8,0:0|0:3,0:0:0:0:
24,112,89945,2,0,P|16:192|80:252,1,170,0|8,1:0|0:0,0:0:0:0:
160,232,90273,6,0,P|244:216|320:268,1,170,8|8,0:3|0:3,0:0:0:0:
380,316,90602,2,0,P|420:304|452:272,1,85,8|8,0:0|0:3,0:0:0:0:
462,170,90821,2,0,P|422:182|392:212,2,85,0|0|8,1:0|0:0|0:0,0:0:0:0:
312,168,91149,6,0,P|256:148|224:44,1,170,8|8,3:0|0:3,0:0:0:0:
336,0,91477,2,0,P|332:40|304:84,1,85,8|0,0:0|0:0,0:0:0:0:
172,176,91696,2,0,P|88:180|20:120,1,170,0|8,1:0|0:0,0:0:0:0:
264,336,92134,6,0,P|348:340|416:280,1,170,0|8,1:0|0:0,0:0:0:0:
476,232,92463,2,0,P|480:188|444:132,1,85,8|0,0:3|1:0,0:0:0:0:
376,144,92682,1,8,0:3:0:0:
376,144,92791,2,0,P|332:140|288:168,1,85,8|0,0:0|0:0,0:0:0:0:
240,220,93010,6,0,P|156:236|104:192,1,127.5,0|0,1:0|0:0,0:0:0:0:
100,180,93229,2,0,P|91:140|88:88,1,85,8|8,0:0|0:3,0:0:0:0:
278,39,93448,2,0,P|305:93|297:157,1,127.5,0|0,1:0|0:0,0:0:0:0:
276,196,93667,1,8,0:0:0:0:
392,84,93777,1,8,0:3:0:0:
392,84,93886,6,0,L|508:60,1,85,0|0,1:0|0:0,0:0:0:0:
220,108,94105,2,0,L|104:132,1,85,8|8,0:0|0:3,0:0:0:0:
52,144,94324,2,0,P|8:212|32:308,1,170,0|8,1:0|0:0,0:0:0:0:
84,356,94653,1,8,0:3:0:0:
156,304,94762,6,0,P|236:288|308:340,2,170,0|8|0,1:0|0:0|1:0,0:0:0:0:
305,335,95419,1,8,0:3:0:0:
500,144,95638,6,0,P|416:156|352:100,1,170,6|8,0:0|0:0,0:0:0:0:
288,48,95967,1,8,0:3:0:0:
288,48,96076,2,0,P|248:60|208:92,1,85,0|8,1:0|0:3,0:0:0:0:
152,144,96295,2,0,P|112:132|72:100,1,85,8|8,0:0|0:3,0:0:0:0:
216,208,96514,6,0,P|179:227|128:233,1,85,0|0,1:0|0:0,0:0:0:0:
270,286,96733,2,0,P|295:252|308:212,1,85,8|8,0:0|0:3,0:0:0:0:
372,148,96952,2,0,P|391:184|397:235,2,85,0|8|8,1:0|0:3|0:0,0:0:0:0:
288,128,97280,1,0,0:0:0:0:
368,308,97390,5,0,1:0:0:0:
368,308,97499,2,0,P|408:316|452:296,2,85,0|8|8,0:0|0:0|0:3,0:0:0:0:
144,76,97828,1,0,1:0:0:0:
144,76,97937,2,0,P|104:68|60:88,2,85,8|8|8,0:3|0:0|0:3,0:0:0:0:
398,227,98266,6,0,P|424:144|416:60,1,170,0|8,1:0|0:0,0:0:0:0:
114,157,98594,2,0,P|88:240|96:324,1,170,8|8,0:3|0:3,0:0:0:0:
304,152,98923,2,0,P|268:132|204:152,1,85,8|8,0:0|0:3,0:0:0:0:
208,232,99142,6,0,P|244:252|308:232,1,85,0|0,1:0|0:0,0:0:0:0:
372,216,99361,2,0,P|396:176|392:128,1,85,8|8,0:0|0:3,0:0:0:0:
140,172,99580,2,0,P|116:212|120:260,1,85,0|8,1:0|0:3,0:0:0:0:
304,152,99799,2,0,P|292:106|255:75,1,85,8|0,0:0|0:0,0:0:0:0:
208,232,100018,6,0,P|236:304|324:332,1,170,0|8,1:0|0:0,0:0:0:0:
404,316,100346,1,8,0:3:0:0:
404,316,100456,2,0,P|448:268|452:192,1,127.5,0|0,1:0|0:0,0:0:0:0:
440,168,100675,2,0,P|424:132|400:88,1,85,8|8,0:0|0:3,0:0:0:0:
344,28,100894,5,4,1:0:0:0:
176,216,101112,1,8,0:0:0:0:
104,168,101222,1,8,0:3:0:0:
152,96,101331,2,0,L|248:104,1,85,0|8,1:0|0:3,0:0:0:0:
176,216,101550,2,0,L|272:224,1,85,8|8,0:0|0:3,0:0:0:0:
324,108,101769,6,0,L|332:12,1,85,0|0,1:0|0:0,0:0:0:0:
260,222,101988,2,0,L|253:307,1,85,8|8,0:0|0:0,0:0:0:0:
356,200,102207,2,0,L|444:208,1,85,2|0,1:0|0:0,0:0:0:0:
484,212,102372,1,8,0:3:0:0:
484,212,102426,1,8,0:0:0:0:
448,108,102536,1,10,0:3:0:0:
344,288,102645,6,0,L|424:296,2,63.7500024318696,4|0|8,1:0|0:0|0:0,0:0:0:0:
264,320,102974,1,8,0:3:0:0:
356,200,103083,2,0,L|436:208,2,63.7500024318696,0|8|8,1:0|0:3|0:0,0:0:0:0:
276,232,103412,1,8,0:3:0:0:
368,112,103521,6,0,L|448:120,2,63.7500024318696,0|0|8,1:0|0:0|0:0,0:0:0:0:
288,144,103850,1,0,0:0:0:0:
380,24,103959,2,0,L|460:32,1,63.7500024318696,0|8,1:0|0:3,0:0:0:0:
300,56,104178,2,0,L|236:49,1,63.7500024318696,8|8,0:0|0:3,0:0:0:0:
152,44,104397,5,2,1:0:0:0:
256,360,104616,1,10,0:0:0:0:
184,320,104726,1,8,0:3:0:0:
184,320,104835,2,0,L|96:336,2,63.7500024318696,0|8|8,1:0|0:3|0:0,0:0:0:0:
0,304,105164,1,8,0:3:0:0:
40,232,105273,6,0,L|128:248,2,63.7500024318696,0|0|8,1:0|0:3|0:0,0:0:0:0:
272,224,105602,1,8,0:3:0:0:
232,152,105711,2,0,L|144:168,1,63.7500024318696,0|8,1:0|0:3,0:0:0:0:
48,72,105930,2,0,L|136:56,1,63.7500024318696,8|8,0:0|0:3,0:0:0:0:
192,44,106149,5,2,1:0:0:0:
320,340,106368,1,10,0:0:0:0:
388,292,106477,1,8,0:3:0:0:
388,292,106587,2,0,L|468:304,2,63.7500024318696,0|8|8,1:0|0:3|0:0,0:0:0:0:
320,340,106915,1,0,0:0:0:0:
280,229,107025,6,0,L|344:220,2,63.7500024318696,0|8|8,1:0|0:3|0:0,0:0:0:0:
236,340,107353,1,8,0:3:0:0:
176,184,107463,2,0,L|236:156,1,63.7500024318696,0|8,1:0|0:3,0:0:0:0:
368,120,107682,2,0,L|308:92,1,63.7500024318696,8|0,0:0|0:0,0:0:0:0:
236,52,107901,5,2,1:0:0:0:
56,336,108120,1,10,0:0:0:0:
16,264,108229,1,8,0:3:0:0:
16,264,108339,2,0,P|20:232|44:188,2,63.7500024318696,0|8|8,1:0|0:3|0:0,0:0:0:0:
100,160,108667,1,8,0:3:0:0:
100,160,108777,6,0,P|96:128|72:84,2,63.7500024318696,0|8|8,1:0|0:3|0:0,0:0:0:0:
12,60,109105,1,0,0:3:0:0:
12,60,109215,2,0,P|16:28|40:-16,1,63.7500024318696,0|8,1:0|0:3,0:0:0:0:
188,156,109434,2,0,P|184:188|160:232,1,63.7500024318696,8|8,0:0|0:3,0:0:0:0:
112,276,109653,5,6,1:0:0:0:
432,192,109872,1,10,0:0:0:0:
100,160,110091,2,0,P|68:152|28:136,2,63.7500024318696,0|8|8,1:0|0:3|0:0,0:0:0:0:
136,84,110419,1,8,0:3:0:0:
136,84,110529,5,6,1:0:0:0:
400,284,110748,1,10,0:0:0:0:
224,88,110967,2,0,P|216:56|216:8,2,63.7500024318696,0|8|8,1:0|0:3|0:0,0:0:0:0:
304,44,111295,1,8,0:3:0:0:
304,44,111404,5,6,1:0:0:0:
208,340,111623,1,10,0:0:0:0:
392,108,111842,2,0,P|416:84|448:72,2,63.7500024318696,0|8|8,1:0|0:3|0:0,0:0:0:0:
464,152,112171,1,8,0:3:0:0:
464,152,112280,5,6,1:0:0:0:
48,232,112499,1,10,0:0:0:0:
464,232,112718,1,2,1:0:0:0:
48,152,112937,1,10,0:0:0:0:
372,280,113156,6,0,P|380:216|400:140,1,127.500004863739,2|8,1:0|0:0,0:0:0:0:
436,80,113485,1,8,0:3:0:0:
352,80,113594,2,0,P|288:56|208:64,1,127.500004863739,2|8,1:0|0:0,0:0:0:0:
152,88,113923,1,8,0:3:0:0:
104,156,114032,6,0,P|119:217|127:281,1,127.500004863739,2|8,1:0|0:0,0:0:0:0:
116,364,114361,1,8,0:3:0:0:
116,364,114470,1,2,1:0:0:0:
396,364,114689,1,10,0:0:0:0:
256,96,114908,5,6,1:0:0:0:
256,300,115127,2,0,L|256:363,1,63.7500024318696,10|8,0:0|0:3,0:0:0:0:
336,248,115346,2,0,P|352:220|352:172,1,63.7500024318696,8|0,0:0|0:0,0:0:0:0:
156,189,115565,2,0,P|160:220|176:248,1,63.7500024318696,8|0,0:3|0:0,0:0:0:0:
319,60,115784,6,0,P|248:24|191:63,3,152.999995330811,8|8|8|0,0:0|0:0|0:3|1:0,0:0:0:0:
256,192,116660,5,0,1:0:0:0:
200,60,122791,5,0,1:0:0:0:
264,128,123120,1,0,1:0:0:0:
272,124,123175,1,0,1:0:0:0:
280,120,123229,2,0,P|296:88|304:48,1,68,8|0,0:0|0:0,0:0:0:0:
408,128,123448,2,0,P|424:160|432:200,1,68,8|0,0:3|0:0,0:0:0:0:
392,284,123667,6,0,L|384:372,1,68,14|0,2:3|0:0,0:0:0:0:
240,301,123886,2,0,L|308:308,1,68,8|0,0:3|0:0,0:0:0:0:
162,264,124105,2,0,L|156:332,1,68,0|8,1:0|2:3,0:0:0:0:
40,196,124324,2,0,L|107:189,1,68,0|0,1:0|0:0,0:0:0:0:
196,176,124543,6,0,P|228:116|208:44,1,136,14|8,2:3|0:3,0:0:0:0:
68,112,124872,1,0,1:0:0:0:
68,112,124981,2,0,L|135:105,1,68,8|0,0:3|1:0,0:0:0:0:
304,48,125200,2,0,L|371:55,1,68,8|0,0:3|0:0,0:0:0:0:
460,64,125419,5,14,2:3:0:0:
256,356,125638,1,8,0:3:0:0:
135,104,125857,2,0,P|132:168|92:236,1,136,0|8,1:0|0:3,0:0:0:0:
24,280,126185,1,0,1:0:0:0:
24,280,126294,5,14,2:3:0:0:
304,48,126514,1,8,0:3:0:0:
304,48,126623,1,0,0:0:0:0:
388,80,126733,2,0,P|424:80|468:52,2,68,0|8|8,1:0|0:3|0:3,0:0:0:0:
304,48,127061,1,0,1:0:0:0:
224,76,127171,6,0,B|156:92|140:156|140:156|156:144|176:140|176:140|208:140|224:152,1,203.999993774414,14|8,2:3|0:3,0:0:0:0:
231,159,127499,1,0,1:0:0:0:
231,159,127609,2,0,B|248:264|248:264|228:284|188:268,1,170,8|0,0:3|1:0,0:0:0:0:
224,76,127937,1,8,0:3:0:0:
224,76,128047,6,0,B|293:73|325:131|325:131|307:124|286:125|286:125|256:133|243:149,2,203.999993774414,14|8|0,2:3|0:3|1:0,0:0:0:0:
52,312,128704,1,8,0:3:0:0:
460,312,128923,6,0,P|464:280|448:228,1,68,14|0,2:3|0:0,0:0:0:0:
416,168,129142,1,8,3:0:0:0:
416,168,129251,1,0,1:0:0:0:
336,208,129361,2,0,L|240:224,1,68,8|0,0:3|1:0,0:0:0:0:
192,176,129580,2,0,L|96:160,1,68,8|0,0:3|1:0,0:0:0:0:
52,216,129799,5,2,1:0:0:0:
192,176,129945,1,8,0:0:0:0:
336,208,130091,1,8,0:0:0:0:
424,88,130237,1,8,2:3:0:0:
424,88,130675,6,0,P|372:52|300:56,1,136,6|8,1:0|0:0,0:0:0:0:
220,88,131003,1,8,0:3:0:0:
220,88,131112,2,0,P|184:100|144:96,1,68,0|0,1:0|0:0,0:0:0:0:
32,44,131331,2,0,P|68:32|108:36,1,68,8|8,0:0|0:3,0:0:0:0:
292,140,131550,6,0,P|288:208|256:280,1,136,2|8,1:0|0:0,0:0:0:0:
44,248,131879,2,0,P|48:180|80:108,1,136,10|8,0:3|0:3,0:0:0:0:
97,33,132207,2,0,P|136:40|168:64,1,68,8|0,0:0|0:0,0:0:0:0:
188,244,132426,6,0,P|164:192|160:124,1,110.499994941712,6|0,1:0|0:0,0:0:0:0:
336,176,132645,6,0,P|360:124|368:52,1,118.999996368408,4|0,1:0|0:0,0:0:0:0:
160,296,132864,6,0,P|132:236|132:168,1,127.500004863739,4|0,1:0|0:0,0:0:0:0:
368,224,133083,6,0,P|396:164|404:92,1,136,4|0,1:0|0:0,0:0:0:0:
76,160,140638,5,0,1:0:0:0:
80,168,140693,1,0,1:0:0:0:
84,176,140748,2,0,P|128:152|144:72,1,127.5,8|0,2:0|0:0,0:0:0:0:
220,44,141185,6,0,P|256:44|296:64,1,72.2500013780594,2|0,1:0|0:0,0:0:0:0:
304,144,141404,2,0,P|268:144|228:124,1,72.2500013780594,0|0,1:0|0:0,0:0:0:0:
368,84,141623,2,0,P|400:69|436:69,2,72.2500013780594,8|0|0,0:0|0:0|1:0,0:0:0:0:
304,144,141952,1,0,0:0:0:0:
456,153,142061,6,0,P|420:152|388:168,2,72.2500013780594,2|0|0,1:0|0:0|1:0,0:0:0:0:
444,240,142390,1,0,0:0:0:0:
444,240,142499,2,0,P|436:312|376:360,1,144.500002756119,8|0,0:0|1:0,0:0:0:0:
296,372,142828,1,0,1:0:0:0:
216,336,142937,5,2,1:0:0:0:
456,153,143156,1,0,0:0:0:0:
296,372,143375,1,8,0:0:0:0:
380,116,143594,1,8,0:0:0:0:
384,376,143813,2,0,P|380:340|336:296,1,72.2500013780594,2|8,1:0|0:0,0:0:0:0:
239,270,144032,2,0,P|219:300|216:336,1,72.2500013780594,0|0,1:0|0:0,0:0:0:0:
324,228,144251,2,0,P|304:152|248:108,1,144.500002756119,8|8,0:0|0:0,0:0:0:0:
172,80,144580,1,0,0:0:0:0:
172,80,144689,5,2,1:0:0:0:
172,80,146003,6,0,L|152:156,1,63.7500024318696,10|0,2:3|0:0,0:0:0:0:
68,144,146222,2,0,L|84:82,1,63.7500024318696,10|0,2:3|0:0,0:0:0:0:
244,28,146441,6,0,P|276:76|260:184,1,165.749992412568,6|0,1:0|0:0,0:0:0:0:
240,216,146660,1,8,0:0:0:0:
372,108,146769,1,0,0:0:0:0:
372,108,146879,2,0,L|492:84,2,110.499994941712,2|8|8,1:0|0:3|0:0,0:0:0:0:
348,192,147207,1,8,0:3:0:0:
263,178,147317,6,0,P|236:136|236:72,1,110.499994941712,2|0,1:0|0:0,0:0:0:0:
436,172,147536,2,0,P|463:214|463:278,1,110.499994941712,10|8,0:0|0:3,0:0:0:0:
400,336,147755,2,0,L|228:312,1,165.749992412568,2|0,1:0|0:0,0:0:0:0:
192,304,147974,1,8,0:0:0:0:
263,178,148083,1,8,0:3:0:0:
180,212,148193,6,0,P|108:180|100:96,1,165.749992412568,2|0,1:0|0:0,0:0:0:0:
263,178,148412,2,0,P|335:146|343:62,1,165.749992412568,8|0,0:0|0:0,0:0:0:0:
263,92,148631,6,0,P|336:124|346:203,1,165.749992412568,10|0,1:3|0:0,0:0:0:0:
180,128,148850,2,0,P|108:160|100:244,1,165.749992412568,10|0,0:0|0:0,0:0:0:0:
262,177,149069,6,0,P|277:259|286:342,1,165.749992412568,10|0,1:3|0:0,0:0:0:0:
180,212,149288,2,0,P|188:288|204:380,1,165.749992412568,8|0,0:0|0:0,0:0:0:0:
284,372,149507,2,0,P|328:332|380:316,1,110.499994941712,2|8,0:0|0:3,0:0:0:0:
464,316,149726,1,8,0:0:0:0:
500,232,149835,1,0,0:0:0:0:
428,176,149945,6,0,P|372:176|324:216,1,110.499994941712,2|0,1:0|0:0,0:0:0:0:
277,347,150164,2,0,P|333:347|381:307,1,110.499994941712,8|8,0:0|0:3,0:0:0:0:
329,207,150383,1,2,1:0:0:0:
375,315,150492,1,0,0:0:0:0:
244,252,150602,6,0,P|232:200|256:148,1,110.499994941712,10|0,0:0|0:0,0:0:0:0:
438,73,150821,2,0,P|450:125|426:177,1,110.499994941712,0|8,1:0|0:3,0:0:0:0:
329,207,151040,1,10,0:0:0:0:
329,207,151149,1,8,0:3:0:0:
356,116,151258,2,0,P|316:64|196:60,1,165.749992412568,2|0,1:0|0:0,0:0:0:0:
180,68,151477,2,0,P|140:100|92:148,1,110.499994941712,10|0,0:0|0:0,0:0:0:0:
36,300,151696,6,0,P|112:312|168:244,1,165.749992412568,2|0,1:0|0:0,0:0:0:0:
244,252,151915,2,0,P|320:240|376:308,1,165.749992412568,10|0,0:0|0:0,0:0:0:0:
292,320,152134,1,2,1:0:0:0:
292,320,152244,1,8,0:3:0:0:
84,228,152353,1,10,0:0:0:0:
84,228,152463,1,8,0:3:0:0:
244,168,152572,6,0,P|248:112|224:60,1,110.499994941712,2|8,1:0|0:3,0:0:0:0:
152,16,152791,1,8,0:0:0:0:
152,16,152901,1,8,0:3:0:0:
332,96,153010,1,0,1:0:0:0:
332,96,153120,1,8,0:3:0:0:
200,240,153229,1,8,0:0:0:0:
200,240,153339,1,8,0:3:0:0:
388,192,153448,6,0,B|388:176|392:160|392:160|376:172|364:174,1,63.7499980545045,2|0,1:0|0:0,0:0:0:0:
280,168,153777,5,4,1:0:0:0:
280,168,153886,2,0,L|168:152,1,110.499994941712,2|0,1:0|0:0,0:0:0:0:
80,136,154105,2,0,P|52:88|60:28,1,110.499994941712,10|8,0:0|0:3,0:0:0:0:
280,168,154324,6,0,P|308:216|300:276,2,110.499994941712,2|0|8,1:0|0:0|0:0,0:0:0:0:
112,216,154653,1,8,0:3:0:0:
112,216,154762,2,0,P|84:264|92:324,1,110.499994941712,2|8,1:0|0:3,0:0:0:0:
368,336,154981,2,0,P|396:288|388:228,1,110.499994941712,8|8,0:0|0:3,0:0:0:0:
303,267,155200,6,0,P|236:311|163:282,1,165.749992412568,6|0,1:0|0:0,0:0:0:0:
227,223,155419,2,0,P|183:157|213:84,1,165.749992412568,10|0,0:0|0:0,0:0:0:0:
271,148,155638,2,0,P|337:103|411:133,1,165.749992412568,2|0,1:0|0:0,0:0:0:0:
346,191,155857,2,0,P|390:257|361:331,1,165.749992412568,10|0,0:0|0:0,0:0:0:0:
303,267,156076,6,0,P|236:311|163:282,1,165.749992412568,2|0,1:0|0:0,0:0:0:0:
136,244,156295,2,0,L|112:128,1,110.499994941712,10|0,0:0|0:0,0:0:0:0:
136,48,156514,2,0,P|216:28|284:72,1,165.749992412568,2|0,1:0|0:0,0:0:0:0:
300,112,156733,1,8,0:0:0:0:
448,68,156842,1,8,0:3:0:0:
388,132,156952,6,0,L|356:332,1,165.749992412568,0|0,1:0|0:0,0:0:0:0:
352,340,157171,2,0,P|296:344|256:308,1,110.499994941712,10|8,0:0|0:3,0:0:0:0:
196,240,157390,2,0,P|140:232|84:280,1,110.499994941712,0|8,1:0|0:0,0:0:0:0:
48,332,157609,1,8,0:0:0:0:
48,332,157718,1,8,0:3:0:0:
120,148,157828,6,0,B|128:128|116:112|116:112|48:136|44:220|96:260,1,220.999989883423,6|6,0:0|0:0,0:0:0:0:
160,316,158704,6,0,L|288:296,1,110.499994941712,6|0,1:0|0:0,0:0:0:0:
424,364,158923,2,0,L|296:384,1,110.499994941712,8|8,0:0|0:3,0:0:0:0:
256,216,159142,2,0,P|312:224|348:264,2,110.499994941712,2|8|8,1:0|0:3|0:0,0:0:0:0:
168,224,159470,1,8,0:3:0:0:
168,224,159580,6,0,P|124:196|108:128,1,110.499994941712,2|0,1:0|0:0,0:0:0:0:
144,60,159799,1,8,0:0:0:0:
224,100,159908,2,0,P|328:128|408:44,1,220.999989883423,10|8,0:3|0:3,0:0:0:0:
488,88,160237,2,0,P|468:140|476:204,1,110.499994941712,8|0,0:0|0:0,0:0:0:0:
464,284,160456,6,0,L|352:264,1,110.499994941712,2|0,1:0|0:0,0:0:0:0:
284,320,160675,2,0,L|172:340,1,110.499994941712,8|8,0:0|0:3,0:0:0:0:
92,312,160894,2,0,P|36:256|40:168,1,165.749992412568,2|0,1:0|0:0,0:0:0:0:
60,136,161112,1,8,0:0:0:0:
164,204,161222,1,10,0:3:0:0:
220,132,161331,6,0,P|228:76|196:24,1,110.499994941712,0|0,1:0|0:0,0:0:0:0:
140,92,161550,1,8,0:0:0:0:
304,168,161660,2,0,P|404:164|368:76,1,220.999989883423,10|0,0:3|0:0,0:0:0:0:
304,168,161988,2,0,L|320:292,1,110.499994941712,8|8,0:0|0:3,0:0:0:0:
140,92,162207,6,0,P|92:72|24:88,1,110.499994941712,2|0,1:0|0:0,0:0:0:0:
0,160,162426,1,8,0:0:0:0:
56,232,162536,1,8,0:3:0:0:
56,232,162645,2,0,P|136:244|200:180,1,165.749992412568,0|0,1:0|0:0,0:0:0:0:
212,148,162864,1,8,0:0:0:0:
140,92,162974,1,8,0:3:0:0:
56,232,163083,6,0,L|72:356,1,110.499994941712,0|2,1:0|0:0,0:0:0:0:
288,272,163302,1,8,0:0:0:0:
288,272,163412,2,0,P|316:160|256:72,1,220.999989883423,10|8,3:0|0:3,0:0:0:0:
152,268,163740,2,0,L|168:392,1,110.499994941712,10|0,0:0|0:0,0:0:0:0:
392,312,163959,6,0,P|400:256|372:196,1,110.499994941712,2|0,1:0|0:0,0:0:0:0:
304,72,164178,2,0,P|284:123|292:177,1,110.499994941712,8|8,0:0|0:3,0:0:0:0:
472,180,164397,2,0,P|438:134|375:112,1,110.499994941712,2|8,1:0|0:3,0:0:0:0:
200,112,164616,2,0,P|144:104|83:132,1,110.499994941712,8|0,0:0|0:0,0:0:0:0:
36,280,164835,6,0,P|148:288|200:192,1,220.999989883423,6|8,1:0|0:0,0:0:0:0:
200,112,165164,2,0,P|144:104|83:132,1,110.499994941712,8|2,0:3|1:0,0:0:0:0:
152,320,165383,1,8,0:3:0:0:
152,320,165492,2,0,P|208:328|268:299,1,110.499994941712,8|8,0:0|0:3,0:0:0:0:
324,244,165711,6,0,P|356:164|328:80,1,165.749992412568,6|0,1:0|0:0,0:0:0:0:
304,56,165930,2,0,L|192:28,1,110.499994941712,8|8,0:0|0:3,0:0:0:0:
112,60,166149,2,0,P|80:140|108:224,1,165.749992412568,2|0,1:0|0:0,0:0:0:0:
132,248,166368,1,8,0:0:0:0:
132,248,166477,1,8,0:3:0:0:
272,164,166587,6,0,P|220:136|164:144,1,110.499994941712,2|0,1:0|0:0,0:0:0:0:
72,312,166806,1,8,0:0:0:0:
72,312,166915,2,0,P|140:340|216:224,1,220.999989883423,10|8,0:3|0:3,0:0:0:0:
272,164,167244,2,0,P|316:128|372:112,1,110.499994941712,10|0,0:0|0:0,0:0:0:0:
456,260,167463,6,0,P|412:224|356:208,1,110.499994941712,2|0,1:0|0:0,0:0:0:0:
220,239,167682,2,0,P|176:275|120:284,1,110.499994941712,8|8,0:0|0:3,0:0:0:0:
48,240,167901,2,0,P|12:164|36:88,1,165.749992412568,2|0,1:0|0:0,0:0:0:0:
64,56,168120,1,8,0:0:0:0:
64,56,168229,1,8,0:3:0:0:
208,156,168339,6,0,P|156:160|108:128,1,110.499994941712,2|0,1:0|0:0,0:0:0:0:
272,72,168558,1,8,0:0:0:0:
272,72,168667,2,0,P|376:52|456:128,1,220.999989883423,10|8,0:3|0:3,0:0:0:0:
468,212,168996,2,0,P|464:264|448:324,1,110.499994941712,8|0,0:0|0:0,0:0:0:0:
368,248,169215,6,0,P|364:196|348:136,1,110.499994941712,2|0,1:0|0:0,0:0:0:0:
264,208,169434,2,0,P|260:260|244:320,1,110.499994941712,8|8,0:0|0:3,0:0:0:0:
164,244,169653,2,0,P|108:200|136:84,1,165.749992412568,2|0,1:0|0:0,0:0:0:0:
136,76,169872,1,8,0:0:0:0:
136,76,169981,1,8,0:3:0:0:
8,216,170091,6,0,P|28:260|20:344,1,110.499994941712,2|0,1:0|0:0,0:0:0:0:
245,316,170310,1,8,0:0:0:0:
245,316,170419,2,0,P|200:212|232:112,1,220.999989883423,10|10,0:3|0:3,0:0:0:0:
296,56,170748,2,0,P|348:40|420:44,1,110.499994941712,8|0,0:0|0:0,0:0:0:0:
476,148,170967,6,0,P|424:132|352:136,1,110.499994941712,2|0,1:0|0:0,0:0:0:0:
300,240,171185,2,0,P|348:224|420:228,1,110.499994941712,8|8,0:0|0:3,0:0:0:0:
476,336,171404,2,0,P|424:320|352:324,1,110.499994941712,2|0,1:0|0:0,0:0:0:0:
276,332,171623,1,8,0:0:0:0:
276,332,171733,1,8,0:3:0:0:
208,272,171842,6,0,P|132:252|56:312,1,165.749992412568,10|0,0:0|0:0,0:0:0:0:
40,336,172061,1,10,0:3:0:0:
156,200,172171,6,0,B|180:176|180:176|192:124|148:92|148:92|184:28|248:64,1,248.624988618851,8|0,0:3|0:0,0:0:0:0:
320,100,172718,6,0,L|456:84,1,127.500004863739,12|8,2:3|0:3,0:0:0:0:
460,172,172937,1,8,0:0:0:0:
460,172,173047,1,8,0:3:0:0:
368,180,173156,2,0,L|336:236,2,63.7500024318696,8|8|8,0:3|0:3|0:0,0:0:0:0:
460,172,173485,1,8,0:3:0:0:
328,316,173594,6,0,P|296:308|268:272,2,63.7500024318696,8|8|8,0:3|0:3|0:0,0:0:0:0:
408,280,173923,1,8,0:3:0:0:
260,204,174032,2,0,P|228:212|200:248,1,63.7500024318696,8|8,0:3|0:3,0:0:0:0:
193,314,174251,2,0,P|170:336|139:343,1,63.7500024318696,8|8,0:0|0:3,0:0:0:0:
56,336,174470,5,12,2:3:0:0:
56,336,174580,1,8,0:3:0:0:
0,276,174689,2,0,L|16:184,1,63.7500024318696,8|8,0:0|0:3,0:0:0:0:
109,105,174908,2,0,L|120:168,2,63.7500024318696,8|8|8,0:3|0:3|0:0,0:0:0:0:
232,128,175237,1,8,0:3:0:0:
232,128,175346,6,0,L|248:36,2,63.7500024318696,8|8|8,0:3|0:3|0:0,0:0:0:0:
333,25,175675,1,8,0:3:0:0:
333,25,175784,2,0,L|344:88,1,63.7500024318696,8|8,0:3|0:3,0:0:0:0:
200,212,176003,2,0,L|216:304,1,63.7500024318696,8|0,0:0|0:0,0:0:0:0:
224,360,176222,5,12,2:3:0:0:
224,360,176331,1,0,0:0:0:0:
300,320,176441,2,0,L|384:328,1,63.7500024318696,8|8,0:0|0:3,0:0:0:0:
200,212,176660,2,0,L|116:220,2,63.7500024318696,8|8|8,0:3|0:3|0:0,0:0:0:0:
380,244,176988,1,8,0:3:0:0:
380,244,177098,6,0,L|400:160,2,63.7500024318696,8|8|8,0:3|0:3|0:0,0:0:0:0:
156,132,177426,1,8,0:3:0:0:
156,132,177536,2,0,L|136:48,1,63.7500024318696,8|8,0:3|0:3,0:0:0:0:
372,40,177755,2,0,L|352:124,1,63.7500024318696,8|8,0:0|0:3,0:0:0:0:
308,172,177974,5,12,2:3:0:0:
308,172,178083,1,0,0:0:0:0:
232,132,178193,2,0,L|164:140,1,63.7500024318696,8|8,0:0|0:3,0:0:0:0:
76,240,178412,2,0,L|144:248,2,63.7500024318696,8|8|8,0:3|0:3|0:0,0:0:0:0:
64,84,178740,1,8,0:3:0:0:
64,84,178850,6,0,L|72:152,2,63.7500024318696,8|8|8,0:3|0:3|0:0,0:0:0:0:
239,68,179178,1,8,0:3:0:0:
239,68,179288,2,0,L|231:136,1,63.7500024318696,8|8,0:3|0:3,0:0:0:0:
228,216,179507,2,0,L|235:279,1,63.7500024318696,8|8,0:0|0:3,0:0:0:0:
260,360,179726,5,12,2:3:0:0:
472,184,179945,1,10,0:0:0:0:
416,124,180054,1,8,0:3:0:0:
416,124,180164,2,0,L|328:132,1,63.7500024318696,8|8,0:3|0:3,0:0:0:0:
238,67,180383,2,0,L|302:62,1,63.7500024318696,8|8,0:0|0:3,0:0:0:0:
344,212,180602,6,0,P|312:204|280:164,1,63.7500024318696,8|8,0:3|0:3,0:0:0:0:
212,148,180821,2,0,L|124:156,1,63.7500024318696,10|8,0:0|0:3,0:0:0:0:
352,129,181040,2,0,L|440:121,2,63.7500024318696,10|8|8,0:3|0:3|0:0,0:0:0:0:
289,183,181368,1,0,0:0:0:0:
212,148,181477,6,0,L|220:84,1,63.7500024318696,12|8,2:3|0:3,0:0:0:0:
415,123,181696,2,0,L|406:186,1,63.7500024318696,8|8,0:0|0:3,0:0:0:0:
212,296,181915,2,0,L|220:232,2,63.7500024318696,10|8|8,0:3|0:3|0:0,0:0:0:0:
256,368,182244,1,8,0:3:0:0:
132,256,182353,6,0,P|97:254|56:272,1,63.7500024318696,10|8,0:3|0:3,0:0:0:0:
296,296,182572,2,0,P|330:297|372:280,1,63.7500024318696,8|8,0:0|0:3,0:0:0:0:
156,168,182791,2,0,P|121:166|80:184,2,63.7500024318696,10|8|8,0:3|0:3|0:0,0:0:0:0:
240,152,183120,1,8,0:3:0:0:
184,88,183229,6,0,P|124:68|48:88,1,127.500004863739,12|8,2:3|0:0,0:0:0:0:
12,148,183558,1,8,0:3:0:0:
166,229,183667,2,0,P|166:197|150:157,1,63.7500024318696,10|8,0:3|0:3,0:0:0:0:
0,236,183886,2,0,P|0:268|16:308,1,63.7500024318696,8|8,0:0|0:3,0:0:0:0:
216,300,184105,6,0,P|238:277|255:237,2,63.7500024318696,10|8|8,0:3|0:3|0:0,0:0:0:0:
132,312,184434,1,8,0:3:0:0:
244,168,184543,2,0,P|280:168|312:192,1,63.7500024318696,10|8,0:3|0:3,0:0:0:0:
396,244,184762,2,0,P|368:258|336:257,1,63.7500024318696,8|8,0:0|0:3,0:0:0:0:
236,84,184981,6,0,P|300:88|360:120,1,127.500004863739,12|8,2:3|0:0,0:0:0:0:
440,132,185310,1,8,0:3:0:0:
431,214,185419,2,0,P|403:229|372:228,1,63.7500024318696,8|8,0:3|0:3,0:0:0:0:
176,97,185638,2,0,P|204:82|235:83,1,63.7500024318696,10|8,0:0|0:3,0:0:0:0:
431,214,185857,6,0,L|423:302,1,63.7500024318696,10|8,0:3|0:3,0:0:0:0:
170,160,186076,2,0,L|178:72,1,63.7500024318696,8|8,0:0|0:3,0:0:0:0:
288,232,186295,2,0,L|280:320,2,63.7500024318696,10|8|8,0:3|0:3|0:0,0:0:0:0:
352,176,186623,1,8,0:3:0:0:
352,176,186733,6,0,P|360:112|356:40,1,127.500004863739,12|10,2:3|0:0,0:0:0:0:
170,160,187061,1,8,0:3:0:0:
170,160,187171,2,0,P|165:191|164:240,1,63.7500024318696,8|8,0:3|0:3,0:0:0:0:
264,140,187390,2,0,P|268:104|268:56,1,63.7500024318696,10|8,0:0|0:3,0:0:0:0:
68,104,187609,6,0,P|60:168|64:240,1,127.500004863739,6|10,2:3|0:0,0:0:0:0:
256,296,187937,1,8,0:3:0:0:
256,296,188047,2,0,P|260:260|260:212,1,63.7500024318696,0|8,0:0|0:3,0:0:0:0:
120,296,188266,2,0,P|116:332|116:380,1,63.7500024318696,10|8,0:0|0:3,0:0:0:0:
352,304,188485,6,0,P|360:240|356:168,1,127.500004863739,12|8,2:3|0:0,0:0:0:0:
316,104,188813,1,8,0:3:0:0:
316,104,188923,2,0,P|284:104|240:116,1,63.7500024318696,10|8,0:3|0:3,0:0:0:0:
176,144,189142,2,0,P|144:144|100:132,1,63.7500024318696,8|8,0:0|0:3,0:0:0:0:
52,80,189361,5,12,2:3:0:0:
328,20,189580,1,10,0:0:0:0:
408,292,189799,1,8,0:3:0:0:
132,352,190018,1,10,0:0:0:0:
132,352,190127,1,8,0:3:0:0:
132,352,190237,6,0,P|104:300|96:224,1,127.500004863739,2|8,1:0|0:0,0:0:0:0:
312,268,190565,1,8,0:3:0:0:
312,268,190675,2,0,P|341:211|348:148,1,127.500004863739,2|8,1:0|0:0,0:0:0:0:
95,232,191003,1,8,3:0:0:0:
95,232,191112,6,0,P|160:244|212:196,1,127.500004863739,2|8,1:0|0:0,0:0:0:0:
348,148,191441,1,8,0:3:0:0:
348,148,191550,2,0,P|283:160|231:112,1,127.500004863739,2|8,1:0|0:0,0:0:0:0:
216,44,191879,1,8,0:3:0:0:
216,44,191988,6,0,P|120:64|144:168,1,220.999989883423,6|8,1:0|0:0,0:0:0:0:
359,257,192317,1,8,0:0:0:0:
200,224,192426,2,0,P|207:278|211:333,1,110.499994941712,2|0,1:0|0:0,0:0:0:0:
347,147,192645,2,0,P|351:202|359:257,1,110.499994941712,2|0,1:0|0:0,0:0:0:0:
116,164,192864,6,0,P|108:218|104:273,1,110.499994941712,8|0,0:0|0:0,0:0:0:0:
432,84,193083,2,0,P|439:138|443:193,1,110.499994941712,2|0,1:0|0:0,0:0:0:0:
200,56,193302,2,0,P|192:104|240:164,1,110.499994941712,10|0,0:0|0:0,0:0:0:0:
316,204,193521,2,0,P|324:252|276:312,1,110.499994941712,8|0,0:0|0:0,0:0:0:0:
200,352,193740,1,10,0:3:0:0:
256,192,196149,5,4,0:0:0:0:
