osu file format v14

[General]
AudioFilename: audio.mp3
AudioLeadIn: 0
PreviewTime:62299
Countdown: 0
SampleSet: Soft
StackLeniency: 0.2
Mode: 0
LetterboxInBreaks: 0
WidescreenStoryboard: 1

[Editor]
DistanceSpacing: 0.5
BeatDivisor: 4
GridSize: 4
TimelineZoom: 2.2

[Metadata]
Title:Lost Umbrella
TitleUnicode:ロストアンブレラ
Artist:inabakumori
ArtistUnicode:稲葉曇
Creator:Ryuusei Aika
Version:bongo's Insane
Source:
Tags:Houshou Hari [Hatsune Miku] [Hatsune_Miku] Hatsune Miku kanor bongo kusano EvilElvis Evil Elvis Jounzan Natteke desu Natteke_desu SMOKELIND 稻叶昙 歌愛ユキ ボーカロイド Kaai Yuki Vocaloid Vocalsynth Female Vocal Japanese Rock Pop J-Rock JRock J-Pop JPop
BeatmapID:3022280
BeatmapSetID:1455997

[Difficulty]
HPDrainRate:5
CircleSize:4
OverallDifficulty:8
ApproachRate:9
SliderMultiplier:1.5
SliderTickRate:1

[Events]
//Background and Video events
0,0,"BG.png",0,0
//Break Periods
2,13502,19710
2,116859,122191
//Storyboard Layer 0 (Background)
//Storyboard Layer 1 (Fail)
//Storyboard Layer 2 (Pass)
//Storyboard Layer 3 (Foreground)
//Storyboard Layer 4 (Overlay)
//Storyboard Sound Samples

[TimingPoints]
1040,218.978102189781,4,2,77,47,1,0
8047,-125,4,2,77,57,0,0
11741,-125,4,2,77,5,0,0
11768,-125,4,2,77,57,0,0
12426,-125,4,2,77,67,0,0
13302,-125,4,2,77,77,0,0
20036,-125,4,2,77,5,0,0
20091,-125,4,2,77,57,0,0
20310,-100,4,2,77,77,0,0
20501,-100,4,2,77,5,0,0
20528,-100,4,2,77,77,0,0
27508,-100,4,2,77,5,0,0
27535,-100,4,2,77,77,0,0
34324,-125,4,2,77,67,0,0
46587,-100,4,2,77,67,0,0
48339,-133.333333333333,4,2,77,77,0,0
48503,-133.333333333333,4,2,77,5,0,0
48558,-133.333333333333,4,2,77,77,0,0
48722,-133.333333333333,4,2,77,5,0,0
48777,-133.333333333333,4,2,77,77,0,0
48941,-133.333333333333,4,2,77,5,0,0
48996,-133.333333333333,4,2,77,77,0,0
49160,-133.333333333333,4,2,77,5,0,0
49215,-133.333333333333,4,2,77,77,0,0
49379,-133.333333333333,4,2,77,5,0,0
49434,-133.333333333333,4,2,77,77,0,0
49598,-133.333333333333,4,2,77,5,0,0
49653,-133.333333333333,4,2,77,77,0,0
49817,-133.333333333333,4,2,77,5,0,0
49872,-133.333333333333,4,2,77,77,0,0
50036,-133.333333333333,4,2,77,5,0,0
50091,-133.333333333333,4,2,77,77,0,0
50255,-133.333333333333,4,2,77,5,0,0
50310,-133.333333333333,4,2,77,77,0,0
50474,-133.333333333333,4,2,77,5,0,0
50529,-133.333333333333,4,2,77,77,0,0
50693,-133.333333333333,4,2,77,5,0,0
50748,-133.333333333333,4,2,77,77,0,0
50912,-133.333333333333,4,2,77,5,0,0
50967,-133.333333333333,4,2,77,77,0,0
51131,-133.333333333333,4,2,77,5,0,0
51186,-133.333333333333,4,2,77,77,0,0
51350,-133.333333333333,4,2,77,5,0,0
51405,-133.333333333333,4,2,77,77,0,0
51568,-133.333333333333,4,2,77,5,0,0
51623,-133.333333333333,4,2,77,77,0,0
51788,-133.333333333333,4,2,77,5,0,0
51843,-133.333333333333,4,2,77,77,0,0
52006,-133.333333333333,4,2,77,5,0,0
52061,-133.333333333333,4,2,77,77,0,0
52225,-133.333333333333,4,2,77,5,0,0
52280,-133.333333333333,4,2,77,77,0,0
52444,-133.333333333333,4,2,77,5,0,0
52499,-133.333333333333,4,2,77,77,0,0
52663,-133.333333333333,4,2,77,5,0,0
52718,-133.333333333333,4,2,77,77,0,0
52883,-133.333333333333,4,2,77,5,0,0
52938,-133.333333333333,4,2,77,77,0,0
53102,-133.333333333333,4,2,77,5,0,0
53157,-133.333333333333,4,2,77,77,0,0
53321,-133.333333333333,4,2,77,5,0,0
53376,-133.333333333333,4,2,77,77,0,0
53539,-133.333333333333,4,2,77,5,0,0
53594,-133.333333333333,4,2,77,77,0,0
53758,-133.333333333333,4,2,77,5,0,0
53813,-133.333333333333,4,2,77,77,0,0
53977,-133.333333333333,4,2,77,5,0,0
54032,-133.333333333333,4,2,77,77,0,0
54196,-133.333333333333,4,2,77,5,0,0
54251,-133.333333333333,4,2,77,77,0,0
54415,-133.333333333333,4,2,77,5,0,0
54470,-133.333333333333,4,2,77,77,0,0
54634,-133.333333333333,4,2,77,5,0,0
54689,-133.333333333333,4,2,77,77,0,0
54853,-133.333333333333,4,2,77,5,0,0
54908,-133.333333333333,4,2,77,77,0,0
55072,-133.333333333333,4,2,77,5,0,0
55127,-133.333333333333,4,2,77,77,0,0
55291,-133.333333333333,4,2,77,5,0,0
55346,-133.333333333333,4,2,77,77,0,0
55510,-133.333333333333,4,2,77,5,0,0
55565,-133.333333333333,4,2,77,77,0,0
55729,-133.333333333333,4,2,77,5,0,0
55784,-133.333333333333,4,2,77,77,0,0
55948,-133.333333333333,4,2,77,5,0,0
56003,-133.333333333333,4,2,77,77,0,0
56167,-133.333333333333,4,2,77,5,0,0
56222,-133.333333333333,4,2,77,77,0,0
56386,-133.333333333333,4,2,77,5,0,0
56441,-133.333333333333,4,2,77,77,0,0
56605,-133.333333333333,4,2,77,5,0,0
56660,-133.333333333333,4,2,77,77,0,0
56824,-133.333333333333,4,2,77,5,0,0
56879,-133.333333333333,4,2,77,77,0,0
57043,-133.333333333333,4,2,77,5,0,0
57098,-133.333333333333,4,2,77,77,0,0
57262,-133.333333333333,4,2,77,5,0,0
57317,-133.333333333333,4,2,77,77,0,0
57481,-133.333333333333,4,2,77,5,0,0
57536,-133.333333333333,4,2,77,77,0,0
57700,-133.333333333333,4,2,77,5,0,0
57755,-133.333333333333,4,2,77,77,0,0
57919,-133.333333333333,4,2,77,5,0,0
57974,-133.333333333333,4,2,77,77,0,0
58138,-133.333333333333,4,2,77,5,0,0
58193,-133.333333333333,4,2,77,77,0,0
58357,-133.333333333333,4,2,77,5,0,0
58412,-133.333333333333,4,2,77,77,0,0
58576,-133.333333333333,4,2,77,5,0,0
58631,-133.333333333333,4,2,77,77,0,0
58795,-133.333333333333,4,2,77,5,0,0
58850,-133.333333333333,4,2,77,77,0,0
59671,-133.333333333333,4,2,77,5,0,0
59726,-133.333333333333,4,2,77,77,0,0
60547,-133.333333333333,4,2,77,5,0,0
60602,-133.333333333333,4,2,77,77,0,0
61423,-133.333333333333,4,2,77,5,0,0
61477,-133.333333333333,4,2,77,77,0,0
61915,-1000,4,2,77,77,0,0
62244,-1000,4,2,77,5,0,0
62353,-83.3333333333333,4,2,77,87,0,0
64296,-83.3333333333333,4,2,77,5,0,0
64323,-83.3333333333333,4,2,77,87,0,0
66924,-83.3333333333333,4,2,77,5,0,0
66951,-83.3333333333333,4,2,77,87,0,0
74616,-100,4,2,77,77,0,0
74807,-100,4,2,77,5,0,0
74834,-100,4,2,77,77,0,0
80748,-100,4,2,77,57,0,0
81623,-100,4,2,77,77,0,0
81814,-100,4,2,77,5,0,0
81841,-100,4,2,77,77,0,0
88631,-142.857142857143,4,2,77,77,0,0
88959,-142.857142857143,4,2,77,67,0,0
89069,-142.857142857143,4,2,77,77,0,0
90054,-142.857142857143,4,2,77,67,0,0
90164,-142.857142857143,4,2,77,77,0,0
90382,-142.857142857143,4,2,77,67,0,0
90492,-142.857142857143,4,2,77,77,0,0
91258,-142.857142857143,4,2,77,67,0,0
91476,-142.857142857143,4,2,77,77,0,0
91805,-142.857142857143,4,2,77,67,0,0
91915,-142.857142857143,4,2,77,77,0,0
92243,-142.857142857143,4,2,77,67,0,0
92353,-142.857142857143,4,2,77,77,0,0
93557,-142.857142857143,4,2,77,67,0,0
93667,-142.857142857143,4,2,77,77,0,0
94433,-142.857142857143,4,2,77,67,0,0
94543,-142.857142857143,4,2,77,77,0,0
94981,-142.857142857143,4,2,77,77,0,0
95091,-142.857142857143,4,2,77,57,0,0
95200,-142.857142857143,4,2,77,77,0,0
95638,-142.857142857143,4,2,77,77,0,0
100127,-142.857142857143,4,2,77,67,0,0
100345,-142.857142857143,4,2,77,77,0,0
100565,-142.857142857143,4,2,77,67,0,0
100675,-142.857142857143,4,2,77,77,0,0
100894,-142.857142857143,4,2,77,77,0,0
102645,-125,4,2,77,67,0,0
114908,-100,4,2,77,67,0,0
116441,-333.333333333333,4,2,77,67,0,0
116659,-333.333333333333,4,2,77,67,0,0
123229,-142.857142857143,4,2,77,67,0,0
123667,-142.857142857143,4,2,77,67,0,0
123858,-142.857142857143,4,2,77,5,0,0
123886,-142.857142857143,4,2,77,67,0,0
124077,-142.857142857143,4,2,77,5,0,0
124104,-142.857142857143,4,2,77,67,0,0
124734,-142.857142857143,4,2,77,5,0,0
124761,-142.857142857143,4,2,77,67,0,0
124953,-142.857142857143,4,2,77,5,0,0
124980,-142.857142857143,4,2,77,67,0,0
125610,-142.857142857143,4,2,77,5,0,0
125637,-142.857142857143,4,2,77,67,0,0
125829,-142.857142857143,4,2,77,5,0,0
125856,-142.857142857143,4,2,77,67,0,0
128813,-142.857142857143,4,2,77,77,0,0
128923,-142.857142857143,4,2,77,67,0,0
129114,-142.857142857143,4,2,77,5,0,0
129141,-142.857142857143,4,2,77,67,0,0
130456,-142.857142857143,4,2,77,5,0,0
130675,-125,4,2,77,77,0,0
132426,-100,4,2,77,77,0,0
132591,-100,4,2,77,5,0,0
132645,-100,4,2,77,77,0,0
132810,-100,4,2,77,5,0,0
132864,-100,4,2,77,77,0,0
133029,-100,4,2,77,5,0,0
133083,-100,4,2,77,77,0,0
133302,-100,4,2,77,47,0,0
140638,-166.666666666667,4,2,77,77,0,0
140748,-166.666666666667,4,2,77,57,0,0
140966,-166.666666666667,4,2,77,47,0,0
141185,-166.666666666667,4,2,77,57,0,0
146003,-166.666666666667,4,2,77,77,0,0
146441,-83.3333333333333,4,2,77,87,0,0
148384,-83.3333333333333,4,2,77,5,0,0
148411,-83.3333333333333,4,2,77,87,0,0
151012,-83.3333333333333,4,2,77,5,0,0
151039,-83.3333333333333,4,2,77,87,0,0
156267,-83.3333333333333,4,2,77,5,0,0
156294,-83.3333333333333,4,2,77,87,0,0
158704,-100,4,2,77,77,0,0
162398,-100,4,2,77,5,0,0
162425,-100,4,2,77,77,0,0
164150,-100,4,2,77,5,0,0
164177,-100,4,2,77,77,0,0
170282,-100,4,2,77,5,0,0
170309,-100,4,2,77,77,0,0
172718,-142.857142857143,4,2,77,67,0,0
179726,-125,4,2,77,67,0,0
191988,-100,4,2,77,67,0,0
196204,-100,4,2,77,5,0,0

[Colours]
Combo1 : 192,192,192
Combo2 : 128,128,128

[HitObjects]
194,95,1040,5,0,2:0:0:0:
180,118,1915,1,0,2:0:0:0:
167,142,2791,1,0,2:0:0:0:
318,289,4543,5,0,2:0:0:0:
332,266,5418,1,0,2:0:0:0:
345,242,6294,1,0,2:0:0:0:
255,191,8047,6,0,P|196:184|141:161,1,120,6|10,1:0|2:0,0:0:0:0:
331,123,8485,1,10,2:3:0:0:
331,123,8594,1,8,2:3:0:0:
331,123,8704,2,0,P|359:175|363:234,1,120,10|10,2:0|2:3,0:0:0:0:
153,369,9142,5,10,2:0:0:0:
153,369,9251,2,0,L|165:310,1,60,0|0,0:0|0:0,2:0:0:0:
41,205,9470,1,0,0:0:0:0:
41,205,9579,2,0,L|53:263,1,60,10|0,0:0|0:0,0:0:0:0:
35,375,9799,5,10,2:3:0:0:
149,216,10018,1,10,0:0:0:0:
276,333,10237,1,8,2:3:0:0:
276,333,10346,1,8,2:3:0:0:
276,333,10456,2,0,P|305:328|333:317,1,60,10|0,0:0|2:0,2:0:0:0:
422,352,10675,6,0,P|426:292|410:234,1,120,10|10,2:3|0:0,0:0:0:0:
273,124,11003,2,0,P|268:183|284:241,1,120,8|0,2:3|0:0,0:0:0:0:
377,155,11331,1,10,0:0:0:0:
377,155,11441,1,0,0:0:0:0:
377,155,11550,1,10,2:3:0:0:
184,228,11769,1,10,0:0:0:0:
441,241,11988,1,8,2:3:0:0:
441,241,12098,1,8,2:3:0:0:
441,241,12207,1,10,0:0:0:0:
262,84,12426,5,14,2:0:0:0:
328,343,12645,2,0,L|345:224,1,120,14|0,2:0|0:0,0:0:0:0:
345,224,13302,1,4,1:0:0:0:
311,332,20310,6,0,P|324:296|331:260,1,75,12|0,2:3|0:0,0:0:0:0:
429,221,20529,2,0,P|405:192|377:167,1,75,8|0,0:0|0:0,0:0:0:0:
400,59,20748,2,0,P|363:65|327:77,1,75,2|0,1:2|2:0,0:0:0:0:
243,258,20967,5,8,0:0:0:0:
243,258,21076,1,8,2:3:0:0:
243,258,21185,2,0,P|169:242|102:209,1,150,2|8,0:0|0:0,0:0:0:0:
194,342,21514,2,0,P|157:350|119:350,1,75,2|0,0:0|0:0,0:0:0:0:
229,164,21733,1,0,1:0:0:0:
229,164,21842,2,0,P|207:133|193:98,1,75,8|0,0:0|0:0,0:0:0:0:
355,285,22061,6,0,L|338:358,1,75,10|0,0:3|0:0,0:0:0:0:
492,235,22280,2,0,L|476:162,1,75,8|0,0:0|0:0,0:0:0:0:
343,43,22499,2,0,L|326:116,2,75,2|0|8,1:0|0:0|0:0,0:0:0:0:
383,197,22828,5,8,0:3:0:0:
383,197,22937,2,0,B|298:207|318:244|244:250,1,150,8|8,0:3|0:0,0:0:0:0:
189,342,23266,2,0,P|143:285|151:212,1,150,8|2,0:3|0:0,0:0:0:0:
231,91,23594,2,0,P|241:126|241:164,1,75,8|0,0:0|0:0,0:0:0:0:
72,142,23813,6,0,P|104:123|139:111,1,75,0|0,1:0|0:0,0:0:0:0:
321,231,24032,1,8,0:0:0:0:
321,231,24142,1,0,0:0:0:0:
321,231,24251,2,0,P|353:249|388:261,1,75,8|0,0:3|2:0,0:0:0:0:
467,95,24470,2,0,P|435:113|407:138,1,75,8|0,0:0|0:0,2:0:0:0:
407,330,24689,6,0,P|387:260|320:230,1,150,2|8,1:0|0:0,0:0:0:0:
232,361,25018,2,0,B|156:337|180:308|107:280,1,150,0|0,0:0|1:0,2:0:0:0:
37,344,25346,1,8,0:0:0:0:
226,243,25565,6,0,L|214:92,1,150,2|8,1:0|0:0,0:0:0:0:
148,16,25894,1,0,0:0:0:0:
148,16,26003,2,0,P|135:51|113:81,1,75,8|0,0:3|2:0,0:0:0:0:
283,14,26222,2,0,P|295:49|316:79,1,75,8|0,0:0|0:0,2:0:0:0:
149,188,26441,6,0,P|215:154|289:173,1,150,2|8,1:0|0:0,0:0:0:0:
395,143,26769,2,0,P|333:181|316:253,1,150,2|8,1:0|0:3,0:0:0:0:
477,327,27098,5,10,0:0:0:0:
477,327,27207,1,0,1:0:0:0:
477,327,27317,2,0,P|442:344|404:349,1,75,12|0,2:3|0:0,0:0:0:0:
280,384,27536,2,0,P|248:363|224:332,1,75,10|0,0:0|0:0,0:0:0:0:
132,242,27755,2,0,P|134:204|148:168,1,75,8|0,0:3|0:0,0:0:0:0:
144,360,27974,5,8,0:0:0:0:
144,360,28083,1,0,1:0:0:0:
144,360,28193,2,0,P|203:315|243:251,1,150,0|8,1:0|0:0,0:0:0:0:
244,160,28521,1,8,0:3:0:0:
35,221,28741,1,0,0:0:0:0:
35,221,28850,2,0,P|34:258|42:294,1,75,8|0,0:0|0:0,0:0:0:0:
27,97,29069,6,0,L|99:78,1,75,0|0,1:0|0:0,0:0:0:0:
244,160,29288,2,0,L|316:141,1,75,8|0,0:0|0:0,0:0:0:0:
402,20,29507,1,8,0:3:0:0:
402,20,29616,1,0,0:0:0:0:
402,20,29726,2,0,L|474:1,1,75,8|0,0:0|1:0,0:0:0:0:
267,81,29945,6,0,L|295:228,1,150,8|8,0:3|0:0,0:0:0:0:
408,363,30273,2,0,P|461:312|462:239,1,150,8|8,0:3|0:3,0:0:0:0:
300,339,30602,2,0,L|228:317,1,75,8|0,0:0|0:0,0:0:0:0:
42,232,30821,6,0,P|40:195|28:160,1,75,0|0,1:0|0:0,0:0:0:0:
196,230,31039,2,0,P|164:250|141:279,1,75,8|0,0:0|0:0,0:0:0:0:
117,97,31258,2,0,P|151:114|188:120,1,75,8|0,0:3|0:0,0:0:0:0:
349,94,31477,5,8,0:0:0:0:
349,94,31587,1,0,1:0:0:0:
349,94,31696,2,0,P|289:135|287:207,1,150,0|8,1:0|0:0,0:0:0:0:
384,255,32025,2,0,L|457:242,1,75,8|0,0:3|0:0,0:0:0:0:
389,363,32244,1,8,0:3:0:0:
389,363,32353,1,8,0:0:0:0:
77,284,32572,6,0,P|62:318|64:355,1,75,0|0,1:0|0:0,0:0:0:0:
204,368,32791,2,0,P|218:333|216:296,1,75,8|0,0:0|0:0,0:0:0:0:
170,152,33010,2,0,L|159:225,1,75,8|0,0:3|0:0,0:0:0:0:
140,54,33229,5,8,0:0:0:0:
140,54,33339,1,0,1:0:0:0:
140,54,33448,2,0,B|230:43|209:89|283:81,1,150,14|0,2:3|1:0,1:0:0:0:
445,28,33777,2,0,P|409:22|373:10,1,75,10|0,2:0|0:0,0:0:0:0:
422,164,33996,5,8,2:3:0:0:
422,164,34105,1,8,0:0:0:0:
422,164,34215,1,0,0:0:0:0:
422,164,34324,2,0,L|433:283,1,120,4|8,1:0|0:3,0:0:0:0:
369,351,34762,1,8,0:3:0:0:
369,351,34872,1,0,0:0:0:0:
369,351,34981,2,0,P|344:336|317:322,1,60,10|0,0:0|0:0,0:0:0:0:
275,234,35200,1,8,0:3:0:0:
275,234,35310,1,8,0:3:0:0:
275,234,35419,2,0,P|248:248|223:264,1,60,10|0,0:0|0:0,0:0:0:0:
125,256,35638,1,8,0:3:0:0:
125,256,35748,1,8,0:3:0:0:
125,256,35857,2,0,P|123:285|126:315,1,60,10|0,0:0|0:0,0:0:0:0:
16,366,36076,6,0,P|22:306|14:247,1,120,6|10,1:0|0:0,0:0:0:0:
11,157,36514,1,8,0:3:0:0:
11,157,36623,1,0,0:0:0:0:
11,157,36733,2,0,L|70:167,1,60,10|0,0:0|0:0,0:0:0:0:
138,96,36952,1,8,0:3:0:0:
138,96,37061,1,0,0:0:0:0:
138,96,37171,2,0,L|197:85,1,60,10|0,0:0|0:0,0:0:0:0:
285,166,37390,1,8,0:3:0:0:
285,166,37499,1,8,0:3:0:0:
285,166,37609,1,10,0:0:0:0:
285,166,37718,1,0,0:0:0:0:
285,166,37828,6,0,P|339:146|354:91,1,120,4|10,1:0|0:0,0:0:0:0:
415,219,38266,1,8,0:3:0:0:
415,219,38375,1,8,0:3:0:0:
415,219,38485,2,0,L|427:277,1,60,10|8,0:0|0:3,0:0:0:0:
315,341,38704,1,8,0:3:0:0:
315,341,38813,1,0,0:0:0:0:
315,341,38923,2,0,L|327:282,1,60,10|0,0:0|0:0,0:0:0:0:
216,220,39142,1,8,0:3:0:0:
216,220,39251,1,0,0:0:0:0:
216,220,39361,2,0,L|228:278,1,60,10|0,0:0|0:0,0:0:0:0:
138,363,39580,6,0,P|89:331|29:325,1,120,4|10,1:0|0:0,0:0:0:0:
114,240,40018,1,8,0:3:0:0:
114,240,40127,1,0,0:0:0:0:
114,240,40237,2,0,P|95:216|75:193,1,60,10|0,0:0|0:0,0:0:0:0:
216,220,40456,1,8,0:3:0:0:
216,220,40565,1,8,0:3:0:0:
216,220,40675,2,0,P|227:192|236:163,1,60,10|0,0:0|0:0,0:0:0:0:
165,4,40894,2,0,P|142:40|148:126,1,120,8|10,0:3|0:0,0:0:0:0:
238,75,41222,5,0,0:0:0:0:
238,75,41331,2,0,L|297:67,1,60,4|0,1:0|0:0,0:0:0:0:
435,11,41550,2,0,L|493:24,1,60,10|0,0:0|0:0,0:0:0:0:
403,123,41769,5,8,0:3:0:0:
403,123,41879,1,8,0:3:0:0:
403,123,41988,1,10,0:0:0:0:
403,123,42098,1,0,0:0:0:0:
403,123,42207,2,0,L|410:182,1,60,4|0,1:0|0:0,0:0:0:0:
467,320,42426,2,0,L|453:378,1,60,10|0,0:0|0:0,0:0:0:0:
355,288,42645,5,8,0:3:0:0:
355,288,42755,1,8,0:3:0:0:
355,288,42864,1,10,0:0:0:0:
355,288,42974,1,0,0:0:0:0:
355,288,43083,2,0,L|295:295,1,60,4|0,1:0|0:0,0:0:0:0:
158,352,43302,2,0,L|99:338,1,60,10|0,0:0|0:0,0:0:0:0:
190,255,43521,5,8,0:3:0:0:
190,255,43631,1,8,0:3:0:0:
190,255,43740,1,10,0:0:0:0:
190,255,43850,1,0,0:0:0:0:
190,255,43959,2,0,L|182:195,1,60,4|0,1:0|0:0,0:0:0:0:
126,58,44178,2,0,L|139:0,1,60,10|0,0:0|0:0,0:0:0:0:
78,159,44397,5,8,0:3:0:0:
78,159,44507,1,8,0:3:0:0:
78,159,44616,1,0,0:0:0:0:
78,159,44726,1,0,0:0:0:0:
78,159,44835,6,0,L|18:148,1,60,4|0,1:0|2:0,0:0:0:0:
231,107,45054,1,10,0:0:0:0:
335,247,45273,6,0,L|394:236,1,60,4|0,1:0|2:0,0:0:0:0:
182,195,45492,1,10,0:0:0:0:
78,335,45711,6,0,L|18:324,1,60,4|0,1:0|2:0,0:0:0:0:
237,297,45930,1,10,0:0:0:0:
237,297,46039,1,0,2:0:0:0:
237,297,46149,2,0,L|231:356,1,60,4|0,1:0|2:0,0:0:0:0:
327,384,46368,2,0,L|332:324,1,60,10|0,0:0|0:0,0:0:0:0:
386,97,46587,6,0,P|314:105|281:170,1,150,4|10,1:0|0:0,2:0:0:0:
368,231,46915,1,8,0:3:0:0:
368,231,47025,2,0,P|405:226|439:212,1,75,10|0,0:0|2:0,2:0:0:0:
290,78,47244,2,0,L|219:102,1,75,8|0,0:3|0:0,2:0:0:0:
108,279,47463,5,10,0:0:0:0:
108,279,47572,2,0,L|121:205,1,75,8|10,2:0|0:0,2:0:0:0:
29,24,47791,1,8,0:3:0:0:
29,24,47900,2,0,L|85:72,1,75,8|0,0:3|0:0,0:0:0:0:
141,130,48120,1,8,0:3:0:0:
170,355,48339,6,0,P|219:329|275:323,1,112.500004291535,6|0,1:0|1:0,0:0:0:0:
353,273,48777,1,0,1:0:0:0:
434,316,48996,1,0,1:0:0:0:
300,83,49215,6,0,L|288:194,1,112.500004291535,2|0,1:0|1:0,0:0:0:0:
353,273,49653,1,2,1:0:0:0:
429,219,49872,1,2,1:0:0:0:
186,234,50091,6,0,P|130:232|82:205,1,112.500004291535,2|0,1:0|1:0,0:0:0:0:
53,116,50529,1,2,1:0:0:0:
122,44,50748,1,0,1:0:0:0:
82,205,50967,6,0,L|100:320,1,112.500004291535,2|0,1:0|1:0,0:0:0:0:
248,384,51404,2,0,L|265:272,1,112.500004291535,2|0,1:0|1:0,0:0:0:0:
255,56,51842,5,6,1:0:0:0:
214,142,52061,1,0,1:0:0:0:
309,183,52280,1,0,1:0:0:0:
350,97,52499,1,0,1:0:0:0:
425,166,52718,5,2,1:0:0:0:
466,252,52937,1,0,1:0:0:0:
371,293,53156,1,0,1:0:0:0:
330,207,53375,1,0,1:0:0:0:
392,378,53594,6,0,P|349:341|295:331,1,112.500004291535,2|2,1:0|1:0,0:0:0:0:
213,378,54032,1,2,1:0:0:0:
138,328,54251,1,0,1:0:0:0:
49,171,54470,6,0,P|57:226|57:282,1,112.500004291535,2|0,1:0|1:0,0:0:0:0:
214,265,54908,2,0,P|205:209|205:153,1,112.500004291535,2|2,1:0|1:0,0:0:0:0:
295,330,55346,6,0,P|339:297|351:243,1,112.500004291535,6|0,1:0|1:0,0:0:0:0:
420,175,55784,1,4,1:0:0:0:
497,224,56003,1,0,1:0:0:0:
316,54,56222,6,0,L|204:38,1,112.500004291535,2|0,1:0|1:0,0:0:0:0:
123,83,56660,1,2,1:0:0:0:
39,47,56879,1,0,1:0:0:0:
30,210,57098,6,0,P|84:208|121:248,1,112.500004291535,2|0,1:0|1:0,0:0:0:0:
207,375,57536,1,2,1:0:0:0:
5,362,57755,2,0,L|124:337,1,112.500004291535,2|0,1:0|1:0,0:0:0:0:
381,268,58193,5,2,1:0:0:0:
295,378,58412,1,2,1:0:0:0:
233,247,58630,1,2,1:0:0:0:
302,299,58850,5,0,0:0:0:0:
336,178,59726,1,0,0:0:0:0:
370,57,60602,1,0,0:0:0:0:
302,299,61915,6,0,L|297:275,1,22.5,14|0,2:3|0:0,0:0:0:0:
227,364,62353,6,0,P|190:338|163:302,1,89.9999972534181,4|0,1:0|0:0,0:0:0:0:
99,175,62572,2,0,P|81:216|78:261,1,89.9999972534181,10|0,0:0|0:0,0:0:0:0:
92,80,62791,1,2,1:0:0:0:
92,80,62901,1,0,0:0:0:0:
92,80,63010,2,0,P|132:60|177:55,1,89.9999972534181,8|0,0:0|0:0,0:0:0:0:
301,166,63229,6,0,P|260:185|215:190,2,89.9999972534181,2|0|8,1:0|0:0|0:0,0:0:0:0:
386,0,63558,2,0,P|367:40|365:85,1,89.9999972534181,0|2,1:0|1:0,0:0:0:0:
466,241,63777,1,0,0:0:0:0:
466,241,63886,2,0,P|439:205|403:180,1,89.9999972534181,8|0,0:0|0:0,0:0:0:0:
318,350,64105,6,0,L|332:261,1,89.9999972534181,2|0,1:0|0:0,0:0:0:0:
229,101,64324,2,0,L|215:190,1,89.9999972534181,8|0,0:0|0:0,0:0:0:0:
403,180,64543,6,0,P|371:148|334:122,1,89.9999972534181,2|0,1:0|2:0,0:0:0:0:
138,269,64762,2,0,P|169:300|206:326,1,89.9999972534181,8|0,0:0|2:0,0:0:0:0:
34,327,64981,6,0,P|24:237|44:150,1,179.999994506836,2|8,1:0|0:0,0:0:0:0:
128,97,65310,1,0,1:0:0:0:
81,22,65419,2,0,P|39:39|5:68,1,89.9999972534181,2|0,1:0|1:0,0:0:0:0:
220,140,65638,2,0,P|225:95|216:51,1,89.9999972534181,8|0,0:0|0:0,0:0:0:0:
117,232,65857,6,0,P|161:237|203:253,1,89.9999972534181,2|0,1:0|0:0,0:0:0:0:
363,361,66076,1,8,0:0:0:0:
363,361,66185,1,0,0:0:0:0:
363,361,66295,2,0,P|406:348|447:330,1,89.9999972534181,2|0,1:0|1:0,0:0:0:0:
334,122,66514,2,0,P|323:165|318:210,1,89.9999972534181,8|0,0:0|0:0,0:0:0:0:
169,366,66733,6,0,P|167:276|134:193,1,179.999994506836,2|8,1:0|0:0,0:0:0:0:
60,135,67061,1,0,0:0:0:0:
208,143,67171,2,0,P|238:108|261:70,1,89.9999972534181,2|0,1:0|0:0,0:0:0:0:
113,0,67390,2,0,P|122:43|137:86,1,89.9999972534181,8|0,0:0|0:0,0:0:0:0:
317,186,67609,5,2,1:0:0:0:
317,186,67828,6,0,P|360:174|395:147,1,89.9999972534181,10|0,0:0|2:0,0:0:0:0:
435,358,68047,2,0,P|379:291|292:283,1,179.999994506836,2|8,1:0|0:0,2:0:0:0:
261,366,68375,2,0,P|282:327|291:283,1,89.9999972534181,0|2,0:0|1:0,0:0:0:0:
60,171,68594,1,0,1:0:0:0:
68,215,68703,1,8,0:0:0:0:
76,259,68812,1,0,0:0:0:0:
96,315,68922,5,2,1:0:0:0:
96,315,69033,1,0,1:0:0:0:
96,315,69142,1,8,0:0:0:0:
96,315,69251,1,0,0:0:0:0:
104,359,69361,5,0,1:0:0:0:
141,94,69690,1,6,1:0:0:0:
141,94,69799,2,0,P|100:73|57:60,1,89.9999972534181,2|0,1:0|0:0,0:0:0:0:
339,186,70018,2,0,P|336:141|326:97,1,89.9999972534181,8|0,0:0|0:0,0:0:0:0:
173,243,70237,1,2,1:0:0:0:
173,243,70346,1,0,1:0:0:0:
173,243,70456,2,0,P|217:247|261:259,1,89.9999972534181,8|0,0:0|0:0,0:0:0:0:
337,340,70675,2,0,P|381:335|425:323,1,89.9999972534181,2|0,1:0|0:0,0:0:0:0:
428,171,70894,2,0,P|383:175|339:187,1,89.9999972534181,8|0,0:0|0:0,0:0:0:0:
509,237,71112,6,0,P|475:155|494:68,1,179.999994506836,2|8,1:0|0:0,0:0:0:0:
408,26,71441,1,0,2:0:0:0:
318,56,71550,2,0,L|230:76,1,89.9999972534181,2|0,1:0|1:0,0:0:0:0:
376,192,71769,2,0,L|464:172,1,89.9999972534181,8|0,0:0|2:0,0:0:0:0:
276,252,71988,6,0,P|278:207|265:164,1,89.9999972534181,2|0,1:0|0:0,0:0:0:0:
56,74,72207,1,8,0:0:0:0:
127,24,72317,2,0,P|92:106|91:195,1,179.999994506836,0|0,1:0|0:0,0:0:0:0:
0,233,72645,2,0,P|27:268|64:293,1,89.9999972534181,8|0,0:0|1:0,2:0:0:0:
140,372,72864,6,0,B|228:382|206:329|312:334,1,179.999994506836,2|8,1:0|0:0,0:0:0:0:
385,384,73193,1,0,0:0:0:0:
497,309,73302,2,0,L|504:219,1,89.9999972534181,2|0,1:0|1:0,0:0:0:0:
384,167,73521,2,0,L|303:206,1,89.9999972534181,8|0,0:0|1:0,0:0:0:0:
394,281,73740,5,6,1:0:0:0:
394,281,73959,1,6,1:0:0:0:
394,281,74616,6,0,P|359:293|322:297,1,75,6|0,1:0|0:0,0:0:0:0:
157,243,74835,2,0,P|192:230|229:226,1,75,8|8,0:0|0:3,0:0:0:0:
220,365,75054,2,0,P|221:316|154:242,1,150,2|8,1:0|0:0,0:0:0:0:
23,219,75383,5,8,0:3:0:0:
23,219,75492,2,0,B|95:193|61:171|151:144,1,150,2|8,1:0|0:0,0:0:0:0:
43,51,75821,2,0,P|20:80|10:116,1,75
155,148,76040,1,8,0:3:0:0:
155,148,76149,2,0,L|229:159,1,75,8|8,0:0|0:3,0:0:0:0:
301,21,76368,6,0,L|319:93,1,75,0|0,1:0|0:0,0:0:0:0:
454,155,76587,2,0,L|472:82,1,75,8|8,0:0|0:3,0:0:0:0:
340,213,76806,1,0,1:0:0:0:
340,213,76915,1,0,0:0:0:0:
340,213,77025,2,0,L|358:285,1,75,8|8,0:0|3:0,0:0:0:0:
499,239,77244,6,0,B|435:258|435:258|428:266|428:266|358:285,1,150,0|8,1:0|0:0,0:0:0:0:
245,375,77572,2,0,P|262:305|212:252,1,150,8|0,0:3|0:0,0:0:0:0:
155,332,77901,2,0,L|80:320,1,75,8|0,0:0|0:0,2:0:0:0:
140,183,78120,6,0,P|159:150|182:121,1,75,0|0,1:0|0:0,0:0:0:0:
14,60,78339,2,0,P|32:92|46:127,1,75,8|8,0:0|0:3,0:0:0:0:
183,12,78558,2,0,P|145:11|108:6,1,75,0|0,1:0|0:0,0:0:0:0:
278,160,78777,5,8,0:0:0:0:
278,160,78886,1,0,0:0:0:0:
278,160,78996,2,0,P|352:150|425:135,1,150,0|8,1:0|0:0,0:0:0:0:
461,35,79324,2,0,P|423:39|387:47,1,75,0|0,1:0|0:0,0:0:0:0:
297,66,79543,1,8,0:3:0:0:
297,66,79653,1,8,0:0:0:0:
483,206,79872,6,0,L|472:280,1,75,0|0,1:0|0:0,0:0:0:0:
379,306,80091,2,0,L|389:380,1,75,8|8,0:0|0:3,0:0:0:0:
295,205,80310,2,0,L|284:279,1,75,0|0,1:0|0:0,2:0:0:0:
205,348,80529,5,8,0:0:0:0:
205,348,80638,1,0,0:0:0:0:
205,348,80748,2,0,P|169:335|133:327,1,75,0|0,1:0|0:0,0:0:0:0:
71,265,80967,2,0,P|35:277|0:285,1,75,0|0,0:0|1:0,0:0:0:0:
184,250,81185,6,0,L|195:176,1,75,2|0,1:0|0:0,0:0:0:0:
82,190,81404,2,0,L|71:264,1,75,0|0,1:0|0:0,0:0:0:0:
137,98,81623,6,0,P|203:66|274:87,1,150,4|8,1:0|0:0,0:0:0:0:
370,104,81952,1,0,0:0:0:0:
370,104,82061,2,0,L|352:23,1,75,0|0,1:0|2:0,0:0:0:0:
436,175,82280,2,0,L|495:129,1,75,8|8,0:0|0:3,2:0:0:0:
336,248,82499,6,0,L|480:287,1,150,0|8,1:0|0:0,0:0:0:0:
380,375,82828,2,0,L|400:302,1,75,0|8,0:0|0:3,0:0:0:0:
225,235,83047,1,0,1:0:0:0:
225,235,83156,2,0,L|245:307,1,75,8|0,0:0|0:0,0:0:0:0:
63,280,83375,6,0,P|98:293|135:299,1,75,0|0,1:0|0:0,0:0:0:0:
281,148,83594,2,0,P|317:154|353:167,1,75,8|8,0:0|0:3,0:0:0:0:
472,321,83813,2,0,P|435:314|399:301,1,75,0|0,1:0|2:0,0:0:0:0:
460,212,84032,5,8,0:0:0:0:
460,212,84142,1,8,0:3:0:0:
460,212,84251,2,0,L|451:62,1,150,0|8,1:0|0:0,0:0:0:0:
263,65,84580,2,0,P|286:134|352:166,1,150,8|8,0:3|3:0,0:0:0:0:
361,62,84908,1,8,0:0:0:0:
181,156,85127,6,0,L|108:137,1,75,0|0,1:0|0:0,0:0:0:0:
170,337,85346,2,0,L|222:283,1,75,8|0,0:0|0:0,0:0:0:0:
17,227,85565,2,0,L|36:299,1,75,0|0,1:0|2:0,0:0:0:0:
125,241,85784,5,8,0:0:0:0:
125,241,85894,1,8,0:3:0:0:
125,241,86003,2,0,B|205:225|190:261|273:248,1,150,0|8,1:0|0:0,0:0:0:0:
359,194,86331,2,0,P|359:156|350:120,1,75,8|0,0:3|0:0,0:0:0:0:
263,158,86550,1,8,0:3:0:0:
263,158,86660,1,8,0:0:0:0:
315,347,86879,6,0,P|364:292|436:272,1,150,0|8,1:0|0:0,0:0:0:0:
512,214,87207,1,8,0:3:0:0:
512,214,87317,2,0,P|487:186|454:167,1,75,0|0,1:0|2:0,0:0:0:0:
454,67,87536,2,0,P|417:74|385:93,1,75,8|8,0:0|0:3,0:0:0:0:
345,262,87755,6,0,L|273:240,1,75,4|0,1:0|2:0,0:0:0:0:
106,128,87974,2,0,L|34:149,1,75,0|8,1:0|0:0,2:0:0:0:
199,308,88193,6,0,L|127:329,1,75,8|10,0:0|0:0,0:0:0:0:
251,86,88412,2,0,L|179:64,1,75,8|8,0:3|0:0,0:0:0:0:
184,214,88631,5,4,1:0:0:0:
184,214,88850,6,0,L|190:162,1,52.4999983978272,8|0,0:0|0:0,0:0:0:0:
84,234,89069,1,0,1:0:0:0:
84,234,89178,1,8,0:3:0:0:
84,234,89288,2,0,P|119:217|191:215,1,104.999996795654,8|0,0:0|1:0,0:0:0:0:
255,280,89616,6,0,L|242:331,1,52.4999983978272,0|8,0:0|0:0,0:0:0:0:
334,362,89835,1,8,0:3:0:0:
334,362,89945,2,0,L|346:310,1,52.4999983978272,0|0,1:0|0:0,0:0:0:0:
428,255,90164,2,0,L|416:150,1,104.999996795654,8|0,0:0|0:0,0:0:0:0:
342,96,90492,5,8,0:3:0:0:
342,96,90602,2,0,L|290:86,1,52.4999983978272,8|8,0:0|0:3,0:0:0:0:
196,185,90821,1,0,1:0:0:0:
196,185,90930,1,0,0:0:0:0:
196,185,91040,2,0,L|247:175,1,52.4999983978272,8|8,0:0|3:0,0:0:0:0:
147,277,91258,6,0,L|43:257,1,104.999996795654,0|8,0:0|0:0,0:0:0:0:
99,178,91587,2,0,P|92:127|53:93,1,104.999996795654
171,90,91915,1,8,0:0:0:0:
335,164,92134,6,0,L|325:215,1,52.4999983978272,0|0,1:0|0:0,0:0:0:0:
392,283,92353,2,0,L|382:334,2,52.4999983978272,8|8|0,0:0|0:3|1:0,0:0:0:0:
297,295,92682,1,8,0:3:0:0:
297,295,92791,2,0,L|288:347,1,52.4999983978272,8|0,0:0|0:0,0:0:0:0:
204,373,93010,6,0,P|157:350|105:344,1,104.999996795654,0|8,1:0|0:0,0:0:0:0:
9,240,93339,2,0,P|59:251|112:247,1,104.999996795654,8|0,0:3|0:0,0:0:0:0:
175,181,93667,2,0,L|166:129,1,52.4999983978272,8|8,0:0|0:3,0:0:0:0:
107,20,93886,5,0,1:0:0:0:
107,20,93996,1,0,0:0:0:0:
107,20,94105,2,0,L|88:77,1,52.4999983978272,8|8,0:0|0:3,0:0:0:0:
248,85,94324,2,0,L|264:35,1,52.4999983978272,0|0,1:0|0:0,0:0:0:0:
424,48,94543,2,0,L|407:97,1,52.4999983978272,8|8,0:0|0:3,0:0:0:0:
317,170,94762,6,0,L|327:274,1,104.999996795654,0|8,1:0|0:0,0:0:0:0:
390,345,95091,1,0,1:0:0:0:
390,345,95200,1,0,1:0:0:0:
468,292,95419,1,8,0:3:0:0:
284,366,95638,6,0,P|239:339|187:336,1,104.999996795654,6|8,0:0|0:0,0:0:0:0:
97,374,95967,1,8,0:3:0:0:
97,374,96076,2,0,L|106:322,1,52.4999983978272,0|8,1:0|0:3,0:0:0:0:
3,259,96295,2,0,L|12:311,1,52.4999983978272,8|8,0:0|0:3,0:0:0:0:
104,234,96514,6,0,L|118:130,1,104.999996795654,0|8,1:0|0:0,0:0:0:0:
83,30,96842,2,0,P|33:45|0:84,1,104.999996795654,8|8,0:3|0:3,2:0:0:0:
22,168,97171,1,8,0:0:0:0:
213,253,97390,6,0,L|263:238,1,52.4999983978272,0|0,1:0|0:0,0:0:0:0:
345,152,97609,2,0,L|238:131,1,104.999996795654,8|0,0:0|1:0,2:0:0:0:
169,72,97937,1,8,0:3:0:0:
169,72,98047,2,0,P|175:46|183:21,1,52.4999983978272,8|8,0:0|0:3,0:0:0:0:
375,52,98266,6,0,P|364:103|344:151,1,104.999996795654,0|8,1:0|0:0,0:0:0:0:
399,239,98594,2,0,L|502:221,1,104.999996795654,8|8,0:3|0:3,0:0:0:0:
499,132,98923,2,0,L|447:140,1,52.4999983978272,8|8,0:0|0:3,0:0:0:0:
308,251,99142,6,0,L|318:302,1,52.4999983978272,0|0,1:0|0:0,0:0:0:0:
218,168,99361,1,8,0:0:0:0:
218,168,99470,1,8,0:3:0:0:
218,168,99580,2,0,L|257:133,1,52.4999983978272,0|8,1:0|0:3,0:0:0:0:
192,288,99799,2,0,L|142:271,1,52.4999983978272,8|0,0:0|0:0,0:0:0:0:
7,165,100018,5,0,1:0:0:0:
7,165,100127,2,0,P|58:155|105:132,1,104.999996795654,0|8,0:0|0:3,0:0:0:0:
121,49,100456,2,0,L|105:1,1,52.4999983978272,0|8,1:0|2:3,0:0:0:0:
9,59,100675,1,8,0:0:0:0:
210,122,100894,5,4,1:0:0:0:
297,117,101112,1,8,0:0:0:0:
345,188,101331,1,0,1:0:0:0:
307,266,101550,1,8,0:0:0:0:
307,266,101660,1,8,0:3:0:0:
307,266,101769,1,0,1:0:0:0:
221,273,101988,1,8,0:0:0:0:
221,273,102098,1,8,0:0:0:0:
172,200,102317,1,0,0:0:0:0:
172,200,102426,1,8,0:0:0:0:
378,334,102645,6,0,L|495:355,1,120,4|8,1:0|0:0,0:0:0:0:
381,235,103083,1,0,1:0:0:0:
381,235,103193,1,8,0:3:0:0:
381,235,103302,2,0,L|322:248,1,60,8|8,0:0|0:3,0:0:0:0:
455,122,103521,1,0,1:0:0:0:
455,122,103631,1,0,0:0:0:0:
455,122,103740,2,0,L|396:135,1,60,8|0,0:0|0:0,0:0:0:0:
326,72,103959,1,0,1:0:0:0:
326,72,104069,1,8,0:3:0:0:
326,72,104178,2,0,L|267:85,1,60,8|8,0:0|0:3,0:0:0:0:
153,38,104397,6,0,P|168:95|173:155,1,120,2|10,1:0|0:0,2:0:0:0:
123,233,104835,1,0,1:0:0:0:
123,233,104945,1,8,0:3:0:0:
123,233,105054,2,0,P|94:223|68:208,1,60,8|8,0:0|0:3,0:0:0:0:
171,323,105273,1,0,1:0:0:0:
171,323,105383,1,0,0:3:0:0:
171,323,105492,2,0,P|176:352|177:382,1,60,8|8,0:0|0:3,0:0:0:0:
225,236,105711,1,0,1:0:0:0:
225,236,105821,1,8,0:3:0:0:
225,236,105930,2,0,P|247:216|273:200,1,60,8|8,0:0|0:3,0:0:0:0:
426,117,106149,6,0,P|368:102|323:63,1,120,2|10,1:0|0:0,0:0:0:0:
504,177,106587,1,0,1:0:0:0:
504,177,106696,1,8,0:3:0:0:
504,177,106806,2,0,P|480:196|453:210,1,60,8|0,0:0|0:0,0:0:0:0:
336,206,107025,1,0,1:0:0:0:
336,206,107134,1,8,0:3:0:0:
336,206,107244,2,0,P|307:195|282:179,1,60,8|8,0:0|0:3,0:0:0:0:
228,93,107463,1,0,1:0:0:0:
228,93,107572,1,8,0:3:0:0:
228,93,107682,2,0,P|222:63|224:33,1,60,8|0,0:0|0:0,0:0:0:0:
13,112,107901,6,0,P|72:110|128:130,1,120,2|10,1:0|0:0,2:0:0:0:
37,208,108339,1,0,1:0:0:0:
37,208,108448,1,8,0:3:0:0:
37,208,108558,2,0,L|47:267,1,60,8|8,0:0|0:3,0:0:0:0:
139,340,108777,1,0,1:0:0:0:
139,340,108886,1,8,0:3:0:0:
139,340,108996,2,0,L|149:280,1,60,8|0,0:0|0:3,0:0:0:0:
342,276,109215,2,0,P|284:276|253:325,1,120,0|8,1:0|0:0,0:0:0:0:
222,210,109543,5,8,0:3:0:0:
222,210,109653,2,0,L|216:150,1,60,6|0,1:0|2:0,0:0:0:0:
408,23,109872,2,0,L|413:82,1,60,10|0,0:0|0:0,0:0:0:0:
322,177,110091,5,0,1:0:0:0:
322,177,110200,1,8,0:3:0:0:
322,177,110310,1,8,0:0:0:0:
322,177,110419,1,8,0:3:0:0:
322,177,110529,2,0,L|316:117,1,60,6|0,1:0|0:0,2:0:0:0:
420,276,110748,2,0,L|425:335,1,60,10|0,0:0|2:0,0:0:0:0:
488,208,110967,5,0,1:0:0:0:
488,208,111076,1,8,0:3:0:0:
488,208,111186,1,8,0:0:0:0:
488,208,111295,1,8,0:3:0:0:
488,208,111405,2,0,L|482:148,1,60,6|0,1:0|0:0,2:0:0:0:
308,280,111623,2,0,L|313:339,1,60,10|0,0:0|0:0,0:0:0:0:
173,179,111842,5,0,1:0:0:0:
173,179,111951,1,8,0:3:0:0:
173,179,112061,1,8,0:0:0:0:
173,179,112170,1,8,0:3:0:0:
173,179,112280,2,0,L|167:119,1,60,6|0,1:0|0:0,2:0:0:0:
59,283,112499,2,0,L|64:342,1,60,10|0,0:0|2:0,0:0:0:0:
322,295,112718,5,2,1:0:0:0:
322,295,112828,1,0,2:0:0:0:
322,295,112937,1,10,0:0:0:0:
322,295,113047,1,0,2:0:0:0:
322,295,113156,2,0,P|292:292|262:294,1,60,2|0,1:0|2:0,0:0:0:0:
173,179,113375,1,8,0:0:0:0:
294,18,113594,6,0,P|307:44|323:70,1,60,2|0,1:0|2:0,0:0:0:0:
268,205,113813,1,8,0:0:0:0:
69,181,114032,6,0,P|85:156|99:129,1,60,2|0,1:0|2:0,0:0:0:0:
243,109,114251,1,8,0:0:0:0:
243,109,114361,1,8,0:3:0:0:
243,109,114470,2,0,P|219:90|200:67,1,60,2|0,1:0|2:0,2:0:0:0:
352,154,114689,2,0,P|379:142|404:125,1,60,10|0,0:0|0:0,0:0:0:0:
480,300,114908,6,0,P|428:248|355:246,1,150,6|10,1:0|0:0,2:0:0:0:
279,303,115237,1,8,0:3:0:0:
279,303,115346,2,0,P|277:343|288:386,1,75,8|0,0:0|0:0,0:0:0:0:
443,223,115565,2,0,P|445:183|434:140,1,75,8|0,0:3|0:0,0:0:0:0:
376,370,115784,5,8,0:0:0:0:
376,370,115894,2,0,L|449:384,1,75,8|8,2:0|0:0,0:0:0:0:
265,205,116112,1,0,2:0:0:0:
265,205,116222,2,0,L|191:219,1,75,8|0,0:3|0:0,2:0:0:0:
366,285,116441,6,0,P|365:263|360:234,1,44.999998626709,0|0,1:0|1:0,0:0:0:0:
361,240,122791,5,0,1:0:0:0:
448,274,123120,2,0,B|446:285,1,11.2499996566773,0|0,1:0|1:0,2:0:0:0:
462,279,123229,2,0,L|448:174,1,104.999996795654,8|8,0:0|0:3,0:0:0:0:
378,104,123667,5,14,2:3:0:0:
290,75,123886,1,8,0:3:0:0:
199,48,124105,1,0,1:0:0:0:
112,161,124324,5,0,1:0:0:0:
112,161,124434,1,0,0:0:0:0:
112,161,124543,1,14,2:3:0:0:
214,146,124762,1,8,0:3:0:0:
31,111,124981,5,8,0:3:0:0:
31,111,125091,1,0,1:0:0:0:
31,111,125200,1,8,0:3:0:0:
31,111,125310,1,0,0:0:0:0:
31,111,125419,1,14,2:3:0:0:
54,238,125638,1,8,0:3:0:0:
77,378,125857,1,0,1:0:0:0:
220,276,126076,5,8,0:3:0:0:
220,276,126185,1,0,1:0:0:0:
220,276,126295,1,14,2:3:0:0:
413,343,126514,1,8,0:3:0:0:
123,297,126733,5,0,1:0:0:0:
123,297,126842,1,8,0:3:0:0:
123,297,126952,1,8,0:3:0:0:
123,297,127061,1,0,1:0:0:0:
123,297,127171,1,14,2:3:0:0:
346,265,127390,1,8,0:3:0:0:
418,204,127609,1,8,0:3:0:0:
373,123,127828,5,0,1:0:0:0:
373,123,127937,1,8,0:3:0:0:
373,123,128047,1,14,2:3:0:0:
432,302,128266,1,8,0:3:0:0:
468,118,128485,5,0,1:0:0:0:
282,193,128704,1,8,0:3:0:0:
282,193,128813,1,8,2:3:0:0:
282,193,128923,1,14,2:3:0:0:
278,360,129142,5,8,3:0:0:0:
271,330,129250,1,0,1:0:0:0:
257,303,129360,1,8,0:3:0:0:
236,281,129469,1,0,1:0:0:0:
209,266,129579,1,8,0:3:0:0:
179,259,129688,1,0,1:0:0:0:
149,261,129798,5,2,1:0:0:0:
60,211,129945,5,8,0:0:0:0:
90,113,130091,5,8,0:0:0:0:
180,161,130237,5,8,2:3:0:0:
68,304,130675,6,0,L|60:363,1,60,6|0,1:0|2:0,0:0:0:0:
160,373,130894,2,0,L|167:313,1,60,8|8,0:0|0:3,2:0:0:0:
254,255,131112,1,0,1:0:0:0:
254,255,131222,2,0,P|303:285|309:343,1,120,0|8,0:0|0:3,0:0:0:0:
398,289,131550,5,2,1:0:0:0:
398,289,131660,2,0,P|428:285|458:286,1,60,0|8,0:0|0:0,0:0:0:0:
506,193,131879,1,10,0:3:0:0:
506,193,131989,2,0,P|476:196|446:195,1,60,8|8,2:3|0:3,0:0:0:0:
387,126,132207,2,0,L|399:67,1,60,8|0,0:0|0:0,0:0:0:0:
139,87,132426,6,0,L|213:76,1,75,6|0,1:0|0:0,0:0:0:0:
329,240,132645,2,0,L|254:250,1,75,4|0,1:0|0:0,0:0:0:0:
295,0,132864,6,0,L|309:73,1,75,4|0,1:0|0:0,0:0:0:0:
159,254,133083,2,0,L|174:328,1,75,4|0,1:0|0:0,0:0:0:0:
159,254,134178,5,0,0:0:0:0:
182,268,135053,1,0,0:0:0:0:
206,281,135929,1,0,0:0:0:0:
353,130,137681,5,0,0:0:0:0:
330,116,138558,1,0,0:0:0:0:
306,103,139434,1,0,0:0:0:0:
261,210,140638,6,0,L|235:204,1,22.4999993133545,0|0,1:0|1:0,2:0:0:0:
256,192,140748,2,0,L|345:181,1,89.9999972534181,8|0,2:0|0:0,0:0:0:0:
470,237,141185,6,0,P|445:275|438:319,1,89.9999972534181,2|0,1:0|1:0,0:0:0:0:
364,370,141514,1,0,0:0:0:0:
364,370,141623,2,0,L|274:356,1,89.9999972534181,8|0,0:0|1:0,0:0:0:0:
201,307,141952,1,0,0:0:0:0:
201,307,142061,6,0,P|189:326|183:348,1,44.999998626709,2|0,1:0|0:0,0:0:0:0:
84,383,142280,2,0,P|85:338|75:294,1,89.9999972534181,0|8,1:0|0:0,0:0:0:0:
5,235,142718,5,0,1:0:0:0:
5,235,142828,1,0,1:0:0:0:
5,235,142937,1,2,1:0:0:0:
57,150,143156,2,0,P|79:148|101:143,1,44.999998626709,0|0,0:0|2:0,0:0:0:0:
173,90,143375,1,8,0:0:0:0:
102,1,143594,5,8,0:0:0:0:
102,1,143703,2,0,L|95:54,1,44.999998626709,8|2,2:3|1:0,0:0:0:0:
230,198,143923,1,8,0:0:0:0:
230,198,144032,2,0,L|237:145,1,44.999998626709,0|0,1:0|0:0,0:0:0:0:
173,90,144251,1,8,0:0:0:0:
335,196,144470,6,0,L|379:190,2,44.999998626709,8|0|2,0:0|0:0|1:0,0:0:0:0:
335,196,146003,5,10,2:3:0:0:
335,196,146222,1,10,2:3:0:0:
243,291,146441,6,0,B|143:310|180:255|67:277,1,179.999994506836,6|8,1:0|0:0,0:0:0:0:
106,362,146769,1,0,0:0:0:0:
164,250,146879,2,0,L|149:161,1,89.9999972534181,2|8,1:0|0:3,0:0:0:0:
24,62,147098,5,8,0:0:0:0:
24,62,147207,1,8,0:3:0:0:
24,62,147317,2,0,L|9:150,1,89.9999972534181,2|0,1:0|0:0,0:0:0:0:
159,64,147536,2,0,P|240:96|257:180,1,179.999994506836,10|2,0:0|1:0,0:0:0:0:
183,252,147864,1,0,2:0:0:0:
242,328,147974,2,0,L|331:316,1,89.9999972534181,8|8,0:0|0:3,0:0:0:0:
465,286,148193,6,0,P|442:324|430:368,1,89.9999972534181,2|0,1:0|0:0,0:0:0:0:
367,135,148412,2,0,P|345:95|313:64,1,89.9999972534181,8|0,0:0|2:0,0:0:0:0:
365,243,148631,2,0,P|320:242|276:254,1,89.9999972534181,10|0,1:3|1:0,0:0:0:0:
466,118,148850,2,0,P|488:79|500:35,1,89.9999972534181,10|0,0:0|2:0,0:0:0:0:
448,213,149069,6,0,B|346:224|374:162|277:174,1,179.999994506836,10|8,1:3|0:0,0:0:0:0:
200,107,149397,2,0,P|182:148|175:192,1,89.9999972534181,0|2,1:0|0:0,0:0:0:0:
257,356,149616,1,8,0:3:0:0:
332,297,149726,2,0,P|349:255|356:211,1,89.9999972534181,8|0,0:0|0:0,0:0:0:0:
163,297,149945,6,0,L|74:310,1,89.9999972534181,2|0,1:0|0:0,0:0:0:0:
178,122,150164,1,8,0:0:0:0:
178,122,150273,1,8,0:3:0:0:
178,122,150383,2,0,L|233:192,1,89.9999972534181,2|0,1:0|0:0,0:0:0:0:
0,199,150602,2,0,L|33:115,1,89.9999972534181,10|0,0:0|0:0,0:0:0:0:
109,205,150821,6,0,L|126:390,1,179.999994506836,0|10,1:0|0:0,0:0:0:0:
70,324,151149,1,8,0:3:0:0:
207,287,151258,2,0,P|251:290|293:306,1,89.9999972534181,2|0,1:0|0:0,0:0:0:0:
429,357,151477,2,0,P|418:314|418:269,1,89.9999972534181,10|0,0:0|0:0,0:0:0:0:
350,169,151696,5,2,1:0:0:0:
350,169,151915,2,0,L|438:155,1,89.9999972534181,10|0,0:0|2:0,0:0:0:0:
300,45,152134,2,0,P|256:122|260:211,1,179.999994506836,2|10,1:0|0:0,2:0:0:0:
337,276,152463,1,8,0:3:0:0:
273,361,152572,5,2,1:0:0:0:
239,312,152681,1,8,0:3:0:0:
186,286,152790,1,8,0:0:0:0:
126,291,152900,1,8,0:3:0:0:
63,356,153010,5,0,1:0:0:0:
63,356,153120,1,8,0:3:0:0:
63,356,153229,1,8,0:0:0:0:
63,356,153339,1,8,0:3:0:0:
9,270,153448,5,2,1:0:0:0:
148,53,153777,1,4,1:0:0:0:
226,109,153886,2,0,L|313:88,1,89.9999972534181,2|0,1:0|0:0,0:0:0:0:
58,0,154105,2,0,P|51:44|52:89,1,89.9999972534181,10|8,0:0|0:3,0:0:0:0:
194,220,154324,5,2,1:0:0:0:
194,220,154434,1,0,0:0:0:0:
194,220,154543,2,0,L|180:308,1,89.9999972534181,8|8,0:0|0:3,0:0:0:0:
305,332,154762,2,0,L|318:243,1,89.9999972534181,2|8,1:0|0:3,0:0:0:0:
351,123,154981,5,8,0:0:0:0:
351,123,155091,1,8,0:3:0:0:
351,123,155200,2,0,P|344:207|422:239,1,179.999994506836,6|10,1:0|0:0,0:0:0:0:
443,164,155529,1,0,0:0:0:0:
318,242,155638,2,0,P|273:233|230:222,1,89.9999972534181,2|0,1:0|1:0,0:0:0:0:
170,103,155857,2,0,P|213:91|257:83,1,89.9999972534181,10|0,0:0|2:0,0:0:0:0:
64,89,156076,6,0,L|88:175,1,89.9999972534181,2|0,1:0|0:0,0:0:0:0:
139,288,156295,1,10,0:0:0:0:
51,262,156404,2,0,P|91:211|237:214,1,179.999994506836
248,275,156733,2,0,L|236:364,1,89.9999972534181,8|8,0:0|0:3,0:0:0:0:
395,384,156952,6,0,L|368:206,1,179.999994506836,0|10,1:0|0:0,0:0:0:0:
432,135,157280,1,8,0:3:0:0:
319,83,157390,2,0,P|297:122|288:166,1,89.9999972534181,0|8,1:0|0:0,0:0:0:0:
412,290,157609,2,0,L|499:268,1,89.9999972534181,8|8,0:0|0:3,0:0:0:0:
248,275,157828,5,6,0:0:0:0:
248,275,158047,1,6,0:0:0:0:
248,275,158704,6,0,P|176:276|139:215,1,150,6|8,1:0|0:0,0:0:0:0:
239,113,159032,1,8,0:3:0:0:
239,113,159142,2,0,L|232:199,1,75,2|8,1:0|0:3,0:0:0:0:
44,240,159361,5,8,0:0:0:0:
44,240,159470,1,8,0:3:0:0:
44,240,159580,2,0,P|44:166|92:110,1,150,2|8,1:0|0:0,0:0:0:0:
173,52,159908,2,0,L|317:92,1,150,10|8,0:3|0:3,0:0:0:0:
401,45,160237,1,8,0:0:0:0:
403,249,160456,6,0,L|413:323,1,75,2|0,1:0|0:0,0:0:0:0:
286,373,160675,1,8,0:0:0:0:
286,373,160784,1,8,0:3:0:0:
286,373,160894,2,0,L|296:298,1,75,2|0,1:0|2:0,0:0:0:0:
180,241,161112,2,0,L|190:315,1,75,8|10,0:0|0:3,0:0:0:0:
276,189,161331,6,0,P|204:201|151:152,1,150,0|8,1:0|0:0,0:0:0:0:
174,57,161660,2,0,P|245:44|298:93,1,150,10|0,0:3|0:0,0:0:0:0:
377,164,161988,2,0,P|414:170|452:168,1,75,8|8,0:0|0:3,0:0:0:0:
451,53,162207,6,0,P|392:90|387:188,1,150,2|8,1:0|0:0,0:0:0:0:
482,245,162536,1,8,0:3:0:0:
482,245,162645,2,0,L|499:317,1,75,0|0,1:0|2:0,0:0:0:0:
390,379,162864,2,0,L|372:306,1,75,8|8,0:0|0:3,0:0:0:0:
284,244,163083,6,0,B|211:259|231:292|151:310,1,150,0|8,1:0|0:0,0:0:0:0:
74,376,163412,2,0,P|41:309|44:235,1,150,10|8,3:0|0:3,0:0:0:0:
139,218,163740,1,10,0:0:0:0:
17,79,163959,6,0,L|165:96,1,150,2|8,1:0|0:0,0:0:0:0:
380,32,164397,1,2,1:0:0:0:
380,32,164507,1,8,0:3:0:0:
380,32,164616,2,0,L|390:106,1,75,8|0,0:0|0:0,0:0:0:0:
493,121,164835,6,0,P|421:137|385:200,1,150,6|8,1:0|0:0,0:0:0:0:
463,303,165164,2,0,L|313:287,1,150,8|8,0:3|0:3,0:0:0:0:
240,223,165492,2,0,P|205:234|176:258,1,75,8|8,0:0|0:3,0:0:0:0:
203,350,165711,6,0,P|161:290|89:276,1,150,6|8,1:0|0:0,0:0:0:0:
14,355,166040,1,8,0:3:0:0:
14,355,166149,2,0,L|0:281,1,75,2|0,1:0|2:0,0:0:0:0:
104,202,166368,2,0,L|89:275,1,75,8|8,0:0|0:3,2:0:0:0:
1,156,166587,5,2,1:0:0:0:
1,156,166696,2,0,P|64:119|139:114,1,150,0|10,0:0|0:3,0:0:0:0:
207,179,167025,2,0,P|243:169|278:157,1,75,0|8,0:0|0:3,0:0:0:0:
234,14,167244,2,0,P|197:23|162:35,1,75,10|0,0:0|0:0,0:0:0:0:
323,74,167463,5,2,1:0:0:0:
323,74,167682,2,0,L|396:88,1,75,8|8,0:0|0:3,0:0:0:0:
508,187,167901,2,0,L|434:201,2,75,2|0|8,1:0|1:0|0:0,0:0:0:0:
479,286,168229,5,8,0:3:0:0:
479,286,168339,2,0,P|428:232|356:218,1,150,2|8,1:0|0:0,0:0:0:0:
306,299,168667,2,0,L|321:372,1,75,10|0,0:3|2:0,0:0:0:0:
198,297,168886,1,8,0:3:0:0:
198,297,168996,2,0,L|214:224,1,75,8|0,0:0|0:0,0:0:0:0:
288,146,169215,6,0,P|225:105|152:94,1,150,2|8,1:0|0:0,0:0:0:0:
54,284,169653,1,2,1:0:0:0:
54,284,169762,2,0,P|34:252|7:225,1,75,0|8,1:0|0:0,0:0:0:0:
85,157,169981,5,8,0:3:0:0:
85,157,170090,2,0,P|104:188|131:215,1,75,2|0,1:0|0:0,0:0:0:0:
202,147,170310,1,8,0:0:0:0:
202,147,170419,2,0,P|224:77|210:4,1,150,10|10,0:3|0:3,0:0:0:0:
126,36,170748,1,8,0:0:0:0:
314,131,170967,6,0,P|325:166|329:203,1,75,2|0,1:0|0:0,0:0:0:0:
380,281,171185,2,0,P|354:308|324:331,1,75,8|8,0:0|0:3,0:0:0:0:
189,271,171404,2,0,P|214:243|244:220,1,75,2|0,1:0|0:0,0:0:0:0:
218,371,171623,2,0,P|181:362|146:348,1,75,8|8,0:0|0:3,0:0:0:0:
55,251,171842,5,10,0:0:0:0:
55,251,171952,2,0,L|67:177,2,75,0|10|8,1:0|0:3|0:3,0:0:0:0:
55,251,172718,6,0,L|159:237,1,104.999996795654,12|8,2:3|0:0,0:0:0:0:
236,174,173156,2,0,P|234:148|222:125,2,52.4999983978272,8|8|8,0:3|0:3|0:0,0:0:0:0:
372,157,173594,2,0,P|350:171|336:193,2,52.4999983978272,8|8|8,0:3|0:3|0:0,0:0:0:0:
289,48,174032,2,0,P|312:59|338:60,2,52.4999983978272,8|8|8,0:3|0:3|0:0,0:0:0:0:
207,0,174470,6,0,P|167:34|148:82,1,104.999996795654,12|8,2:3|0:0,2:0:0:0:
85,150,174908,2,0,L|97:200,2,52.4999983978272,8|8|8,0:3|0:3|0:0,0:0:0:0:
192,241,175346,2,0,L|179:291,2,52.4999983978272,8|8|8,0:3|0:3|0:0,0:0:0:0:
89,334,175784,2,0,L|101:384,2,52.4999983978272,8|8|8,0:3|0:3|0:0,0:0:0:0:
3,272,176112,5,0,0:0:0:0:
3,272,176222,2,0,P|50:250|102:240,1,104.999996795654,12|8,2:3|0:0,0:0:0:0:
249,349,176660,2,0,L|300:360,2,52.4999983978272,8|8|8,0:3|0:3|0:0,0:0:0:0:
379,292,177098,2,0,L|363:241,2,52.4999983978272,8|8|8,0:3|0:3|0:0,0:0:0:0:
264,212,177536,2,0,L|228:250,2,52.4999983978272,8|8|8,0:3|0:3|0:0,0:0:0:0:
431,176,177974,6,0,L|416:72,1,104.999996795654,12|8,2:3|0:0,0:0:0:0:
294,26,178412,2,0,L|299:78,2,52.4999983978272,8|8|8,0:3|0:3|0:0,0:0:0:0:
197,37,178850,2,0,L|202:89,2,52.4999983978272,8|8|8,0:3|0:3|0:0,0:0:0:0:
99,45,179288,2,0,L|104:97,2,52.4999983978272,8|8|8,0:3|0:3|0:0,0:0:0:0:
19,128,179616,5,8,0:3:0:0:
19,128,179726,2,0,P|76:134|108:184,1,120,12|10,2:3|0:0,2:0:0:0:
29,230,180164,1,8,0:3:0:0:
29,230,180273,1,8,0:3:0:0:
29,230,180383,2,0,L|41:288,1,60,8|8,0:0|0:3,0:0:0:0:
133,361,180602,1,8,0:3:0:0:
133,361,180711,1,8,0:3:0:0:
133,361,180821,2,0,L|145:302,1,60,10|8,0:0|0:3,0:0:0:0:
233,224,181040,1,10,0:3:0:0:
233,224,181149,1,8,0:3:0:0:
233,224,181259,2,0,L|245:282,1,60,8|0,0:0|0:0,0:0:0:0:
324,356,181477,6,0,P|381:344|413:295,1,120,12|8,2:3|0:0,0:0:0:0:
457,209,181915,1,10,0:3:0:0:
457,209,182025,1,8,0:3:0:0:
457,209,182134,2,0,P|439:184|419:161,1,60,8|8,0:0|0:3,2:0:0:0:
341,90,182353,1,10,0:3:0:0:
341,90,182463,1,8,0:3:0:0:
341,90,182572,2,0,P|328:117|318:145,1,60,8|8,0:0|0:3,0:0:0:0:
289,240,182791,1,10,0:3:0:0:
289,240,182901,1,8,0:3:0:0:
289,240,183010,2,0,P|318:237|348:231,1,60,8|8,0:0|0:3,0:0:0:0:
220,311,183229,6,0,P|161:296|102:290,1,120,12|8,2:3|0:0,0:0:0:0:
75,207,183667,1,10,0:3:0:0:
75,207,183777,1,8,0:3:0:0:
75,207,183886,2,0,P|57:182|38:159,1,60,8|8,0:0|0:3,0:0:0:0:
181,182,184105,1,10,0:3:0:0:
181,182,184215,1,8,0:3:0:0:
181,182,184324,2,0,P|179:152|183:122,1,60,8|8,0:0|0:3,2:0:0:0:
48,64,184543,5,10,0:3:0:0:
48,64,184653,1,8,0:3:0:0:
48,64,184762,1,8,0:0:0:0:
48,64,184872,1,8,0:3:0:0:
48,64,184981,2,0,P|107:61|159:32,1,120,12|8,2:3|0:0,0:0:0:0:
299,28,185419,1,8,0:3:0:0:
299,28,185529,1,8,0:3:0:0:
299,28,185638,2,0,L|285:86,1,60,10|8,0:0|0:3,0:0:0:0:
403,92,185857,1,10,0:3:0:0:
403,92,185967,1,8,0:3:0:0:
403,92,186076,2,0,L|416:150,1,60,8|8,0:0|0:3,0:0:0:0:
247,177,186295,2,0,P|306:180|353:222,1,120,10|8,0:3|0:0,0:0:0:0:
294,289,186623,5,8,0:3:0:0:
294,289,186733,2,0,L|308:370,1,60,12|0,2:3|0:0,0:0:0:0:
159,147,186952,2,0,L|145:228,1,60,10|8,0:0|0:3,0:0:0:0:
165,365,187171,5,8,0:3:0:0:
165,365,187280,1,8,0:3:0:0:
165,365,187390,1,10,0:0:0:0:
165,365,187499,1,8,0:3:0:0:
165,365,187609,2,0,L|154:305,1,60,6|0,2:3|0:0,0:0:0:0:
296,128,187828,2,0,L|282:209,1,60,10|8,0:0|0:3,0:0:0:0:
353,363,188047,5,0,0:0:0:0:
353,363,188156,1,8,0:3:0:0:
353,363,188266,1,10,0:0:0:0:
353,363,188375,1,8,0:3:0:0:
353,363,188485,2,0,L|363:303,1,60,12|0,2:3|0:0,0:0:0:0:
138,149,188704,2,0,L|152:230,1,60,8|8,0:0|0:3,0:0:0:0:
48,372,188923,5,10,0:3:0:0:
48,372,189032,1,8,0:3:0:0:
48,372,189142,1,8,0:0:0:0:
48,372,189251,1,8,0:3:0:0:
48,372,189361,2,0,L|58:312,1,60,12|0,2:3|0:0,2:0:0:0:
274,145,189580,2,0,L|288:226,1,60,10|8,0:0|2:3,0:0:0:0:
212,365,189799,5,8,0:3:0:0:
212,365,189908,1,8,2:3:0:0:
212,365,190018,1,10,0:0:0:0:
212,365,190127,1,8,0:3:0:0:
212,365,190237,6,0,L|201:305,1,60,2|0,1:0|2:0,0:0:0:0:
273,170,190456,1,8,0:0:0:0:
420,246,190675,6,0,L|361:232,1,60,2|0,1:0|2:0,0:0:0:0:
189,209,190894,1,8,0:0:0:0:
359,54,191112,6,0,L|354:113,1,60,2|0,1:0|2:0,0:0:0:0:
288,294,191331,1,8,0:0:0:0:
288,294,191441,1,8,0:3:0:0:
288,294,191550,2,0,P|290:323|299:352,1,60,2|0,1:0|2:0,0:0:0:0:
393,328,191769,2,0,P|390:298|381:269,1,60,8|8,0:0|0:3,2:0:0:0:
259,135,191988,6,0,L|185:121,1,75,6|0,1:0|0:0,0:0:0:0:
56,318,192207,2,0,L|129:331,1,75,8|8,0:0|0:0,0:0:0:0:
74,91,192426,6,0,L|61:164,1,75,2|0,1:0|0:0,0:0:0:0:
240,382,192645,2,0,L|252:308,1,75,2|0,1:0|0:0,0:0:0:0:
158,224,192864,5,8,0:0:0:0:
158,224,192974,1,0,0:0:0:0:
158,224,193083,2,0,P|235:228|303:195,1,150,2|10,1:0|0:0,0:0:0:0:
359,118,193412,1,0,0:0:0:0:
359,118,193521,2,0,P|432:131|498:166,1,150,8|10,0:0|0:3,0:0:0:0:
256,192,196149,5,4,0:0:0:0:
