osu file format v14

[General]
AudioFilename: audio.mp3
AudioLeadIn: 0
PreviewTime: 62299
Countdown: 0
SampleSet: Soft
StackLeniency: 1
Mode: 0
LetterboxInBreaks: 0
WidescreenStoryboard: 0

[Editor]
DistanceSpacing: 0.5
BeatDivisor: 4
GridSize: 4
TimelineZoom: 1.4

[Metadata]
Title:Lost Umbrella
TitleUnicode:ロストアンブレラ
Artist:inabakumori
ArtistUnicode:稲葉曇
Creator:Ryuusei Aika
Version:________
Source:
Tags:Houshou Hari [Hatsune Miku] [Hatsune_Miku] Hatsune Miku kanor bongo kusano EvilElvis Evil Elvis Jounzan Natteke desu Natteke_desu SMOKELIND 稻叶昙 歌愛ユキ ボーカロイド Kaai Yuki Vocaloid Vocalsynth Female Vocal Japanese Rock Pop J-Rock JRock J-Pop JPop
BeatmapID:2992705
BeatmapSetID:1455997

[Difficulty]
HPDrainRate:6
CircleSize:3
OverallDifficulty:9
ApproachRate:9.7
SliderMultiplier:1.8
SliderTickRate:1

[Events]
//Background and Video events
0,0,"BG.png",0,0
//Break Periods
2,18503,19160
2,116859,122296
2,134178,140143
2,194999,195654
//Storyboard Layer 0 (Background)
//Storyboard Layer 1 (Fail)
//Storyboard Layer 2 (Pass)
//Storyboard Layer 3 (Foreground)
//Storyboard Layer 4 (Overlay)
//Storyboard Sound Samples

[TimingPoints]
1040,218.978102189781,4,2,77,47,1,0
8047,-133.333333333333,4,2,77,57,0,0
11741,-133.333333333333,4,2,0,5,0,0
11768,-133.333333333333,4,2,77,57,0,0
12426,-66.6666666666667,4,2,77,77,0,0
13302,-400,4,2,77,57,0,0
20036,-400,4,2,0,5,0,0
20091,-33.3333333333333,4,2,77,57,0,0
20310,-83.3333333333333,4,2,77,77,0,1
20364,-83.3333333333333,4,2,77,77,0,0
20501,-83.3333333333333,4,2,0,5,0,0
20528,-83.3333333333333,4,2,77,77,0,0
27508,-83.3333333333333,4,2,0,5,0,0
27535,-83.3333333333333,4,2,77,77,0,0
34105,-41.6666666666667,4,2,77,77,0,0
34269,-41.6666666666667,4,2,0,5,0,0
34324,-41.6666666666667,4,2,77,67,0,1
34379,-41.6666666666667,4,2,77,67,0,0
36076,-66.6666666666667,4,2,77,67,0,0
48339,-50,4,2,77,77,0,0
48503,-50,4,2,0,5,0,0
48558,-50,4,2,77,77,0,0
48722,-50,4,2,0,5,0,0
48777,-50,4,2,77,77,0,0
48941,-50,4,2,0,5,0,0
48996,-50,4,2,77,77,0,0
49160,-50,4,2,0,5,0,0
49215,-50,4,2,77,77,0,0
49379,-50,4,2,0,5,0,0
49434,-50,4,2,77,77,0,0
49598,-50,4,2,0,5,0,0
49653,-50,4,2,77,77,0,0
49817,-50,4,2,0,5,0,0
49872,-50,4,2,77,77,0,0
50036,-50,4,2,0,5,0,0
50091,-50,4,2,77,77,0,0
50255,-50,4,2,0,5,0,0
50310,-50,4,2,77,77,0,0
50474,-50,4,2,0,5,0,0
50529,-50,4,2,77,77,0,0
50693,-50,4,2,0,5,0,0
50748,-50,4,2,77,77,0,0
50912,-50,4,2,0,5,0,0
50967,-50,4,2,77,77,0,0
51131,-50,4,2,0,5,0,0
51186,-50,4,2,77,77,0,0
51350,-50,4,2,0,5,0,0
51405,-50,4,2,77,77,0,0
51568,-50,4,2,0,5,0,0
51623,-50,4,2,77,77,0,0
51788,-50,4,2,0,5,0,0
51843,-50,4,2,77,77,0,0
52006,-50,4,2,0,5,0,0
52061,-50,4,2,77,77,0,0
52225,-50,4,2,0,5,0,0
52280,-50,4,2,77,77,0,0
52444,-50,4,2,0,5,0,0
52499,-50,4,2,77,77,0,0
52663,-50,4,2,0,5,0,0
52718,-50,4,2,77,77,0,0
52883,-50,4,2,0,5,0,0
52938,-50,4,2,77,77,0,0
53102,-50,4,2,0,5,0,0
53157,-50,4,2,77,77,0,0
53321,-50,4,2,0,5,0,0
53376,-50,4,2,77,77,0,0
53539,-50,4,2,0,5,0,0
53594,-50,4,2,77,77,0,0
53758,-50,4,2,0,5,0,0
53813,-50,4,2,77,77,0,0
53977,-50,4,2,0,5,0,0
54032,-50,4,2,77,77,0,0
54196,-50,4,2,0,5,0,0
54251,-50,4,2,77,77,0,0
54415,-50,4,2,0,5,0,0
54470,-50,4,2,77,77,0,0
54634,-50,4,2,0,5,0,0
54689,-50,4,2,77,77,0,0
54853,-50,4,2,0,5,0,0
54908,-50,4,2,77,77,0,0
55072,-50,4,2,0,5,0,0
55127,-50,4,2,77,77,0,0
55291,-50,4,2,0,5,0,0
55346,-50,4,2,77,77,0,0
55510,-50,4,2,0,5,0,0
55565,-50,4,2,77,77,0,0
55729,-50,4,2,0,5,0,0
55784,-50,4,2,77,77,0,0
55948,-50,4,2,0,5,0,0
56003,-50,4,2,77,77,0,0
56167,-50,4,2,0,5,0,0
56222,-50,4,2,77,77,0,0
56386,-50,4,2,0,5,0,0
56441,-50,4,2,77,77,0,0
56605,-50,4,2,0,5,0,0
56660,-50,4,2,77,77,0,0
56824,-50,4,2,0,5,0,0
56879,-50,4,2,77,77,0,0
57043,-50,4,2,0,5,0,0
57098,-50,4,2,77,77,0,0
57262,-50,4,2,0,5,0,0
57317,-50,4,2,77,77,0,0
57481,-50,4,2,0,5,0,0
57536,-50,4,2,77,77,0,0
57700,-50,4,2,0,5,0,0
57755,-50,4,2,77,77,0,0
57919,-50,4,2,0,5,0,0
57974,-50,4,2,77,77,0,0
58138,-50,4,2,0,5,0,0
58193,-50,4,2,77,77,0,0
58357,-50,4,2,0,5,0,0
58412,-50,4,2,77,77,0,0
58576,-50,4,2,0,5,0,0
58631,-50,4,2,77,77,0,0
58795,-50,4,2,0,5,0,0
58850,-1000,4,2,77,77,0,0
59671,-1000,4,2,0,5,0,0
59726,-1000,4,2,77,77,0,0
60547,-1000,4,2,0,5,0,0
60602,-1000,4,2,77,77,0,0
61423,-1000,4,2,0,5,0,0
61477,-1000,4,2,77,77,0,0
61915,-50,4,2,77,77,0,0
62299,-50,4,2,0,5,0,0
62353,-66.6666666666667,4,2,77,87,0,1
64296,-66.6666666666667,4,2,77,5,0,1
64323,-66.6666666666667,4,2,77,87,0,1
66924,-66.6666666666667,4,2,0,5,0,1
66951,-66.6666666666667,4,2,77,87,0,1
69361,-66.6666666666667,4,2,77,87,0,0
69689,-33.3333333333333,4,2,77,87,0,1
70237,-66.6666666666667,4,2,77,87,0,1
73740,-50,4,2,77,87,0,0
74616,-83.3333333333333,4,2,77,77,0,0
74807,-83.3333333333333,4,2,0,5,0,0
74834,-83.3333333333333,4,2,77,77,0,0
80748,-166.666666666667,4,2,77,57,0,0
81623,-83.3333333333333,4,2,77,77,0,0
81814,-83.3333333333333,4,2,0,5,0,0
81841,-83.3333333333333,4,2,77,77,0,0
88631,-500,4,2,77,67,0,0
94981,-83.3333333333333,4,2,77,57,0,0
95638,-125,4,2,77,67,0,0
100894,-125,4,2,77,77,0,0
102645,-41.6666666666667,4,2,77,67,0,0
104397,-66.6666666666667,4,2,77,67,0,0
116659,-66.6666666666667,4,2,77,57,0,0
122791,-125,4,2,77,57,0,0
123667,-66.6666666666667,4,2,77,77,0,0
123858,-66.6666666666667,4,2,0,5,0,0
123886,-66.6666666666667,4,2,77,77,0,0
124077,-66.6666666666667,4,2,0,5,0,0
124104,-66.6666666666667,4,2,77,77,0,0
124734,-66.6666666666667,4,2,0,5,0,0
124761,-66.6666666666667,4,2,77,77,0,0
124953,-66.6666666666667,4,2,0,5,0,0
124980,-66.6666666666667,4,2,77,77,0,0
125610,-66.6666666666667,4,2,0,5,0,0
125637,-66.6666666666667,4,2,77,77,0,0
125829,-66.6666666666667,4,2,0,5,0,0
125856,-66.6666666666667,4,2,77,77,0,0
129114,-66.6666666666667,4,2,0,5,0,0
129141,-66.6666666666667,4,2,77,77,0,0
130237,-166.666666666667,4,2,77,77,0,0
130456,-166.666666666667,4,2,0,5,0,0
130675,-66.6666666666667,4,2,77,77,0,0
132426,-50,4,2,77,77,0,0
132591,-50,4,2,0,5,0,0
132645,-40,4,2,77,77,0,0
132810,-40,4,2,0,5,0,0
132864,-33.3333333333333,4,2,77,77,0,0
133029,-33.3333333333333,4,2,0,5,0,0
133083,-25,4,2,77,77,0,0
133302,-25,4,2,0,5,0,0
140638,-200,4,2,77,77,0,0
140748,-200,4,2,77,47,0,0
141076,-200,4,2,0,5,0,0
141185,-166.666666666667,4,2,77,57,0,0
146003,-166.666666666667,4,2,77,77,0,0
146441,-64.5161290322581,4,2,77,87,0,1
148384,-64.5161290322581,4,2,77,5,0,1
148411,-64.5161290322581,4,2,77,87,0,1
151012,-64.5161290322581,4,2,77,5,0,1
151039,-64.5161290322581,4,2,77,87,0,1
153448,-64.5161290322581,4,2,77,87,0,0
153777,-32.258064516129,4,2,77,87,0,1
153886,-64.5161290322581,4,2,77,87,0,1
156267,-64.5161290322581,4,2,77,5,0,1
156294,-64.5161290322581,4,2,77,87,0,1
157828,-49.2610837438424,4,2,77,87,0,0
158704,-74.0740740740741,4,2,77,77,0,1
158758,-74.0740740740741,4,2,77,77,0,0
159744,-74.0740740740741,4,2,0,5,0,0
159799,-74.0740740740741,4,2,77,77,0,0
160072,-74.0740740740741,4,2,0,5,0,0
160127,-74.0740740740741,4,2,77,77,0,0
162153,-74.0740740740741,4,2,0,5,0,0
162208,-74.0740740740741,4,2,77,77,0,0
162398,-74.0740740740741,4,2,0,5,0,0
162425,-74.0740740740741,4,2,77,77,0,0
163248,-74.0740740740741,4,2,0,5,0,0
163303,-74.0740740740741,4,2,77,77,0,0
163576,-74.0740740740741,4,2,0,5,0,0
163631,-74.0740740740741,4,2,77,77,0,0
163904,-74.0740740740741,4,2,0,5,0,0
163959,-74.0740740740741,4,2,77,77,0,0
164999,-74.0740740740741,4,2,0,5,0,0
165054,-74.0740740740741,4,2,77,77,0,0
165711,-80,4,2,77,77,0,0
167408,-80,4,2,0,5,0,0
167463,-80,4,2,77,77,0,0
169160,-80,4,2,0,5,0,0
169215,-80,4,2,77,77,0,0
170282,-80,4,2,0,5,0,0
170309,-80,4,2,77,77,0,0
172171,-133.333333333333,4,2,77,77,0,0
172664,-133.333333333333,4,2,0,5,0,0
172718,-44.4444444444445,4,2,77,67,0,0
173156,-133.333333333333,4,2,77,67,0,0
174470,-44.4444444444445,4,2,77,67,0,0
174908,-133.333333333333,4,2,77,67,0,0
176441,-66.6666666666667,4,2,77,67,0,0
176660,-133.333333333333,4,2,77,67,0,0
178193,-66.6666666666667,4,2,77,67,0,0
179507,-133.333333333333,4,2,77,67,0,0
179726,-66.6666666666667,4,2,77,67,0,0
180383,-133.333333333333,4,2,77,67,0,0
181477,-66.6666666666667,4,2,77,67,0,0
181915,-133.333333333333,4,2,77,67,0,0
183229,-66.6666666666667,4,2,77,67,0,0
183886,-133.333333333333,4,2,77,67,0,0
184981,-66.6666666666667,4,2,77,67,0,0
185638,-133.333333333333,4,2,77,67,0,0
186733,-66.6666666666667,4,2,77,67,0,0
188266,-133.333333333333,4,2,77,67,0,0
188485,-66.6666666666667,4,2,77,67,0,0
192591,-66.6666666666667,4,2,0,5,0,0
192645,-66.6666666666667,4,2,77,67,0,0
192810,-66.6666666666667,4,2,0,5,0,0
192864,-66.6666666666667,4,2,77,67,0,0
196149,-625,4,2,77,67,0,0
196204,-625,4,2,0,5,0,0

[Colours]
Combo1 : 192,192,192
Combo2 : 128,128,128

[HitObjects]
256,192,1040,21,0,2:0:0:0:
256,192,1915,5,0,2:0:0:0:
256,192,2791,5,0,2:0:0:0:
256,192,4543,5,0,2:0:0:0:
256,192,5419,5,0,2:0:0:0:
256,192,6295,5,0,2:0:0:0:
38,354,8047,6,0,P|60:332|71:275,1,67.5000000000002,6|0,1:0|2:0,2:0:0:0:
213,365,8266,2,0,P|189:361|144:319,1,67.5000000000002,10|0,2:0|2:0,2:0:0:0:
61,269,8485,1,10,2:3:0:0:
61,269,8594,1,8,2:3:0:0:
142,231,8704,2,0,P|176:242|219:243,1,67.5000000000002,10|0,2:0|2:0,2:0:0:0:
393,235,8923,6,0,P|339:272|257:302,1,135,10|10,2:3|2:0,2:0:0:0:
205,136,9251,2,0,P|263:170|330:175,1,135,8|0,2:3|2:0,2:0:0:0:
410,140,9580,2,0,P|444:155|484:160,1,67.5000000000002,10|0,2:0|2:0,2:0:0:0:
503,77,9799,5,10,2:3:0:0:
119,140,10018,1,10,2:0:0:0:
424,33,10237,1,10,2:3:0:0:
424,33,10346,1,8,2:3:0:0:
335,41,10456,2,0,P|305:51|274:80,1,67.5000000000002,10|0,2:0|2:0,2:0:0:0:
258,155,10675,5,10,2:3:0:0:
442,309,10894,1,10,2:0:0:0:
512,360,11003,5,8,2:3:0:0:
185,258,11222,1,8,2:3:0:0:
109,209,11331,2,0,P|70:195|20:198,1,67.5000000000002,10|2,2:0|2:0,2:0:0:0:
198,343,11550,6,0,P|309:321|343:301,1,135,8|10,2:3|2:0,2:0:0:0:
246,28,11988,1,10,2:3:0:0:
246,28,12098,1,8,2:3:0:0:
213,114,12207,2,0,P|184:128|133:133,1,67.5000000000002,10|0,2:0|2:0,2:0:0:0:
213,114,12426,6,0,P|318:192|494:274,1,270,14|14,2:0|2:0,2:0:0:0:
441,254,13302,6,0,P|399:174|378:87,1,180,6|2,1:0|2:0,2:0:0:0:
400,87,14288,1,0,2:0:0:0:
441,254,19872,6,0,P|431:240|422:218,1,33.75,2|0,2:0|2:0,2:0:0:0:
426,212,20091,6,0,P|364:258|148:287,1,270,0|0,2:0|2:0,2:0:0:0:
2,35,20310,6,0,B|98:-15|173:29|173:29|161:65,2,216,4|8|0,1:0|2:0|1:0,2:0:0:0:
131,140,20857,1,0,2:0:0:0:
212,183,20967,2,0,P|266:179|326:142,1,108,8|8,2:0|2:3,2:0:0:0:
406,18,21185,5,0,1:0:0:0:
465,82,21295,1,0,2:0:0:0:
368,33,21404,1,8,2:0:0:0:
255,22,21514,1,0,1:0:0:0:
333,59,21733,5,8,2:3:0:0:
235,140,21842,1,8,2:0:0:0:
235,140,21952,1,0,2:0:0:0:
322,142,22061,6,0,P|351:259|451:346,2,216,0|8|0,1:0|2:0|1:0,2:0:0:0:
445,210,22609,1,0,2:0:0:0:
371,254,22718,2,0,P|284:281|226:281,1,108,8|8,2:0|2:3,2:0:0:0:
21,262,22937,5,0,1:0:0:0:
45,347,23156,5,10,2:0:0:0:
206,225,23266,1,2,1:0:0:0:
267,282,23485,5,8,2:3:0:0:
61,187,23594,1,10,2:0:0:0:
61,187,23704,1,0,2:0:0:0:
122,261,23813,6,0,B|194:194|178:114|178:114|140:64,2,216,0|8|0,1:0|2:0|1:0,2:0:0:0:
69,96,24361,1,0,2:0:0:0:
147,73,24470,2,0,P|194:76|280:100,1,108,8|8,2:0|2:3,2:0:0:0:
494,125,24689,5,0,1:0:0:0:
449,54,24799,1,0,2:0:0:0:
373,7,24908,1,8,2:0:0:0:
281,12,25018,6,0,B|302:107|368:150|368:150|389:98,1,216,0|8,1:0|2:3,2:0:0:0:
449,54,25346,1,8,2:0:0:0:
494,125,25456,1,0,2:0:0:0:
424,285,25565,6,0,P|346:349|224:326,2,216,0|8|0,1:0|2:0|1:0,2:0:0:0:
503,254,26112,1,0,2:0:0:0:
425,179,26222,2,0,P|381:210|307:211,1,108,8|8,2:0|2:3,2:0:0:0:
58,159,26441,5,0,1:0:0:0:
5,88,26660,5,10,2:0:0:0:
163,284,26769,1,0,1:0:0:0:
237,335,26988,5,8,2:0:0:0:
85,250,27098,1,10,2:0:0:0:
5,88,27207,1,10,2:0:0:0:
143,185,27317,6,0,B|187:177|187:177|257:110|349:60,2,216,4|8|0,1:0|2:0|1:0,2:0:0:0:
89,107,27864,1,0,2:0:0:0:
106,25,27974,2,0,P|157:39|211:41,1,108,8|8,2:0|2:3,2:0:0:0:
438,62,28193,6,0,P|437:100|427:123,2,54,0|0|0,1:0|2:0|2:0,2:0:0:0:
365,178,28412,1,8,2:0:0:0:
449,371,28521,2,0,P|398:301|364:165,1,216,8|8,2:3|2:3,2:0:0:0:
500,300,28850,1,8,2:0:0:0:
418,362,28959,1,0,2:0:0:0:
291,241,29069,6,0,B|204:241|142:313|142:313|189:366,2,216,0|8|0,1:0|2:0|1:0,2:0:0:0:
448,214,29616,1,0,2:0:0:0:
346,324,29726,1,8,2:0:0:0:
346,324,29835,1,8,2:3:0:0:
272,366,29945,5,0,1:0:0:0:
188,357,30164,5,10,2:0:0:0:
133,127,30273,1,8,2:3:0:0:
122,43,30492,5,8,2:3:0:0:
86,207,30602,1,10,2:0:0:0:
86,207,30711,1,8,2:3:0:0:
49,90,30821,6,0,P|37:218|14:328,2,216,0|8|0,1:0|2:0|1:0,2:0:0:0:
210,35,31368,1,0,2:0:0:0:
254,191,31477,1,8,2:0:0:0:
241,274,31587,1,8,2:3:0:0:
254,191,31696,6,0,P|241:158|214:134,2,54,0|0|0,1:0|2:0|2:0,2:0:0:0:
146,151,31915,1,8,2:0:0:0:
337,111,32025,2,0,B|281:159|198:179|198:179|145:150,1,216,0|8,1:0|2:3,2:0:0:0:
483,70,32353,1,8,2:0:0:0:
397,43,32463,1,0,2:0:0:0:
340,212,32572,6,0,P|352:259|532:298,2,216,0|10|2,1:0|2:0|1:0,2:0:0:0:
490,161,33120,1,2,2:0:0:0:
430,229,33229,2,0,P|374:254|299:251,1,108,10|10,2:0|2:3,2:0:0:0:
121,96,33448,5,14,2:0:0:0:
181,269,33558,1,0,2:0:0:0:
161,359,33667,1,8,2:3:0:0:
76,168,33777,5,10,2:0:0:0:
265,308,33886,1,0,2:0:0:0:
341,345,33996,1,8,2:3:0:0:
90,316,34105,6,0,P|107:195|296:83,1,324,8|0,2:0|2:0,2:0:0:0:
494,360,34324,6,0,B|428:233|245:154|245:154|139:25,1,432,4|10,1:0|2:0,2:0:0:0:
96,71,34762,5,10,2:3:0:0:
96,71,34872,1,8,2:3:0:0:
39,236,34981,1,10,2:0:0:0:
39,236,35091,1,0,2:0:0:0:
20,111,35200,1,8,2:3:0:0:
20,111,35310,1,0,2:0:0:0:
118,274,35419,1,10,2:0:0:0:
118,274,35529,1,8,2:3:0:0:
97,164,35638,1,10,2:3:0:0:
97,164,35748,1,8,2:3:0:0:
285,244,35857,1,10,2:0:0:0:
285,244,35967,1,8,2:3:0:0:
377,12,36076,6,0,B|341:1|341:1|226:64|218:185,1,270,6|10,1:0|2:0,2:0:0:0:
285,244,36514,5,10,2:3:0:0:
285,244,36623,1,0,2:0:0:0:
424,171,36733,1,10,2:0:0:0:
424,171,36842,1,8,2:3:0:0:
484,106,36952,1,10,2:3:0:0:
484,106,37061,1,8,2:3:0:0:
452,257,37171,1,10,2:0:0:0:
452,257,37280,1,8,2:3:0:0:
466,343,37390,1,10,2:3:0:0:
466,343,37499,1,8,2:3:0:0:
282,316,37609,1,8,2:0:0:0:
282,316,37718,1,0,2:0:0:0:
354,132,37828,6,0,B|272:231|233:329|233:329|184:346,1,270,4|10,1:0|2:0,2:0:0:0:
123,304,38266,5,10,2:3:0:0:
123,304,38375,1,0,2:0:0:0:
149,155,38485,1,10,2:0:0:0:
149,155,38594,1,0,2:0:0:0:
191,241,38704,1,8,2:3:0:0:
191,241,38813,1,0,2:0:0:0:
5,199,38923,1,10,2:0:0:0:
5,199,39032,1,8,2:3:0:0:
29,112,39142,1,10,2:3:0:0:
29,112,39251,1,8,2:3:0:0:
192,82,39361,1,10,2:0:0:0:
192,82,39470,1,8,2:3:0:0:
85,235,39580,6,0,B|200:269|285:182|285:182|236:134,1,270,6|10,1:0|2:0,2:0:0:0:
169,122,40018,5,10,2:3:0:0:
169,122,40127,1,0,2:0:0:0:
283,53,40237,1,10,2:0:0:0:
283,53,40346,1,0,2:0:0:0:
373,65,40456,1,10,2:3:0:0:
373,65,40565,1,8,2:3:0:0:
460,213,40675,1,10,2:0:0:0:
465,218,40784,1,8,2:3:0:0:
408,290,40894,1,10,2:3:0:0:
408,290,41003,1,8,2:3:0:0:
263,335,41112,1,8,2:0:0:0:
263,335,41222,1,0,2:0:0:0:
457,90,41331,6,0,P|334:143|250:247,1,270,4|10,1:0|2:0,2:0:0:0:
35,104,41769,5,10,2:3:0:0:
35,104,41879,1,0,2:0:0:0:
151,77,41988,1,10,2:0:0:0:
151,77,42098,1,0,2:0:0:0:
272,86,42207,6,0,P|168:247|85:306,1,270,6|10,1:0|2:0,2:0:0:0:
476,10,42536,1,0,2:0:0:0:
476,10,42645,5,10,2:3:0:0:
476,10,42755,1,0,2:0:0:0:
480,123,42864,1,10,2:0:0:0:
480,123,42974,1,0,2:0:0:0:
410,217,43083,6,0,P|252:220|135:190,1,270,6|10,1:0|2:0,2:0:0:0:
493,370,43521,5,10,2:3:0:0:
493,370,43631,1,0,2:0:0:0:
392,318,43740,1,10,2:0:0:0:
392,318,43850,1,0,2:0:0:0:
285,331,43959,6,0,P|215:139|213:18,1,270,6|10,1:0|2:0,2:0:0:0:
24,374,44288,1,8,2:3:0:0:
24,374,44397,5,10,2:3:0:0:
24,374,44507,1,8,2:3:0:0:
77,268,44616,1,10,2:0:0:0:
77,268,44726,1,8,2:3:0:0:
58,151,44835,6,0,P|161:103|234:101,1,135,2|0,1:0|2:0,2:0:0:0:
480,242,45054,1,8,2:0:0:0:
480,242,45164,1,0,2:0:0:0:
480,242,45273,2,0,P|427:211|305:178,1,135,2|0,1:0|2:0,2:0:0:0:
169,199,45492,1,8,2:0:0:0:
169,199,45602,1,0,2:0:0:0:
169,199,45711,2,0,P|238:235|323:258,1,135,2|0,1:0|2:0,2:0:0:0:
442,36,45930,1,8,2:0:0:0:
442,36,46040,1,0,2:0:0:0:
442,36,46149,2,0,P|364:68|306:104,1,135,2|0,1:0|2:0,2:0:0:0:
456,331,46368,1,10,2:0:0:0:
456,331,46587,6,0,P|388:355|287:376,1,135,6|0,1:0|2:0,2:0:0:0:
90,337,46806,1,8,2:0:0:0:
30,257,46915,1,8,2:0:0:0:
17,161,47025,2,0,P|61:116|180:100,1,135,2|0,1:0|2:0,2:0:0:0:
257,203,47244,2,0,P|266:269|251:335,1,135,10|0,2:0|2:0,2:0:0:0:
184,31,47463,1,2,1:0:0:0:
128,93,47572,2,0,P|128:159|160:263,1,135,8|10,2:0|2:0,2:0:0:0:
465,36,47901,2,0,P|353:88|210:127,1,270,10|10,2:0|2:3,2:0:0:0:
430,370,48339,6,0,P|462:206|513:94,1,270,6|0,1:0|2:0,2:0:0:0:
349,326,48558,6,0,P|327:181|265:-3,1,270,0|0,1:0|2:0,2:0:0:0:
266,277,48777,6,0,P|245:55|194:-27,1,270,2|0,1:0|2:0,2:0:0:0:
102,309,48996,6,0,P|129:114|158:26,1,270,2|0,1:0|2:0,2:0:0:0:
182,340,49215,6,0,P|114:132|33:67,1,270,2|0,1:0|2:0,2:0:0:0:
44,365,49434,6,0,P|76:234|81:100,1,270,0|0,1:0|2:0,2:0:0:0:
263,378,49653,6,0,P|190:218|161:122,1,270,2|0,1:0|2:0,2:0:0:0:
409,343,49872,6,0,P|320:207|219:97,1,270,2|0,1:0|2:0,2:0:0:0:
158,375,50091,6,0,P|237:217|248:104,1,270,2|0,1:0|2:0,2:0:0:0:
263,378,50310,6,0,P|320:304|511:183,1,270,0|0,1:0|2:0,2:0:0:0:
491,371,50529,6,0,P|341:180|316:95,1,270,2|0,1:0|2:0,2:0:0:0:
158,375,50748,6,0,P|176:253|279:97,1,270,2|0,1:0|2:0,2:0:0:0:
344,351,50967,6,0,P|273:260|149:161,1,270,2|0,1:0|2:0,2:0:0:0:
419,322,51185,6,0,P|249:305|161:207,1,270,0|0,1:0|2:0,2:0:0:0:
264,368,51404,6,0,P|263:236|213:68,1,270,2|0,1:0|2:0,2:0:0:0:
180,358,51623,6,0,P|133:228|33:105,1,270,0|0,1:0|2:0,2:0:0:0:
65,275,51842,6,0,P|111:266|355:98,1,270,2|0,1:0|2:0,2:0:0:0:
93,354,52061,6,0,P|16:248|53:124,1,270,0|0,1:0|2:0,2:0:0:0:
14,352,52280,6,0,P|123:211|138:97,1,270,2|0,1:0|2:0,2:0:0:0:
128,369,52499,6,0,P|242:267|403:237,1,270,0|0,1:0|2:0,2:0:0:0:
65,275,52718,6,0,P|142:172|282:81,1,270,2|0,1:0|2:0,2:0:0:0:
293,339,52937,6,0,P|198:243|138:123,1,270,0|0,1:0|2:0,2:0:0:0:
212,379,53156,6,0,P|298:243|341:116,1,270,2|0,1:0|2:0,2:0:0:0:
475,354,53375,6,0,P|469:206|381:70,1,270,2|0,1:0|2:0,2:0:0:0:
293,339,53594,6,0,P|354:212|454:93,1,270,2|0,1:0|2:0,2:0:0:0:
475,354,53813,6,0,P|383:301|325:87,1,270,2|0,1:0|2:0,2:0:0:0:
394,376,54032,6,0,P|337:245|190:175,1,270,2|0,1:0|2:0,2:0:0:0:
272,311,54251,6,0,P|376:228|410:100,1,270,2|0,1:0|2:0,2:0:0:0:
314,384,54470,6,0,P|240:267|123:156,1,270,2|0,1:0|2:0,2:0:0:0:
394,376,54689,6,0,P|275:277|100:276,1,270,2|0,1:0|2:0,2:0:0:0:
194,349,54908,6,0,P|88:181|87:98,1,270,2|0,1:0|2:0,2:0:0:0:
272,311,55127,6,0,P|375:279|517:186,1,270,2|0,1:0|2:0,2:0:0:0:
15,334,55346,6,0,P|24:208|147:174,1,270,6|0,1:0|2:0,2:0:0:0:
314,384,55565,6,0,P|185:285|112:169,1,270,2|0,1:0|2:0,2:0:0:0:
129,372,55784,6,0,P|135:239|84:115,1,270,2|0,1:0|2:0,2:0:0:0:
15,334,56003,6,0,P|-15:216|13:66,1,270,2|0,1:0|2:0,2:0:0:0:
92,295,56222,6,0,P|156:222|326:183,1,270,2|0,1:0|2:0,2:0:0:0:
233,357,56441,6,0,P|239:167|272:93,1,270,0|0,1:0|2:0,2:0:0:0:
308,301,56660,6,0,P|331:239|494:72,1,270,2|0,1:0|2:0,2:0:0:0:
223,271,56879,6,0,P|362:194|486:192,1,270,2|0,1:0|2:0,2:0:0:0:
510,370,57098,6,0,P|436:245|372:52,1,270,2|0,1:0|2:0,2:0:0:0:
141,291,57317,6,0,P|275:280|392:217,1,270,2|0,1:0|2:0,2:0:0:0:
368,378,57536,6,0,P|252:314|200:193,1,270,2|0,1:0|2:0,2:0:0:0:
448,286,57755,6,0,P|270:238|187:182,1,270,2|0,1:0|2:0,2:0:0:0:
101,361,57974,6,0,P|163:234|186:29,1,270,2|0,1:0|2:0,2:0:0:0:
45,294,58193,6,0,P|66:142|126:10,1,270,2|0,1:0|2:0,2:0:0:0:
225,341,58412,6,0,P|85:303|8:194,1,270,2|0,1:0|2:0,2:0:0:0:
305,316,58631,6,0,P|365:194|391:43,1,270,2|0,1:0|2:0,2:0:0:0:
0,0,58850,6,0,P|-7:39|17:62,1,67.5,0|0,2:0|2:0,2:0:0:0:
9,7,59726,2,0,P|2:46|26:69,1,67.5,0|0,2:0|2:0,2:0:0:0:
28,66,60602,2,0,P|42:104|31:129,1,67.5,0|0,2:0|2:0,2:0:0:0:
13,146,61477,5,0,2:0:0:0:
13,146,61915,6,0,B|192:-34|511:1|511:1|420:41,1,630,14|0,2:0|2:0,2:0:0:0:
0,334,62353,6,0,B|2:244|94:126|94:126|163:113,2,270,6|8|2,1:0|2:0|1:0,2:0:0:0:
111,255,62901,1,2,1:0:0:0:
223,205,63010,1,8,2:0:0:0:
338,163,63120,1,0,2:0:0:0:
461,143,63229,2,0,P|398:162|324:198,2,135,2|0|10,1:0|2:0|2:0,2:0:0:0:
213,378,63558,1,0,1:0:0:0:
305,354,63667,2,0,P|259:305|196:286,2,135,2|0|10,2:0|2:0|2:0,2:0:0:0:
502,250,63996,1,2,2:0:0:0:
449,315,64105,6,0,B|403:297|403:297|349:175|211:91,2,270,2|10|2,1:0|2:0|1:0,2:0:0:0:
449,315,64653,1,0,2:0:0:0:
188,160,64762,1,10,2:0:0:0:
188,160,64872,1,0,2:0:0:0:
351,23,64981,2,0,B|315:66|315:66|210:127|111:116,1,270,2|10,1:0|2:0,2:0:0:0:
421,74,65310,1,0,1:0:0:0:
506,64,65419,1,2,2:0:0:0:
93,25,65638,5,10,2:0:0:0:
28,122,65748,1,0,2:0:0:0:
69,220,65857,2,0,P|138:224|197:145,1,135.000005149842,2|0,1:0|0:0,0:0:0:0:
93,25,66076,5,10,2:0:0:0:
12,41,66185,1,2,2:0:0:0:
28,122,66295,1,2,1:0:0:0:
110,144,66404,1,2,1:0:0:0:
69,220,66514,2,0,P|37:298|21:370,1,135,10|10,2:0|2:3,2:0:0:0:
275,320,66733,6,0,B|224:243|68:220|68:220|29:245,1,270,2|10,1:0|2:0,2:0:0:0:
348,365,67061,1,2,1:0:0:0:
480,272,67171,2,0,P|361:226|275:320,1,270,2|10,2:0|2:0,2:0:0:0:
293,47,67499,1,2,2:0:0:0:
368,5,67609,6,0,B|411:95|342:217|342:217|295:233,1,270,2|10,1:0|2:0,2:0:0:0:
274,146,67937,1,0,2:0:0:0:
448,194,68047,2,0,P|477:142|467:61,1,135,2|0,1:0|1:0,2:0:0:0:
183,139,68266,1,10,2:0:0:0:
107,206,68375,1,10,2:3:0:0:
102,305,68485,5,2,1:0:0:0:
257,316,68594,1,8,2:0:0:0:
77,257,68704,1,10,2:3:0:0:
256,261,68813,1,10,2:3:0:0:
67,201,68923,1,10,2:3:0:0:
275,204,69032,1,8,2:3:0:0:
490,288,69142,1,10,2:0:0:0:
314,120,69251,1,10,2:0:0:0:
69,58,69361,5,14,2:0:0:0:
69,58,69689,6,0,P|126:42|223:34,1,135,14|0,2:0|2:0,2:0:0:0:
400,121,69799,5,6,1:0:0:0:
355,227,69908,1,0,2:0:0:0:
258,294,70018,1,10,2:0:0:0:
136,341,70127,1,0,2:0:0:0:
67,199,70237,2,0,P|27:253|27:320,1,135,2|2,1:0|2:0,2:0:0:0:
274,212,70456,1,10,2:0:0:0:
135,340,70565,2,0,P|244:261|376:239,1,270,0|0,1:0|2:0,2:0:0:0:
464,360,70894,2,0,P|391:362|338:315,1,135,10|0,2:0|2:0,2:0:0:0:
339,138,71112,5,2,1:0:0:0:
409,88,71331,5,10,2:0:0:0:
328,129,71441,1,0,2:0:0:0:
241,159,71550,2,0,P|166:130|106:63,1,135,2|0,1:0|1:0,2:0:0:0:
439,179,71769,2,0,P|500:107|493:30,1,135,10|0,2:0|2:0,2:0:0:0:
187,22,71988,5,2,1:0:0:0:
263,57,72207,5,10,2:0:0:0:
74,163,72317,1,0,1:0:0:0:
0,198,72536,5,0,2:0:0:0:
177,343,72645,2,0,P|244:353|308:334,1,135,10|2,2:0|2:0,2:0:0:0:
178,344,72864,6,0,P|224:269|294:248,2,135,0|0|10,1:0|2:0|2:0,2:0:0:0:
351,260,73193,1,2,1:0:0:0:
176,257,73302,5,10,2:3:0:0:
23,322,73412,1,0,1:0:0:0:
89,257,73521,1,10,2:3:0:0:
191,299,73631,1,0,1:0:0:0:
327,354,73740,2,0,P|448:301|413:56,1,360,6|6,1:0|1:0,2:0:0:0:
380,121,74178,5,2,2:0:0:0:
382,127,74288,1,0,2:0:0:0:
384,133,74397,1,0,2:0:0:0:
386,139,74507,1,0,2:0:0:0:
155,79,74616,6,0,B|186:115|186:115|288:117|344:30,1,216,6|8,1:0|2:0,2:0:0:0:
77,64,74945,1,8,2:3:0:0:
0,28,75054,2,0,P|-1:81|37:175,1,108,0|0,1:0|2:0,2:0:0:0:
144,363,75273,1,8,2:0:0:0:
233,328,75383,1,8,2:3:0:0:
169,252,75492,6,0,P|140:263|114:288,2,54,0|0|0,1:0|2:0|2:0,2:0:0:0:
233,328,75711,1,8,2:0:0:0:
76,188,75821,2,0,B|87:217|87:217|209:290|252:351,1,216,0|8,1:0|2:3,2:0:0:0:
480,208,76149,1,8,2:0:0:0:
480,208,76258,1,0,2:0:0:0:
289,265,76368,6,0,P|333:241|482:307,2,216,0|8|0,1:0|2:0|1:0,2:0:0:0:
416,153,76915,1,0,2:0:0:0:
419,355,77025,1,8,2:0:0:0:
419,355,77134,1,8,2:3:0:0:
306,346,77244,5,2,1:0:0:0:
368,284,77463,5,8,2:0:0:0:
473,86,77572,1,0,1:0:0:0:
512,10,77791,5,8,2:3:0:0:
473,86,77901,2,0,P|445:132|444:197,1,108,10|0,2:0|2:0,2:0:0:0:
260,116,78120,6,0,B|311:27|401:2|401:2|415:51,2,216,2|8|0,1:0|2:0|1:0,2:0:0:0:
409,30,78667,1,0,2:0:0:0:
349,94,78777,2,0,P|327:118|230:123,1,108,8|8,2:0|2:3,2:0:0:0:
123,40,78996,6,0,P|148:24|198:32,2,54,0|0|0,1:0|2:0|2:0,2:0:0:0:
177,110,79215,1,8,2:0:0:0:
46,7,79324,1,0,1:0:0:0:
123,40,79543,5,8,2:3:0:0:
0,253,79653,1,8,2:0:0:0:
0,253,79762,1,0,2:0:0:0:
255,133,79872,6,0,P|117:192|41:179,1,216,2|8,1:0|2:0,2:0:0:0:
0,119,80200,1,0,2:0:0:0:
0,253,80310,2,0,P|109:253|198:314,1,216,0|8,1:0|2:0,2:0:0:0:
195,310,80638,1,8,2:3:0:0:
359,254,80748,6,0,P|385:249|420:267,3,53.9999999999999,0|0|0|0,1:0|2:0|2:0|1:0,2:0:0:0:
283,310,81131,1,0,2:0:0:0:
287,306,81185,2,0,B|310:321|343:239|354:130,1,189,2|0,2:0|2:0,2:0:0:0:
364,58,81623,6,0,B|280:2|201:21|201:21|179:58,2,216,4|8|0,1:0|2:0|1:0,2:0:0:0:
432,121,82171,1,0,2:0:0:0:
268,103,82280,2,0,P|312:71|364:58,1,108,8|8,2:0|2:3,2:0:0:0:
155,193,82499,6,0,P|172:166|174:135,2,54,0|0|0,1:0|2:0|2:0,2:0:0:0:
83,239,82718,1,8,2:0:0:0:
178,58,82828,2,0,B|168:135|116:226|116:226|83:240,1,216,8|8,2:3|2:3,2:0:0:0:
118,0,83156,1,8,2:0:0:0:
118,0,83266,1,0,2:0:0:0:
107,98,83375,6,0,B|60:156|45:266|45:266|12:280,2,216,0|8|0,1:0|2:0|1:0,2:0:0:0:
14,194,83923,1,0,2:0:0:0:
207,333,84032,1,8,2:0:0:0:
207,333,84142,1,8,2:3:0:0:
13,279,84251,5,2,1:0:0:0:
92,332,84470,5,8,2:0:0:0:
289,254,84580,1,0,1:0:0:0:
375,210,84799,5,8,2:3:0:0:
360,300,84908,1,10,2:0:0:0:
375,380,85018,1,8,2:3:0:0:
359,209,85127,6,0,P|422:311|545:389,2,216,2|8|0,1:0|2:0|1:0,2:0:0:0:
368,126,85675,1,0,2:0:0:0:
399,45,85784,1,8,2:0:0:0:
474,7,85894,1,8,2:3:0:0:
368,126,86003,6,0,P|333:135|286:138,2,54,0|0|0,1:0|2:0|2:0,2:0:0:0:
474,7,86222,1,8,2:0:0:0:
461,190,86331,2,0,P|373:142|397:44,1,216,0|8,1:0|2:3,2:0:0:0:
268,214,86660,1,10,2:0:0:0:
268,214,86769,1,0,2:0:0:0:
218,88,86879,6,0,B|239:44|239:44|329:-9|396:44,2,216,0|8|0,1:0|2:0|1:0,2:0:0:0:
190,169,87426,1,0,2:0:0:0:
218,88,87536,2,0,P|163:120|79:110,1,108,8|8,2:0|2:3,2:0:0:0:
21,328,87755,6,0,P|67:366|120:369,1,108,4|0,1:0|2:0,2:0:0:0:
21,328,87919,1,0,2:0:0:0:
25,324,87974,2,0,P|65:303|86:273,2,54,0|0|8,1:0|2:0|2:0,2:0:0:0:
144,36,88193,5,10,2:0:0:0:
105,218,88302,1,10,2:0:0:0:
233,229,88412,1,8,2:3:0:0:
352,188,88521,1,8,2:0:0:0:
419,106,88631,6,0,P|231:108|128:136,1,288,4|8,1:0|2:3,2:0:0:0:
130,117,90492,6,0,P|200:141|255:142,1,126,8|8,2:3|2:3,2:0:0:0:
325,108,91368,6,0,P|266:96|212:59,1,126,0|8,2:0|2:3,2:0:0:0:
298,18,92244,6,0,P|272:167|235:281,1,270,0|8,2:0|2:3,2:0:0:0:
185,346,93996,6,0,P|179:294|152:228,1,117,0|0,2:0|2:0,2:0:0:0:
146,226,94762,5,8,2:3:0:0:
297,227,94981,5,10,2:0:0:0:
376,251,95091,1,0,1:0:0:0:
380,247,95145,1,0,1:0:0:0:
384,243,95200,2,0,P|398:210|400:181,1,54,10|0,2:0|2:0,2:0:0:0:
481,227,95419,6,0,P|495:194|497:165,2,54,0|0|0,2:0|2:0|2:0,2:0:0:0:
489,348,95638,6,0,P|455:360|396:353,1,72,4|8,1:0|2:3,2:0:0:0:
401,349,95857,2,0,P|367:368|308:354,1,72,8|0,2:0|2:0,2:0:0:0:
309,351,96076,2,0,P|278:333|223:346,1,72,8|0,2:3|2:0,2:0:0:0:
221,352,96295,1,8,2:0:0:0:
183,326,96404,2,0,P|150:336|97:331,2,72,8|8|0,2:3|2:3|2:0,2:0:0:0:
36,296,96733,1,8,2:0:0:0:
36,296,96842,2,0,P|63:312|128:316,1,72,8|0,2:3|2:0,2:0:0:0:
253,315,97061,2,0,P|224:314|172:331,1,72,8|8,2:3|2:0,2:0:0:0:
101,215,97499,5,8,2:3:0:0:
186,223,97609,2,0,P|150:223|120:205,2,72,8|0|8,2:0|2:0|2:3,2:0:0:0:
212,207,97937,2,0,P|243:189|298:202,2,72,8|8|8,2:3|2:0|2:3,2:0:0:0:
300,208,98266,1,8,2:3:0:0:
337,181,98375,2,0,P|372:192|408:191,2,72,8|8|8,2:3|2:0|2:3,2:0:0:0:
485,152,98704,1,8,2:3:0:0:
485,152,98813,2,0,P|458:168|393:172,1,72,8|8,2:3|2:0,2:0:0:0:
129,99,99251,5,8,2:3:0:0:
184,164,99361,2,0,P|159:138|150:105,2,72,8|0|8,2:0|2:0|2:3,2:0:0:0:
214,171,99689,2,0,P|248:180|278:228,2,72,8|8|8,2:3|2:0|2:3,2:0:0:0:
275,234,100018,2,0,P|282:287|368:285,1,144,8|8,2:3|2:0,2:0:0:0:
364,298,100346,2,0,P|338:274|321:242,1,72,8|0,2:3|2:0,2:0:0:0:
382,295,100565,1,8,2:3:0:0:
382,295,100675,2,0,P|411:316|446:325,1,72,8|0,2:0|2:0,2:0:0:0:
496,247,100894,5,6,1:0:0:0:
74,160,101112,1,10,2:0:0:0:
474,164,101331,5,10,2:0:0:0:
55,75,101550,1,10,2:0:0:0:
131,44,101660,1,0,2:0:0:0:
213,36,101769,1,2,1:0:0:0:
435,85,101988,5,8,2:0:0:0:
270,95,102098,1,10,2:0:0:0:
394,7,102207,1,0,2:0:0:0:
312,166,102317,1,8,2:0:0:0:
306,173,102372,1,8,2:0:0:0:
300,180,102426,2,0,P|307:229|335:277,1,72,2|8,1:0|2:0,2:0:0:0:
391,156,102645,6,0,P|415:171|490:249,1,108,4|0,1:0|2:0,2:0:0:0:
418,210,102755,2,0,P|418:274|404:334,1,108,0|0,2:0|2:0,2:0:0:0:
441,271,102864,2,0,P|481:323|526:350,1,108,10|0,2:0|2:0,2:0:0:0:
426,336,102974,1,0,2:0:0:0:
381,370,103083,5,10,2:3:0:0:
381,370,103193,1,8,2:3:0:0:
256,335,103302,1,10,2:0:0:0:
256,335,103412,1,0,2:0:0:0:
169,357,103521,1,10,2:3:0:0:
169,357,103631,1,8,2:3:0:0:
224,201,103740,1,10,2:0:0:0:
224,201,103850,1,8,2:3:0:0:
101,304,103959,1,10,2:3:0:0:
101,304,104069,1,8,2:3:0:0:
244,307,104178,1,10,2:0:0:0:
245,307,104288,1,0,2:0:0:0:
27,202,104397,6,0,B|66:164|66:164|160:155|285:235,1,270,6|10,1:0|2:0,2:0:0:0:
337,175,104835,5,10,2:3:0:0:
337,175,104945,1,0,2:0:0:0:
337,331,105054,1,10,2:0:0:0:
337,331,105164,1,0,2:0:0:0:
416,370,105273,1,10,2:3:0:0:
416,370,105383,1,8,2:3:0:0:
402,235,105492,1,10,2:0:0:0:
402,235,105602,1,8,2:3:0:0:
490,237,105711,1,10,2:3:0:0:
490,237,105821,1,8,2:3:0:0:
335,296,105930,1,8,2:0:0:0:
335,296,106040,1,0,2:0:0:0:
483,329,106149,5,4,1:0:0:0:
378,270,106258,1,0,2:0:0:0:
326,161,106368,1,10,2:0:0:0:
386,103,106587,5,10,2:3:0:0:
386,103,106696,1,0,2:0:0:0:
257,242,106806,1,10,2:0:0:0:
257,242,106915,1,0,2:0:0:0:
328,188,107025,1,10,2:3:0:0:
328,188,107134,1,0,2:0:0:0:
186,178,107244,1,10,2:0:0:0:
186,178,107353,1,8,2:3:0:0:
256,118,107463,1,10,2:3:0:0:
256,118,107572,1,8,2:3:0:0:
170,264,107682,1,10,2:0:0:0:
170,264,107791,1,0,2:0:0:0:
178,76,107901,6,0,P|203:136|200:365,1,270,6|10,1:0|2:0,2:0:0:0:
287,375,108339,5,10,2:3:0:0:
287,375,108448,1,0,2:0:0:0:
192,355,108558,1,10,2:0:0:0:
192,355,108667,1,0,2:0:0:0:
95,292,108777,1,10,2:3:0:0:
95,292,108886,1,8,2:3:0:0:
105,132,108996,1,10,2:0:0:0:
105,132,109105,1,8,2:3:0:0:
53,57,109215,1,10,2:3:0:0:
53,57,109324,1,8,2:3:0:0:
120,0,109434,1,10,2:0:0:0:
120,0,109543,1,10,2:3:0:0:
44,220,109653,5,4,1:0:0:0:
124,113,109762,1,0,2:0:0:0:
245,56,109872,1,10,2:0:0:0:
144,214,110091,5,10,2:3:0:0:
144,214,110200,1,0,2:0:0:0:
220,147,110310,1,10,2:0:0:0:
220,147,110419,1,0,2:0:0:0:
313,124,110529,6,0,P|128:90|26:45,1,270,6|10,1:0|2:0,2:0:0:0:
353,52,110857,1,0,2:0:0:0:
437,31,110967,5,10,2:3:0:0:
437,31,111076,1,0,2:0:0:0:
481,142,111185,1,10,2:0:0:0:
481,142,111295,1,0,2:0:0:0:
412,232,111404,6,0,P|286:254|220:146,1,270,6|10,1:0|2:0,2:0:0:0:
200,313,111842,5,10,2:3:0:0:
200,313,111952,1,0,2:0:0:0:
256,233,112061,1,10,2:0:0:0:
256,233,112171,1,0,2:0:0:0:
219,146,112280,6,0,B|117:162|26:244|26:244|6:312,1,270,6|10,1:0|2:0,2:0:0:0:
60,48,112609,1,0,2:0:0:0:
127,115,112718,5,10,2:3:0:0:
127,115,112828,1,0,2:0:0:0:
121,216,112937,1,10,2:0:0:0:
121,216,113047,1,0,2:0:0:0:
91,312,113156,6,0,P|167:318|230:360,1,135,2|0,1:0|2:0,2:0:0:0:
431,306,113375,1,8,2:0:0:0:
431,306,113485,1,0,2:0:0:0:
431,306,113594,2,0,P|370:314|316:397,1,135,2|0,1:0|2:0,2:0:0:0:
223,165,113813,1,10,2:0:0:0:
223,165,113923,1,0,2:0:0:0:
223,165,114032,2,0,P|270:244|274:299,1,135,2|0,1:0|2:0,2:0:0:0:
509,102,114251,1,8,2:0:0:0:
509,102,114361,1,0,2:0:0:0:
509,102,114470,2,0,P|474:165|460:274,1,135,2|0,1:0|2:0,2:0:0:0:
185,22,114689,1,10,2:0:0:0:
185,22,114908,6,0,B|206:58|206:58|274:109|426:57,1,270.000010299683,6|0,1:0|2:0,2:0:0:0:
102,40,115237,1,10,2:0:0:0:
80,124,115346,2,0,P|90:178|200:241,1,135,2|0,1:0|2:0,2:0:0:0:
410,193,115565,2,0,P|394:259|343:344,1,135,10|0,2:0|2:0,2:0:0:0:
57,361,115784,1,2,1:0:0:0:
146,317,115894,1,8,2:0:0:0:
262,299,116003,2,0,P|181:316|119:361,1,135,10|0,2:3|2:0,2:0:0:0:
363,318,116222,6,0,B|325:297|325:297|268:103|217:72,2,270,10|10|6,2:0|2:0|2:0,2:0:0:0:
512,384,122791,6,0,P|492:379|467:364,1,36,0|0,1:0|2:0,2:0:0:0:
410,325,123120,6,0,P|420:312|420:283,1,36,0|0,1:0|1:0,2:0:0:0:
415,279,123229,2,0,P|340:184|336:147,1,144,8|8,2:0|2:3,2:0:0:0:
345,80,123667,6,0,P|315:276|32:164,1,540,12|10,2:3|2:3,2:0:0:0:
266,43,124215,1,0,2:0:0:0:
175,46,124324,1,8,2:3:0:0:
108,111,124434,1,8,2:3:0:0:
62,190,124543,6,0,P|176:320|271:334,2,270,14|10|10,2:3|2:0|2:3,2:0:0:0:
108,111,125091,1,0,2:0:0:0:
192,73,125200,1,10,2:3:0:0:
284,71,125310,1,8,2:3:0:0:
363,123,125419,6,0,P|358:269|231:338,2,270,14|10|10,2:3|2:0|2:3,2:0:0:0:
284,71,125967,1,0,2:0:0:0:
193,96,126076,1,10,2:3:0:0:
153,182,126185,1,8,2:3:0:0:
219,248,126295,6,0,P|255:233|468:87,2,270,14|10|10,2:3|2:0|2:3,2:0:0:0:
153,182,126842,1,0,2:0:0:0:
69,157,126952,1,8,2:3:0:0:
69,157,127061,1,8,2:3:0:0:
69,157,127171,6,0,P|35:219|43:326,1,135,12|0,2:3|2:0,2:0:0:0:
100,58,127390,2,0,P|119:123|152:182,1,135,10|0,2:0|2:0,2:0:0:0:
18,10,127609,5,10,2:3:0:0:
51,47,127718,1,0,2:0:0:0:
93,75,127828,1,8,2:3:0:0:
142,89,127937,1,10,2:3:0:0:
192,89,128047,6,0,P|302:69|401:16,1,202.5,14|0,2:3|2:0,2:0:0:0:
266,46,128266,2,0,P|344:52|508:9,1,202.5,10|0,2:0|2:0,2:0:0:0:
315,141,128485,5,10,2:0:0:0:
282,187,128594,1,8,2:3:0:0:
265,243,128704,1,10,2:3:0:0:
266,298,128813,1,8,2:3:0:0:
282,352,128923,2,0,P|445:274|477:159,1,270,14|10,2:3|2:0,2:0:0:0:
432,126,129251,1,0,2:0:0:0:
350,96,129361,5,10,2:3:0:0:
328,191,129470,1,8,2:3:0:0:
260,264,129580,1,10,2:3:0:0:
171,302,129689,1,8,2:3:0:0:
80,281,129799,5,2,1:0:0:0:
60,121,129945,5,8,2:0:0:0:
240,104,130091,5,8,2:0:0:0:
260,264,130237,6,0,P|256:335|228:380,1,108,8|0,2:3|2:0,2:0:0:0:
266,366,130675,6,0,P|221:290|256:249,1,135,6|0,1:0|2:0,2:0:0:0:
387,261,130894,2,0,P|434:216|429:151,1,135,8|0,2:0|2:0,2:0:0:0:
158,226,131112,1,0,1:0:0:0:
116,150,131222,1,0,2:0:0:0:
138,67,131331,1,8,2:0:0:0:
208,14,131441,1,8,2:3:0:0:
294,13,131550,6,0,P|348:95|382:313,1,270,8|8,2:3|2:0,2:0:0:0:
55,87,131879,1,8,2:3:0:0:
116,150,131988,1,8,2:3:0:0:
197,192,132098,1,8,2:3:0:0:
197,192,132207,2,0,P|278:188|336:144,1,135,10|0,2:0|2:0,2:0:0:0:
329,57,132426,6,0,P|311:189|224:289,1,270,6|0,1:0|2:0,2:0:0:0:
144,266,132645,6,0,P|230:187|107:36,1,337.5,4|0,1:0|2:0,2:0:0:0:
179,100,132864,6,0,P|240:269|66:307,1,405,4|0,1:0|2:0,2:0:0:0:
266,366,133083,6,0,P|444:336|201:124,1,720,4|0,1:0|2:0,2:0:0:0:
302,210,140638,6,0,P|309:202|311:174,1,22.5,0|0,1:0|1:0,2:0:0:0:
303,171,140748,2,0,P|251:198|146:223,1,135,10|0,2:0|2:0,2:0:0:0:
101,153,141185,6,0,P|130:198|179:220,1,108,8|0,2:3|2:0,2:0:0:0:
167,98,141514,1,0,2:0:0:0:
167,98,141623,2,0,P|133:135|62:137,1,108,8|0,2:0|1:0,2:0:0:0:
10,100,141952,1,0,2:0:0:0:
44,142,142061,2,0,P|64:167|71:212,1,53.9999999999999,8|8,2:3|2:3,2:0:0:0:
78,274,142280,1,0,2:0:0:0:
70,312,142390,1,0,2:0:0:0:
52,348,142499,1,8,2:0:0:0:
156,326,142718,5,0,1:0:0:0:
180,338,142828,1,8,2:0:0:0:
220,330,142937,2,0,P|268:308|308:249,1,108,8|0,2:3|1:0,2:0:0:0:
301,265,143266,1,0,2:0:0:0:
301,265,143375,2,0,P|352:248|369:180,1,108,8|8,2:0|2:0,2:0:0:0:
321,132,143704,1,8,2:3:0:0:
285,119,143813,2,0,P|255:127|243:162,1,53.9999999999999,0|8,1:0|2:0,2:0:0:0:
374,66,144032,5,0,1:0:0:0:
414,55,144142,1,0,1:0:0:0:
453,79,144251,2,0,P|480:127|491:197,1,108,8|0,2:0|1:0,2:0:0:0:
449,248,144580,1,8,2:0:0:0:
475,326,144689,1,8,2:3:0:0:
393,319,146003,2,0,L|387:373,1,53.9999999999999,10|0,2:3|2:0,2:0:0:0:
468,379,146222,2,0,L|475:326,1,53.9999999999999,10|0,2:3|2:0,2:0:0:0:
512,137,146441,6,0,B|414:187|345:298|345:298|277:324,2,279,6|8|2,1:0|2:0|1:0,2:0:0:0:
437,229,146988,1,2,1:0:0:0:
326,271,147098,1,8,2:0:0:0:
209,298,147207,1,0,2:0:0:0:
92,310,147317,2,0,P|176:282|268:292,2,139.5,2|0|10,1:0|2:0|2:0,2:0:0:0:
147,97,147645,1,0,1:0:0:0:
236,130,147755,2,0,B|154:197|154:197|120:199,1,139.5,2|0,2:0|2:0,2:0:0:0:
42,238,147974,5,10,2:0:0:0:
10,154,148083,1,2,2:0:0:0:
34,68,148193,2,0,B|82:109|82:109|297:159,1,279,2|10,1:0|2:0,2:0:0:0:
397,122,148521,1,0,2:0:0:0:
321,80,148631,1,2,1:0:0:0:
321,80,148740,1,0,1:0:0:0:
177,285,148850,1,10,2:0:0:0:
258,324,148959,1,0,2:0:0:0:
339,363,149069,2,0,B|407:382|407:382|514:339,1,139.5,2|0,1:0|2:0,2:0:0:0:
368,206,149288,1,10,2:0:0:0:
385,289,149397,1,0,1:0:0:0:
465,264,149507,2,0,B|494:230|494:230|513:138,1,139.5,2|0,2:0|2:0,2:0:0:0:
446,19,149726,5,10,2:0:0:0:
351,101,149835,1,2,2:0:0:0:
229,136,149945,2,0,P|240:66|314:32,1,139.5,2|0,1:0|2:0,2:0:0:0:
458,29,150164,5,10,2:0:0:0:
435,108,150273,1,2,2:0:0:0:
347,118,150383,1,2,1:0:0:0:
298,189,150492,1,2,1:0:0:0:
221,154,150602,2,0,P|156:141|53:173,1,139.5,10|10,2:0|2:3,2:0:0:0:
28,370,150821,6,0,P|83:282|117:45,1,279,2|10,1:0|2:0,2:0:0:0:
111,336,151149,1,2,1:0:0:0:
28,370,151258,2,0,B|119:343|233:264|233:264|284:270,1,279,2|10,2:0|2:0,2:0:0:0:
210,327,151587,1,2,2:0:0:0:
291,362,151696,6,0,B|327:360|327:360|466:311,1,139.5,2|0,1:0|2:0,2:0:0:0:
512,207,151915,1,10,2:0:0:0:
503,293,152025,1,0,2:0:0:0:
430,195,152134,2,0,B|402:260|402:260|424:326,1,139.5,2|0,1:0|2:0,2:0:0:0:
397,116,152353,1,10,2:0:0:0:
233,154,152463,1,10,2:3:0:0:
109,264,152572,5,2,1:0:0:0:
289,286,152682,1,8,2:0:0:0:
148,194,152791,1,10,2:3:0:0:
312,194,152901,1,8,2:3:0:0:
154,116,153010,1,8,2:3:0:0:
362,111,153120,1,8,2:3:0:0:
512,0,153229,1,8,2:0:0:0:
275,71,153339,1,8,2:0:0:0:
38,12,153448,5,12,2:0:0:0:
42,16,153777,6,0,B|6:77|6:77|16:172,1,139.5,14|0,2:0|2:0,2:0:0:0:
291,360,153886,5,6,1:0:0:0:
390,329,153996,1,0,2:0:0:0:
408,233,154105,1,10,2:0:0:0:
364,140,154215,1,0,2:0:0:0:
424,62,154324,2,0,B|406:128|406:128|447:189,1,139.5,2|2,1:0|2:0,2:0:0:0:
198,190,154543,1,10,2:0:0:0:
291,360,154653,2,0,B|327:230|327:230|247:111,1,279,8|0,3:0|2:0,2:0:0:0:
62,244,154981,5,10,2:0:0:0:
124,313,155091,1,0,2:0:0:0:
202,357,155200,2,0,B|117:284|87:157|87:157|118:103,2,279,2|10|2,1:0|2:0|1:0,2:0:0:0:
202,357,155748,1,0,1:0:0:0:
40,327,155857,1,10,2:0:0:0:
15,224,155967,1,0,2:0:0:0:
11,118,156076,6,0,B|40:93|40:93|231:62|231:62|175:39,1,279,2|10,1:0|2:0,2:0:0:0:
115,0,156404,1,0,1:0:0:0:
287,137,156514,2,0,B|311:136|311:136|455:53|455:53|346:83,1,279,2|10,2:0|2:0,2:0:0:0:
214,243,156842,2,0,B|281:230|281:230|215:196,1,139.5,2|0,2:0|1:0,2:0:0:0:
335,298,157061,1,0,2:0:0:0:
439,220,157171,2,0,B|395:284|395:284|335:298,1,139.5,10|2,2:0|1:0,2:0:0:0:
239,327,157390,5,10,2:3:0:0:
132,334,157499,1,0,1:0:0:0:
41,280,157609,1,10,2:3:0:0:
12,181,157718,1,0,1:0:0:0:
30,79,157828,2,0,B|5:353|5:353|102:363,1,365.4,6|6,1:0|1:0,2:0:0:0:
508,356,158704,6,0,B|467:312|467:312|430:129,2,243,6|8|0,1:0|2:0|1:0,2:0:0:0:
476,63,159251,1,0,1:0:0:0:
447,143,159361,1,8,2:0:0:0:
415,222,159470,1,0,2:0:0:0:
415,222,159580,2,0,B|338:207|332:289|244:314,1,182.25,0|0,1:0|2:0,2:0:0:0:
238,301,159799,1,8,2:0:0:0:
151,197,159908,2,0,P|173:257|205:403,1,182.25,0|0,1:0|2:0,2:0:0:0:
181,370,160127,1,0,2:0:0:0:
247,210,160237,2,0,B|277:156|277:156|258:100,1,121.5,8|0,2:0|2:0,2:0:0:0:
97,25,160456,6,0,B|34:137|34:137|74:254,2,243,0|8|0,1:0|2:0|1:0,2:0:0:0:
179,60,161003,1,0,2:0:0:0:
257,99,161112,1,8,2:0:0:0:
341,70,161222,1,0,2:0:0:0:
425,41,161331,1,0,1:0:0:0:
255,383,161550,1,10,2:0:0:0:
196,243,161660,2,0,P|181:288|170:378,1,121.5,0|2,1:0|2:0,2:0:0:0:
512,179,161988,2,0,P|486:280|408:285,1,182.25,10|0,2:0|2:0,2:0:0:0:
411,273,162207,6,0,B|221:343|221:343|153:338,1,243,0|8,1:0|2:0,2:0:0:0:
34,223,162536,1,0,2:0:0:0:
34,223,162645,2,0,B|62:243|62:243|102:327,1,121.5,0|0,1:0|2:0,2:0:0:0:
10,138,162864,1,8,2:0:0:0:
46,59,162974,1,0,2:0:0:0:
96,145,163083,2,0,P|182:177|318:181,1,182.25,0|0,1:0|2:0,2:0:0:0:
289,185,163302,1,8,2:0:0:0:
251,286,163412,2,0,B|338:241|264:168|401:153,1,182.25,0|0,1:0|2:0,2:0:0:0:
392,159,163631,1,0,2:0:0:0:
447,344,163740,2,0,P|370:278|444:241,1,182.25,8|0,2:0|2:0,2:0:0:0:
424,253,163959,6,0,B|458:240|458:240|499:57|499:57|456:78,2,243,0|8|0,1:0|2:0|1:0,2:0:0:0:
419,8,164507,1,0,1:0:0:0:
366,73,164616,2,0,L|222:110,1,121.5,8|0,2:0|2:0,2:0:0:0:
71,132,164835,6,0,B|103:137|103:137|142:240|142:240|184:247,1,182.25,0|0,1:0|2:0,2:0:0:0:
205,246,165054,1,8,2:0:0:0:
58,243,165164,2,0,B|94:213|94:213|136:60|136:60|177:96,1,243,0|0,1:0|2:0,2:0:0:0:
195,329,165492,2,0,B|146:365|146:365|68:348,1,121.5,8|0,2:0|2:0,2:0:0:0:
269,187,165711,6,0,B|364:249|364:249|473:217,2,225,4|8|2,1:0|2:0|1:0,2:0:0:0:
349,142,166258,1,0,2:0:0:0:
341,234,166368,2,0,B|326:290|326:290|274:331,1,112.5,10|0,2:0|2:0,2:0:0:0:
435,140,166587,1,0,1:0:0:0:
435,140,166696,1,0,2:0:0:0:
457,55,166806,1,8,2:0:0:0:
387,6,166915,2,0,B|268:-8|207:44|207:44|240:104,1,225,0|0,1:0|2:0,2:0:0:0:
18,98,167244,2,0,B|64:91|64:91|170:150,1,168.75,10|0,2:0|2:0,2:0:0:0:
171,134,167463,6,0,B|117:170|117:170|76:286|76:286|32:253,1,225,0|8,1:0|2:0,2:0:0:0:
46,263,167791,1,0,2:0:0:0:
136,352,167901,1,0,1:0:0:0:
223,332,168010,1,0,1:0:0:0:
310,312,168120,1,8,2:0:0:0:
397,292,168229,1,0,2:0:0:0:
484,272,168339,5,0,1:0:0:0:
411,201,168448,2,0,B|391:251|391:251|410:307,1,112.5,0|8,2:0|2:0,2:0:0:0:
488,164,168667,1,2,1:0:0:0:
411,201,168777,2,0,B|392:145|392:145|412:95,1,112.5,0|0,2:0|2:0,2:0:0:0:
424,12,168996,2,0,B|344:-1|351:78|254:65,1,168.75,10|0,2:0|2:0,2:0:0:0:
251,52,169215,6,0,P|275:132|282:319,2,225,0|8|0,1:0|2:0|1:0,2:0:0:0:
227,139,169762,1,0,1:0:0:0:
181,218,169872,1,8,2:0:0:0:
115,275,169981,1,0,2:0:0:0:
48,326,170091,2,0,L|310:373,1,225,0|8,1:0|2:0,2:0:0:0:
486,241,170419,2,0,L|224:288,1,225,0|0,1:0|2:0,2:0:0:0:
12,248,170748,2,0,B|-4:197|-4:197|14:132,1,112.5,8|0,2:0|2:0,2:0:0:0:
48,62,170967,6,0,B|70:134|70:134|113:172,1,112.5,0|0,1:0|2:0,2:0:0:0:
105,317,171185,2,0,B|127:244|127:244|170:207,1,112.5,8|0,2:0|2:0,2:0:0:0:
287,4,171404,1,0,1:0:0:0:
348,73,171514,1,0,2:0:0:0:
259,91,171623,1,8,2:0:0:0:
198,22,171733,1,0,2:0:0:0:
348,73,171842,5,8,2:0:0:0:
193,148,171952,1,0,1:0:0:0:
174,242,172061,1,8,2:3:0:0:
184,271,172171,6,0,B|234:264|234:264|298:188|438:90,1,303.750000000001,8|0,2:3|2:0,2:0:0:0:
151,360,172718,22,1,B|270:382|360:302|360:302|244:297|184:271,1,405.000015449524,12|8,2:3|2:0,0:0:0:0:
64,188,173047,1,0,0:0:0:0:
64,188,173156,6,0,L|0:208,1,67.5000000000002,10|8,2:3|2:3,2:0:0:0:
150,187,173375,2,0,L|75:211,3,67.5000000000002,8|8|8|8,2:0|2:3|2:3|2:3,2:0:0:0:
227,136,173813,2,0,L|152:160,3,67.5000000000002,8|8|8|8,2:0|2:3|2:3|2:3,2:0:0:0:
316,87,174251,1,8,2:0:0:0:
316,87,174361,1,8,2:3:0:0:
334,223,174470,6,0,B|332:202|411:336|237:198|224:65,2,202.5,12|0|8,2:3|2:0|2:0,2:0:0:0:
64,188,174908,6,0,L|-11:212,1,67.5000000000002,8|8,2:3|2:3,2:0:0:0:
150,187,175127,1,8,2:0:0:0:
150,187,175237,2,0,L|75:211,2,67.5000000000002,8|8|8,2:3|2:3|2:3,2:0:0:0:
227,136,175565,1,10,2:0:0:0:
227,136,175675,2,0,L|152:160,2,67.5000000000002,8|10|10,2:3|2:3|2:3,2:0:0:0:
290,76,176003,2,0,L|335:146,1,67.5000000000002,10|8,2:0|2:3,2:0:0:0:
359,226,176222,5,12,2:3:0:0:
312,303,176331,1,0,2:0:0:0:
235,339,176441,2,0,P|133:339|42:265,1,202.5,8|0,2:0|2:0,2:0:0:0:
64,188,176660,6,0,L|-11:212,1,67.5000000000002,8|8,2:3|2:3,2:0:0:0:
150,187,176879,1,8,2:0:0:0:
93,111,176988,1,8,2:3:0:0:
93,111,177098,1,8,2:3:0:0:
93,111,177207,1,8,2:3:0:0:
227,136,177317,1,8,2:0:0:0:
227,136,177426,2,0,L|152:160,2,67.5000000000002,8|8|8,2:3|2:3|2:3,2:0:0:0:
290,76,177755,2,0,L|354:55,1,67.5000000000002,8|8,2:0|2:3,2:0:0:0:
439,37,177974,5,12,2:3:0:0:
421,136,178083,1,0,2:0:0:0:
396,240,178193,2,0,B|277:331|277:331|189:353,1,202.5,8|0,2:0|2:0,2:0:0:0:
64,188,178412,5,8,2:3:0:0:
64,188,178521,1,8,2:3:0:0:
150,187,178631,1,8,2:0:0:0:
93,111,178740,1,8,2:3:0:0:
93,111,178850,1,8,2:3:0:0:
93,111,178959,1,8,2:3:0:0:
227,136,179069,1,10,2:0:0:0:
170,60,179178,1,0,1:0:0:0:
170,60,179288,1,8,2:3:0:0:
170,60,179397,1,0,1:0:0:0:
290,76,179507,2,0,P|325:68|354:55,1,67.5000000000002,10|0,2:0|1:0,2:0:0:0:
434,157,179726,6,0,P|324:169|309:319,1,270,12|10,2:3|2:0,2:0:0:0:
390,344,180164,5,10,2:3:0:0:
390,344,180273,1,8,2:3:0:0:
390,344,180383,2,0,L|293:354,1,67.5000000000002,10|0,2:0|2:0,2:0:0:0:
217,330,180602,1,10,2:3:0:0:
217,330,180711,1,0,2:0:0:0:
217,330,180821,2,0,L|120:340,1,67.5000000000002,10|8,2:0|2:3,2:0:0:0:
44,316,181040,1,8,2:3:0:0:
44,316,181149,1,8,2:3:0:0:
113,261,181258,1,10,2:0:0:0:
113,261,181368,1,8,2:3:0:0:
80,129,181477,6,0,B|108:95|108:95|356:32,1,270,14|10,2:3|2:0,2:0:0:0:
326,39,181806,1,0,2:0:0:0:
326,39,181915,6,0,L|308:115,1,67.5000000000002,10|0,2:3|2:0,2:0:0:0:
233,138,182134,2,0,L|241:216,1,67.5000000000002,10|0,2:0|2:0,2:0:0:0:
404,104,182353,2,0,L|371:175,1,67.5000000000002,10|8,2:3|2:3,2:0:0:0:
320,231,182572,2,0,L|392:254,1,67.5000000000002,10|8,2:0|2:3,2:0:0:0:
474,222,182791,1,10,2:3:0:0:
474,222,182901,1,8,2:3:0:0:
474,222,183010,1,8,2:0:0:0:
474,222,183120,1,0,2:0:0:0:
427,328,183229,6,0,B|292:354|292:354|172:298,1,270,12|10,2:3|2:0,2:0:0:0:
150,221,183667,5,10,2:3:0:0:
150,221,183777,1,0,2:0:0:0:
152,305,183886,2,0,L|71:329,1,67.5000000000002,10|0,2:0|2:0,2:0:0:0:
17,278,184105,1,8,2:3:0:0:
17,278,184215,1,0,2:0:0:0:
62,205,184324,2,0,L|91:119,1,67.5000000000002,10|10,2:0|2:3,2:0:0:0:
24,81,184543,1,8,2:3:0:0:
24,81,184653,1,8,2:3:0:0:
86,21,184762,2,0,L|164:74,1,67.5000000000002,10|8,2:0|2:3,2:0:0:0:
210,114,184981,6,0,B|263:131|307:131|339:78|314:33|387:10|456:43,1,270,14|10,2:3|2:0,2:0:0:0:
467,179,185310,1,0,2:0:0:0:
403,120,185419,5,10,2:3:0:0:
403,120,185529,1,0,2:0:0:0:
382,201,185638,2,0,P|350:212|317:216,1,67.5000000000002,10|0,2:0|2:0,2:0:0:0:
196,221,185857,2,0,P|218:246|244:266,1,67.5000000000002,10|8,2:3|2:3,2:0:0:0:
401,322,186076,1,10,2:0:0:0:
320,300,186185,1,8,2:3:0:0:
252,352,186295,2,0,P|183:343|116:318,1,135,10|8,2:3|2:0,2:0:0:0:
50,273,186623,1,0,2:0:0:0:
10,187,186733,6,0,P|55:63|178:21,1,270,4|10,1:0|2:0,2:0:0:0:
177,20,187061,1,0,2:0:0:0:
208,112,187171,5,10,2:3:0:0:
208,112,187280,1,0,2:0:0:0:
145,176,187390,1,10,2:0:0:0:
145,176,187499,1,0,2:0:0:0:
285,72,187609,6,0,P|370:170|346:299,1,270,6|10,1:0|2:0,2:0:0:0:
138,365,187937,1,0,2:0:0:0:
166,285,188047,5,10,2:3:0:0:
166,285,188156,1,0,2:0:0:0:
233,337,188266,2,0,P|275:358|323:365,1,67.5000000000002,10|0,2:0|2:0,2:0:0:0:
419,352,188485,6,0,P|493:215|486:87,1,270,6|10,1:0|2:0,2:0:0:0:
266,43,188813,1,0,2:0:0:0:
325,100,188923,5,10,2:3:0:0:
409,118,189032,1,0,2:0:0:0:
486,92,189142,1,10,2:0:0:0:
418,141,189251,1,0,2:0:0:0:
342,182,189361,6,0,P|199:201|26:171,1,270,6|10,1:0|2:0,2:0:0:0:
38,41,189689,1,8,2:3:0:0:
19,123,189799,5,10,2:3:0:0:
98,147,189908,1,8,2:3:0:0:
151,214,190018,1,10,2:0:0:0:
137,300,190127,1,8,2:3:0:0:
73,352,190237,5,2,1:0:0:0:
73,352,190346,1,0,2:0:0:0:
73,352,190456,2,0,L|8:224,1,135,8|0,2:0|2:0,2:0:0:0:
406,338,190675,1,2,1:0:0:0:
406,338,190784,1,0,2:0:0:0:
483,359,190894,2,0,L|516:214,1,135,10|0,2:0|2:0,2:0:0:0:
202,361,191112,1,2,1:0:0:0:
206,365,191222,1,0,2:0:0:0:
210,369,191331,2,0,P|213:304|254:227,1,135,8|0,2:0|2:0,2:0:0:0:
404,159,191550,1,2,1:0:0:0:
404,159,191660,1,0,2:0:0:0:
485,145,191769,2,0,P|467:88|423:27,1,135.000005149842,10|0,2:0|2:0,2:0:0:0:
125,236,191988,6,0,B|252:286|252:286|417:221,1,270,6|10,1:0|2:0,2:0:0:0:
353,80,192317,1,10,2:0:0:0:
270,58,192426,2,0,B|128:102|128:102|86:176,1,202.5,2|0,1:0|2:0,2:0:0:0:
112,53,192645,2,0,B|244:152|244:152|282:156,1,202.5,10|0,2:0|2:0,2:0:0:0:
302,156,192864,5,2,1:0:0:0:
293,242,192974,2,0,P|159:326|45:278,1,270,8|0,2:0|2:0,2:0:0:0:
0,0,193302,1,10,2:0:0:0:
256,384,193521,1,10,2:3:0:0:
512,0,193740,1,10,2:3:0:0:
440,350,196149,6,1,B|458:345|502:274|502:274|462:254|462:254|511:207|499:147|499:147|466:157|466:157|417:55|374:41|374:41|367:118|367:118|265:39|182:41|182:41|230:115|230:115|78:86|46:181|46:181|76:179,1,1065.6,4|0,2:0|2:0,2:0:0:0:
