osu file format v14

[General]
AudioFilename: audio.mp3
AudioLeadIn: 0
PreviewTime:62299
Countdown: 0
SampleSet: Soft
StackLeniency: 1
Mode: 0
LetterboxInBreaks: 0
WidescreenStoryboard: 1

[Editor]
Bookmarks: 1040,13302,34324,48339,74616,88631,102645,116660,134178,146441,158704,172718
DistanceSpacing: 0.7
BeatDivisor: 2
GridSize: 32
TimelineZoom: 0.9000001

[Metadata]
Title:Lost Umbrella
TitleUnicode:ロストアンブレラ
Artist:inabakumori
ArtistUnicode:稲葉曇
Creator:Ryuusei Aika
Version:Houshou Hari's Normal
Source:
Tags:Houshou Hari [Hatsune Miku] [Hatsune_Miku] Hatsune Miku kanor bongo kusano EvilElvis Evil Elvis Jounzan Natteke desu Natteke_desu SMOKELIND 稻叶昙 歌愛ユキ ボーカロイド Kaai Yuki Vocaloid Vocalsynth Female Vocal Japanese Rock Pop J-Rock JRock J-Pop JPop
BeatmapID:3017193
BeatmapSetID:1455997

[Difficulty]
HPDrainRate:4
CircleSize:3
OverallDifficulty:4
ApproachRate:5
SliderMultiplier:0.799999999999999
SliderTickRate:1

[Events]
//Background and Video events
0,0,"BG.png",0,0
//Break Periods
2,13502,19110
2,74815,79548
2,81385,86555
2,116859,122467
2,193939,194949
//Storyboard Layer 0 (Background)
//Storyboard Layer 1 (Fail)
//Storyboard Layer 2 (Pass)
//Storyboard Layer 3 (Foreground)
//Storyboard Layer 4 (Overlay)
//Storyboard Sound Samples

[TimingPoints]
1040,218.978102189781,4,2,77,47,1,0
8047,-100,4,2,77,57,0,0
11741,-100,4,2,77,5,0,0
11768,-100,4,2,77,57,0,0
12426,-100,4,2,77,77,0,0
13302,-100,4,2,77,57,0,0
20036,-100,4,2,77,5,0,0
20091,-100,4,2,77,57,0,0
20310,-100,4,2,77,77,0,0
20501,-100,4,2,77,5,0,0
20528,-100,4,2,77,77,0,0
27508,-100,4,2,77,5,0,0
27535,-100,4,2,77,77,0,0
34324,-100,4,2,77,67,0,0
48339,-100,4,2,77,77,0,0
48503,-100,4,2,77,5,0,0
48558,-100,4,2,77,77,0,0
48722,-100,4,2,77,5,0,0
48777,-100,4,2,77,77,0,0
48941,-100,4,2,77,5,0,0
48996,-100,4,2,77,77,0,0
49160,-100,4,2,77,5,0,0
49215,-100,4,2,77,77,0,0
49379,-100,4,2,77,5,0,0
49434,-100,4,2,77,77,0,0
49598,-100,4,2,77,5,0,0
49653,-100,4,2,77,77,0,0
49817,-100,4,2,77,5,0,0
49872,-100,4,2,77,77,0,0
50036,-100,4,2,77,5,0,0
50091,-100,4,2,77,77,0,0
50255,-100,4,2,77,5,0,0
50310,-100,4,2,77,77,0,0
50474,-100,4,2,77,5,0,0
50529,-100,4,2,77,77,0,0
50693,-100,4,2,77,5,0,0
50748,-100,4,2,77,77,0,0
50912,-100,4,2,77,5,0,0
50967,-100,4,2,77,77,0,0
51131,-100,4,2,77,5,0,0
51186,-100,4,2,77,77,0,0
51350,-100,4,2,77,5,0,0
51405,-100,4,2,77,77,0,0
51568,-100,4,2,77,5,0,0
51623,-100,4,2,77,77,0,0
51788,-100,4,2,77,5,0,0
51843,-100,4,2,77,77,0,0
52006,-100,4,2,77,5,0,0
52061,-100,4,2,77,77,0,0
52225,-100,4,2,77,5,0,0
52280,-100,4,2,77,77,0,0
52444,-100,4,2,77,5,0,0
52499,-100,4,2,77,77,0,0
52663,-100,4,2,77,5,0,0
52718,-100,4,2,77,77,0,0
52883,-100,4,2,77,5,0,0
52938,-100,4,2,77,77,0,0
53102,-100,4,2,77,5,0,0
53157,-100,4,2,77,77,0,0
53321,-100,4,2,77,5,0,0
53376,-100,4,2,77,77,0,0
53539,-100,4,2,77,5,0,0
53594,-100,4,2,77,77,0,0
53758,-100,4,2,77,5,0,0
53813,-100,4,2,77,77,0,0
53977,-100,4,2,77,5,0,0
54032,-100,4,2,77,77,0,0
54196,-100,4,2,77,5,0,0
54251,-100,4,2,77,77,0,0
54415,-100,4,2,77,5,0,0
54470,-100,4,2,77,77,0,0
54634,-100,4,2,77,5,0,0
54689,-100,4,2,77,77,0,0
54853,-100,4,2,77,5,0,0
54908,-100,4,2,77,77,0,0
55072,-100,4,2,77,5,0,0
55127,-100,4,2,77,77,0,0
55291,-100,4,2,77,5,0,0
55346,-100,4,2,77,77,0,0
55510,-100,4,2,77,5,0,0
55565,-100,4,2,77,77,0,0
55729,-100,4,2,77,5,0,0
55784,-100,4,2,77,77,0,0
55948,-100,4,2,77,5,0,0
56003,-100,4,2,77,77,0,0
56167,-100,4,2,77,5,0,0
56222,-100,4,2,77,77,0,0
56386,-100,4,2,77,5,0,0
56441,-100,4,2,77,77,0,0
56605,-100,4,2,77,5,0,0
56660,-100,4,2,77,77,0,0
56824,-100,4,2,77,5,0,0
56879,-100,4,2,77,77,0,0
57043,-100,4,2,77,5,0,0
57098,-100,4,2,77,77,0,0
57262,-100,4,2,77,5,0,0
57317,-100,4,2,77,77,0,0
57481,-100,4,2,77,5,0,0
57536,-100,4,2,77,77,0,0
57700,-100,4,2,77,5,0,0
57755,-100,4,2,77,77,0,0
57919,-100,4,2,77,5,0,0
57974,-100,4,2,77,77,0,0
58138,-100,4,2,77,5,0,0
58193,-100,4,2,77,77,0,0
58357,-100,4,2,77,5,0,0
58412,-100,4,2,77,77,0,0
58576,-100,4,2,77,5,0,0
58631,-100,4,2,77,77,0,0
58795,-100,4,2,77,5,0,0
58850,-100,4,2,77,77,0,0
59671,-100,4,2,77,5,0,0
59726,-100,4,2,77,77,0,0
60547,-100,4,2,77,5,0,0
60602,-100,4,2,77,77,0,0
61423,-100,4,2,77,5,0,0
61477,-100,4,2,77,77,0,0
62353,-100,4,2,77,87,0,1
64296,-100,4,2,77,5,0,1
64323,-100,4,2,77,87,0,1
66924,-100,4,2,77,5,0,1
66951,-100,4,2,77,87,0,1
73740,-100,4,2,77,87,0,0
74616,-100,4,2,77,77,0,0
74807,-100,4,2,77,5,0,0
74834,-100,4,2,77,77,0,0
80748,-100,4,2,77,57,0,0
81623,-100,4,2,77,77,0,0
81814,-100,4,2,77,5,0,0
81841,-100,4,2,77,77,0,0
88631,-100,4,2,77,67,0,0
94981,-100,4,2,77,57,0,0
95638,-100,4,2,77,67,0,0
100894,-100,4,2,77,77,0,0
102645,-100,4,2,77,67,0,0
116659,-100,4,2,77,57,0,0
123667,-100,4,2,77,77,0,0
123858,-100,4,2,77,5,0,0
123886,-100,4,2,77,77,0,0
124077,-100,4,2,77,5,0,0
124104,-100,4,2,77,77,0,0
124734,-100,4,2,77,5,0,0
124761,-100,4,2,77,77,0,0
124953,-100,4,2,77,5,0,0
124980,-100,4,2,77,77,0,0
125610,-100,4,2,77,5,0,0
125637,-100,4,2,77,77,0,0
125829,-100,4,2,77,5,0,0
125856,-100,4,2,77,77,0,0
129114,-100,4,2,77,5,0,0
129141,-100,4,2,77,77,0,0
130456,-100,4,2,0,5,0,0
130675,-100,4,2,77,77,0,0
132591,-100,4,2,0,5,0,0
132645,-100,4,2,77,77,0,0
132810,-100,4,2,0,5,0,0
132864,-100,4,2,77,77,0,0
133029,-100,4,2,0,5,0,0
133083,-100,4,2,77,47,0,0
141185,-100,4,2,77,57,0,0
146003,-100,4,2,77,77,0,0
146441,-100,4,2,77,87,0,1
148384,-100,4,2,77,5,0,1
148411,-100,4,2,77,87,0,1
151012,-100,4,2,77,5,0,1
151039,-100,4,2,77,87,0,1
156267,-100,4,2,77,5,0,1
156294,-100,4,2,77,87,0,1
157828,-100,4,2,77,87,0,0
158704,-100,4,2,77,77,0,1
162398,-100,4,2,77,5,0,1
162425,-100,4,2,77,77,0,1
164150,-100,4,2,77,5,0,1
164177,-100,4,2,77,77,0,1
165711,-100,4,2,77,77,0,0
170282,-100,4,2,77,5,0,0
170309,-100,4,2,77,77,0,0
172718,-100,4,2,77,67,0,0
196204,-100,4,2,1,5,0,0

[Colours]
Combo1 : 192,192,192
Combo2 : 128,128,128

[HitObjects]
256,192,1040,5,0,2:0:0:0:
256,192,1915,1,0,2:0:0:0:
256,192,2791,1,0,2:0:0:0:
352,160,4543,5,0,2:0:0:0:
352,160,5418,1,0,2:0:0:0:
352,160,6294,1,0,2:0:0:0:
268,85,8047,6,0,L|179:91,1,79.9999999999999,6|10,1:0|2:0,2:0:0:0:
132,95,8485,1,10,2:3:0:0:
20,105,8923,2,0,P|20:192|78:229,1,160,10|0,2:3|0:0,2:0:0:0:
187,228,9799,6,0,L|180:319,1,79.9999999999999,10|10,2:3|2:0,0:0:0:0:
179,365,10237,2,0,P|209:348|264:350,1,79.9999999999999,10|10,2:3|2:0,0:0:0:0:
309,348,10675,2,0,P|394:355|447:278,1,160,10|0,2:3|0:0,0:0:0:0:
470,196,11550,6,0,L|476:116,1,79.9999999999999,8|10,2:3|2:0,2:0:0:0:
481,60,11988,1,10,2:3:0:0:
375,26,12426,6,0,L|368:105,1,79.9999999999999,14|14,2:0|2:0,2:0:0:0:
360,273,13302,1,6,1:0:0:0:
360,273,20310,6,0,B|334:269|334:269|306:282|306:282|281:278,2,79.9999999999999,4|8|0,1:0|2:0|1:0,2:0:0:0:
410,372,21185,2,0,B|372:366|372:366|332:384|332:384|295:379,1,120,0|0,1:0|1:0,0:0:0:0:
158,348,22061,6,0,L|151:268,2,79.9999999999999,0|8|0,1:0|2:0|1:0,2:0:0:0:
72,383,22937,2,0,L|61:256,1,120,0|2,1:0|1:0,0:0:0:0:
55,123,23813,6,0,B|81:119|81:119|109:132|109:132|134:128,2,79.9999999999999,0|8|0,1:0|2:0|1:0,2:0:0:0:
126,36,24689,2,0,B|163:30|163:30|203:48|203:48|240:43,1,120,0|0,1:0|1:0,0:0:0:0:
380,30,25565,6,0,L|387:110,2,79.9999999999999,0|8|0,1:0|2:0|1:0,2:0:0:0:
489,0,26441,2,0,L|499:119,1,120,0|0,1:0|1:0,0:0:0:0:
442,181,27098,1,10,2:0:0:0:
441,181,27317,6,0,P|423:215|423:255,2,79.9999999999999,4|8|0,1:0|2:0|1:0,2:0:0:0:
330,188,28193,2,0,L|199:178,1,120,0|8,1:0|2:3,2:0:0:0:
99,93,29069,6,0,L|91:7,2,79.9999999999999,0|8|0,1:0|2:0|1:0,2:0:0:0:
91,205,29945,2,0,P|44:245|35:309,1,120,0|8,1:0|2:3,0:0:0:0:
151,375,30821,6,0,L|234:370,2,79.9999999999999,0|8|0,1:0|2:0|1:0,2:0:0:0:
177,266,31696,2,0,L|296:258,1,120,0|0,1:0|1:0,2:0:0:0:
436,249,32572,6,0,P|464:208|500:193,2,79.9999999999999,0|10|2,1:0|2:0|1:0,2:0:0:0:
352,174,33448,2,0,P|318:123|318:59,1,120,14|10,2:0|2:0,0:0:0:0:
370,1,34105,1,8,2:0:0:0:
370,1,34324,6,0,L|457:9,1,79.9999999999999,4|10,1:0|2:0,2:0:0:0:
504,18,34762,2,0,P|516:69|495:110,1,79.9999999999999,10|10,2:3|2:0,0:0:0:0:
432,177,35419,1,10,2:0:0:0:
432,177,35638,6,0,L|338:168,1,79.9999999999999,10|10,2:3|2:0,0:0:0:0:
295,168,36076,2,0,P|245:200|237:309,1,160,6|10,1:0|2:3,2:0:0:0:
315,366,36952,2,0,L|400:357,2,79.9999999999999,10|10|10,2:3|2:0|2:3,0:0:0:0:
212,319,37828,6,0,L|132:327,1,79.9999999999999,4|10,1:0|2:0,2:0:0:0:
76,334,38266,2,0,P|63:283|84:242,1,79.9999999999999,10|10,2:3|2:0,0:0:0:0:
95,206,38704,2,0,L|262:192,1,160,8|10,2:3|2:3,0:0:0:0:
355,143,39580,6,0,P|369:191|360:226,2,79.9999999999999,6|10|10,1:0|2:0|2:3,2:0:0:0:
258,85,40456,2,0,P|244:37|253:2,2,79.9999999999999,10|10|10,2:3|2:0|2:3,0:0:0:0:
359,37,41331,6,0,L|439:31,1,79.9999999999999,4|10,1:0|2:0,2:0:0:0:
494,26,41769,1,10,2:3:0:0:
488,137,42207,6,0,L|482:217,1,79.9999999999999,6|10,1:0|2:0,2:0:0:0:
477,272,42645,1,10,2:3:0:0:
472,327,42864,2,0,P|419:299|320:347,1,160,10|10,2:0|2:0,0:0:0:0:
303,382,43521,1,10,2:3:0:0:
193,360,43959,6,0,L|187:280,1,79.9999999999999,6|10,1:0|2:0,2:0:0:0:
184,224,44397,2,0,P|229:211|264:220,1,79.9999999999999,10|10,2:3|2:0,0:0:0:0:
258,162,44835,6,0,L|248:-11,1,160,2|2,1:0|1:0,2:0:0:0:
334,77,45711,2,0,L|174:86,1,160,2|2,1:0|1:0,2:0:0:0:
62,95,46587,6,0,P|40:137|84:243,1,160,6|2,1:0|1:0,2:0:0:0:
131,232,47244,1,10,2:0:0:0:
186,228,47463,2,0,L|265:223,1,79.9999999999999,2|10,1:0|2:0,0:0:0:0:
322,221,47901,1,10,2:0:0:0:
433,217,48339,5,6,1:0:0:0:
433,217,49215,1,2,1:0:0:0:
351,294,49653,2,0,L|263:284,1,79.9999999999999,2|2,1:0|1:0,2:0:0:0:
217,279,50091,6,0,P|209:323|224:354,2,79.9999999999999,2|0|2,1:0|1:0|1:0,2:0:0:0:
144,193,50967,2,0,P|101:208|82:236,2,79.9999999999999,2|0|2,1:0|1:0|1:0,2:0:0:0:
182,87,51842,5,2,1:0:0:0:
182,87,52718,1,2,1:0:0:0:
353,79,53375,1,2,1:0:0:0:
353,79,53594,6,0,L|346:-10,2,79.9999999999999,2|2|2,1:0|1:0|1:0,2:0:0:0:
449,136,54470,2,0,L|461:295,1,160,2|2,1:0|1:0,2:0:0:0:
410,318,55127,1,2,1:0:0:0:
358,340,55346,6,0,B|262:308|296:391|189:357,1,160,6|2,1:0|1:0,2:0:0:0:
98,333,56222,1,2,1:0:0:0:
133,111,57098,6,0,B|157:93|157:93|165:228,1,160,2|2,1:0|1:0,2:0:0:0:
172,278,57755,1,2,1:0:0:0:
57,260,58193,2,0,P|23:293|17:330,2,79.9999999999999,2|2|2,1:0|1:0|1:0,2:0:0:0:
256,192,58850,12,0,61477,2:0:0:0:
256,192,62353,6,0,L|266:16,1,160,6|2,1:0|1:0,2:0:0:0:
162,77,63229,2,0,P|121:83|82:63,1,79.9999999999999,2|10,1:0|2:0,2:0:0:0:
47,26,63667,1,2,2:0:0:0:
4,129,64105,6,0,L|15:222,1,79.9999999999999,2|10,1:0|2:0,2:0:0:0:
22,264,64543,2,0,P|63:270|102:250,1,79.9999999999999,2|10,1:0|2:0,0:0:0:0:
144,223,64981,2,0,L|156:393,1,160,2|2,1:0|2:0,2:0:0:0:
269,384,65857,6,0,L|358:373,1,79.9999999999999,2|10,1:0|2:0,0:0:0:0:
404,366,66295,2,0,P|435:316|427:279,1,79.9999999999999,2|10,1:0|2:0,0:0:0:0:
424,242,66733,6,0,L|335:253,1,79.9999999999999,2|10,1:0|2:0,2:0:0:0:
288,258,67171,1,2,2:0:0:0:
242,158,67609,6,0,P|227:97|236:68,1,79.9999999999999,2|10,1:0|2:0,2:0:0:0:
259,33,68047,2,0,L|363:23,1,79.9999999999999,2|10,1:0|2:0,2:0:0:0:
394,18,68485,1,2,1:0:0:0:
449,9,68704,1,10,2:3:0:0:
508,8,68923,6,0,L|485:188,1,160,10|14,2:3|2:0,0:0:0:0:
487,166,69799,6,0,P|443:158|406:177,1,79.9999999999999,6|10,1:0|2:0,0:0:0:0:
364,202,70237,2,0,L|374:284,1,79.9999999999999,2|10,1:0|2:0,2:0:0:0:
382,337,70675,1,0,0:0:0:0:
281,384,71112,6,0,L|197:375,1,79.9999999999999,2|10,1:0|2:0,0:0:0:0:
145,369,71550,2,0,P|136:327|159:287,1,79.9999999999999,2|10,1:0|2:0,2:0:0:0:
95,288,71988,2,0,L|-3:280,2,79.9999999999999,2|10|0,1:0|2:0|0:0,0:0:0:0:
168,203,72864,6,0,P|165:150|160:109,1,79.9999999999999,0|10,1:0|2:0,2:0:0:0:
153,68,73302,1,10,2:3:0:0:
264,104,73740,5,6,1:0:0:0:
264,104,73959,2,0,P|365:100|304:15,1,240,6|6,1:0|1:0,0:0:0:0:
264,104,80748,6,0,P|365:100|359:37,1,160,0|2,1:0|2:0,2:0:0:0:
264,104,87755,6,0,P|332:128|370:86,1,120,4|8,1:0|2:0,2:0:0:0:
417,37,88412,1,8,2:3:0:0:
417,37,88631,6,0,L|427:132,1,79.9999999999999,4|0,1:0|0:0,2:0:0:0:
431,172,89069,1,0,0:0:0:0:
439,283,89507,6,0,P|389:271|345:298,1,79.9999999999999
317,249,89945,2,0,P|282:286|283:337,1,79.9999999999999
176,361,90602,6,0,L|5:351,1,160
69,334,91258,2,0,P|103:313|123:280,2,79.9999999999999,8|0|0,2:3|0:0|0:0,0:0:0:0:
8,239,92134,6,0,L|3:152,1,79.9999999999999,8|0,2:3|0:0,0:0:0:0:
0,102,92572,1,0,0:0:0:0:
110,122,93010,2,0,P|143:142|163:176,2,79.9999999999999
198,53,93886,6,0,L|367:50,1,160,8|0,2:3|0:0,0:0:0:0:
414,54,94543,1,0,0:0:0:0:
407,109,94762,2,0,L|395:205,1,79.9999999999999,8|10,2:3|2:0,0:0:0:0:
391,244,95200,1,10,2:0:0:0:
375,354,95638,6,0,L|273:343,1,79.9999999999999,4|8,1:0|2:0,2:0:0:0:
240,340,96076,2,0,P|221:296|245:250,1,79.9999999999999,8|8,2:3|2:0,2:0:0:0:
254,216,96514,2,0,L|95:201,1,160,8|0,2:3|2:0,0:0:0:0:
39,195,97171,1,8,2:0:0:0:
24,83,97609,6,0,L|6:-9,2,79.9999999999999,8|8|8,2:0|2:3|2:0,2:0:0:0:
78,67,98266,2,0,P|131:89|148:121,1,79.9999999999999,8|8,2:3|2:0,0:0:0:0:
199,95,98704,2,0,P|207:151|188:182,1,79.9999999999999,8|8,2:3|2:0,0:0:0:0:
145,272,99361,6,0,L|56:263,2,79.9999999999999,8|8|8,2:0|2:3|2:0,2:0:0:0:
175,319,100018,2,0,L|276:330,1,79.9999999999999,8|8,2:3|2:0,2:0:0:0:
311,336,100456,1,0,2:0:0:0:
423,341,100894,6,0,P|442:296|428:257,1,79.9999999999999,6|10,1:0|2:0,0:0:0:0:
399,223,101331,2,0,L|320:214,1,79.9999999999999,10|10,2:0|2:0,0:0:0:0:
265,203,101769,2,0,P|259:164|276:129,1,79.9999999999999,2|8,1:0|2:0,0:0:0:0:
309,83,102207,2,0,L|389:91,1,79.9999999999999,0|2,2:0|1:0,0:0:0:0:
499,109,102864,6,0,L|491:194,2,79.9999999999999,10|10|10,2:0|2:3|2:0,2:0:0:0:
398,59,103740,1,10,2:0:0:0:
398,59,103959,2,0,L|318:51,1,79.9999999999999,10|10,2:3|2:0,0:0:0:0:
262,48,104397,6,0,P|247:101|144:128,1,160,6|10,1:0|2:3,2:0:0:0:
44,110,105273,2,0,L|35:23,2,79.9999999999999,10|10|10,2:3|2:0|2:3,0:0:0:0:
22,220,106149,6,0,L|30:299,1,79.9999999999999,4|10,1:0|2:0,0:0:0:0:
37,355,106587,1,10,2:3:0:0:
148,342,107025,6,0,L|235:353,2,79.9999999999999,10|10|10,2:3|2:0|2:3,0:0:0:0:
144,285,107682,2,0,P|149:230|246:218,1,160,10|10,2:0|2:0,0:0:0:0:
290,236,108339,1,10,2:3:0:0:
368,155,108777,6,0,P|394:184|401:223,1,79.9999999999999,10|10,2:3|2:0,0:0:0:0:
447,256,109215,2,0,P|439:295|408:327,1,79.9999999999999,10|10,2:3|2:0,0:0:0:0:
363,351,109653,5,4,1:0:0:0:
161,253,110529,1,6,1:0:0:0:
382,213,111404,1,6,1:0:0:0:
226,375,112280,1,6,1:0:0:0:
257,152,113156,6,0,P|202:77|129:61,1,160,2|2,1:0|1:0,2:0:0:0:
153,171,114032,2,0,P|115:256|138:327,1,160,2|2,1:0|1:0,2:0:0:0:
222,252,114908,6,0,P|265:259|314:243,1,79.9999999999999,6|0,1:0|0:0,2:0:0:0:
353,268,115346,2,0,P|380:234|391:183,1,79.9999999999999,2|10,1:0|2:0,2:0:0:0:
395,143,115784,1,2,1:0:0:0:
377,89,116003,1,10,2:3:0:0:
338,50,116222,2,0,L|168:60,1,160,10|6,2:0|2:0,2:0:0:0:
256,192,123667,6,0,L|246:292,1,79.9999999999999,12|0,2:3|0:0,2:0:0:0:
243,327,124105,1,10,2:3:0:0:
131,341,124543,6,0,L|138:261,1,79.9999999999999,14|10,2:3|2:0,2:0:0:0:
145,205,124981,1,10,2:3:0:0:
156,93,125419,6,0,P|221:34|288:72,1,160,14|10,2:3|2:3,2:0:0:0:
371,122,126295,2,0,P|443:144|493:87,1,160,14|10,2:3|2:3,2:0:0:0:
470,197,127171,6,0,P|462:261|454:360,1,160,12|10,2:3|2:3,2:0:0:0:
346,324,128047,2,0,P|304:319|267:336,1,79.9999999999999,14|10,2:3|2:0,2:0:0:0:
231,373,128485,1,10,2:0:0:0:
143,293,128923,2,0,P|75:287|5:349,2,160,14|10|2,2:3|2:3|1:0,2:0:0:0:
147,297,130675,6,0,P|140:217|131:137,1,160,6|0,1:0|1:0,2:0:0:0:
111,27,131550,2,0,B|71:29|71:29|44:59|44:59|0:62,2,120,8|8|10,2:3|2:3|2:0,2:0:0:0:
157,59,132426,6,0,P|193:77|218:128,1,79.9999999999999,6|4,1:0|1:0,2:0:0:0:
270,112,132864,2,0,P|272:152|240:199,1,79.9999999999999,4|4,1:0|1:0,2:0:0:0:
254,186,134178,5,0,0:0:0:0:
254,186,135054,1,0,0:0:0:0:
254,186,135930,1,0,0:0:0:0:
350,154,137682,5,0,0:0:0:0:
350,154,138557,1,0,0:0:0:0:
350,154,139433,1,0,0:0:0:0:
255,95,141185,6,0,L|166:101,1,79.9999999999999,8|0,2:3|2:0,2:0:0:0:
119,106,141623,1,8,2:0:0:0:
79,210,142061,2,0,L|0:215,2,79.9999999999999,8|0|8,2:3|2:0|2:0,2:0:0:0:
190,201,142937,6,0,P|213:237|211:291,1,79.9999999999999,8|0,2:3|1:0,2:0:0:0:
271,271,143375,2,0,P|272:313|244:359,1,79.9999999999999,8|8,2:0|2:0,2:0:0:0:
308,368,143813,2,0,L|480:357,1,160,0|8,1:0|2:0,2:0:0:0:
481,246,144689,1,8,2:3:0:0:
481,246,146003,6,0,L|386:251,1,79.9999999999999,10|10,2:3|2:3,2:0:0:0:
345,254,146441,2,0,P|306:186|338:106,1,160,6|2,1:0|1:0,2:0:0:0:
370,8,147317,2,0,L|270:16,1,79.9999999999999,2|10,1:0|2:0,2:0:0:0:
234,16,147755,1,2,2:0:0:0:
144,83,148193,6,0,L|151:173,1,79.9999999999999,2|10,1:0|2:0,2:0:0:0:
153,218,148631,2,0,P|100:205|60:216,1,79.9999999999999,2|10,1:0|2:0,0:0:0:0:
21,225,149069,2,0,L|36:390,1,160,2|2,1:0|2:0,2:0:0:0:
146,371,149945,6,0,L|250:358,1,79.9999999999999,2|10,1:0|2:0,2:0:0:0:
281,353,150383,2,0,P|269:302|281:257,1,79.9999999999999,2|10,1:0|2:0,0:0:0:0:
298,224,150821,2,0,L|402:211,1,79.9999999999999,2|10,1:0|2:0,2:0:0:0:
434,208,151258,1,2,2:0:0:0:
487,109,151696,6,0,P|495:64|478:31,1,79.9999999999999,2|10,1:0|2:0,2:0:0:0:
424,38,152134,2,0,L|344:47,1,79.9999999999999,2|10,1:0|2:0,2:0:0:0:
288,55,152572,1,2,1:0:0:0:
232,62,152791,1,10,2:3:0:0:
181,77,153010,6,0,L|204:252,1,160,8|12,2:3|2:0,0:0:0:0:
202,235,153886,6,0,P|162:266|118:263,1,79.9999999999999,6|10,1:0|2:0,0:0:0:0:
78,258,154324,2,0,L|65:165,1,79.9999999999999,2|10,1:0|2:0,2:0:0:0:
60,122,154762,1,0,0:0:0:0:
172,122,155200,6,0,L|274:126,1,79.9999999999999,2|10,1:0|2:0,2:0:0:0:
308,129,155638,2,0,P|311:89|347:52,1,79.9999999999999,2|10,1:0|2:0,0:0:0:0:
372,16,156076,2,0,L|474:20,1,79.9999999999999,2|10,1:0|2:0,2:0:0:0:
507,24,156514,1,2,2:0:0:0:
460,125,156952,6,0,P|447:165|457:218,1,79.9999999999999,0|10,1:0|2:0,0:0:0:0:
477,251,157390,2,0,P|479:293|455:341,1,79.9999999999999,10|10,2:3|2:3,0:0:0:0:
423,363,157828,5,6,1:0:0:0:
423,363,158047,2,0,P|376:288|341:388,1,240,6|6,1:0|1:0,0:0:0:0:
224,376,159142,1,0,1:0:0:0:
230,264,159580,2,0,B|223:212|223:212|232:189|232:189|223:132,2,120,0|0|8,1:0|1:0|2:0,2:0:0:0:
173,263,160456,6,0,L|79:258,1,79.9999999999999,0|8,1:0|2:0,2:0:0:0:
36,255,160894,1,0,1:0:0:0:
7,147,161331,2,0,P|24:88|95:100,2,120,0|0|10,1:0|1:0|2:0,0:0:0:0:
13,202,162207,6,0,L|25:293,1,79.9999999999999,0|8,1:0|2:0,2:0:0:0:
34,336,162645,1,0,1:0:0:0:
145,341,163083,2,0,B|187:341|187:341|208:354|208:354|261:356,2,120,0|0|8,1:0|1:0|2:0,2:0:0:0:
156,285,163959,6,0,P|182:241|219:229,1,79.9999999999999,0|8,1:0|2:0,2:0:0:0:
212,174,164397,2,0,P|263:174|291:200,1,79.9999999999999,0|8,1:0|2:0,0:0:0:0:
337,167,164835,2,0,P|332:259|331:312,2,120,0|0|8,1:0|1:0|2:0,2:0:0:0:
343,111,165711,5,4,1:0:0:0:
269,26,166149,1,2,1:0:0:0:
165,67,166587,2,0,B|122:67|122:67|101:80|101:80|48:82,2,120,0|0|10,1:0|1:0|2:0,0:0:0:0:
214,94,167463,5,0,1:0:0:0:
198,205,167901,1,0,1:0:0:0:
88,229,168339,2,0,P|80:182|61:99,2,120,0|2|10,1:0|1:0|2:0,0:0:0:0:
100,283,169215,5,0,1:0:0:0:
184,356,169653,1,0,1:0:0:0:
294,338,170091,2,0,B|336:338|336:338|357:351|357:351|410:353,2,120,0|0|8,1:0|1:0|2:0,2:0:0:0:
314,285,170967,6,0,P|288:241|251:229,1,79.9999999999999,0|8,1:0|2:0,2:0:0:0:
258,174,171405,2,0,P|206:174|178:200,1,79.9999999999999,0|8,1:0|2:0,0:0:0:0:
133,168,171842,2,0,L|118:25,1,120,8|8,2:0|2:3,0:0:0:0:
258,27,172718,6,1,L|350:32,1,79.9999999999999,12|8,2:3|2:0,0:0:0:0:
393,35,173156,1,10,2:3:0:0:
479,106,173594,1,8,2:3:0:0:
461,216,174032,1,8,2:3:0:0:
350,195,174470,6,0,L|258:200,1,79.9999999999999,12|8,2:3|2:0,2:0:0:0:
215,203,174908,1,8,2:3:0:0:
129,274,175346,1,8,2:3:0:0:
147,384,175784,1,10,2:3:0:0:
258,381,176222,6,0,L|350:376,1,79.9999999999999,12|8,2:3|2:0,0:0:0:0:
393,373,176660,1,8,2:3:0:0:
479,302,177098,1,8,2:3:0:0:
461,192,177536,1,8,2:3:0:0:
349,199,177974,6,0,L|257:194,1,79.9999999999999,12|8,2:3|2:0,0:0:0:0:
214,191,178412,1,8,2:3:0:0:
128,120,178850,1,8,2:3:0:0:
146,10,179288,1,8,2:3:0:0:
257,20,179726,6,0,P|277:58|268:104,1,79.9999999999999,12|10,2:3|2:0,2:0:0:0:
238,138,180164,2,0,L|142:142,1,79.9999999999999,10|10,2:3|2:0,0:0:0:0:
65,204,180821,1,10,2:0:0:0:
65,204,181040,2,0,L|70:295,1,79.9999999999999,8|10,2:3|2:0,0:0:0:0:
76,339,181477,6,0,P|111:308|149:301,1,79.9999999999999,14|10,2:3|2:0,2:0:0:0:
198,294,181915,1,10,2:3:0:0:
309,301,182353,2,0,L|314:392,2,79.9999999999999,10|10|10,2:3|2:0|2:3,2:0:0:0:
303,188,183229,6,0,L|394:193,1,79.9999999999999,12|10,2:3|2:0,2:0:0:0:
438,198,183667,2,0,P|451:157|436:120,1,79.9999999999999,10|10,2:3|2:0,0:0:0:0:
421,70,184105,2,0,L|261:61,1,160,8|8,2:3|2:3,0:0:0:0:
205,156,184981,6,0,P|208:198|211:235,2,79.9999999999999,14|10|10,2:3|2:0|2:3,2:0:0:0:
105,104,185857,2,0,P|102:62|98:24,2,79.9999999999999,10|10|10,2:3|2:0|2:3,2:0:0:0:
83,214,186733,6,0,P|36:226|13:264,1,79.9999999999999,4|10,1:0|2:0,2:0:0:0:
0,303,187171,1,10,2:3:0:0:
97,357,187609,2,0,P|195:347|264:342,1,160,6|10,1:0|2:3,2:0:0:0:
366,364,188485,6,0,P|400:339|414:293,1,79.9999999999999,6|10,1:0|2:0,2:0:0:0:
422,249,188923,1,10,2:3:0:0:
342,170,189361,2,0,P|262:176|182:184,1,160,6|10,1:0|2:3,2:0:0:0:
204,74,190237,6,0,P|231:45|275:37,1,79.9999999999999,2|8,1:0|2:0,0:0:0:0:
325,36,190675,1,2,1:0:0:0:
431,68,191112,2,0,P|429:115|427:152,1,79.9999999999999,2|8,1:0|2:0,0:0:0:0:
425,204,191550,1,2,1:0:0:0:
417,315,191988,6,0,P|362:311|331:311,1,79.9999999999999,6|10,1:0|2:0,2:0:0:0:
287,336,192426,2,0,P|232:332|201:332,1,79.9999999999999,2|10,1:0|2:0,2:0:0:0:
151,328,192864,1,2,1:0:0:0:
95,326,193083,1,0,0:0:0:0:
38,326,193302,6,0,L|42:147,1,160,10|10,2:0|2:3,0:0:0:0:
41,166,196149,5,4,2:0:0:0:
