osu file format v14

[General]
AudioFilename: audio.mp3
AudioLeadIn: 0
PreviewTime: 49775
Countdown: 0
SampleSet: Normal
StackLeniency: 0.7
Mode: 1
LetterboxInBreaks: 0
WidescreenStoryboard: 1

[Editor]
Bookmarks: 27033,149503
DistanceSpacing: 1.2
BeatDivisor: 8
GridSize: 8
TimelineZoom: 2.039999

[Metadata]
Title:Lost Umbrella (7_7 bootleg)
TitleUnicode:ロストアンブレラ (7_7 bootleg)
Artist:inabakumori
ArtistUnicode:稲葉曇
Creator:Horiiizon
Version:adrift
Source:
Tags:7_7 Genjuro Hivie electronic japanese rock j-rock jrock breakcore kaai yuki 歌愛ユキ nukunuku nigirimeshi ぬくぬくにぎりめし vocaloid cumori アンチサイクロン ANTICYCLONE trushcan
BeatmapID:2989059
BeatmapSetID:1454002

[Difficulty]
HPDrainRate:4.9
CircleSize:5
OverallDifficulty:7.3
ApproachRate:5
SliderMultiplier:2.8
SliderTickRate:1

[Events]
//Background and Video events
0,0,"9bd69344-67fe-4f0b-9c6a-c42236321055.png",0,0
//Break Periods
2,10468,14715
2,93762,97303
//Storyboard Layer 0 (Background)
//Storyboard Layer 1 (Fail)
//Storyboard Layer 2 (Pass)
//Storyboard Layer 3 (Foreground)
//Storyboard Layer 4 (Overlay)
//Storyboard Sound Samples

[TimingPoints]
386,352.941176470588,4,1,0,100,1,0
386,-200,4,1,0,100,0,0
6033,-166.666666666667,4,1,0,100,0,0
10268,-125,4,1,0,100,0,0
11680,-166.666666666667,4,1,0,100,0,0
15915,-111.111111111111,4,1,0,100,0,0
26856,-100,4,1,0,100,0,0
27033,-111.111111111111,4,1,0,100,0,0
47680,-166.666666666667,4,1,0,100,0,0
48562,-142.857142857143,4,1,0,100,0,0
48915,-125,4,1,0,100,0,0
49091,-100,4,1,0,100,0,0
49268,-111.111111111111,4,1,0,100,0,0
49356,-109.090869421502,4,1,0,100,0,0
49444,-107.142895408177,4,1,0,100,0,0
49533,-105.263157894737,4,1,0,100,0,0
49621,-103.448240190262,4,1,0,100,0,0
49665,-102.564102564103,4,1,0,100,0,0
49709,-101.694949727102,4,1,0,100,0,0
49753,-100.840302238554,4,1,0,100,0,0
49797,-100,4,1,0,100,0,1
55444,-100,4,1,0,100,0,0
55797,-100,4,1,0,100,0,1
59680,-100,4,1,0,100,0,0
59856,-111.111111111111,4,1,0,100,0,0
70621,-100,4,1,0,100,0,0
70797,-111.111111111111,4,1,0,100,0,0
71150,-125,4,1,0,100,0,0
76621,-111.111111111111,4,1,0,100,0,0
81562,-100,4,1,0,100,0,0
81738,-111.111111111111,4,1,0,100,0,0
94974,-166.666666666667,4,1,0,100,0,0
98503,-125,4,1,0,100,0,0
104503,-111.111111111111,4,1,0,100,0,0
104680,-111.111111111111,4,1,0,100,0,0
107680,-200,4,1,0,100,0,0
113327,-166.666666666667,4,1,0,100,0,0
116327,-142.857142857143,4,1,0,100,0,0
116680,-125,4,1,0,100,0,0
116856,-100,4,1,0,100,0,0
117033,-111.111111111111,4,1,0,100,0,0
117121,-109.090869421502,4,1,0,100,0,0
117209,-107.142895408177,4,1,0,100,0,0
117298,-105.263157894737,4,1,0,100,0,0
117386,-103.448240190262,4,1,0,100,0,0
117430,-102.564102564103,4,1,0,100,0,0
117474,-101.694949727102,4,1,0,100,0,0
117518,-100.840302238554,4,1,0,100,0,0
117562,-100,4,1,0,100,0,1
123209,-100,4,1,0,100,0,0
123562,-100,4,1,0,100,0,1
127444,-111.111111111111,4,1,0,100,0,0
138385,-100,4,1,0,100,0,0
138562,-111.111111111111,4,1,0,100,0,0
155680,-100,4,1,0,100,0,0

[HitObjects]
206,207,386,5,8,0:0:0:0:
162,93,1091,1,8,0:0:0:0:
202,157,1797,1,0,0:0:0:0:
182,128,3209,1,8,0:0:0:0:
183,158,3915,1,8,0:0:0:0:
183,158,4621,1,0,0:0:0:0:
207,116,6033,1,0,0:0:0:0:
207,116,6209,1,0,0:0:0:0:
198,115,6385,1,8,0:0:0:0:
198,115,6474,1,8,0:0:0:0:
198,115,6562,1,0,0:0:0:0:
198,115,6738,1,8,0:0:0:0:
198,115,6827,1,8,0:0:0:0:
198,115,6915,1,0,0:0:0:0:
198,115,7003,1,0,0:0:0:0:
198,115,7091,1,8,0:0:0:0:
188,157,7268,1,8,0:0:0:0:
190,112,7356,1,0,0:0:0:0:
190,112,7444,1,8,0:0:0:0:
190,112,7621,1,0,0:0:0:0:
190,112,7797,1,8,0:0:0:0:
191,75,7885,1,0,0:0:0:0:
191,75,7974,1,0,0:0:0:0:
191,75,8150,1,8,0:0:0:0:
191,75,8238,1,0,0:0:0:0:
191,75,8327,1,0,0:0:0:0:
191,75,8415,1,0,0:0:0:0:
191,75,8503,1,8,0:0:0:0:
196,136,8680,1,0,0:0:0:0:
199,152,8768,1,0,0:0:0:0:
184,95,8856,1,8,0:0:0:0:
167,84,8944,1,8,0:0:0:0:
167,75,9033,1,0,0:0:0:0:
181,82,9121,1,8,0:0:0:0:
181,82,9209,1,0,0:0:0:0:
188,114,9385,1,8,0:0:0:0:
188,114,9474,1,8,0:0:0:0:
188,114,9562,1,0,0:0:0:0:
191,113,9738,1,0,0:0:0:0:
188,114,9915,1,8,0:0:0:0:
222,154,10268,1,4,0:0:0:0:
223,205,15915,5,8,0:0:0:0:
224,160,16091,1,8,0:0:0:0:
191,182,16180,1,0,0:0:0:0:
214,160,16268,1,8,0:0:0:0:
230,138,16312,1,8,0:0:0:0:
191,190,16356,1,0,0:0:0:0:
191,190,16444,1,8,0:0:0:0:
244,192,16533,1,0,0:0:0:0:
197,212,16621,1,8,0:0:0:0:
266,166,16709,1,0,0:0:0:0:
221,77,16753,1,0,0:0:0:0:
221,77,16797,1,8,0:0:0:0:
173,167,16885,1,0,0:0:0:0:
218,172,17062,1,0,0:0:0:0:
201,122,17150,1,8,0:0:0:0:
214,150,17238,1,0,0:0:0:0:
214,150,17327,1,8,0:0:0:0:
243,164,17503,1,0,0:0:0:0:
196,165,17547,1,0,0:0:0:0:
196,171,17591,1,0,0:0:0:0:
196,171,17680,1,8,0:0:0:0:
185,94,17856,1,8,0:0:0:0:
186,83,17944,1,8,0:0:0:0:
196,101,18033,1,0,0:0:0:0:
196,132,18121,1,8,0:0:0:0:
196,139,18165,1,8,0:0:0:0:
196,139,18209,1,0,0:0:0:0:
215,163,18297,1,8,0:0:0:0:
215,163,18385,1,0,0:0:0:0:
215,163,18474,1,8,0:0:0:0:
210,155,18562,1,0,0:0:0:0:
212,149,18606,1,0,0:0:0:0:
212,149,18650,1,0,0:0:0:0:
212,149,18694,1,0,0:0:0:0:
212,149,18738,1,8,0:0:0:0:
224,160,18915,1,8,0:0:0:0:
191,182,19004,1,0,0:0:0:0:
214,160,19092,1,8,0:0:0:0:
230,138,19136,1,8,0:0:0:0:
191,190,19180,1,0,0:0:0:0:
191,190,19268,1,8,0:0:0:0:
244,192,19357,1,0,0:0:0:0:
197,212,19445,1,8,0:0:0:0:
266,166,19533,1,0,0:0:0:0:
221,77,19577,1,0,0:0:0:0:
221,77,19621,1,8,0:0:0:0:
173,167,19709,1,0,0:0:0:0:
218,172,19886,1,0,0:0:0:0:
214,150,19974,1,8,0:0:0:0:
214,150,20062,1,0,0:0:0:0:
214,150,20151,1,8,0:0:0:0:
243,164,20327,1,0,0:0:0:0:
196,165,20371,1,0,0:0:0:0:
196,171,20415,1,0,0:0:0:0:
196,171,20504,1,8,0:0:0:0:
185,94,20680,1,8,0:0:0:0:
197,80,20768,1,0,0:0:0:0:
193,79,20856,1,8,0:0:0:0:
165,73,20944,1,0,0:0:0:0:
165,73,20988,1,0,0:0:0:0:
201,137,21033,1,8,0:0:0:0:
195,126,21121,1,0,0:0:0:0:
193,126,21209,1,8,0:0:0:0:
194,126,21253,1,8,0:0:0:0:
215,163,21298,1,8,0:0:0:0:
210,155,21386,1,0,0:0:0:0:
212,149,21430,1,0,0:0:0:0:
212,149,21474,1,0,0:0:0:0:
212,149,21518,1,0,0:0:0:0:
212,149,21562,1,8,0:0:0:0:
224,160,21738,1,8,0:0:0:0:
191,182,21827,1,0,0:0:0:0:
214,160,21915,1,8,0:0:0:0:
230,138,21959,1,8,0:0:0:0:
191,190,22003,1,0,0:0:0:0:
191,190,22091,1,8,0:0:0:0:
244,192,22180,1,0,0:0:0:0:
197,212,22268,1,8,0:0:0:0:
266,166,22356,1,0,0:0:0:0:
221,77,22400,1,0,0:0:0:0:
221,77,22444,1,8,0:0:0:0:
173,167,22532,1,0,0:0:0:0:
218,172,22709,1,0,0:0:0:0:
214,150,22797,1,8,0:0:0:0:
214,150,22885,1,0,0:0:0:0:
214,150,22974,1,8,0:0:0:0:
243,164,23150,1,0,0:0:0:0:
196,165,23194,1,0,0:0:0:0:
196,171,23238,1,0,0:0:0:0:
196,171,23327,1,8,0:0:0:0:
185,94,23503,1,8,0:0:0:0:
186,83,23591,1,8,0:0:0:0:
196,101,23680,1,0,0:0:0:0:
196,132,23768,1,8,0:0:0:0:
196,139,23812,1,8,0:0:0:0:
196,139,23856,1,0,0:0:0:0:
215,163,23944,1,8,0:0:0:0:
215,163,24032,1,0,0:0:0:0:
215,163,24121,1,8,0:0:0:0:
210,155,24209,1,0,0:0:0:0:
212,149,24253,1,0,0:0:0:0:
212,149,24297,1,0,0:0:0:0:
212,149,24341,1,0,0:0:0:0:
212,149,24385,1,8,0:0:0:0:
224,160,24562,1,8,0:0:0:0:
191,182,24651,1,0,0:0:0:0:
214,160,24739,1,8,0:0:0:0:
230,138,24783,1,8,0:0:0:0:
191,190,24827,1,0,0:0:0:0:
191,190,24915,1,8,0:0:0:0:
244,192,25004,1,0,0:0:0:0:
197,212,25092,1,8,0:0:0:0:
266,166,25180,1,0,0:0:0:0:
221,77,25224,1,0,0:0:0:0:
221,77,25268,1,8,0:0:0:0:
173,167,25356,1,0,0:0:0:0:
218,172,25533,1,0,0:0:0:0:
214,150,25621,1,8,0:0:0:0:
214,150,25709,1,0,0:0:0:0:
214,150,25798,1,8,0:0:0:0:
243,164,25974,1,0,0:0:0:0:
196,165,26018,1,0,0:0:0:0:
196,171,26062,1,0,0:0:0:0:
196,171,26151,1,8,0:0:0:0:
185,94,26327,1,8,0:0:0:0:
197,80,26415,1,0,0:0:0:0:
193,79,26503,1,8,0:0:0:0:
165,73,26591,1,0,0:0:0:0:
165,73,26635,1,0,0:0:0:0:
201,137,26680,1,8,0:0:0:0:
195,126,26768,1,0,0:0:0:0:
193,126,26856,1,12,0:0:0:0:
196,145,27033,1,0,0:0:0:0:
202,205,27077,1,0,0:0:0:0:
202,205,27121,1,0,0:0:0:0:
202,205,27165,1,0,0:0:0:0:
192,202,27209,1,12,0:0:0:0:
182,168,27385,1,12,0:0:0:0:
263,175,27562,1,0,0:0:0:0:
263,175,27650,1,0,0:0:0:0:
263,175,27738,1,8,0:0:0:0:
186,121,27915,1,0,0:0:0:0:
186,121,28003,1,0,0:0:0:0:
186,121,28091,1,8,0:0:0:0:
187,130,28268,1,0,0:0:0:0:
192,102,28356,1,0,0:0:0:0:
186,91,28444,1,8,0:0:0:0:
208,98,28621,1,4,0:0:0:0:
205,134,28797,1,4,0:0:0:0:
208,105,28974,1,8,0:0:0:0:
209,105,29062,1,8,0:0:0:0:
209,105,29150,1,0,0:0:0:0:
212,108,29327,1,8,0:0:0:0:
213,108,29415,1,8,0:0:0:0:
213,108,29503,1,0,0:0:0:0:
185,68,29680,1,8,0:0:0:0:
214,108,29768,1,8,0:0:0:0:
216,168,29856,1,0,0:0:0:0:
216,168,29900,1,0,0:0:0:0:
219,172,29944,1,0,0:0:0:0:
216,168,29988,1,0,0:0:0:0:
192,202,30033,1,12,0:0:0:0:
182,168,30209,1,12,0:0:0:0:
263,175,30386,1,0,0:0:0:0:
263,175,30474,1,0,0:0:0:0:
263,175,30562,1,8,0:0:0:0:
186,121,30739,1,0,0:0:0:0:
186,121,30827,1,0,0:0:0:0:
186,121,30915,1,8,0:0:0:0:
187,130,31092,1,0,0:0:0:0:
192,102,31180,1,0,0:0:0:0:
186,91,31268,1,8,0:0:0:0:
208,98,31445,1,4,0:0:0:0:
205,134,31621,1,4,0:0:0:0:
208,105,31798,1,8,0:0:0:0:
209,105,31886,1,8,0:0:0:0:
209,105,31974,1,0,0:0:0:0:
212,108,32151,1,8,0:0:0:0:
213,108,32239,1,8,0:0:0:0:
213,108,32327,1,0,0:0:0:0:
194,169,32415,1,0,0:0:0:0:
190,142,32503,1,8,0:0:0:0:
184,99,32591,1,0,0:0:0:0:
186,135,32635,1,0,0:0:0:0:
201,136,32680,1,8,0:0:0:0:
193,123,32768,1,0,0:0:0:0:
198,124,32856,1,12,0:0:0:0:
192,120,33033,1,12,0:0:0:0:
200,112,33209,1,0,0:0:0:0:
208,112,33297,1,0,0:0:0:0:
200,112,33385,1,8,0:0:0:0:
192,136,33562,1,4,0:0:0:0:
201,136,33738,1,4,0:0:0:0:
208,104,33915,1,8,0:0:0:0:
208,104,34003,1,8,0:0:0:0:
208,104,34091,1,0,0:0:0:0:
224,128,34268,1,12,0:0:0:0:
192,120,34445,1,12,0:0:0:0:
200,112,34621,1,0,0:0:0:0:
208,112,34709,1,0,0:0:0:0:
200,112,34797,1,8,0:0:0:0:
192,136,34974,1,4,0:0:0:0:
201,136,35150,1,4,0:0:0:0:
208,104,35327,1,8,0:0:0:0:
208,104,35415,1,8,0:0:0:0:
208,104,35503,1,0,0:0:0:0:
280,200,35547,1,0,0:0:0:0:
280,200,35591,1,0,0:0:0:0:
280,200,35635,1,0,0:0:0:0:
192,120,35680,1,12,0:0:0:0:
216,144,35856,1,0,0:0:0:0:
216,144,35944,1,0,0:0:0:0:
208,128,36033,1,12,0:0:0:0:
216,144,36209,1,0,0:0:0:0:
216,144,36297,1,0,0:0:0:0:
208,128,36386,1,12,0:0:0:0:
216,144,36562,1,0,0:0:0:0:
216,144,36650,1,0,0:0:0:0:
208,128,36739,1,12,0:0:0:0:
168,176,36915,1,0,0:0:0:0:
168,176,37003,1,0,0:0:0:0:
200,144,37091,1,12,0:0:0:0:
192,112,37268,1,8,0:0:0:0:
208,128,37356,1,0,0:0:0:0:
200,128,37400,1,0,0:0:0:0:
208,112,37444,1,8,0:0:0:0:
192,104,37533,1,0,0:0:0:0:
208,168,37621,1,8,0:0:0:0:
192,120,37709,1,0,0:0:0:0:
208,104,37797,1,8,0:0:0:0:
208,104,37841,1,8,0:0:0:0:
208,104,37885,1,8,0:0:0:0:
192,96,37974,1,0,0:0:0:0:
216,144,38150,1,0,0:0:0:0:
208,120,38238,1,0,0:0:0:0:
192,88,38327,1,8,0:0:0:0:
192,88,38371,1,8,0:0:0:0:
192,88,38415,1,0,0:0:0:0:
192,88,38459,1,0,0:0:0:0:
176,40,38503,1,8,0:0:0:0:
192,120,38680,1,8,0:0:0:0:
176,112,38856,1,0,0:0:0:0:
232,152,38900,1,0,0:0:0:0:
176,112,38944,1,8,0:0:0:0:
176,88,39033,1,0,0:0:0:0:
168,144,39121,1,8,0:0:0:0:
168,216,39165,1,8,0:0:0:0:
168,144,39209,1,0,0:0:0:0:
176,104,39385,1,8,0:0:0:0:
192,120,39474,1,0,0:0:0:0:
192,112,39562,1,8,0:0:0:0:
192,112,39606,1,8,0:0:0:0:
184,104,39650,1,0,0:0:0:0:
184,80,39738,1,8,0:0:0:0:
192,120,39827,1,0,0:0:0:0:
192,72,39915,1,8,0:0:0:0:
208,160,40091,1,0,0:0:0:0:
192,80,40180,1,8,0:0:0:0:
176,136,40268,1,0,0:0:0:0:
192,144,40312,1,0,0:0:0:0:
192,136,40356,1,0,0:0:0:0:
192,120,40444,1,8,0:0:0:0:
192,96,40533,1,0,0:0:0:0:
224,192,40577,1,0,0:0:0:0:
200,112,40621,1,8,0:0:0:0:
184,176,40665,1,8,0:0:0:0:
184,176,40709,1,8,0:0:0:0:
160,208,40797,1,0,0:0:0:0:
200,208,40885,1,8,0:0:0:0:
200,208,40930,1,8,0:0:0:0:
200,208,40974,1,0,0:0:0:0:
176,96,41062,1,8,0:0:0:0:
200,128,41150,1,0,0:0:0:0:
192,112,41194,1,0,0:0:0:0:
200,128,41238,1,0,0:0:0:0:
200,128,41283,1,0,0:0:0:0:
200,128,41327,1,8,0:0:0:0:
200,168,41503,1,0,0:0:0:0:
176,112,41679,1,0,0:0:0:0:
232,152,41723,1,0,0:0:0:0:
176,112,41767,1,8,0:0:0:0:
176,88,41856,1,0,0:0:0:0:
168,144,41944,1,8,0:0:0:0:
168,216,41988,1,8,0:0:0:0:
168,144,42032,1,0,0:0:0:0:
160,120,42209,1,0,0:0:0:0:
168,128,42297,1,8,0:0:0:0:
176,104,42341,1,8,0:0:0:0:
176,104,42385,1,0,0:0:0:0:
176,104,42474,1,8,0:0:0:0:
184,144,42562,1,0,0:0:0:0:
184,144,42606,1,0,0:0:0:0:
184,144,42650,1,8,0:0:0:0:
176,136,42738,1,0,0:0:0:0:
192,144,42915,1,8,0:0:0:0:
168,136,43003,1,0,0:0:0:0:
200,136,43091,1,8,0:0:0:0:
200,136,43135,1,8,0:0:0:0:
192,136,43180,1,0,0:0:0:0:
192,120,43267,1,8,0:0:0:0:
192,96,43356,1,0,0:0:0:0:
200,112,43444,1,8,0:0:0:0:
192,88,43488,1,8,0:0:0:0:
168,152,43533,1,8,0:0:0:0:
192,128,43621,1,0,0:0:0:0:
168,208,43665,1,0,0:0:0:0:
168,208,43709,1,8,0:0:0:0:
184,96,43797,1,0,0:0:0:0:
192,176,43885,1,0,0:0:0:0:
192,176,43974,1,8,0:0:0:0:
192,176,44018,1,8,0:0:0:0:
184,104,44062,1,0,0:0:0:0:
184,104,44106,1,0,0:0:0:0:
184,104,44150,1,8,0:0:0:0:
192,120,44327,1,8,0:0:0:0:
176,112,44503,1,0,0:0:0:0:
232,152,44547,1,0,0:0:0:0:
176,112,44591,1,8,0:0:0:0:
176,88,44680,1,0,0:0:0:0:
168,144,44768,1,8,0:0:0:0:
168,216,44812,1,8,0:0:0:0:
168,144,44856,1,0,0:0:0:0:
176,104,45032,1,8,0:0:0:0:
192,120,45121,1,0,0:0:0:0:
192,112,45209,1,8,0:0:0:0:
192,112,45253,1,8,0:0:0:0:
184,104,45297,1,0,0:0:0:0:
184,80,45385,1,8,0:0:0:0:
192,120,45474,1,0,0:0:0:0:
192,72,45562,1,8,0:0:0:0:
208,160,45738,1,0,0:0:0:0:
192,80,45827,1,8,0:0:0:0:
176,136,45915,1,0,0:0:0:0:
192,144,45959,1,0,0:0:0:0:
192,136,46003,1,0,0:0:0:0:
192,120,46091,1,8,0:0:0:0:
192,96,46180,1,0,0:0:0:0:
224,192,46224,1,0,0:0:0:0:
200,112,46268,1,8,0:0:0:0:
184,176,46312,1,8,0:0:0:0:
184,176,46356,1,8,0:0:0:0:
160,208,46444,1,0,0:0:0:0:
200,208,46532,1,8,0:0:0:0:
200,208,46577,1,8,0:0:0:0:
200,208,46621,1,0,0:0:0:0:
176,96,46709,1,8,0:0:0:0:
200,128,46797,1,0,0:0:0:0:
192,112,46841,1,0,0:0:0:0:
200,128,46885,1,0,0:0:0:0:
200,128,46930,1,0,0:0:0:0:
200,128,46974,1,8,0:0:0:0:
213,132,47680,1,0,0:0:0:0:
213,132,48385,1,8,0:0:0:0:
187,155,48562,1,0,0:0:0:0:
187,155,48650,1,0,0:0:0:0:
187,155,48738,1,8,0:0:0:0:
187,155,48915,1,0,0:0:0:0:
187,155,49003,1,0,0:0:0:0:
187,155,49091,1,12,0:0:0:0:
204,172,49268,1,0,0:0:0:0:
154,97,49356,1,0,0:0:0:0:
206,131,49444,1,8,0:0:0:0:
206,131,49533,1,8,0:0:0:0:
221,220,49621,1,0,0:0:0:0:
221,220,49665,1,0,0:0:0:0:
221,220,49709,1,0,0:0:0:0:
221,220,49753,1,0,0:0:0:0:
221,220,49797,1,8,0:0:0:0:
201,197,49974,1,8,0:0:0:0:
206,93,50062,1,0,0:0:0:0:
211,88,50150,1,8,0:0:0:0:
206,131,50194,1,8,0:0:0:0:
206,131,50238,1,0,0:0:0:0:
206,131,50327,1,8,0:0:0:0:
176,154,50415,1,8,0:0:0:0:
220,117,50503,1,0,0:0:0:0:
196,193,50547,1,0,0:0:0:0:
171,172,50591,1,0,0:0:0:0:
176,172,50680,1,8,0:0:0:0:
212,150,50768,1,0,0:0:0:0:
202,118,50812,1,0,0:0:0:0:
202,118,50856,1,8,0:0:0:0:
188,49,50944,1,0,0:0:0:0:
188,103,51033,1,8,0:0:0:0:
191,113,51077,1,8,0:0:0:0:
192,86,51121,1,8,0:0:0:0:
232,164,51209,1,0,0:0:0:0:
178,90,51385,1,8,0:0:0:0:
212,150,51474,1,0,0:0:0:0:
196,105,51562,1,8,0:0:0:0:
196,105,51606,1,8,0:0:0:0:
196,105,51650,1,0,0:0:0:0:
199,134,51738,1,8,0:0:0:0:
192,141,51827,1,0,0:0:0:0:
192,141,51915,1,8,0:0:0:0:
242,193,52003,1,0,0:0:0:0:
190,100,52047,1,0,0:0:0:0:
190,100,52091,1,8,0:0:0:0:
190,100,52180,1,0,0:0:0:0:
219,121,52268,1,8,0:0:0:0:
186,137,52356,1,0,0:0:0:0:
187,137,52444,1,8,0:0:0:0:
188,137,52488,1,8,0:0:0:0:
188,137,52533,1,0,0:0:0:0:
188,137,52577,1,0,0:0:0:0:
190,138,52621,1,8,0:0:0:0:
248,170,52709,1,0,0:0:0:0:
201,197,52797,1,8,0:0:0:0:
206,93,52885,1,0,0:0:0:0:
211,88,52973,1,8,0:0:0:0:
206,131,53017,1,8,0:0:0:0:
206,131,53061,1,0,0:0:0:0:
179,125,53106,1,0,0:0:0:0:
229,179,53150,1,0,0:0:0:0:
176,154,53238,1,8,0:0:0:0:
220,117,53326,1,0,0:0:0:0:
196,193,53370,1,0,0:0:0:0:
171,172,53414,1,0,0:0:0:0:
176,172,53503,1,8,0:0:0:0:
212,150,53591,1,0,0:0:0:0:
202,118,53635,1,0,0:0:0:0:
202,118,53679,1,8,0:0:0:0:
188,49,53767,1,0,0:0:0:0:
188,103,53856,1,8,0:0:0:0:
191,113,53900,1,8,0:0:0:0:
192,86,53944,1,8,0:0:0:0:
232,164,54032,1,0,0:0:0:0:
178,90,54208,1,8,0:0:0:0:
212,150,54297,1,0,0:0:0:0:
196,105,54385,1,8,0:0:0:0:
196,105,54429,1,8,0:0:0:0:
196,105,54473,1,0,0:0:0:0:
199,134,54561,1,8,0:0:0:0:
192,141,54650,1,0,0:0:0:0:
192,141,54738,1,8,0:0:0:0:
242,193,54826,1,0,0:0:0:0:
190,100,54870,1,0,0:0:0:0:
190,100,54914,1,8,0:0:0:0:
200,143,54959,1,8,0:0:0:0:
175,142,55003,1,8,0:0:0:0:
187,162,55091,1,0,0:0:0:0:
219,153,55180,1,8,0:0:0:0:
199,120,55224,1,8,0:0:0:0:
199,120,55268,1,0,0:0:0:0:
166,177,55356,1,8,0:0:0:0:
191,162,55444,1,0,0:0:0:0:
206,93,55709,1,0,0:0:0:0:
149,162,55753,1,0,0:0:0:0:
211,88,55797,1,8,0:0:0:0:
206,131,55885,1,0,0:0:0:0:
206,131,55974,1,8,0:0:0:0:
176,154,56062,1,8,0:0:0:0:
220,117,56150,1,0,0:0:0:0:
196,193,56194,1,0,0:0:0:0:
171,172,56238,1,0,0:0:0:0:
176,172,56327,1,8,0:0:0:0:
212,150,56415,1,0,0:0:0:0:
202,118,56459,1,0,0:0:0:0:
202,118,56503,1,8,0:0:0:0:
188,49,56591,1,0,0:0:0:0:
188,103,56680,1,8,0:0:0:0:
191,113,56724,1,8,0:0:0:0:
192,86,56768,1,8,0:0:0:0:
232,164,56856,1,0,0:0:0:0:
178,90,57032,1,8,0:0:0:0:
212,150,57121,1,0,0:0:0:0:
196,105,57209,1,8,0:0:0:0:
196,105,57253,1,8,0:0:0:0:
196,105,57297,1,0,0:0:0:0:
199,134,57385,1,8,0:0:0:0:
192,141,57474,1,0,0:0:0:0:
192,141,57562,1,8,0:0:0:0:
242,193,57650,1,0,0:0:0:0:
190,100,57694,1,0,0:0:0:0:
190,100,57738,1,8,0:0:0:0:
190,100,57827,1,0,0:0:0:0:
219,121,57915,1,8,0:0:0:0:
184,125,58003,1,8,0:0:0:0:
184,125,58091,1,0,0:0:0:0:
184,125,58135,1,0,0:0:0:0:
188,137,58180,1,0,0:0:0:0:
188,137,58224,1,0,0:0:0:0:
190,138,58268,1,8,0:0:0:0:
248,170,58356,1,0,0:0:0:0:
201,197,58444,1,8,0:0:0:0:
206,93,58532,1,0,0:0:0:0:
211,88,58620,1,8,0:0:0:0:
206,131,58664,1,8,0:0:0:0:
206,131,58708,1,0,0:0:0:0:
179,125,58753,1,0,0:0:0:0:
240,153,58797,1,0,0:0:0:0:
240,153,58885,1,8,0:0:0:0:
185,101,58974,1,8,0:0:0:0:
216,161,59062,1,0,0:0:0:0:
216,161,59106,1,0,0:0:0:0:
216,161,59150,1,0,0:0:0:0:
216,161,59238,1,8,0:0:0:0:
216,161,59283,1,8,0:0:0:0:
216,161,59327,1,8,0:0:0:0:
204,116,59415,1,0,0:0:0:0:
199,109,59459,1,0,0:0:0:0:
199,109,59503,1,8,0:0:0:0:
254,202,59591,1,0,0:0:0:0:
211,192,59680,1,8,0:0:0:0:
224,160,59856,1,8,0:0:0:0:
191,182,59945,1,0,0:0:0:0:
214,160,60033,1,8,0:0:0:0:
230,138,60077,1,8,0:0:0:0:
191,190,60121,1,0,0:0:0:0:
191,190,60209,1,8,0:0:0:0:
244,192,60298,1,0,0:0:0:0:
197,212,60386,1,8,0:0:0:0:
266,166,60474,1,0,0:0:0:0:
221,77,60518,1,0,0:0:0:0:
221,77,60562,1,8,0:0:0:0:
173,167,60650,1,0,0:0:0:0:
218,172,60827,1,0,0:0:0:0:
201,122,60915,1,8,0:0:0:0:
214,150,61003,1,0,0:0:0:0:
214,150,61092,1,8,0:0:0:0:
243,164,61268,1,0,0:0:0:0:
196,165,61312,1,0,0:0:0:0:
196,171,61356,1,0,0:0:0:0:
196,171,61445,1,8,0:0:0:0:
185,94,61621,1,8,0:0:0:0:
186,83,61709,1,8,0:0:0:0:
196,101,61798,1,0,0:0:0:0:
196,132,61886,1,8,0:0:0:0:
196,139,61930,1,8,0:0:0:0:
196,139,61974,1,0,0:0:0:0:
215,163,62062,1,8,0:0:0:0:
215,163,62150,1,0,0:0:0:0:
215,163,62239,1,8,0:0:0:0:
210,155,62327,1,0,0:0:0:0:
212,149,62371,1,0,0:0:0:0:
212,149,62415,1,0,0:0:0:0:
212,149,62459,1,0,0:0:0:0:
212,149,62503,1,8,0:0:0:0:
224,160,62680,1,8,0:0:0:0:
191,182,62769,1,0,0:0:0:0:
214,160,62857,1,8,0:0:0:0:
230,138,62901,1,8,0:0:0:0:
191,190,62945,1,0,0:0:0:0:
191,190,63033,1,8,0:0:0:0:
244,192,63122,1,0,0:0:0:0:
197,212,63210,1,8,0:0:0:0:
266,166,63298,1,0,0:0:0:0:
221,77,63342,1,0,0:0:0:0:
221,77,63386,1,8,0:0:0:0:
173,167,63474,1,0,0:0:0:0:
218,172,63651,1,0,0:0:0:0:
214,150,63739,1,8,0:0:0:0:
214,150,63827,1,0,0:0:0:0:
214,150,63916,1,8,0:0:0:0:
243,164,64092,1,0,0:0:0:0:
196,165,64136,1,0,0:0:0:0:
196,171,64180,1,0,0:0:0:0:
196,171,64269,1,8,0:0:0:0:
185,94,64445,1,8,0:0:0:0:
197,80,64533,1,0,0:0:0:0:
173,85,64621,1,0,0:0:0:0:
181,68,64797,1,8,0:0:0:0:
181,69,64885,1,8,0:0:0:0:
167,90,64974,1,0,0:0:0:0:
202,130,65062,1,8,0:0:0:0:
202,130,65106,1,8,0:0:0:0:
202,130,65150,1,8,0:0:0:0:
202,130,65238,1,0,0:0:0:0:
196,96,65327,1,8,0:0:0:0:
224,160,65503,1,8,0:0:0:0:
191,182,65592,1,0,0:0:0:0:
214,160,65680,1,8,0:0:0:0:
230,138,65724,1,8,0:0:0:0:
191,190,65768,1,0,0:0:0:0:
191,190,65856,1,8,0:0:0:0:
244,192,65945,1,0,0:0:0:0:
197,212,66033,1,8,0:0:0:0:
266,166,66121,1,0,0:0:0:0:
221,77,66165,1,0,0:0:0:0:
221,77,66209,1,8,0:0:0:0:
173,167,66297,1,0,0:0:0:0:
218,172,66474,1,0,0:0:0:0:
214,150,66562,1,8,0:0:0:0:
214,150,66650,1,0,0:0:0:0:
214,150,66739,1,8,0:0:0:0:
243,164,66915,1,0,0:0:0:0:
196,165,66959,1,0,0:0:0:0:
196,171,67003,1,0,0:0:0:0:
196,171,67092,1,8,0:0:0:0:
185,94,67268,1,8,0:0:0:0:
186,83,67356,1,8,0:0:0:0:
196,101,67445,1,0,0:0:0:0:
196,132,67533,1,8,0:0:0:0:
196,139,67577,1,8,0:0:0:0:
196,139,67621,1,0,0:0:0:0:
215,163,67709,1,8,0:0:0:0:
215,163,67797,1,0,0:0:0:0:
215,163,67886,1,8,0:0:0:0:
210,155,67974,1,0,0:0:0:0:
212,149,68018,1,0,0:0:0:0:
212,149,68062,1,0,0:0:0:0:
212,149,68106,1,0,0:0:0:0:
212,149,68150,1,8,0:0:0:0:
224,160,68327,1,8,0:0:0:0:
191,182,68416,1,0,0:0:0:0:
214,160,68504,1,8,0:0:0:0:
230,138,68548,1,8,0:0:0:0:
191,190,68592,1,0,0:0:0:0:
191,190,68680,1,8,0:0:0:0:
244,192,68769,1,0,0:0:0:0:
197,212,68857,1,8,0:0:0:0:
266,166,68945,1,0,0:0:0:0:
221,77,68989,1,0,0:0:0:0:
221,77,69033,1,8,0:0:0:0:
173,167,69121,1,0,0:0:0:0:
218,172,69298,1,0,0:0:0:0:
214,150,69386,1,8,0:0:0:0:
214,150,69474,1,0,0:0:0:0:
214,150,69563,1,8,0:0:0:0:
243,164,69739,1,0,0:0:0:0:
196,165,69783,1,0,0:0:0:0:
196,171,69827,1,0,0:0:0:0:
196,171,69916,1,8,0:0:0:0:
185,94,70092,1,8,0:0:0:0:
197,80,70180,1,0,0:0:0:0:
193,79,70268,1,8,0:0:0:0:
165,73,70356,1,0,0:0:0:0:
165,73,70400,1,0,0:0:0:0:
201,137,70445,1,8,0:0:0:0:
195,126,70533,1,0,0:0:0:0:
193,126,70621,1,12,0:0:0:0:
233,194,70797,1,0,0:0:0:0:
233,194,70841,1,0,0:0:0:0:
233,194,70885,1,0,0:0:0:0:
233,194,70930,1,0,0:0:0:0:
233,194,70974,1,8,0:0:0:0:
232,173,71150,1,8,0:0:0:0:
262,182,71415,1,0,0:0:0:0:
262,182,71503,1,8,0:0:0:0:
248,198,71680,1,0,0:0:0:0:
241,198,71768,1,0,0:0:0:0:
241,198,71856,1,8,0:0:0:0:
195,148,71944,1,0,0:0:0:0:
240,198,72121,1,0,0:0:0:0:
195,148,72209,1,8,0:0:0:0:
197,128,72385,1,0,0:0:0:0:
194,137,72562,1,8,0:0:0:0:
197,129,72827,1,0,0:0:0:0:
194,137,72915,1,8,0:0:0:0:
209,119,73091,1,0,0:0:0:0:
190,126,73180,1,0,0:0:0:0:
190,126,73268,1,8,0:0:0:0:
209,119,73356,1,0,0:0:0:0:
176,95,73444,1,8,0:0:0:0:
209,119,73533,1,0,0:0:0:0:
261,121,73621,1,8,0:0:0:0:
244,140,73665,1,8,0:0:0:0:
244,139,73709,1,0,0:0:0:0:
244,139,73753,1,0,0:0:0:0:
243,139,73797,1,8,0:0:0:0:
232,173,73974,1,8,0:0:0:0:
262,182,74239,1,0,0:0:0:0:
262,182,74327,1,8,0:0:0:0:
248,198,74504,1,0,0:0:0:0:
241,198,74592,1,0,0:0:0:0:
241,198,74680,1,8,0:0:0:0:
195,148,74768,1,0,0:0:0:0:
240,198,74945,1,0,0:0:0:0:
195,148,75033,1,8,0:0:0:0:
197,128,75209,1,0,0:0:0:0:
194,137,75386,1,8,0:0:0:0:
197,129,75651,1,0,0:0:0:0:
194,137,75739,1,8,0:0:0:0:
209,119,75915,1,0,0:0:0:0:
190,126,76092,1,8,0:0:0:0:
206,134,76180,1,0,0:0:0:0:
202,156,76268,1,0,0:0:0:0:
202,156,76356,1,8,0:0:0:0:
202,156,76400,1,8,0:0:0:0:
202,156,76444,1,8,0:0:0:0:
203,148,76533,1,0,0:0:0:0:
203,148,76621,1,8,0:0:0:0:
232,173,76797,1,8,0:0:0:0:
262,182,77062,1,0,0:0:0:0:
262,182,77150,1,8,0:0:0:0:
248,198,77327,1,0,0:0:0:0:
181,97,77415,1,8,0:0:0:0:
191,105,77503,1,0,0:0:0:0:
191,105,77547,1,0,0:0:0:0:
193,105,77591,1,8,0:0:0:0:
240,198,77768,1,0,0:0:0:0:
195,148,77856,1,8,0:0:0:0:
197,128,78032,1,0,0:0:0:0:
194,137,78209,1,8,0:0:0:0:
221,94,78385,1,8,0:0:0:0:
221,94,78430,1,8,0:0:0:0:
197,129,78474,1,0,0:0:0:0:
194,137,78562,1,8,0:0:0:0:
209,119,78738,1,0,0:0:0:0:
217,120,78827,1,0,0:0:0:0:
190,126,78915,1,8,0:0:0:0:
216,109,78959,1,8,0:0:0:0:
189,86,79003,1,8,0:0:0:0:
189,86,79091,1,0,0:0:0:0:
194,62,79180,1,8,0:0:0:0:
200,78,79268,1,0,0:0:0:0:
201,78,79312,1,0,0:0:0:0:
200,78,79356,1,0,0:0:0:0:
244,139,79400,1,0,0:0:0:0:
243,139,79444,1,8,0:0:0:0:
232,173,79621,1,8,0:0:0:0:
262,182,79886,1,0,0:0:0:0:
262,182,79974,1,8,0:0:0:0:
248,198,80151,1,0,0:0:0:0:
181,97,80239,1,8,0:0:0:0:
191,105,80327,1,0,0:0:0:0:
191,105,80371,1,0,0:0:0:0:
193,105,80415,1,8,0:0:0:0:
240,198,80592,1,0,0:0:0:0:
195,148,80680,1,8,0:0:0:0:
197,128,80856,1,0,0:0:0:0:
194,137,81033,1,8,0:0:0:0:
221,94,81209,1,8,0:0:0:0:
221,94,81254,1,8,0:0:0:0:
197,129,81298,1,0,0:0:0:0:
194,137,81386,1,8,0:0:0:0:
209,119,81562,1,12,0:0:0:0:
87,59,81738,1,0,0:0:0:0:
135,126,81783,1,0,0:0:0:0:
189,86,81827,1,8,0:0:0:0:
189,86,81915,1,0,0:0:0:0:
194,62,82004,1,8,0:0:0:0:
200,78,82092,1,0,0:0:0:0:
201,78,82136,1,0,0:0:0:0:
177,141,82180,1,0,0:0:0:0:
177,141,82224,1,0,0:0:0:0:
192,202,82268,1,12,0:0:0:0:
182,168,82444,1,12,0:0:0:0:
263,175,82621,1,0,0:0:0:0:
263,175,82709,1,0,0:0:0:0:
263,175,82797,1,8,0:0:0:0:
186,121,82974,1,0,0:0:0:0:
186,121,83062,1,0,0:0:0:0:
186,121,83150,1,8,0:0:0:0:
187,130,83327,1,0,0:0:0:0:
192,102,83415,1,0,0:0:0:0:
186,91,83503,1,8,0:0:0:0:
208,98,83680,1,4,0:0:0:0:
205,134,83856,1,4,0:0:0:0:
208,105,84033,1,8,0:0:0:0:
209,105,84121,1,8,0:0:0:0:
209,105,84209,1,0,0:0:0:0:
212,108,84386,1,8,0:0:0:0:
213,108,84474,1,8,0:0:0:0:
213,108,84562,1,0,0:0:0:0:
185,68,84739,1,8,0:0:0:0:
214,108,84827,1,8,0:0:0:0:
216,168,84915,1,0,0:0:0:0:
216,168,84959,1,0,0:0:0:0:
219,172,85003,1,0,0:0:0:0:
216,168,85047,1,0,0:0:0:0:
192,202,85092,1,12,0:0:0:0:
182,168,85268,1,12,0:0:0:0:
263,175,85445,1,0,0:0:0:0:
263,175,85533,1,0,0:0:0:0:
263,175,85621,1,8,0:0:0:0:
186,121,85798,1,0,0:0:0:0:
186,121,85886,1,0,0:0:0:0:
186,121,85974,1,8,0:0:0:0:
187,130,86151,1,0,0:0:0:0:
192,102,86239,1,0,0:0:0:0:
186,91,86327,1,8,0:0:0:0:
208,98,86504,1,4,0:0:0:0:
205,134,86680,1,4,0:0:0:0:
208,105,86857,1,8,0:0:0:0:
209,105,86945,1,8,0:0:0:0:
209,105,87033,1,0,0:0:0:0:
212,108,87209,1,8,0:0:0:0:
213,108,87297,1,8,0:0:0:0:
213,108,87385,1,0,0:0:0:0:
194,169,87473,1,0,0:0:0:0:
190,142,87561,1,8,0:0:0:0:
184,99,87649,1,0,0:0:0:0:
186,135,87693,1,0,0:0:0:0:
201,136,87738,1,8,0:0:0:0:
193,123,87826,1,0,0:0:0:0:
196,161,87915,1,12,0:0:0:0:
192,120,88092,1,12,0:0:0:0:
200,112,88268,1,0,0:0:0:0:
208,112,88356,1,0,0:0:0:0:
200,112,88444,1,8,0:0:0:0:
192,136,88621,1,4,0:0:0:0:
201,136,88797,1,4,0:0:0:0:
208,104,88974,1,8,0:0:0:0:
208,104,89062,1,8,0:0:0:0:
208,104,89150,1,0,0:0:0:0:
224,128,89327,1,12,0:0:0:0:
192,120,89504,1,12,0:0:0:0:
200,112,89680,1,0,0:0:0:0:
208,112,89768,1,0,0:0:0:0:
200,112,89856,1,8,0:0:0:0:
192,136,90033,1,4,0:0:0:0:
201,136,90209,1,4,0:0:0:0:
208,104,90386,1,8,0:0:0:0:
208,104,90474,1,8,0:0:0:0:
208,104,90562,1,0,0:0:0:0:
280,200,90606,1,0,0:0:0:0:
280,200,90650,1,0,0:0:0:0:
280,200,90694,1,0,0:0:0:0:
192,120,90739,1,12,0:0:0:0:
216,144,90915,1,0,0:0:0:0:
216,144,91003,1,0,0:0:0:0:
208,128,91092,1,12,0:0:0:0:
216,144,91268,1,0,0:0:0:0:
216,144,91356,1,0,0:0:0:0:
208,128,91445,1,12,0:0:0:0:
216,144,91621,1,0,0:0:0:0:
216,144,91709,1,0,0:0:0:0:
208,128,91798,1,12,0:0:0:0:
168,176,91974,1,0,0:0:0:0:
168,176,92062,1,0,0:0:0:0:
200,144,92150,1,12,0:0:0:0:
192,112,92327,1,8,0:0:0:0:
208,128,92415,1,0,0:0:0:0:
200,128,92459,1,0,0:0:0:0:
208,112,92503,1,8,0:0:0:0:
192,104,92592,1,0,0:0:0:0:
208,168,92680,1,8,0:0:0:0:
192,120,92768,1,0,0:0:0:0:
208,104,92856,1,8,0:0:0:0:
208,104,92900,1,8,0:0:0:0:
208,104,92944,1,8,0:0:0:0:
192,96,93033,1,0,0:0:0:0:
216,144,93209,1,0,0:0:0:0:
208,120,93297,1,0,0:0:0:0:
192,88,93386,1,8,0:0:0:0:
192,88,93430,1,8,0:0:0:0:
192,88,93474,1,0,0:0:0:0:
192,88,93518,1,0,0:0:0:0:
176,40,93562,1,8,0:0:0:0:
296,188,98503,5,8,0:0:0:0:
176,201,98768,1,0,0:0:0:0:
213,192,98812,1,0,0:0:0:0:
213,192,98856,1,8,0:0:0:0:
221,165,98944,1,0,0:0:0:0:
221,165,99033,1,8,0:0:0:0:
221,165,99077,1,8,0:0:0:0:
215,165,99121,1,0,0:0:0:0:
214,165,99165,1,0,0:0:0:0:
212,165,99209,1,8,0:0:0:0:
209,132,99385,1,8,0:0:0:0:
216,132,99562,1,0,0:0:0:0:
216,132,99650,1,0,0:0:0:0:
216,132,99738,1,8,0:0:0:0:
197,104,99915,1,0,0:0:0:0:
207,108,100091,1,8,0:0:0:0:
209,108,100268,1,0,0:0:0:0:
209,108,100356,1,0,0:0:0:0:
209,108,100444,1,8,0:0:0:0:
199,92,100621,1,8,0:0:0:0:
199,92,100797,1,8,0:0:0:0:
199,93,100974,1,0,0:0:0:0:
269,197,101062,1,0,0:0:0:0:
269,197,101150,1,8,0:0:0:0:
269,197,101327,1,8,0:0:0:0:
269,197,101503,1,8,0:0:0:0:
224,155,101680,1,8,0:0:0:0:
224,155,101768,1,8,0:0:0:0:
223,229,101856,1,0,0:0:0:0:
223,229,101900,1,0,0:0:0:0:
223,229,101944,1,0,0:0:0:0:
223,229,101988,1,0,0:0:0:0:
223,229,102033,1,8,0:0:0:0:
201,80,102209,1,8,0:0:0:0:
205,87,102385,1,0,0:0:0:0:
205,87,102474,1,0,0:0:0:0:
198,85,102562,1,8,0:0:0:0:
225,135,102738,1,0,0:0:0:0:
227,138,102915,1,8,0:0:0:0:
202,87,103091,1,0,0:0:0:0:
202,87,103180,1,0,0:0:0:0:
205,87,103268,1,8,0:0:0:0:
221,183,103444,1,8,0:0:0:0:
248,203,103621,1,8,0:0:0:0:
248,203,103797,1,0,0:0:0:0:
248,203,103885,1,0,0:0:0:0:
230,185,103974,1,8,0:0:0:0:
230,185,104150,1,0,0:0:0:0:
188,139,104327,1,0,0:0:0:0:
228,186,104415,1,0,0:0:0:0:
230,185,104503,1,12,0:0:0:0:
242,137,104680,1,0,0:0:0:0:
192,237,104724,1,0,0:0:0:0:
192,237,104768,1,0,0:0:0:0:
192,237,104812,1,0,0:0:0:0:
204,214,104856,1,8,0:0:0:0:
146,160,105033,1,8,0:0:0:0:
265,182,105209,1,0,0:0:0:0:
187,120,105297,1,0,0:0:0:0:
187,120,105385,1,8,0:0:0:0:
182,109,105474,1,0,0:0:0:0:
187,120,105518,1,0,0:0:0:0:
212,125,105562,1,0,0:0:0:0:
196,101,105650,1,8,0:0:0:0:
202,105,105738,1,0,0:0:0:0:
172,112,105827,1,8,0:0:0:0:
172,112,105871,1,8,0:0:0:0:
178,113,105915,1,0,0:0:0:0:
206,145,106091,1,8,0:0:0:0:
223,142,106268,1,8,0:0:0:0:
234,191,106312,1,8,0:0:0:0:
234,191,106356,1,0,0:0:0:0:
196,144,106444,1,8,0:0:0:0:
196,144,106533,1,0,0:0:0:0:
196,144,106621,1,8,0:0:0:0:
196,144,106665,1,8,0:0:0:0:
196,144,106709,1,0,0:0:0:0:
195,142,106797,1,8,0:0:0:0:
258,204,106885,1,0,0:0:0:0:
206,207,107680,5,8,0:0:0:0:
162,93,108385,1,8,0:0:0:0:
202,157,109091,1,0,0:0:0:0:
182,128,110503,1,8,0:0:0:0:
183,158,111209,1,8,0:0:0:0:
183,158,111915,1,0,0:0:0:0:
236,179,112885,1,8,0:0:0:0:
236,179,112930,1,8,0:0:0:0:
208,146,112974,1,0,0:0:0:0:
203,80,113150,1,8,0:0:0:0:
207,116,113327,1,0,0:0:0:0:
207,116,113503,1,0,0:0:0:0:
198,115,113679,1,8,0:0:0:0:
198,115,113768,1,8,0:0:0:0:
198,115,113856,1,0,0:0:0:0:
198,115,114032,1,8,0:0:0:0:
198,115,114121,1,8,0:0:0:0:
198,115,114209,1,0,0:0:0:0:
198,115,114297,1,0,0:0:0:0:
198,115,114385,1,8,0:0:0:0:
188,157,114562,1,8,0:0:0:0:
190,112,114650,1,0,0:0:0:0:
190,112,114738,1,8,0:0:0:0:
190,112,114915,1,0,0:0:0:0:
190,112,115091,1,8,0:0:0:0:
191,75,115179,1,0,0:0:0:0:
191,75,115268,1,0,0:0:0:0:
191,75,115444,1,8,0:0:0:0:
191,75,115532,1,0,0:0:0:0:
191,75,115621,1,0,0:0:0:0:
191,75,115709,1,0,0:0:0:0:
191,75,115797,1,8,0:0:0:0:
207,147,115974,1,0,0:0:0:0:
184,95,116150,1,8,0:0:0:0:
167,75,116327,1,0,0:0:0:0:
206,154,116415,1,0,0:0:0:0:
206,154,116503,1,8,0:0:0:0:
181,129,116680,1,0,0:0:0:0:
181,129,116768,1,0,0:0:0:0:
231,202,116856,1,12,0:0:0:0:
204,172,117033,1,0,0:0:0:0:
154,97,117121,1,0,0:0:0:0:
206,131,117209,1,8,0:0:0:0:
206,131,117298,1,8,0:0:0:0:
221,220,117386,1,0,0:0:0:0:
221,220,117430,1,0,0:0:0:0:
221,220,117474,1,0,0:0:0:0:
221,220,117518,1,0,0:0:0:0:
221,220,117562,1,8,0:0:0:0:
201,197,117739,1,8,0:0:0:0:
206,93,117827,1,0,0:0:0:0:
211,88,117915,1,8,0:0:0:0:
206,131,117959,1,8,0:0:0:0:
206,131,118003,1,0,0:0:0:0:
206,131,118092,1,8,0:0:0:0:
176,154,118180,1,8,0:0:0:0:
220,117,118268,1,0,0:0:0:0:
196,193,118312,1,0,0:0:0:0:
171,172,118356,1,0,0:0:0:0:
176,172,118445,1,8,0:0:0:0:
212,150,118533,1,0,0:0:0:0:
202,118,118577,1,0,0:0:0:0:
202,118,118621,1,8,0:0:0:0:
188,49,118709,1,0,0:0:0:0:
188,103,118798,1,8,0:0:0:0:
191,113,118842,1,8,0:0:0:0:
192,86,118886,1,8,0:0:0:0:
232,164,118974,1,0,0:0:0:0:
178,90,119150,1,8,0:0:0:0:
212,150,119239,1,0,0:0:0:0:
196,105,119327,1,8,0:0:0:0:
196,105,119371,1,8,0:0:0:0:
196,105,119415,1,0,0:0:0:0:
199,134,119503,1,8,0:0:0:0:
192,141,119592,1,0,0:0:0:0:
192,141,119680,1,8,0:0:0:0:
242,193,119768,1,0,0:0:0:0:
190,100,119812,1,0,0:0:0:0:
190,100,119856,1,8,0:0:0:0:
190,100,119945,1,0,0:0:0:0:
219,121,120033,1,8,0:0:0:0:
186,137,120121,1,0,0:0:0:0:
187,137,120209,1,8,0:0:0:0:
188,137,120253,1,8,0:0:0:0:
188,137,120298,1,0,0:0:0:0:
188,137,120342,1,0,0:0:0:0:
190,138,120386,1,8,0:0:0:0:
248,170,120474,1,0,0:0:0:0:
201,197,120562,1,8,0:0:0:0:
206,93,120650,1,0,0:0:0:0:
211,88,120738,1,8,0:0:0:0:
206,131,120782,1,8,0:0:0:0:
206,131,120826,1,0,0:0:0:0:
179,125,120871,1,0,0:0:0:0:
229,179,120915,1,0,0:0:0:0:
176,154,121003,1,8,0:0:0:0:
220,117,121091,1,0,0:0:0:0:
196,193,121135,1,0,0:0:0:0:
171,172,121179,1,0,0:0:0:0:
176,172,121268,1,8,0:0:0:0:
212,150,121356,1,0,0:0:0:0:
202,118,121400,1,0,0:0:0:0:
202,118,121444,1,8,0:0:0:0:
188,49,121532,1,0,0:0:0:0:
188,103,121621,1,8,0:0:0:0:
191,113,121665,1,8,0:0:0:0:
192,86,121709,1,8,0:0:0:0:
232,164,121797,1,0,0:0:0:0:
178,90,121973,1,8,0:0:0:0:
212,150,122062,1,0,0:0:0:0:
196,105,122150,1,8,0:0:0:0:
196,105,122194,1,8,0:0:0:0:
196,105,122238,1,0,0:0:0:0:
199,134,122326,1,8,0:0:0:0:
192,141,122415,1,0,0:0:0:0:
192,141,122503,1,8,0:0:0:0:
242,193,122591,1,0,0:0:0:0:
190,100,122635,1,0,0:0:0:0:
190,100,122679,1,8,0:0:0:0:
200,143,122724,1,8,0:0:0:0:
175,142,122768,1,8,0:0:0:0:
187,162,122856,1,0,0:0:0:0:
219,153,122945,1,8,0:0:0:0:
199,120,122989,1,8,0:0:0:0:
199,120,123033,1,0,0:0:0:0:
166,177,123121,1,8,0:0:0:0:
191,162,123209,1,0,0:0:0:0:
206,93,123474,1,0,0:0:0:0:
149,162,123518,1,0,0:0:0:0:
211,88,123562,1,8,0:0:0:0:
206,131,123650,1,0,0:0:0:0:
206,131,123739,1,8,0:0:0:0:
176,154,123827,1,8,0:0:0:0:
220,117,123915,1,0,0:0:0:0:
196,193,123959,1,0,0:0:0:0:
171,172,124003,1,0,0:0:0:0:
176,172,124092,1,8,0:0:0:0:
212,150,124180,1,0,0:0:0:0:
202,118,124224,1,0,0:0:0:0:
202,118,124268,1,8,0:0:0:0:
188,49,124356,1,0,0:0:0:0:
188,103,124445,1,8,0:0:0:0:
191,113,124489,1,8,0:0:0:0:
192,86,124533,1,8,0:0:0:0:
232,164,124621,1,0,0:0:0:0:
178,90,124797,1,8,0:0:0:0:
212,150,124886,1,0,0:0:0:0:
196,105,124974,1,8,0:0:0:0:
196,105,125018,1,8,0:0:0:0:
196,105,125062,1,0,0:0:0:0:
199,134,125150,1,8,0:0:0:0:
192,141,125239,1,0,0:0:0:0:
192,141,125327,1,8,0:0:0:0:
242,193,125415,1,0,0:0:0:0:
190,100,125459,1,0,0:0:0:0:
190,100,125503,1,8,0:0:0:0:
190,100,125592,1,0,0:0:0:0:
219,121,125680,1,8,0:0:0:0:
184,125,125768,1,8,0:0:0:0:
184,125,125856,1,0,0:0:0:0:
184,125,125900,1,0,0:0:0:0:
188,137,125945,1,0,0:0:0:0:
188,137,125989,1,0,0:0:0:0:
190,138,126033,1,8,0:0:0:0:
248,170,126121,1,0,0:0:0:0:
201,197,126209,1,8,0:0:0:0:
206,93,126297,1,0,0:0:0:0:
211,88,126385,1,8,0:0:0:0:
206,131,126429,1,8,0:0:0:0:
206,131,126473,1,0,0:0:0:0:
179,125,126518,1,0,0:0:0:0:
240,153,126562,1,0,0:0:0:0:
240,153,126650,1,8,0:0:0:0:
185,101,126739,1,8,0:0:0:0:
216,161,126827,1,0,0:0:0:0:
216,161,126871,1,0,0:0:0:0:
218,185,126915,1,8,0:0:0:0:
203,166,127003,1,0,0:0:0:0:
216,161,127091,1,12,0:0:0:0:
206,131,127444,1,0,0:0:0:0:
232,173,127620,1,8,0:0:0:0:
200,143,127797,1,8,0:0:0:0:
200,143,127841,1,8,0:0:0:0:
200,143,127885,1,0,0:0:0:0:
199,137,127974,1,8,0:0:0:0:
196,132,128062,1,0,0:0:0:0:
198,134,128150,1,0,0:0:0:0:
158,105,128238,1,8,0:0:0:0:
158,105,128327,1,0,0:0:0:0:
158,105,128371,1,0,0:0:0:0:
200,133,128415,1,8,0:0:0:0:
178,90,128503,1,0,0:0:0:0:
187,102,128591,1,0,0:0:0:0:
197,114,128680,1,8,0:0:0:0:
246,136,128724,1,8,0:0:0:0:
246,136,128768,1,8,0:0:0:0:
209,99,128856,1,0,0:0:0:0:
241,164,129033,1,8,0:0:0:0:
200,143,129209,1,8,0:0:0:0:
200,143,129253,1,8,0:0:0:0:
200,143,129297,1,0,0:0:0:0:
199,137,129386,1,8,0:0:0:0:
196,132,129474,1,0,0:0:0:0:
198,134,129562,1,0,0:0:0:0:
206,201,129650,1,0,0:0:0:0:
128,152,129738,1,8,0:0:0:0:
200,143,129827,1,0,0:0:0:0:
200,143,129871,1,0,0:0:0:0:
200,143,129915,1,8,0:0:0:0:
187,102,130003,1,0,0:0:0:0:
197,114,130092,1,8,0:0:0:0:
190,117,130135,1,8,0:0:0:0:
190,117,130180,1,0,0:0:0:0:
190,117,130224,1,0,0:0:0:0:
222,191,130268,1,8,0:0:0:0:
233,155,130444,1,8,0:0:0:0:
201,125,130621,1,8,0:0:0:0:
201,125,130665,1,8,0:0:0:0:
201,125,130709,1,0,0:0:0:0:
200,119,130798,1,8,0:0:0:0:
197,114,130886,1,0,0:0:0:0:
199,116,130974,1,0,0:0:0:0:
159,87,131062,1,8,0:0:0:0:
159,87,131151,1,0,0:0:0:0:
159,87,131195,1,0,0:0:0:0:
201,115,131239,1,8,0:0:0:0:
179,72,131327,1,0,0:0:0:0:
188,84,131415,1,0,0:0:0:0:
198,96,131504,1,8,0:0:0:0:
247,118,131548,1,8,0:0:0:0:
247,118,131592,1,8,0:0:0:0:
210,81,131680,1,0,0:0:0:0:
242,146,131857,1,8,0:0:0:0:
201,125,132033,1,8,0:0:0:0:
201,125,132077,1,8,0:0:0:0:
201,125,132121,1,0,0:0:0:0:
200,119,132210,1,8,0:0:0:0:
197,114,132298,1,0,0:0:0:0:
154,137,132385,1,8,0:0:0:0:
187,166,132474,1,8,0:0:0:0:
203,108,132562,1,0,0:0:0:0:
197,162,132650,1,8,0:0:0:0:
197,162,132694,1,8,0:0:0:0:
197,162,132738,1,8,0:0:0:0:
197,162,132827,1,0,0:0:0:0:
196,161,132871,1,0,0:0:0:0:
197,162,132915,1,0,0:0:0:0:
198,156,133003,1,8,0:0:0:0:
206,124,133091,1,0,0:0:0:0:
232,173,133268,1,8,0:0:0:0:
200,143,133445,1,8,0:0:0:0:
200,143,133489,1,8,0:0:0:0:
200,143,133533,1,0,0:0:0:0:
199,137,133622,1,8,0:0:0:0:
196,132,133710,1,0,0:0:0:0:
198,134,133798,1,0,0:0:0:0:
158,105,133886,1,8,0:0:0:0:
158,105,133975,1,0,0:0:0:0:
158,105,134019,1,0,0:0:0:0:
200,133,134063,1,8,0:0:0:0:
178,90,134151,1,0,0:0:0:0:
187,102,134239,1,0,0:0:0:0:
197,114,134328,1,8,0:0:0:0:
246,136,134372,1,8,0:0:0:0:
246,136,134416,1,8,0:0:0:0:
209,99,134504,1,0,0:0:0:0:
241,164,134681,1,8,0:0:0:0:
200,143,134857,1,8,0:0:0:0:
200,143,134901,1,8,0:0:0:0:
200,143,134945,1,0,0:0:0:0:
199,137,135034,1,8,0:0:0:0:
196,132,135122,1,0,0:0:0:0:
198,134,135210,1,0,0:0:0:0:
206,201,135298,1,0,0:0:0:0:
128,152,135386,1,8,0:0:0:0:
200,143,135475,1,0,0:0:0:0:
200,143,135519,1,0,0:0:0:0:
200,143,135563,1,8,0:0:0:0:
187,102,135651,1,0,0:0:0:0:
197,114,135738,1,8,0:0:0:0:
190,117,135783,1,8,0:0:0:0:
190,117,135827,1,0,0:0:0:0:
190,117,135871,1,0,0:0:0:0:
222,191,135915,1,8,0:0:0:0:
233,155,136091,1,8,0:0:0:0:
201,125,136268,1,8,0:0:0:0:
201,125,136312,1,8,0:0:0:0:
201,125,136356,1,0,0:0:0:0:
200,119,136444,1,8,0:0:0:0:
197,114,136533,1,0,0:0:0:0:
199,116,136621,1,0,0:0:0:0:
159,87,136709,1,8,0:0:0:0:
159,87,136797,1,0,0:0:0:0:
159,87,136841,1,0,0:0:0:0:
201,115,136885,1,8,0:0:0:0:
179,72,136974,1,0,0:0:0:0:
188,84,137062,1,0,0:0:0:0:
198,96,137150,1,8,0:0:0:0:
247,118,137194,1,8,0:0:0:0:
247,118,137238,1,8,0:0:0:0:
210,81,137327,1,0,0:0:0:0:
242,146,137503,1,8,0:0:0:0:
201,125,137680,1,8,0:0:0:0:
201,125,137724,1,8,0:0:0:0:
201,125,137768,1,0,0:0:0:0:
200,119,137856,1,8,0:0:0:0:
197,114,137944,1,0,0:0:0:0:
154,137,138033,1,8,0:0:0:0:
212,136,138077,1,8,0:0:0:0:
187,166,138121,1,8,0:0:0:0:
203,108,138209,1,0,0:0:0:0:
184,150,138297,1,0,0:0:0:0:
190,86,138385,1,12,0:0:0:0:
231,135,138562,1,0,0:0:0:0:
231,135,138606,1,0,0:0:0:0:
230,136,138650,1,0,0:0:0:0:
230,136,138694,1,0,0:0:0:0:
192,202,138738,1,12,0:0:0:0:
182,168,138914,1,12,0:0:0:0:
263,175,139091,1,0,0:0:0:0:
263,175,139179,1,0,0:0:0:0:
263,175,139267,1,8,0:0:0:0:
186,121,139444,1,0,0:0:0:0:
186,121,139532,1,0,0:0:0:0:
186,121,139620,1,8,0:0:0:0:
187,130,139797,1,0,0:0:0:0:
192,102,139885,1,0,0:0:0:0:
186,91,139973,1,8,0:0:0:0:
208,98,140150,1,4,0:0:0:0:
205,134,140326,1,4,0:0:0:0:
208,105,140503,1,8,0:0:0:0:
209,105,140591,1,8,0:0:0:0:
209,105,140679,1,0,0:0:0:0:
212,108,140856,1,8,0:0:0:0:
213,108,140944,1,8,0:0:0:0:
213,108,141032,1,0,0:0:0:0:
185,68,141209,1,8,0:0:0:0:
214,108,141297,1,8,0:0:0:0:
216,168,141385,1,0,0:0:0:0:
216,168,141429,1,0,0:0:0:0:
219,172,141473,1,0,0:0:0:0:
216,168,141517,1,0,0:0:0:0:
192,202,141562,1,12,0:0:0:0:
182,168,141738,1,12,0:0:0:0:
263,175,141915,1,0,0:0:0:0:
263,175,142003,1,0,0:0:0:0:
263,175,142091,1,8,0:0:0:0:
186,121,142268,1,0,0:0:0:0:
186,121,142356,1,0,0:0:0:0:
186,121,142444,1,8,0:0:0:0:
187,130,142621,1,0,0:0:0:0:
192,102,142709,1,0,0:0:0:0:
186,91,142797,1,8,0:0:0:0:
208,98,142974,1,4,0:0:0:0:
205,134,143150,1,4,0:0:0:0:
208,105,143327,1,8,0:0:0:0:
209,105,143415,1,8,0:0:0:0:
209,105,143503,1,0,0:0:0:0:
212,108,143680,1,8,0:0:0:0:
213,108,143768,1,8,0:0:0:0:
213,108,143856,1,0,0:0:0:0:
194,169,143944,1,0,0:0:0:0:
190,142,144032,1,8,0:0:0:0:
184,99,144120,1,0,0:0:0:0:
186,135,144164,1,0,0:0:0:0:
201,136,144209,1,8,0:0:0:0:
193,123,144297,1,0,0:0:0:0:
192,202,144385,1,12,0:0:0:0:
182,168,144561,1,12,0:0:0:0:
263,175,144738,1,0,0:0:0:0:
263,175,144826,1,0,0:0:0:0:
263,175,144914,1,8,0:0:0:0:
186,121,145091,1,0,0:0:0:0:
186,121,145179,1,0,0:0:0:0:
186,121,145267,1,8,0:0:0:0:
187,130,145444,1,0,0:0:0:0:
192,102,145532,1,0,0:0:0:0:
186,91,145620,1,8,0:0:0:0:
208,98,145797,1,4,0:0:0:0:
205,134,145973,1,4,0:0:0:0:
208,105,146150,1,8,0:0:0:0:
209,105,146238,1,8,0:0:0:0:
209,105,146326,1,0,0:0:0:0:
212,108,146503,1,8,0:0:0:0:
213,108,146591,1,8,0:0:0:0:
213,108,146679,1,0,0:0:0:0:
185,68,146856,1,8,0:0:0:0:
214,108,146944,1,8,0:0:0:0:
216,168,147032,1,0,0:0:0:0:
216,168,147076,1,0,0:0:0:0:
219,172,147120,1,0,0:0:0:0:
216,168,147164,1,0,0:0:0:0:
192,202,147209,1,12,0:0:0:0:
182,168,147385,1,12,0:0:0:0:
263,175,147562,1,0,0:0:0:0:
263,175,147650,1,0,0:0:0:0:
263,175,147738,1,8,0:0:0:0:
186,121,147915,1,0,0:0:0:0:
186,121,148003,1,0,0:0:0:0:
186,121,148091,1,8,0:0:0:0:
187,130,148268,1,0,0:0:0:0:
192,102,148356,1,0,0:0:0:0:
186,91,148444,1,8,0:0:0:0:
208,98,148621,1,4,0:0:0:0:
205,134,148797,1,4,0:0:0:0:
208,105,148974,1,8,0:0:0:0:
209,105,149062,5,8,0:0:0:0:
209,105,149150,1,0,0:0:0:0:
212,108,149327,1,8,0:0:0:0:
213,108,149415,1,8,0:0:0:0:
213,108,149503,1,0,0:0:0:0:
194,169,149591,1,0,0:0:0:0:
190,142,149679,1,8,0:0:0:0:
184,99,149767,1,0,0:0:0:0:
186,135,149811,1,0,0:0:0:0:
201,136,149856,1,8,0:0:0:0:
193,123,149944,1,0,0:0:0:0:
261,194,150033,1,12,0:0:0:0:
192,120,150210,5,12,0:0:0:0:
200,112,150386,1,0,0:0:0:0:
208,112,150474,1,0,0:0:0:0:
200,112,150562,1,8,0:0:0:0:
192,136,150739,1,4,0:0:0:0:
201,136,150915,1,4,0:0:0:0:
208,104,151092,1,8,0:0:0:0:
208,104,151180,1,8,0:0:0:0:
208,104,151268,1,0,0:0:0:0:
224,128,151445,1,12,0:0:0:0:
192,120,151622,1,12,0:0:0:0:
200,112,151798,1,0,0:0:0:0:
208,112,151886,1,0,0:0:0:0:
200,112,151974,1,8,0:0:0:0:
192,136,152151,1,4,0:0:0:0:
201,136,152327,1,4,0:0:0:0:
208,104,152504,1,8,0:0:0:0:
208,104,152592,1,8,0:0:0:0:
208,104,152680,1,0,0:0:0:0:
280,200,152724,1,0,0:0:0:0:
280,200,152768,1,0,0:0:0:0:
280,200,152812,1,0,0:0:0:0:
192,120,152857,1,12,0:0:0:0:
216,144,153033,1,0,0:0:0:0:
216,144,153121,1,0,0:0:0:0:
208,128,153210,1,12,0:0:0:0:
216,144,153386,1,0,0:0:0:0:
216,144,153474,1,0,0:0:0:0:
208,128,153563,1,12,0:0:0:0:
216,144,153739,1,0,0:0:0:0:
216,144,153827,1,0,0:0:0:0:
208,128,153916,1,12,0:0:0:0:
168,176,154092,1,0,0:0:0:0:
168,176,154180,1,0,0:0:0:0:
200,144,154268,1,12,0:0:0:0:
192,112,154445,1,8,0:0:0:0:
208,128,154533,1,0,0:0:0:0:
200,128,154577,1,0,0:0:0:0:
208,112,154621,1,8,0:0:0:0:
192,104,154710,1,0,0:0:0:0:
208,168,154798,1,8,0:0:0:0:
192,120,154886,1,0,0:0:0:0:
208,104,154974,1,8,0:0:0:0:
208,104,155018,1,8,0:0:0:0:
208,104,155062,1,8,0:0:0:0:
192,96,155151,1,0,0:0:0:0:
216,144,155327,1,0,0:0:0:0:
208,120,155415,1,0,0:0:0:0:
192,88,155504,1,8,0:0:0:0:
192,88,155548,1,8,0:0:0:0:
192,88,155592,1,0,0:0:0:0:
192,88,155636,1,0,0:0:0:0:
176,40,155680,1,12,0:0:0:0:
