osu file format v14

[General]
AudioFilename: audio.mp3
AudioLeadIn: 0
PreviewTime: 49775
Countdown: 0
SampleSet: Normal
StackLeniency: 0.7
Mode: 1
LetterboxInBreaks: 0
WidescreenStoryboard: 1

[Editor]
Bookmarks: 27033,62150,132738,149503
DistanceSpacing: 1.2
BeatDivisor: 4
GridSize: 8
TimelineZoom: 1.340001

[Metadata]
Title:Lost Umbrella (7_7 bootleg)
TitleUnicode:ロストアンブレラ (7_7 bootleg)
Artist:inabakumori
ArtistUnicode:稲葉曇
Creator:Horiiizon
Version:Muzukashii
Source:
Tags:7_7 Genjuro Hivie electronic japanese rock j-rock jrock breakcore kaai yuki 歌愛ユキ nukunuku nigirimeshi ぬくぬくにぎりめし vocaloid cumori アンチサイクロン ANTICYCLONE trushcan
BeatmapID:3004642
BeatmapSetID:1454002

[Difficulty]
HPDrainRate:6
CircleSize:5
OverallDifficulty:5
ApproachRate:5
SliderMultiplier:1.4
SliderTickRate:1

[Events]
//Background and Video events
0,0,"9bd69344-67fe-4f0b-9c6a-c42236321055.png",0,0
//Break Periods
2,10468,14715
2,93762,97303
//Storyboard Layer 0 (Background)
//Storyboard Layer 1 (Fail)
//Storyboard Layer 2 (Pass)
//Storyboard Layer 3 (Foreground)
//Storyboard Layer 4 (Overlay)
//Storyboard Sound Samples

[TimingPoints]
386,352.941176470588,4,1,0,100,1,0
386,-125,4,1,0,100,0,0
6033,-100,4,1,0,100,0,0
48385,-98.8372093023256,4,1,0,100,0,0
48737,-94.4444444444444,4,1,0,100,0,0
49090,-90.4255319148936,4,1,0,100,0,0
49267,-88.5416666666667,4,1,0,100,0,0
49443,-86.734693877551,4,1,0,100,0,0
49620,-85,4,1,0,100,0,0
49708,-84.1584158415842,4,1,0,100,0,0
49797,-83.3333333333333,4,1,0,100,0,1
55444,-83.3333333333333,4,1,0,100,0,0
55797,-83.3333333333333,4,1,0,100,0,1
58444,-84.2696629213483,4,1,0,100,0,1
58532,-85.2272727272727,4,1,0,100,0,1
58620,-86.2068965517241,4,1,0,100,0,1
58796,-88.2352941176471,4,1,0,100,0,1
58973,-90.3614457831325,4,1,0,100,0,1
59149,-92.5925925925926,4,1,0,100,0,1
59326,-94.9367088607595,4,1,0,100,0,1
59502,-97.4025974025974,4,1,0,100,0,1
59591,-98.6842105263158,4,1,0,100,0,1
59680,-100,4,1,0,100,0,0
107680,-125,4,1,0,100,0,0
112885,-100,4,1,0,100,0,0
116150,-98.8372093023256,4,1,0,100,0,0
116502,-94.4444444444444,4,1,0,100,0,0
116855,-90.4255319148936,4,1,0,100,0,0
117032,-88.5416666666667,4,1,0,100,0,0
117208,-86.734693877551,4,1,0,100,0,0
117385,-85,4,1,0,100,0,0
117473,-84.1584158415842,4,1,0,100,0,0
117562,-83.3333333333333,4,1,0,100,0,1
123209,-83.3333333333333,4,1,0,100,0,0
123562,-83.3333333333333,4,1,0,100,0,1
126209,-84.2696629213483,4,1,0,100,0,1
126297,-85.2272727272727,4,1,0,100,0,1
126385,-86.2068965517241,4,1,0,100,0,1
126561,-88.2352941176471,4,1,0,100,0,1
126738,-90.3614457831325,4,1,0,100,0,1
126914,-92.5925925925926,4,1,0,100,0,1
127091,-94.9367088607595,4,1,0,100,0,1
127444,-100,4,1,0,100,0,0

[HitObjects]
206,207,386,5,8,0:0:0:0:
162,93,1091,1,8,0:0:0:0:
202,157,1797,1,0,0:0:0:0:
182,128,3209,1,8,0:0:0:0:
183,158,3915,1,8,0:0:0:0:
183,158,4621,1,0,0:0:0:0:
207,116,6033,1,0,0:0:0:0:
222,152,6209,1,8,0:0:0:0:
211,134,6562,1,8,0:0:0:0:
173,147,6738,1,0,0:0:0:0:
231,117,6915,1,8,0:0:0:0:
198,115,7091,1,8,0:0:0:0:
186,110,7268,1,0,0:0:0:0:
175,171,7444,1,8,0:0:0:0:
194,189,7621,1,0,0:0:0:0:
237,139,7797,1,0,0:0:0:0:
237,139,7974,1,8,0:0:0:0:
196,132,8150,1,8,0:0:0:0:
196,132,8327,1,8,0:0:0:0:
198,126,8503,1,0,0:0:0:0:
203,114,8680,1,8,0:0:0:0:
203,114,8768,1,8,0:0:0:0:
203,114,8944,1,0,0:0:0:0:
203,114,9033,1,0,0:0:0:0:
187,78,9209,1,8,0:0:0:0:
188,114,9385,1,8,0:0:0:0:
188,114,9562,1,0,0:0:0:0:
191,113,9738,1,0,0:0:0:0:
188,114,9915,1,8,0:0:0:0:
222,154,10268,1,4,0:0:0:0:
223,205,15915,5,8,0:0:0:0:
185,115,16091,1,8,0:0:0:0:
214,160,16268,1,8,0:0:0:0:
201,122,16621,1,0,0:0:0:0:
210,177,16797,1,8,0:0:0:0:
210,177,16885,1,8,0:0:0:0:
214,150,17327,1,8,0:0:0:0:
243,164,17503,1,0,0:0:0:0:
196,171,17680,1,8,0:0:0:0:
197,147,17856,1,0,0:0:0:0:
222,237,17944,1,0,0:0:0:0:
197,147,18033,1,0,0:0:0:0:
188,148,18209,1,8,0:0:0:0:
187,166,18385,1,8,0:0:0:0:
206,211,18562,1,0,0:0:0:0:
206,211,18650,1,0,0:0:0:0:
149,174,18738,1,0,0:0:0:0:
191,113,18915,1,8,0:0:0:0:
191,113,19091,1,8,0:0:0:0:
201,122,19444,1,0,0:0:0:0:
210,177,19620,1,8,0:0:0:0:
210,177,19708,1,8,0:0:0:0:
214,150,20150,1,8,0:0:0:0:
243,164,20326,1,0,0:0:0:0:
196,171,20503,1,8,0:0:0:0:
197,147,20679,1,0,0:0:0:0:
165,193,20768,1,0,0:0:0:0:
197,147,20856,1,0,0:0:0:0:
188,148,21032,1,8,0:0:0:0:
204,98,21209,1,0,0:0:0:0:
204,98,21297,1,0,0:0:0:0:
201,102,21385,1,0,0:0:0:0:
194,119,21562,1,8,0:0:0:0:
260,163,21738,1,8,0:0:0:0:
173,98,21915,1,8,0:0:0:0:
201,122,22268,1,0,0:0:0:0:
210,177,22444,1,8,0:0:0:0:
210,177,22532,1,8,0:0:0:0:
214,150,22974,1,8,0:0:0:0:
243,164,23150,1,0,0:0:0:0:
196,171,23327,1,8,0:0:0:0:
197,147,23503,1,0,0:0:0:0:
206,175,23591,1,0,0:0:0:0:
197,147,23680,1,0,0:0:0:0:
188,148,23856,1,8,0:0:0:0:
169,186,24033,1,8,0:0:0:0:
206,211,24209,1,0,0:0:0:0:
206,211,24297,1,0,0:0:0:0:
149,174,24385,1,0,0:0:0:0:
260,163,24561,1,8,0:0:0:0:
274,168,24738,1,8,0:0:0:0:
201,122,25091,1,0,0:0:0:0:
210,177,25267,1,8,0:0:0:0:
210,177,25355,1,8,0:0:0:0:
214,150,25797,1,8,0:0:0:0:
243,164,25973,5,0,0:0:0:0:
185,164,26150,1,8,0:0:0:0:
197,147,26326,1,0,0:0:0:0:
237,178,26415,1,0,0:0:0:0:
197,147,26503,1,0,0:0:0:0:
218,152,26680,1,0,0:0:0:0:
215,92,26856,1,12,0:0:0:0:
207,129,27033,1,0,0:0:0:0:
183,131,27209,1,12,0:0:0:0:
206,157,27385,1,12,0:0:0:0:
217,122,27738,1,0,0:0:0:0:
215,98,28091,1,0,0:0:0:0:
200,97,28444,1,8,0:0:0:0:
207,142,28621,1,4,0:0:0:0:
207,142,28797,1,4,0:0:0:0:
221,146,29150,1,8,0:0:0:0:
221,146,29503,1,8,0:0:0:0:
218,93,29680,1,0,0:0:0:0:
218,93,29856,1,0,0:0:0:0:
226,141,30033,1,12,0:0:0:0:
226,141,30209,1,12,0:0:0:0:
217,122,30562,1,0,0:0:0:0:
215,98,30915,1,0,0:0:0:0:
200,97,31268,1,8,0:0:0:0:
207,142,31445,1,4,0:0:0:0:
207,142,31621,1,4,0:0:0:0:
221,146,31974,1,8,0:0:0:0:
221,146,32327,1,8,0:0:0:0:
197,68,32503,1,8,0:0:0:0:
184,96,32680,1,0,0:0:0:0:
226,141,32857,1,12,0:0:0:0:
226,141,33033,1,12,0:0:0:0:
236,114,33562,1,4,0:0:0:0:
236,114,33738,1,4,0:0:0:0:
236,114,34268,1,12,0:0:0:0:
236,114,34444,1,12,0:0:0:0:
236,114,34974,1,4,0:0:0:0:
236,114,35150,1,4,0:0:0:0:
223,111,35680,1,12,0:0:0:0:
223,111,36033,1,12,0:0:0:0:
223,111,36385,1,12,0:0:0:0:
223,111,36738,1,12,0:0:0:0:
206,137,37091,1,0,0:0:0:0:
212,117,37268,1,0,0:0:0:0:
202,105,37444,1,0,0:0:0:0:
202,105,37621,1,0,0:0:0:0:
208,104,37797,1,8,0:0:0:0:
197,85,37885,1,8,0:0:0:0:
197,85,37974,1,8,0:0:0:0:
173,93,38150,1,0,0:0:0:0:
173,93,38327,1,0,0:0:0:0:
179,96,38415,1,0,0:0:0:0:
179,97,38503,1,0,0:0:0:0:
192,120,38680,1,8,0:0:0:0:
176,112,38856,1,0,0:0:0:0:
185,133,39033,1,8,0:0:0:0:
168,144,39121,1,8,0:0:0:0:
192,112,39562,1,8,0:0:0:0:
168,131,39738,1,0,0:0:0:0:
202,140,39827,1,0,0:0:0:0:
204,102,40268,1,0,0:0:0:0:
196,105,40444,1,0,0:0:0:0:
200,112,40621,1,8,0:0:0:0:
187,99,40709,1,8,0:0:0:0:
189,106,40797,1,8,0:0:0:0:
134,176,40974,1,0,0:0:0:0:
200,128,41150,1,0,0:0:0:0:
194,76,41238,1,0,0:0:0:0:
179,97,41327,1,0,0:0:0:0:
192,120,41504,1,8,0:0:0:0:
177,141,41680,1,0,0:0:0:0:
196,145,41856,1,8,0:0:0:0:
192,145,41944,1,8,0:0:0:0:
237,206,42385,1,0,0:0:0:0:
237,206,42562,1,8,0:0:0:0:
237,206,42650,1,8,0:0:0:0:
187,117,42915,1,8,0:0:0:0:
187,117,43003,1,8,0:0:0:0:
199,111,43091,1,8,0:0:0:0:
196,105,43268,1,0,0:0:0:0:
122,62,43444,1,0,0:0:0:0:
189,106,43621,1,8,0:0:0:0:
134,176,43798,1,0,0:0:0:0:
200,128,43974,1,0,0:0:0:0:
194,76,44062,1,0,0:0:0:0:
194,83,44151,1,0,0:0:0:0:
192,120,44327,1,8,0:0:0:0:
176,112,44503,1,0,0:0:0:0:
185,133,44680,1,8,0:0:0:0:
168,144,44768,1,8,0:0:0:0:
192,112,45209,1,8,0:0:0:0:
168,131,45385,1,0,0:0:0:0:
202,140,45474,1,0,0:0:0:0:
204,102,45915,1,0,0:0:0:0:
196,105,46091,1,0,0:0:0:0:
200,112,46268,1,8,0:0:0:0:
187,99,46356,1,8,0:0:0:0:
189,106,46444,1,8,0:0:0:0:
134,176,46621,1,0,0:0:0:0:
200,128,46797,1,0,0:0:0:0:
196,105,46974,1,8,0:0:0:0:
283,230,47680,1,0,0:0:0:0:
271,162,48385,1,8,0:0:0:0:
220,159,48738,1,8,0:0:0:0:
236,202,49091,1,12,0:0:0:0:
176,80,49268,1,0,0:0:0:0:
176,136,49444,1,8,0:0:0:0:
201,140,49621,1,0,0:0:0:0:
168,112,49709,1,0,0:0:0:0:
176,112,49797,1,0,0:0:0:0:
201,197,49974,1,8,0:0:0:0:
168,128,50150,1,0,0:0:0:0:
192,232,50503,1,8,0:0:0:0:
200,160,50591,1,8,0:0:0:0:
144,120,50680,1,8,0:0:0:0:
174,178,50856,1,0,0:0:0:0:
188,103,51033,1,8,0:0:0:0:
232,164,51209,1,0,0:0:0:0:
176,104,51385,1,0,0:0:0:0:
184,96,51562,1,8,0:0:0:0:
184,96,51650,1,8,0:0:0:0:
204,145,51738,1,8,0:0:0:0:
221,184,51915,1,0,0:0:0:0:
240,153,52091,1,8,0:0:0:0:
184,96,52444,1,0,0:0:0:0:
184,96,52533,1,0,0:0:0:0:
184,96,52621,1,0,0:0:0:0:
160,136,52797,1,8,0:0:0:0:
160,136,52885,1,8,0:0:0:0:
197,167,52974,1,8,0:0:0:0:
200,120,53150,1,0,0:0:0:0:
220,117,53326,1,0,0:0:0:0:
176,172,53503,1,8,0:0:0:0:
184,136,53591,1,8,0:0:0:0:
184,136,53680,1,8,0:0:0:0:
178,90,54208,1,8,0:0:0:0:
176,48,54297,1,8,0:0:0:0:
196,105,54385,1,8,0:0:0:0:
200,128,54562,1,0,0:0:0:0:
200,128,54650,1,0,0:0:0:0:
200,128,54738,1,0,0:0:0:0:
200,128,54915,1,8,0:0:0:0:
187,162,55091,1,0,0:0:0:0:
192,112,55268,1,8,0:0:0:0:
176,128,55444,1,0,0:0:0:0:
200,160,55709,1,8,0:0:0:0:
200,176,55797,1,8,0:0:0:0:
192,152,55974,1,0,0:0:0:0:
220,117,56150,1,0,0:0:0:0:
160,104,56238,1,0,0:0:0:0:
160,104,56327,1,0,0:0:0:0:
160,112,56503,1,8,0:0:0:0:
192,104,56856,1,8,0:0:0:0:
184,120,57033,1,0,0:0:0:0:
200,144,57209,1,8,0:0:0:0:
200,144,57297,1,8,0:0:0:0:
200,144,57385,1,8,0:0:0:0:
176,104,57562,1,0,0:0:0:0:
201,101,57738,1,8,0:0:0:0:
219,121,57915,1,8,0:0:0:0:
184,88,58091,1,0,0:0:0:0:
184,88,58180,1,0,0:0:0:0:
201,197,58444,1,8,0:0:0:0:
136,88,58533,1,8,0:0:0:0:
152,160,58621,1,8,0:0:0:0:
240,153,58797,1,0,0:0:0:0:
185,101,58974,1,8,0:0:0:0:
216,161,59150,1,0,0:0:0:0:
184,176,59327,1,8,0:0:0:0:
176,112,59503,1,0,0:0:0:0:
176,112,59591,1,0,0:0:0:0:
234,174,59680,1,0,0:0:0:0:
185,115,59856,1,8,0:0:0:0:
214,160,60033,1,8,0:0:0:0:
201,122,60386,1,0,0:0:0:0:
210,177,60562,1,8,0:0:0:0:
210,177,60650,1,8,0:0:0:0:
214,150,61092,1,8,0:0:0:0:
243,164,61268,1,0,0:0:0:0:
196,171,61445,1,8,0:0:0:0:
197,147,61621,1,0,0:0:0:0:
194,129,61709,1,0,0:0:0:0:
197,147,61798,1,0,0:0:0:0:
188,148,61974,1,8,0:0:0:0:
227,197,62150,1,8,0:0:0:0:
206,211,62327,1,0,0:0:0:0:
206,211,62415,1,0,0:0:0:0:
149,174,62503,1,0,0:0:0:0:
191,113,62680,1,8,0:0:0:0:
191,113,62856,1,8,0:0:0:0:
201,122,63209,1,0,0:0:0:0:
210,177,63385,1,8,0:0:0:0:
210,177,63473,1,8,0:0:0:0:
214,150,63915,1,8,0:0:0:0:
243,164,64091,1,0,0:0:0:0:
196,171,64268,1,8,0:0:0:0:
197,147,64444,1,0,0:0:0:0:
197,154,64533,1,0,0:0:0:0:
208,100,64621,1,0,0:0:0:0:
208,100,64797,1,8,0:0:0:0:
204,98,64974,1,0,0:0:0:0:
204,98,65062,1,0,0:0:0:0:
201,102,65150,1,0,0:0:0:0:
194,119,65327,1,8,0:0:0:0:
260,163,65503,1,8,0:0:0:0:
173,98,65680,1,8,0:0:0:0:
201,122,66033,1,0,0:0:0:0:
210,177,66209,1,8,0:0:0:0:
210,177,66297,1,8,0:0:0:0:
214,150,66739,1,8,0:0:0:0:
243,164,66915,1,0,0:0:0:0:
196,171,67092,1,8,0:0:0:0:
197,147,67268,1,0,0:0:0:0:
187,159,67356,1,0,0:0:0:0:
197,147,67445,1,0,0:0:0:0:
188,148,67621,1,8,0:0:0:0:
187,57,67797,1,8,0:0:0:0:
206,211,67974,1,0,0:0:0:0:
206,211,68062,1,0,0:0:0:0:
149,174,68150,1,0,0:0:0:0:
260,163,68326,1,8,0:0:0:0:
274,168,68503,1,8,0:0:0:0:
201,122,68856,1,0,0:0:0:0:
210,177,69032,1,8,0:0:0:0:
210,177,69120,1,8,0:0:0:0:
214,150,69562,1,8,0:0:0:0:
243,164,69738,5,0,0:0:0:0:
196,171,69915,1,8,0:0:0:0:
197,147,70091,1,0,0:0:0:0:
201,158,70180,1,0,0:0:0:0:
197,147,70268,1,0,0:0:0:0:
174,86,70445,1,0,0:0:0:0:
215,92,70621,1,12,0:0:0:0:
207,129,70798,1,0,0:0:0:0:
199,241,70885,1,0,0:0:0:0:
199,241,70974,1,0,0:0:0:0:
232,173,71150,5,8,0:0:0:0:
262,182,71503,1,8,0:0:0:0:
248,198,71680,1,0,0:0:0:0:
184,120,71856,1,0,0:0:0:0:
192,112,71944,1,0,0:0:0:0:
184,120,72121,1,8,0:0:0:0:
195,148,72209,1,8,0:0:0:0:
197,128,72385,1,0,0:0:0:0:
194,137,72562,1,8,0:0:0:0:
200,136,73091,1,0,0:0:0:0:
200,112,73268,1,8,0:0:0:0:
176,95,73444,1,8,0:0:0:0:
142,152,73621,1,0,0:0:0:0:
142,152,73709,1,0,0:0:0:0:
208,160,73797,1,0,0:0:0:0:
232,173,73973,5,8,0:0:0:0:
262,182,74326,1,8,0:0:0:0:
248,198,74503,1,0,0:0:0:0:
184,120,74679,1,0,0:0:0:0:
192,112,74767,1,0,0:0:0:0:
184,120,74944,1,8,0:0:0:0:
195,148,75032,1,8,0:0:0:0:
197,128,75208,1,0,0:0:0:0:
194,137,75385,1,8,0:0:0:0:
200,136,75914,1,0,0:0:0:0:
200,112,76091,1,8,0:0:0:0:
176,95,76267,1,8,0:0:0:0:
184,104,76356,1,8,0:0:0:0:
192,104,76444,1,8,0:0:0:0:
208,160,76621,1,0,0:0:0:0:
232,173,76797,5,8,0:0:0:0:
262,182,77150,1,8,0:0:0:0:
248,198,77327,1,0,0:0:0:0:
184,120,77503,1,0,0:0:0:0:
192,112,77591,1,0,0:0:0:0:
184,120,77768,1,8,0:0:0:0:
195,148,77856,1,8,0:0:0:0:
197,128,78032,1,0,0:0:0:0:
194,137,78209,1,8,0:0:0:0:
200,136,78738,1,0,0:0:0:0:
200,112,78915,1,8,0:0:0:0:
176,95,79091,1,8,0:0:0:0:
142,152,79268,1,0,0:0:0:0:
142,152,79356,1,0,0:0:0:0:
208,160,79444,1,0,0:0:0:0:
232,173,79620,5,8,0:0:0:0:
262,182,79973,1,8,0:0:0:0:
248,198,80150,1,0,0:0:0:0:
184,120,80326,1,0,0:0:0:0:
192,112,80414,1,0,0:0:0:0:
184,120,80591,1,8,0:0:0:0:
195,148,80679,1,8,0:0:0:0:
197,128,80855,1,0,0:0:0:0:
194,137,81032,1,8,0:0:0:0:
280,176,81562,1,12,0:0:0:0:
200,128,81738,1,0,0:0:0:0:
184,104,81915,1,0,0:0:0:0:
216,136,82091,1,0,0:0:0:0:
183,131,82268,1,12,0:0:0:0:
206,157,82444,1,12,0:0:0:0:
217,122,82797,1,0,0:0:0:0:
215,98,83150,1,0,0:0:0:0:
200,97,83503,1,8,0:0:0:0:
207,142,83680,1,4,0:0:0:0:
207,142,83856,1,4,0:0:0:0:
221,146,84209,1,8,0:0:0:0:
221,146,84562,1,8,0:0:0:0:
218,93,84739,1,0,0:0:0:0:
218,93,84915,1,0,0:0:0:0:
226,141,85092,1,12,0:0:0:0:
226,141,85268,1,12,0:0:0:0:
217,122,85621,1,0,0:0:0:0:
215,98,85974,1,0,0:0:0:0:
200,97,86327,1,8,0:0:0:0:
207,142,86504,1,4,0:0:0:0:
207,142,86680,1,4,0:0:0:0:
221,146,87033,1,8,0:0:0:0:
221,146,87386,1,8,0:0:0:0:
197,68,87562,1,8,0:0:0:0:
184,96,87739,1,0,0:0:0:0:
226,141,87916,1,12,0:0:0:0:
226,141,88092,1,12,0:0:0:0:
236,114,88621,1,4,0:0:0:0:
236,114,88797,1,4,0:0:0:0:
236,114,89327,1,12,0:0:0:0:
236,114,89503,1,12,0:0:0:0:
236,114,90033,1,4,0:0:0:0:
236,114,90209,1,4,0:0:0:0:
223,111,90739,1,12,0:0:0:0:
223,111,91092,1,12,0:0:0:0:
223,111,91444,1,12,0:0:0:0:
223,111,91797,1,12,0:0:0:0:
206,137,92150,1,0,0:0:0:0:
212,117,92327,1,0,0:0:0:0:
202,105,92503,1,0,0:0:0:0:
202,105,92680,1,0,0:0:0:0:
208,104,92856,1,8,0:0:0:0:
197,85,92944,1,8,0:0:0:0:
197,85,93033,1,8,0:0:0:0:
173,93,93209,1,0,0:0:0:0:
173,93,93386,1,0,0:0:0:0:
179,96,93474,1,0,0:0:0:0:
179,97,93562,1,0,0:0:0:0:
296,188,98503,5,8,0:0:0:0:
192,148,98768,1,8,0:0:0:0:
192,148,98856,1,8,0:0:0:0:
216,127,99033,1,0,0:0:0:0:
216,127,99121,1,0,0:0:0:0:
214,185,99209,1,0,0:0:0:0:
209,132,99385,1,8,0:0:0:0:
216,132,99738,1,8,0:0:0:0:
197,104,99915,1,0,0:0:0:0:
207,108,100091,1,8,0:0:0:0:
191,162,100444,1,8,0:0:0:0:
199,92,100621,1,8,0:0:0:0:
199,92,100797,1,8,0:0:0:0:
209,157,101150,1,8,0:0:0:0:
269,197,101327,1,8,0:0:0:0:
269,197,101503,1,8,0:0:0:0:
224,155,101680,1,8,0:0:0:0:
202,133,101856,1,0,0:0:0:0:
202,133,101944,1,0,0:0:0:0:
202,133,102033,1,0,0:0:0:0:
201,80,102209,1,8,0:0:0:0:
198,85,102562,1,8,0:0:0:0:
225,135,102738,1,0,0:0:0:0:
227,138,102915,1,8,0:0:0:0:
189,145,103268,1,8,0:0:0:0:
221,183,103444,1,8,0:0:0:0:
248,203,103621,1,8,0:0:0:0:
194,137,103974,1,0,0:0:0:0:
230,185,104150,1,0,0:0:0:0:
188,139,104327,1,0,0:0:0:0:
230,185,104503,1,12,0:0:0:0:
242,137,104680,1,0,0:0:0:0:
204,190,104768,1,0,0:0:0:0:
204,190,104856,1,0,0:0:0:0:
146,160,105033,1,8,0:0:0:0:
129,136,105209,1,8,0:0:0:0:
233,135,105297,1,8,0:0:0:0:
183,126,105474,1,0,0:0:0:0:
212,125,105562,1,0,0:0:0:0:
201,150,105738,1,8,0:0:0:0:
178,113,105915,1,0,0:0:0:0:
206,145,106091,1,8,0:0:0:0:
223,142,106268,1,8,0:0:0:0:
215,197,106356,1,8,0:0:0:0:
168,113,106444,1,8,0:0:0:0:
191,168,106621,1,0,0:0:0:0:
268,134,106797,1,8,0:0:0:0:
206,207,107680,5,8,0:0:0:0:
162,93,108385,1,8,0:0:0:0:
202,157,109091,1,0,0:0:0:0:
182,128,110503,1,8,0:0:0:0:
183,158,111209,1,8,0:0:0:0:
183,158,111915,1,0,0:0:0:0:
230,188,112885,1,8,0:0:0:0:
230,188,112974,1,8,0:0:0:0:
207,116,113327,1,0,0:0:0:0:
222,152,113503,1,8,0:0:0:0:
211,134,113856,1,8,0:0:0:0:
173,147,114032,1,0,0:0:0:0:
231,117,114209,1,8,0:0:0:0:
198,115,114385,1,8,0:0:0:0:
186,110,114562,1,0,0:0:0:0:
175,171,114738,1,8,0:0:0:0:
194,189,114915,1,0,0:0:0:0:
237,139,115091,1,0,0:0:0:0:
237,139,115268,1,8,0:0:0:0:
196,132,115444,1,8,0:0:0:0:
196,132,115621,1,8,0:0:0:0:
198,126,115797,1,0,0:0:0:0:
304,258,116150,1,8,0:0:0:0:
187,78,116503,1,8,0:0:0:0:
188,114,116856,1,12,0:0:0:0:
206,94,117033,1,0,0:0:0:0:
206,94,117209,1,0,0:0:0:0:
201,140,117386,1,0,0:0:0:0:
168,112,117474,1,0,0:0:0:0:
176,112,117562,1,0,0:0:0:0:
201,197,117739,1,8,0:0:0:0:
168,128,117915,1,0,0:0:0:0:
192,232,118268,1,8,0:0:0:0:
200,160,118356,1,8,0:0:0:0:
144,120,118445,1,8,0:0:0:0:
174,178,118621,1,0,0:0:0:0:
188,103,118798,1,8,0:0:0:0:
232,164,118974,1,0,0:0:0:0:
176,104,119150,1,0,0:0:0:0:
184,96,119327,1,8,0:0:0:0:
184,96,119415,1,8,0:0:0:0:
204,145,119503,1,8,0:0:0:0:
221,184,119680,1,0,0:0:0:0:
199,109,119856,1,8,0:0:0:0:
184,96,120209,1,0,0:0:0:0:
184,96,120298,1,0,0:0:0:0:
184,96,120386,1,0,0:0:0:0:
160,136,120562,1,8,0:0:0:0:
160,136,120650,1,8,0:0:0:0:
197,167,120739,1,8,0:0:0:0:
200,120,120915,1,0,0:0:0:0:
220,117,121091,1,0,0:0:0:0:
176,172,121268,1,8,0:0:0:0:
184,136,121356,1,8,0:0:0:0:
184,136,121445,1,8,0:0:0:0:
178,90,121973,1,8,0:0:0:0:
176,48,122062,1,8,0:0:0:0:
196,105,122150,1,8,0:0:0:0:
200,128,122327,1,0,0:0:0:0:
200,128,122415,1,0,0:0:0:0:
200,128,122503,1,0,0:0:0:0:
200,128,122680,1,8,0:0:0:0:
187,162,122856,1,0,0:0:0:0:
192,112,123033,1,8,0:0:0:0:
176,128,123209,1,0,0:0:0:0:
200,160,123474,1,8,0:0:0:0:
200,176,123562,1,8,0:0:0:0:
192,152,123739,1,0,0:0:0:0:
220,117,123915,1,0,0:0:0:0:
160,104,124003,1,0,0:0:0:0:
160,104,124092,1,0,0:0:0:0:
160,112,124268,1,8,0:0:0:0:
192,104,124621,1,8,0:0:0:0:
184,120,124798,1,0,0:0:0:0:
200,144,124974,1,8,0:0:0:0:
200,144,125062,1,8,0:0:0:0:
200,144,125150,1,8,0:0:0:0:
176,104,125327,1,0,0:0:0:0:
201,101,125503,1,8,0:0:0:0:
219,121,125680,1,8,0:0:0:0:
184,88,125856,1,0,0:0:0:0:
184,88,125945,1,0,0:0:0:0:
201,197,126209,5,8,0:0:0:0:
136,88,126298,1,8,0:0:0:0:
152,160,126386,1,8,0:0:0:0:
240,153,126562,1,0,0:0:0:0:
185,101,126739,1,8,0:0:0:0:
216,161,126915,1,0,0:0:0:0:
184,176,127092,1,12,0:0:0:0:
172,196,127444,1,0,0:0:0:0:
232,173,127620,1,8,0:0:0:0:
175,137,127797,1,0,0:0:0:0:
164,170,127974,1,0,0:0:0:0:
198,134,128150,1,0,0:0:0:0:
176,162,128327,1,8,0:0:0:0:
176,162,128415,1,8,0:0:0:0:
176,162,128503,1,8,0:0:0:0:
241,164,129033,1,8,0:0:0:0:
200,143,129209,1,8,0:0:0:0:
201,113,129297,1,8,0:0:0:0:
199,137,129386,1,8,0:0:0:0:
198,134,129562,1,0,0:0:0:0:
128,152,129738,1,8,0:0:0:0:
200,143,129915,1,8,0:0:0:0:
166,117,130091,1,0,0:0:0:0:
190,117,130180,1,0,0:0:0:0:
199,65,130268,1,0,0:0:0:0:
232,173,130443,1,8,0:0:0:0:
236,153,130621,1,8,0:0:0:0:
216,135,130709,1,8,0:0:0:0:
225,212,130885,1,0,0:0:0:0:
198,134,130973,1,0,0:0:0:0:
182,183,131150,1,8,0:0:0:0:
178,90,131326,1,0,0:0:0:0:
241,164,131856,1,8,0:0:0:0:
120,123,132033,1,0,0:0:0:0:
120,123,132121,1,0,0:0:0:0:
262,225,132297,1,8,0:0:0:0:
206,136,132385,1,8,0:0:0:0:
200,136,132562,1,0,0:0:0:0:
200,112,132739,1,8,0:0:0:0:
176,95,132915,1,8,0:0:0:0:
184,104,133004,1,8,0:0:0:0:
276,210,133091,1,8,0:0:0:0:
232,173,133267,1,8,0:0:0:0:
175,137,133444,1,0,0:0:0:0:
164,170,133621,1,0,0:0:0:0:
198,134,133797,1,0,0:0:0:0:
176,162,133974,1,8,0:0:0:0:
176,162,134062,1,8,0:0:0:0:
176,162,134150,1,8,0:0:0:0:
241,164,134680,1,8,0:0:0:0:
200,143,134856,1,8,0:0:0:0:
201,113,134944,1,8,0:0:0:0:
199,137,135033,1,8,0:0:0:0:
198,134,135209,1,0,0:0:0:0:
128,152,135385,1,8,0:0:0:0:
200,143,135562,1,8,0:0:0:0:
166,117,135738,1,0,0:0:0:0:
190,117,135827,1,0,0:0:0:0:
199,65,135915,1,0,0:0:0:0:
232,173,136090,1,8,0:0:0:0:
236,153,136268,1,8,0:0:0:0:
216,135,136356,1,8,0:0:0:0:
225,212,136532,1,0,0:0:0:0:
198,134,136620,1,0,0:0:0:0:
182,183,136797,1,8,0:0:0:0:
178,90,136973,1,0,0:0:0:0:
241,164,137503,1,8,0:0:0:0:
120,123,137680,5,0,0:0:0:0:
120,123,137768,1,0,0:0:0:0:
262,225,137944,1,8,0:0:0:0:
206,136,138032,1,8,0:0:0:0:
200,136,138209,1,0,0:0:0:0:
200,112,138385,1,12,0:0:0:0:
207,129,138562,1,0,0:0:0:0:
183,131,138738,1,12,0:0:0:0:
206,157,138914,1,12,0:0:0:0:
217,122,139267,1,0,0:0:0:0:
215,98,139620,1,0,0:0:0:0:
200,97,139973,1,8,0:0:0:0:
207,142,140150,1,4,0:0:0:0:
207,142,140326,1,4,0:0:0:0:
221,146,140679,1,8,0:0:0:0:
221,146,141032,1,8,0:0:0:0:
218,93,141209,1,0,0:0:0:0:
218,93,141385,1,0,0:0:0:0:
226,141,141562,1,12,0:0:0:0:
226,141,141738,1,12,0:0:0:0:
217,122,142091,1,0,0:0:0:0:
215,98,142444,1,0,0:0:0:0:
200,97,142797,1,8,0:0:0:0:
207,142,142974,1,4,0:0:0:0:
207,142,143150,1,4,0:0:0:0:
221,146,143503,1,8,0:0:0:0:
221,146,143856,1,8,0:0:0:0:
197,68,144032,1,8,0:0:0:0:
184,96,144209,1,0,0:0:0:0:
226,141,144386,1,12,0:0:0:0:
226,141,144562,1,12,0:0:0:0:
217,122,144915,1,0,0:0:0:0:
215,98,145268,1,0,0:0:0:0:
200,97,145621,1,8,0:0:0:0:
207,142,145798,1,4,0:0:0:0:
207,142,145974,1,4,0:0:0:0:
221,146,146327,1,8,0:0:0:0:
221,146,146680,1,8,0:0:0:0:
218,93,146857,1,0,0:0:0:0:
218,93,147033,1,0,0:0:0:0:
226,141,147210,1,12,0:0:0:0:
226,141,147386,1,12,0:0:0:0:
217,122,147739,1,0,0:0:0:0:
215,98,148092,1,0,0:0:0:0:
200,97,148445,1,8,0:0:0:0:
207,142,148622,1,4,0:0:0:0:
207,142,148798,1,4,0:0:0:0:
221,146,149151,1,8,0:0:0:0:
221,146,149504,1,8,0:0:0:0:
197,68,149680,1,8,0:0:0:0:
184,96,149857,1,0,0:0:0:0:
226,141,150033,1,12,0:0:0:0:
226,141,150210,1,12,0:0:0:0:
236,114,150738,1,4,0:0:0:0:
236,114,150914,1,4,0:0:0:0:
236,114,151444,1,12,0:0:0:0:
236,114,151620,1,12,0:0:0:0:
236,114,152150,1,4,0:0:0:0:
236,114,152326,1,4,0:0:0:0:
223,111,152856,1,12,0:0:0:0:
223,111,153209,1,12,0:0:0:0:
223,111,153561,1,12,0:0:0:0:
223,111,153914,1,12,0:0:0:0:
206,137,154267,1,0,0:0:0:0:
212,117,154444,1,0,0:0:0:0:
202,105,154620,1,0,0:0:0:0:
202,105,154797,1,0,0:0:0:0:
208,104,154973,1,8,0:0:0:0:
197,85,155061,1,8,0:0:0:0:
197,85,155150,1,8,0:0:0:0:
173,93,155326,1,0,0:0:0:0:
173,93,155503,1,0,0:0:0:0:
179,96,155591,1,0,0:0:0:0:
179,97,155679,1,0,0:0:0:0:
