osu file format v14

[General]
AudioFilename: audio.mp3
AudioLeadIn: 0
PreviewTime: 49775
Countdown: 0
SampleSet: Normal
StackLeniency: 0.7
Mode: 1
LetterboxInBreaks: 0
WidescreenStoryboard: 1

[Editor]
Bookmarks: 27033,62150,66033,132738,149503
DistanceSpacing: 1.2
BeatDivisor: 4
GridSize: 8
TimelineZoom: 0.7399989

[Metadata]
Title:Lost Umbrella (7_7 bootleg)
TitleUnicode:ロストアンブレラ (7_7 bootleg)
Artist:inabakumori
ArtistUnicode:稲葉曇
Creator:Horiiizon
Version:Kantan
Source:
Tags:7_7 Genjuro Hivie electronic japanese rock j-rock jrock breakcore kaai yuki 歌愛ユキ nukunuku nigirimeshi ぬくぬくにぎりめし vocaloid cumori アンチサイクロン ANTICYCLONE trushcan
BeatmapID:3011877
BeatmapSetID:1454002

[Difficulty]
HPDrainRate:8
CircleSize:5
OverallDifficulty:3
ApproachRate:5
SliderMultiplier:1.4
SliderTickRate:1

[Events]
//Background and Video events
0,0,"9bd69344-67fe-4f0b-9c6a-c42236321055.png",0,0
//Break Periods
2,10468,14715
//Storyboard Layer 0 (Background)
//Storyboard Layer 1 (Fail)
//Storyboard Layer 2 (Pass)
//Storyboard Layer 3 (Foreground)
//Storyboard Layer 4 (Overlay)
//Storyboard Sound Samples

[TimingPoints]
386,352.941176470588,4,1,0,100,1,0
49797,-100,4,1,0,100,0,1
55444,-100,4,1,0,100,0,0
55797,-100,4,1,0,100,0,1
59680,-100,4,1,0,100,0,0
117562,-100,4,1,0,100,0,1
123209,-100,4,1,0,100,0,0
123562,-100,4,1,0,100,0,1
127444,-100,4,1,0,100,0,0

[HitObjects]
206,207,386,5,8,0:0:0:0:
203,143,1091,1,8,0:0:0:0:
202,157,1797,1,0,0:0:0:0:
182,128,3209,1,8,0:0:0:0:
211,147,3915,1,8,0:0:0:0:
183,158,4621,1,0,0:0:0:0:
202,107,6033,1,8,0:0:0:0:
173,147,6738,1,0,0:0:0:0:
198,115,7091,1,8,0:0:0:0:
174,52,7444,1,0,0:0:0:0:
196,132,8150,1,8,0:0:0:0:
198,126,8503,1,0,0:0:0:0:
181,93,8856,1,0,0:0:0:0:
181,93,9209,1,0,0:0:0:0:
156,93,9562,1,8,0:0:0:0:
222,154,10268,1,4,0:0:0:0:
223,205,15915,5,8,0:0:0:0:
214,160,16268,1,8,0:0:0:0:
201,122,16621,1,0,0:0:0:0:
197,115,17327,1,0,0:0:0:0:
190,96,17680,1,8,0:0:0:0:
188,80,18738,1,8,0:0:0:0:
187,84,19091,1,8,0:0:0:0:
201,122,19444,1,0,0:0:0:0:
191,107,20150,1,0,0:0:0:0:
198,95,20503,1,8,0:0:0:0:
223,205,21562,5,8,0:0:0:0:
214,160,21915,1,8,0:0:0:0:
201,122,22268,1,0,0:0:0:0:
206,78,22974,1,0,0:0:0:0:
192,99,23327,1,8,0:0:0:0:
224,127,24385,1,8,0:0:0:0:
219,129,24738,1,8,0:0:0:0:
201,122,25091,1,0,0:0:0:0:
196,77,25797,1,0,0:0:0:0:
197,66,26150,1,0,0:0:0:0:
166,69,26503,1,0,0:0:0:0:
200,91,26856,1,12,0:0:0:0:
200,96,27209,1,12,0:0:0:0:
209,149,28621,1,4,0:0:0:0:
226,141,30033,1,12,0:0:0:0:
204,150,31444,1,4,0:0:0:0:
226,141,32857,1,12,0:0:0:0:
236,114,33562,1,4,0:0:0:0:
236,114,34268,1,12,0:0:0:0:
236,114,34974,1,4,0:0:0:0:
223,111,35680,1,12,0:0:0:0:
223,111,36033,1,12,0:0:0:0:
223,111,36385,1,12,0:0:0:0:
206,137,37091,1,0,0:0:0:0:
157,122,37444,1,0,0:0:0:0:
178,65,37797,1,8,0:0:0:0:
181,100,38150,1,8,0:0:0:0:
176,87,38503,1,0,0:0:0:0:
179,109,39562,1,8,0:0:0:0:
214,108,39915,1,0,0:0:0:0:
186,106,40621,1,0,0:0:0:0:
210,103,40974,1,8,0:0:0:0:
186,106,41327,1,8,0:0:0:0:
199,111,42033,1,8,0:0:0:0:
159,66,42738,1,8,0:0:0:0:
179,122,43091,1,0,0:0:0:0:
182,97,43444,1,0,0:0:0:0:
174,80,43797,1,0,0:0:0:0:
151,89,44150,1,8,0:0:0:0:
189,117,44856,1,0,0:0:0:0:
175,82,45562,1,8,0:0:0:0:
177,85,45915,1,8,0:0:0:0:
179,90,46268,1,0,0:0:0:0:
195,76,46621,1,0,0:0:0:0:
196,105,46974,1,8,0:0:0:0:
185,133,48385,1,0,0:0:0:0:
181,150,48738,1,0,0:0:0:0:
236,202,49091,1,12,0:0:0:0:
169,152,49797,1,0,0:0:0:0:
174,95,50150,1,8,0:0:0:0:
179,131,51209,1,8,0:0:0:0:
196,128,51562,1,8,0:0:0:0:
181,81,51915,1,0,0:0:0:0:
184,119,52621,1,8,0:0:0:0:
180,82,52974,1,0,0:0:0:0:
168,85,53327,1,8,0:0:0:0:
170,89,54033,1,8,0:0:0:0:
195,66,54385,1,8,0:0:0:0:
210,108,54738,1,8,0:0:0:0:
188,90,55091,1,0,0:0:0:0:
167,112,55444,1,0,0:0:0:0:
171,88,55797,1,8,0:0:0:0:
192,104,56856,1,8,0:0:0:0:
156,74,57209,1,8,0:0:0:0:
176,104,57562,1,0,0:0:0:0:
133,108,58268,1,0,0:0:0:0:
178,74,58621,1,8,0:0:0:0:
164,116,58974,1,0,0:0:0:0:
223,205,59680,5,8,0:0:0:0:
214,160,60033,1,8,0:0:0:0:
201,122,60386,1,0,0:0:0:0:
197,115,61092,1,0,0:0:0:0:
190,96,61445,1,8,0:0:0:0:
188,80,62503,1,8,0:0:0:0:
187,84,62856,1,8,0:0:0:0:
201,122,63209,1,0,0:0:0:0:
191,107,63915,1,0,0:0:0:0:
198,95,64268,1,8,0:0:0:0:
223,205,65327,5,8,0:0:0:0:
214,160,65680,1,8,0:0:0:0:
201,122,66033,1,0,0:0:0:0:
206,78,66739,1,0,0:0:0:0:
192,99,67092,1,8,0:0:0:0:
224,127,68150,1,8,0:0:0:0:
219,129,68503,1,8,0:0:0:0:
201,122,68856,1,0,0:0:0:0:
196,77,69562,1,0,0:0:0:0:
197,66,69915,5,0,0:0:0:0:
166,69,70268,1,0,0:0:0:0:
200,91,70621,1,12,0:0:0:0:
200,96,71150,1,0,0:0:0:0:
161,37,71503,1,8,0:0:0:0:
194,167,71856,1,0,0:0:0:0:
192,120,72562,1,8,0:0:0:0:
196,96,72915,1,0,0:0:0:0:
140,85,73974,1,0,0:0:0:0:
138,67,74327,1,0,0:0:0:0:
185,119,74680,1,0,0:0:0:0:
168,99,75385,1,8,0:0:0:0:
171,119,75738,1,8,0:0:0:0:
165,69,76797,1,8,0:0:0:0:
165,69,77150,1,0,0:0:0:0:
183,101,77503,1,8,0:0:0:0:
198,106,78209,1,0,0:0:0:0:
176,68,78562,1,8,0:0:0:0:
165,70,79621,1,0,0:0:0:0:
185,106,79974,1,0,0:0:0:0:
171,48,80327,1,8,0:0:0:0:
191,98,81209,1,0,0:0:0:0:
216,119,81562,1,12,0:0:0:0:
200,96,82268,1,12,0:0:0:0:
209,149,83680,1,4,0:0:0:0:
226,141,85092,1,12,0:0:0:0:
204,150,86503,1,4,0:0:0:0:
226,141,87916,1,12,0:0:0:0:
236,114,88621,1,4,0:0:0:0:
236,114,89327,1,12,0:0:0:0:
236,114,90033,1,4,0:0:0:0:
223,111,90739,1,12,0:0:0:0:
223,111,91092,1,12,0:0:0:0:
223,111,91444,1,12,0:0:0:0:
206,137,92150,1,0,0:0:0:0:
157,122,92503,1,0,0:0:0:0:
178,65,92856,1,8,0:0:0:0:
181,100,93562,1,8,0:0:0:0:
296,188,98503,5,8,0:0:0:0:
192,148,98856,1,8,0:0:0:0:
190,141,99209,1,0,0:0:0:0:
211,96,99915,1,8,0:0:0:0:
196,94,100268,1,0,0:0:0:0:
186,94,100621,1,0,0:0:0:0:
186,94,100974,1,8,0:0:0:0:
168,73,101327,1,0,0:0:0:0:
185,84,102033,1,0,0:0:0:0:
179,81,102385,1,8,0:0:0:0:
193,82,103091,1,8,0:0:0:0:
198,75,103444,1,8,0:0:0:0:
171,73,103797,1,0,0:0:0:0:
202,122,104503,1,12,0:0:0:0:
186,124,104856,1,0,0:0:0:0:
209,145,105562,1,0,0:0:0:0:
209,145,105915,1,0,0:0:0:0:
209,145,106268,1,8,0:0:0:0:
181,78,106621,1,8,0:0:0:0:
206,207,107680,5,8,0:0:0:0:
203,143,108385,1,8,0:0:0:0:
202,157,109091,1,0,0:0:0:0:
182,128,110503,5,8,0:0:0:0:
211,147,111209,1,8,0:0:0:0:
183,158,111915,1,0,0:0:0:0:
202,107,113327,5,8,0:0:0:0:
173,147,114032,1,0,0:0:0:0:
198,115,114385,1,8,0:0:0:0:
174,52,114738,1,0,0:0:0:0:
179,129,115444,1,0,0:0:0:0:
198,126,115797,1,0,0:0:0:0:
189,144,116150,1,8,0:0:0:0:
156,93,116856,1,12,0:0:0:0:
169,152,117562,1,0,0:0:0:0:
174,95,117915,1,8,0:0:0:0:
179,131,118974,1,8,0:0:0:0:
196,128,119327,1,8,0:0:0:0:
181,81,119680,1,0,0:0:0:0:
184,119,120386,1,8,0:0:0:0:
180,82,120739,1,0,0:0:0:0:
168,85,121092,1,8,0:0:0:0:
170,89,121798,1,8,0:0:0:0:
195,66,122150,1,8,0:0:0:0:
210,108,122503,1,8,0:0:0:0:
188,90,122856,1,0,0:0:0:0:
167,112,123209,1,0,0:0:0:0:
171,88,123562,1,8,0:0:0:0:
192,104,124621,1,8,0:0:0:0:
156,74,124974,1,8,0:0:0:0:
176,104,125327,1,0,0:0:0:0:
133,108,126033,1,0,0:0:0:0:
178,74,126386,5,8,0:0:0:0:
196,78,127091,1,12,0:0:0:0:
172,196,127444,5,0,0:0:0:0:
175,107,128150,1,0,0:0:0:0:
175,107,128503,1,8,0:0:0:0:
200,143,129209,1,8,0:0:0:0:
178,71,129915,1,8,0:0:0:0:
166,94,130268,1,0,0:0:0:0:
183,80,130621,1,0,0:0:0:0:
181,78,130974,1,0,0:0:0:0:
136,57,131327,1,8,0:0:0:0:
185,90,132033,1,8,0:0:0:0:
182,92,132385,1,0,0:0:0:0:
172,196,133091,5,0,0:0:0:0:
175,107,133797,1,0,0:0:0:0:
175,107,134150,1,8,0:0:0:0:
200,143,134856,1,8,0:0:0:0:
178,71,135562,1,8,0:0:0:0:
166,94,135915,1,0,0:0:0:0:
183,80,136268,1,0,0:0:0:0:
181,78,136621,1,0,0:0:0:0:
136,57,136974,1,8,0:0:0:0:
199,74,137680,1,0,0:0:0:0:
197,82,138385,1,12,0:0:0:0:
244,152,138738,1,12,0:0:0:0:
206,143,140150,1,4,0:0:0:0:
203,141,141562,1,12,0:0:0:0:
116,86,142974,5,4,0:0:0:0:
200,96,144385,5,12,0:0:0:0:
209,149,145797,1,4,0:0:0:0:
226,141,147209,1,12,0:0:0:0:
204,150,148620,1,4,0:0:0:0:
226,141,150033,1,12,0:0:0:0:
236,114,150738,1,4,0:0:0:0:
236,114,151444,1,12,0:0:0:0:
236,114,152150,1,4,0:0:0:0:
223,111,152856,1,12,0:0:0:0:
223,111,153209,1,12,0:0:0:0:
223,111,153561,1,12,0:0:0:0:
206,137,154267,1,0,0:0:0:0:
157,122,154620,1,0,0:0:0:0:
178,65,154973,1,8,0:0:0:0:
217,167,155680,1,12,0:0:0:0:
