osu file format v14

[General]
AudioFilename: audio.mp3
AudioLeadIn: 0
PreviewTime: 49775
Countdown: 0
SampleSet: Normal
StackLeniency: 0.7
Mode: 1
LetterboxInBreaks: 0
WidescreenStoryboard: 1

[Editor]
Bookmarks: 27033,149503
DistanceSpacing: 1.2
BeatDivisor: 8
GridSize: 8
TimelineZoom: 2.74

[Metadata]
Title:Lost Umbrella (7_7 bootleg)
TitleUnicode:ロストアンブレラ (7_7 bootleg)
Artist:inabakumori
ArtistUnicode:稲葉曇
Creator:Horiiizon
Version:Inner Oni
Source:
Tags:7_7 Genjuro Hivie electronic japanese rock j-rock jrock breakcore kaai yuki 歌愛ユキ nukunuku nigirimeshi ぬくぬくにぎりめし vocaloid cumori アンチサイクロン ANTICYCLONE trushcan
BeatmapID:2994041
BeatmapSetID:1454002

[Difficulty]
HPDrainRate:5
CircleSize:5
OverallDifficulty:6.5
ApproachRate:5
SliderMultiplier:2.4
SliderTickRate:1

[Events]
//Background and Video events
0,0,"9bd69344-67fe-4f0b-9c6a-c42236321055.png",0,0
//Break Periods
2,10468,14715
2,93762,97303
//Storyboard Layer 0 (Background)
//Storyboard Layer 1 (Fail)
//Storyboard Layer 2 (Pass)
//Storyboard Layer 3 (Foreground)
//Storyboard Layer 4 (Overlay)
//Storyboard Sound Samples

[TimingPoints]
386,352.941176470588,4,1,0,100,1,0
386,-200,4,1,0,100,0,0
6033,-166.666666666667,4,1,0,100,0,0
10268,-125,4,1,0,100,0,0
11680,-166.666666666667,4,1,0,100,0,0
15915,-111.111111111111,4,1,0,100,0,0
26856,-100,4,1,0,100,0,0
27033,-111.111111111111,4,1,0,100,0,0
47680,-125,4,1,0,100,0,0
49091,-100,4,1,0,100,0,0
49268,-111.111111111111,4,1,0,100,0,0
49797,-100,4,1,0,100,0,1
55444,-100,4,1,0,100,0,0
55797,-100,4,1,0,100,0,1
59680,-100,4,1,0,100,0,0
59856,-111.111111111111,4,1,0,100,0,0
70621,-100,4,1,0,100,0,0
70797,-111.111111111111,4,1,0,100,0,0
71150,-125,4,1,0,100,0,0
76621,-111.111111111111,4,1,0,100,0,0
81562,-100,4,1,0,100,0,0
81738,-111.111111111111,4,1,0,100,0,0
94974,-166.666666666667,4,1,0,100,0,0
98503,-125,4,1,0,100,0,0
104503,-111.111111111111,4,1,0,100,0,0
104680,-111.111111111111,4,1,0,100,0,0
107680,-200,4,1,0,100,0,0
113327,-166.666666666667,4,1,0,100,0,0
116327,-150.15015015015,4,1,0,100,0,0
116680,-136.388434260775,4,1,0,100,0,0
116856,-111.111111111111,4,1,0,100,0,0
117033,-125,4,1,0,100,0,0
117562,-100,4,1,0,100,0,1
123209,-100,4,1,0,100,0,0
123562,-100,4,1,0,100,0,1
127444,-111.111111111111,4,1,0,100,0,0
138385,-100,4,1,0,100,0,0
138562,-111.111111111111,4,1,0,100,0,0
155680,-100,4,1,0,100,0,0

[HitObjects]
206,207,386,5,8,0:0:0:0:
162,93,1091,1,8,0:0:0:0:
202,157,1797,1,0,0:0:0:0:
182,128,3209,1,8,0:0:0:0:
183,158,3915,1,8,0:0:0:0:
183,158,4621,1,0,0:0:0:0:
207,116,6033,1,0,0:0:0:0:
207,116,6209,1,0,0:0:0:0:
198,115,6385,1,8,0:0:0:0:
198,115,6474,1,8,0:0:0:0:
198,115,6562,1,0,0:0:0:0:
198,115,6738,1,8,0:0:0:0:
198,115,6827,1,8,0:0:0:0:
198,115,6915,1,0,0:0:0:0:
198,115,7091,1,8,0:0:0:0:
188,157,7268,1,8,0:0:0:0:
190,112,7356,1,0,0:0:0:0:
190,112,7444,1,8,0:0:0:0:
190,112,7621,1,0,0:0:0:0:
190,112,7797,1,8,0:0:0:0:
191,75,7885,1,0,0:0:0:0:
191,75,7974,1,0,0:0:0:0:
191,75,8150,1,8,0:0:0:0:
191,75,8238,1,0,0:0:0:0:
191,75,8327,1,0,0:0:0:0:
191,75,8503,1,8,0:0:0:0:
196,136,8680,1,0,0:0:0:0:
237,164,8768,1,8,0:0:0:0:
167,84,8944,1,8,0:0:0:0:
167,75,9033,1,0,0:0:0:0:
187,78,9121,1,0,0:0:0:0:
187,78,9209,1,8,0:0:0:0:
188,114,9385,1,8,0:0:0:0:
188,114,9474,1,8,0:0:0:0:
188,114,9562,1,0,0:0:0:0:
191,113,9738,1,0,0:0:0:0:
188,114,9915,1,8,0:0:0:0:
222,154,10268,1,4,0:0:0:0:
223,205,15915,5,8,0:0:0:0:
224,160,16091,1,8,0:0:0:0:
191,182,16180,1,0,0:0:0:0:
214,160,16268,1,8,0:0:0:0:
201,122,16356,1,8,0:0:0:0:
201,122,16444,1,0,0:0:0:0:
201,122,16621,1,0,0:0:0:0:
266,166,16709,1,0,0:0:0:0:
221,77,16797,1,8,0:0:0:0:
173,167,16885,1,0,0:0:0:0:
218,172,17062,1,0,0:0:0:0:
201,122,17150,1,8,0:0:0:0:
214,150,17238,1,0,0:0:0:0:
214,150,17327,1,8,0:0:0:0:
243,164,17503,1,0,0:0:0:0:
196,171,17680,1,8,0:0:0:0:
185,94,17856,1,8,0:0:0:0:
214,177,17944,1,8,0:0:0:0:
196,101,18033,1,0,0:0:0:0:
204,167,18121,1,0,0:0:0:0:
201,97,18209,1,8,0:0:0:0:
171,100,18385,1,0,0:0:0:0:
215,163,18474,1,8,0:0:0:0:
210,155,18562,1,0,0:0:0:0:
212,149,18606,1,0,0:0:0:0:
212,149,18650,1,0,0:0:0:0:
223,205,18738,5,8,0:0:0:0:
154,142,18915,1,0,0:0:0:0:
191,182,19003,1,0,0:0:0:0:
214,160,19091,1,8,0:0:0:0:
201,122,19179,1,8,0:0:0:0:
201,122,19267,1,0,0:0:0:0:
201,122,19444,1,0,0:0:0:0:
141,108,19533,1,8,0:0:0:0:
74,75,19621,1,0,0:0:0:0:
190,97,19709,1,8,0:0:0:0:
184,76,19885,1,8,0:0:0:0:
167,68,19974,1,0,0:0:0:0:
214,150,20061,1,0,0:0:0:0:
214,150,20150,1,8,0:0:0:0:
243,164,20326,1,0,0:0:0:0:
196,171,20503,1,8,0:0:0:0:
185,94,20679,1,8,0:0:0:0:
214,177,20767,1,8,0:0:0:0:
196,101,20856,1,0,0:0:0:0:
221,118,20944,1,8,0:0:0:0:
133,119,21033,1,0,0:0:0:0:
171,100,21208,1,0,0:0:0:0:
215,163,21297,1,8,0:0:0:0:
164,182,21341,1,8,0:0:0:0:
168,117,21385,1,8,0:0:0:0:
212,158,21474,1,0,0:0:0:0:
223,205,21562,5,8,0:0:0:0:
224,160,21738,1,8,0:0:0:0:
191,182,21827,1,0,0:0:0:0:
214,160,21915,1,8,0:0:0:0:
201,122,22003,1,8,0:0:0:0:
201,122,22091,1,0,0:0:0:0:
201,122,22268,1,0,0:0:0:0:
266,166,22356,1,0,0:0:0:0:
221,77,22444,1,8,0:0:0:0:
173,167,22532,1,0,0:0:0:0:
218,172,22709,1,0,0:0:0:0:
201,122,22797,1,8,0:0:0:0:
214,150,22885,1,0,0:0:0:0:
214,150,22974,1,8,0:0:0:0:
243,164,23150,1,0,0:0:0:0:
196,171,23327,1,8,0:0:0:0:
185,94,23503,1,8,0:0:0:0:
214,177,23591,1,8,0:0:0:0:
196,101,23680,1,0,0:0:0:0:
204,167,23768,1,0,0:0:0:0:
201,97,23856,1,8,0:0:0:0:
171,100,24032,1,0,0:0:0:0:
215,163,24121,1,8,0:0:0:0:
210,155,24209,1,0,0:0:0:0:
212,149,24253,1,0,0:0:0:0:
212,149,24297,1,0,0:0:0:0:
223,205,24385,5,8,0:0:0:0:
154,142,24562,1,0,0:0:0:0:
191,182,24650,1,0,0:0:0:0:
214,160,24738,1,8,0:0:0:0:
201,122,24826,1,8,0:0:0:0:
201,122,24914,1,0,0:0:0:0:
201,122,25091,1,0,0:0:0:0:
141,108,25180,1,8,0:0:0:0:
74,75,25268,1,0,0:0:0:0:
190,97,25356,1,8,0:0:0:0:
184,76,25532,1,8,0:0:0:0:
167,68,25621,1,0,0:0:0:0:
214,150,25708,1,0,0:0:0:0:
214,150,25797,1,8,0:0:0:0:
243,164,25973,5,0,0:0:0:0:
196,171,26150,1,8,0:0:0:0:
185,94,26326,1,8,0:0:0:0:
214,177,26414,1,8,0:0:0:0:
196,101,26503,1,0,0:0:0:0:
221,118,26591,1,8,0:0:0:0:
133,119,26680,1,0,0:0:0:0:
201,145,26856,1,12,0:0:0:0:
183,110,27033,1,0,0:0:0:0:
91,98,27077,1,0,0:0:0:0:
91,98,27121,1,0,0:0:0:0:
78,103,27209,1,8,0:0:0:0:
182,168,27385,1,12,0:0:0:0:
263,175,27562,1,0,0:0:0:0:
263,175,27650,1,0,0:0:0:0:
263,175,27738,1,8,0:0:0:0:
186,121,27915,1,0,0:0:0:0:
186,121,28003,1,0,0:0:0:0:
186,121,28091,1,8,0:0:0:0:
187,130,28268,1,0,0:0:0:0:
192,102,28356,1,0,0:0:0:0:
186,91,28444,1,8,0:0:0:0:
208,98,28621,1,4,0:0:0:0:
205,134,28797,1,4,0:0:0:0:
208,105,28974,1,8,0:0:0:0:
209,105,29062,1,8,0:0:0:0:
209,105,29150,1,0,0:0:0:0:
212,108,29327,1,8,0:0:0:0:
213,108,29415,1,8,0:0:0:0:
213,108,29503,1,0,0:0:0:0:
185,68,29680,1,8,0:0:0:0:
214,108,29768,1,8,0:0:0:0:
216,168,29856,1,0,0:0:0:0:
216,168,29900,1,0,0:0:0:0:
219,172,29944,1,0,0:0:0:0:
192,202,30033,1,12,0:0:0:0:
182,168,30209,1,12,0:0:0:0:
263,175,30386,1,0,0:0:0:0:
263,175,30474,1,0,0:0:0:0:
263,175,30562,1,8,0:0:0:0:
186,121,30739,1,0,0:0:0:0:
186,121,30827,1,0,0:0:0:0:
186,121,30915,1,8,0:0:0:0:
187,130,31092,1,0,0:0:0:0:
192,102,31180,1,0,0:0:0:0:
186,91,31268,1,8,0:0:0:0:
208,98,31445,1,4,0:0:0:0:
205,134,31621,1,4,0:0:0:0:
208,105,31798,1,8,0:0:0:0:
209,105,31886,1,8,0:0:0:0:
209,105,31974,1,0,0:0:0:0:
212,108,32151,1,8,0:0:0:0:
213,108,32239,1,8,0:0:0:0:
213,108,32327,1,0,0:0:0:0:
215,145,32503,1,0,0:0:0:0:
215,146,32591,1,8,0:0:0:0:
215,146,32635,1,8,0:0:0:0:
201,136,32680,1,8,0:0:0:0:
193,123,32768,1,0,0:0:0:0:
198,124,32856,1,12,0:0:0:0:
192,120,33033,1,12,0:0:0:0:
200,112,33209,1,0,0:0:0:0:
208,112,33297,1,0,0:0:0:0:
200,112,33385,1,8,0:0:0:0:
192,136,33562,1,4,0:0:0:0:
201,136,33738,1,4,0:0:0:0:
208,104,33915,1,8,0:0:0:0:
208,104,34003,1,8,0:0:0:0:
208,104,34091,1,0,0:0:0:0:
224,128,34268,1,12,0:0:0:0:
192,120,34445,1,12,0:0:0:0:
200,112,34621,1,0,0:0:0:0:
208,112,34709,1,0,0:0:0:0:
200,112,34797,1,8,0:0:0:0:
192,136,34974,1,4,0:0:0:0:
201,136,35150,1,4,0:0:0:0:
208,104,35327,1,8,0:0:0:0:
208,104,35415,1,8,0:0:0:0:
208,104,35503,1,0,0:0:0:0:
280,200,35547,1,0,0:0:0:0:
280,200,35591,1,0,0:0:0:0:
192,120,35680,1,12,0:0:0:0:
216,144,35856,1,0,0:0:0:0:
216,144,35944,1,0,0:0:0:0:
208,128,36033,1,12,0:0:0:0:
216,144,36209,1,0,0:0:0:0:
216,144,36297,1,0,0:0:0:0:
208,128,36386,1,12,0:0:0:0:
216,144,36562,1,0,0:0:0:0:
216,144,36650,1,0,0:0:0:0:
208,128,36739,1,12,0:0:0:0:
168,176,36915,1,0,0:0:0:0:
168,176,37003,1,0,0:0:0:0:
200,144,37091,1,12,0:0:0:0:
212,117,37268,1,0,0:0:0:0:
208,128,37356,1,0,0:0:0:0:
208,112,37444,1,8,0:0:0:0:
192,104,37533,1,0,0:0:0:0:
208,168,37621,1,8,0:0:0:0:
208,104,37797,1,8,0:0:0:0:
208,104,37841,1,8,0:0:0:0:
208,104,37885,1,8,0:0:0:0:
192,96,37974,1,0,0:0:0:0:
216,144,38150,1,0,0:0:0:0:
216,146,38238,1,8,0:0:0:0:
216,143,38327,1,0,0:0:0:0:
216,146,38371,1,0,0:0:0:0:
216,146,38415,1,0,0:0:0:0:
176,40,38503,1,8,0:0:0:0:
192,120,38680,1,8,0:0:0:0:
176,112,38856,1,0,0:0:0:0:
185,133,38944,1,0,0:0:0:0:
185,133,39033,1,8,0:0:0:0:
168,144,39121,1,8,0:0:0:0:
168,144,39209,1,0,0:0:0:0:
176,104,39385,1,8,0:0:0:0:
192,120,39474,1,0,0:0:0:0:
192,112,39562,1,8,0:0:0:0:
184,104,39650,1,0,0:0:0:0:
168,131,39738,1,0,0:0:0:0:
202,140,39827,1,0,0:0:0:0:
192,72,39915,1,8,0:0:0:0:
208,160,40091,1,0,0:0:0:0:
192,80,40180,1,8,0:0:0:0:
176,136,40268,1,0,0:0:0:0:
192,136,40356,1,0,0:0:0:0:
192,120,40444,1,8,0:0:0:0:
192,96,40533,1,0,0:0:0:0:
200,112,40621,1,8,0:0:0:0:
184,176,40665,1,8,0:0:0:0:
184,176,40709,1,8,0:0:0:0:
191,156,40797,1,0,0:0:0:0:
134,176,40974,1,0,0:0:0:0:
176,96,41062,1,8,0:0:0:0:
200,128,41150,1,0,0:0:0:0:
192,112,41194,1,0,0:0:0:0:
200,128,41238,1,0,0:0:0:0:
176,40,41327,1,8,0:0:0:0:
98,112,41503,1,0,0:0:0:0:
175,108,41680,1,8,0:0:0:0:
185,133,41768,1,0,0:0:0:0:
185,133,41857,1,8,0:0:0:0:
168,144,41945,1,8,0:0:0:0:
168,144,42033,1,0,0:0:0:0:
176,104,42209,1,8,0:0:0:0:
192,120,42298,1,0,0:0:0:0:
169,156,42385,1,0,0:0:0:0:
154,104,42562,1,8,0:0:0:0:
202,140,42651,1,0,0:0:0:0:
192,72,42739,1,8,0:0:0:0:
173,143,42915,1,8,0:0:0:0:
192,80,43004,1,8,0:0:0:0:
141,108,43091,1,0,0:0:0:0:
192,136,43180,1,0,0:0:0:0:
192,120,43268,1,8,0:0:0:0:
200,112,43445,1,8,0:0:0:0:
184,176,43489,1,8,0:0:0:0:
184,176,43533,1,8,0:0:0:0:
191,156,43621,1,0,0:0:0:0:
134,176,43798,1,0,0:0:0:0:
176,96,43886,1,8,0:0:0:0:
200,128,43974,1,0,0:0:0:0:
192,112,44018,1,0,0:0:0:0:
200,128,44062,1,0,0:0:0:0:
176,40,44150,1,8,0:0:0:0:
192,120,44327,1,8,0:0:0:0:
176,112,44503,1,0,0:0:0:0:
185,133,44591,1,0,0:0:0:0:
185,133,44680,1,8,0:0:0:0:
168,144,44768,1,8,0:0:0:0:
168,144,44856,1,0,0:0:0:0:
176,104,45032,1,8,0:0:0:0:
192,120,45121,1,0,0:0:0:0:
192,112,45209,1,8,0:0:0:0:
184,104,45297,1,0,0:0:0:0:
168,131,45385,1,0,0:0:0:0:
202,140,45474,1,0,0:0:0:0:
192,72,45562,1,8,0:0:0:0:
208,160,45738,1,0,0:0:0:0:
192,80,45827,1,8,0:0:0:0:
176,136,45915,1,0,0:0:0:0:
192,136,46003,1,0,0:0:0:0:
192,120,46091,1,8,0:0:0:0:
192,96,46180,1,0,0:0:0:0:
200,112,46268,1,8,0:0:0:0:
184,176,46312,1,8,0:0:0:0:
184,176,46356,1,8,0:0:0:0:
191,156,46444,1,0,0:0:0:0:
134,176,46621,1,0,0:0:0:0:
176,96,46709,1,8,0:0:0:0:
200,128,46797,1,0,0:0:0:0:
192,112,46841,1,0,0:0:0:0:
200,128,46885,1,0,0:0:0:0:
176,40,46974,1,8,0:0:0:0:
283,230,47680,1,0,0:0:0:0:
271,162,48385,1,8,0:0:0:0:
220,159,48650,1,0,0:0:0:0:
220,159,48738,1,8,0:0:0:0:
234,144,49003,1,0,0:0:0:0:
236,202,49091,1,12,0:0:0:0:
228,159,49268,1,0,0:0:0:0:
226,159,49356,1,0,0:0:0:0:
220,159,49444,1,8,0:0:0:0:
161,62,49533,1,8,0:0:0:0:
201,140,49621,1,0,0:0:0:0:
201,140,49665,1,0,0:0:0:0:
201,140,49709,1,0,0:0:0:0:
201,140,49797,1,8,0:0:0:0:
201,197,49974,1,8,0:0:0:0:
206,93,50062,1,0,0:0:0:0:
211,88,50150,1,8,0:0:0:0:
201,151,50327,1,0,0:0:0:0:
176,154,50415,1,8,0:0:0:0:
220,117,50503,1,0,0:0:0:0:
197,127,50591,1,8,0:0:0:0:
197,127,50680,1,0,0:0:0:0:
223,70,50724,1,0,0:0:0:0:
174,178,50768,1,8,0:0:0:0:
174,178,50856,1,0,0:0:0:0:
188,103,51033,1,8,0:0:0:0:
192,86,51121,1,8,0:0:0:0:
232,164,51209,1,0,0:0:0:0:
178,90,51385,1,8,0:0:0:0:
212,150,51474,1,0,0:0:0:0:
196,105,51562,1,8,0:0:0:0:
196,105,51606,1,8,0:0:0:0:
206,144,51650,1,0,0:0:0:0:
204,145,51738,1,8,0:0:0:0:
220,184,51827,1,8,0:0:0:0:
221,184,51915,1,0,0:0:0:0:
182,143,52091,1,8,0:0:0:0:
190,100,52180,1,0,0:0:0:0:
219,121,52268,1,8,0:0:0:0:
190,157,52356,1,8,0:0:0:0:
190,157,52444,1,0,0:0:0:0:
190,157,52488,1,0,0:0:0:0:
188,137,52533,1,0,0:0:0:0:
190,138,52621,1,8,0:0:0:0:
248,170,52709,1,0,0:0:0:0:
181,151,52797,1,0,0:0:0:0:
197,167,52885,1,0,0:0:0:0:
197,167,52974,1,8,0:0:0:0:
188,167,53150,1,8,0:0:0:0:
176,154,53238,1,8,0:0:0:0:
220,117,53326,1,0,0:0:0:0:
176,172,53503,1,8,0:0:0:0:
212,150,53591,1,0,0:0:0:0:
202,118,53635,1,0,0:0:0:0:
202,118,53679,1,8,0:0:0:0:
188,49,53767,1,0,0:0:0:0:
188,103,53856,1,8,0:0:0:0:
204,166,53944,1,0,0:0:0:0:
189,124,54033,1,8,0:0:0:0:
178,90,54208,1,8,0:0:0:0:
212,150,54297,1,0,0:0:0:0:
196,105,54385,1,8,0:0:0:0:
140,110,54562,1,0,0:0:0:0:
192,141,54650,1,0,0:0:0:0:
192,141,54738,1,8,0:0:0:0:
155,102,54827,1,8,0:0:0:0:
169,121,54915,1,0,0:0:0:0:
169,121,54959,1,0,0:0:0:0:
212,150,55003,1,8,0:0:0:0:
187,162,55091,1,0,0:0:0:0:
219,153,55180,1,8,0:0:0:0:
194,172,55224,1,8,0:0:0:0:
194,172,55268,1,8,0:0:0:0:
172,111,55356,1,0,0:0:0:0:
214,133,55444,1,8,0:0:0:0:
206,93,55709,1,0,0:0:0:0:
149,162,55753,1,0,0:0:0:0:
211,88,55797,1,8,0:0:0:0:
206,131,55885,1,0,0:0:0:0:
206,131,55974,1,8,0:0:0:0:
220,117,56150,1,0,0:0:0:0:
232,164,56238,1,8,0:0:0:0:
207,170,56327,1,0,0:0:0:0:
207,170,56371,1,0,0:0:0:0:
183,164,56415,1,8,0:0:0:0:
183,164,56503,1,0,0:0:0:0:
188,103,56680,1,8,0:0:0:0:
192,86,56768,1,8,0:0:0:0:
232,164,56856,1,0,0:0:0:0:
155,99,57033,1,8,0:0:0:0:
212,150,57121,1,0,0:0:0:0:
204,155,57209,1,8,0:0:0:0:
177,157,57253,1,8,0:0:0:0:
177,157,57297,1,0,0:0:0:0:
177,157,57385,1,8,0:0:0:0:
191,154,57562,1,8,0:0:0:0:
192,117,57650,1,0,0:0:0:0:
201,101,57738,1,8,0:0:0:0:
181,71,57827,1,0,0:0:0:0:
219,121,57915,1,8,0:0:0:0:
184,125,58003,1,8,0:0:0:0:
184,125,58091,1,0,0:0:0:0:
184,125,58135,1,0,0:0:0:0:
188,137,58180,1,0,0:0:0:0:
190,138,58268,1,8,0:0:0:0:
201,197,58444,1,8,0:0:0:0:
206,93,58532,1,0,0:0:0:0:
211,88,58620,1,8,0:0:0:0:
240,153,58797,1,0,0:0:0:0:
180,115,58885,1,0,0:0:0:0:
185,101,58974,1,8,0:0:0:0:
216,161,59150,1,0,0:0:0:0:
216,161,59238,1,8,0:0:0:0:
216,161,59283,1,8,0:0:0:0:
216,161,59327,1,8,0:0:0:0:
204,116,59415,1,0,0:0:0:0:
199,109,59459,1,0,0:0:0:0:
176,108,59503,1,0,0:0:0:0:
176,108,59591,1,8,0:0:0:0:
234,174,59680,1,0,0:0:0:0:
224,160,59856,1,8,0:0:0:0:
191,182,59945,1,0,0:0:0:0:
214,160,60033,1,8,0:0:0:0:
201,122,60121,1,8,0:0:0:0:
201,122,60209,1,0,0:0:0:0:
201,122,60386,1,0,0:0:0:0:
266,166,60474,1,0,0:0:0:0:
221,77,60562,1,8,0:0:0:0:
173,167,60650,1,0,0:0:0:0:
218,172,60827,1,0,0:0:0:0:
201,122,60915,1,8,0:0:0:0:
214,150,61003,1,0,0:0:0:0:
214,150,61092,1,8,0:0:0:0:
243,164,61268,1,0,0:0:0:0:
196,171,61445,1,8,0:0:0:0:
185,94,61621,1,8,0:0:0:0:
214,177,61709,1,8,0:0:0:0:
196,101,61798,1,0,0:0:0:0:
204,167,61886,1,0,0:0:0:0:
201,97,61974,1,8,0:0:0:0:
171,100,62150,1,0,0:0:0:0:
215,163,62239,1,8,0:0:0:0:
210,155,62327,1,0,0:0:0:0:
212,149,62371,1,0,0:0:0:0:
212,149,62415,1,0,0:0:0:0:
223,205,62503,5,8,0:0:0:0:
154,142,62680,1,0,0:0:0:0:
191,182,62768,1,0,0:0:0:0:
214,160,62856,1,8,0:0:0:0:
201,122,62944,1,8,0:0:0:0:
201,122,63032,1,0,0:0:0:0:
201,122,63209,1,0,0:0:0:0:
141,108,63298,1,8,0:0:0:0:
74,75,63386,1,0,0:0:0:0:
190,97,63474,1,8,0:0:0:0:
184,76,63650,1,8,0:0:0:0:
167,68,63739,1,0,0:0:0:0:
214,150,63826,1,0,0:0:0:0:
214,150,63915,1,8,0:0:0:0:
243,164,64091,1,0,0:0:0:0:
196,171,64268,1,8,0:0:0:0:
185,94,64444,1,8,0:0:0:0:
214,177,64532,1,8,0:0:0:0:
196,101,64621,1,0,0:0:0:0:
144,174,64797,1,8,0:0:0:0:
258,210,64885,1,8,0:0:0:0:
189,134,64974,1,0,0:0:0:0:
215,163,65062,1,8,0:0:0:0:
164,182,65106,1,8,0:0:0:0:
168,117,65150,1,8,0:0:0:0:
212,158,65239,1,0,0:0:0:0:
223,205,65327,5,8,0:0:0:0:
224,160,65503,1,8,0:0:0:0:
191,182,65592,1,0,0:0:0:0:
214,160,65680,1,8,0:0:0:0:
201,122,65768,1,8,0:0:0:0:
201,122,65856,1,0,0:0:0:0:
201,122,66033,1,0,0:0:0:0:
266,166,66121,1,0,0:0:0:0:
221,77,66209,1,8,0:0:0:0:
173,167,66297,1,0,0:0:0:0:
218,172,66474,1,0,0:0:0:0:
201,122,66562,1,8,0:0:0:0:
214,150,66650,1,0,0:0:0:0:
214,150,66739,1,8,0:0:0:0:
243,164,66915,1,0,0:0:0:0:
196,171,67092,1,8,0:0:0:0:
185,94,67268,1,8,0:0:0:0:
214,177,67356,1,8,0:0:0:0:
196,101,67445,1,0,0:0:0:0:
204,167,67533,1,0,0:0:0:0:
201,97,67621,1,8,0:0:0:0:
171,100,67797,1,0,0:0:0:0:
215,163,67886,1,8,0:0:0:0:
210,155,67974,1,0,0:0:0:0:
212,149,68018,1,0,0:0:0:0:
212,149,68062,1,0,0:0:0:0:
223,205,68150,5,8,0:0:0:0:
154,142,68327,1,0,0:0:0:0:
191,182,68415,1,0,0:0:0:0:
214,160,68503,1,8,0:0:0:0:
201,122,68591,1,8,0:0:0:0:
201,122,68679,1,0,0:0:0:0:
201,122,68856,1,0,0:0:0:0:
141,108,68945,1,8,0:0:0:0:
74,75,69033,1,0,0:0:0:0:
190,97,69121,1,8,0:0:0:0:
184,76,69297,1,8,0:0:0:0:
167,68,69386,1,0,0:0:0:0:
214,150,69473,1,0,0:0:0:0:
214,150,69562,1,8,0:0:0:0:
243,164,69738,5,0,0:0:0:0:
196,171,69915,1,8,0:0:0:0:
185,94,70091,5,8,0:0:0:0:
214,177,70179,1,8,0:0:0:0:
196,101,70268,1,0,0:0:0:0:
221,118,70356,1,8,0:0:0:0:
133,119,70445,1,0,0:0:0:0:
201,145,70621,1,12,0:0:0:0:
204,186,70797,1,0,0:0:0:0:
204,186,70841,1,0,0:0:0:0:
204,186,70885,1,0,0:0:0:0:
204,186,70974,1,8,0:0:0:0:
232,173,71150,5,8,0:0:0:0:
262,182,71415,1,0,0:0:0:0:
262,182,71503,1,8,0:0:0:0:
248,198,71680,1,0,0:0:0:0:
241,198,71768,1,0,0:0:0:0:
241,198,71856,1,8,0:0:0:0:
195,148,71944,1,0,0:0:0:0:
240,198,72121,1,0,0:0:0:0:
195,148,72209,1,8,0:0:0:0:
197,128,72385,1,0,0:0:0:0:
194,137,72562,1,8,0:0:0:0:
197,129,72827,1,0,0:0:0:0:
194,137,72915,1,8,0:0:0:0:
209,119,73091,1,0,0:0:0:0:
190,126,73180,1,0,0:0:0:0:
190,126,73268,1,8,0:0:0:0:
176,95,73444,1,8,0:0:0:0:
142,152,73621,1,0,0:0:0:0:
142,152,73665,1,0,0:0:0:0:
142,152,73709,1,0,0:0:0:0:
243,139,73797,1,8,0:0:0:0:
232,173,73974,1,8,0:0:0:0:
262,182,74239,1,0,0:0:0:0:
262,182,74327,1,8,0:0:0:0:
248,198,74504,1,0,0:0:0:0:
241,198,74592,1,0,0:0:0:0:
241,198,74680,1,8,0:0:0:0:
195,148,74768,1,0,0:0:0:0:
240,198,74945,1,0,0:0:0:0:
195,148,75033,1,8,0:0:0:0:
197,128,75209,1,0,0:0:0:0:
194,137,75386,1,8,0:0:0:0:
197,129,75651,1,0,0:0:0:0:
194,137,75739,1,8,0:0:0:0:
209,119,75915,1,0,0:0:0:0:
190,126,76092,1,8,0:0:0:0:
206,134,76180,1,0,0:0:0:0:
202,156,76268,1,0,0:0:0:0:
202,156,76356,1,8,0:0:0:0:
202,156,76400,1,8,0:0:0:0:
202,156,76444,1,8,0:0:0:0:
203,148,76533,1,0,0:0:0:0:
203,148,76621,1,8,0:0:0:0:
232,173,76797,1,8,0:0:0:0:
262,182,77062,1,0,0:0:0:0:
262,182,77150,1,8,0:0:0:0:
248,198,77327,1,0,0:0:0:0:
181,97,77415,1,8,0:0:0:0:
191,105,77503,1,0,0:0:0:0:
193,105,77591,1,8,0:0:0:0:
240,198,77768,1,0,0:0:0:0:
195,148,77856,1,8,0:0:0:0:
197,128,78032,1,0,0:0:0:0:
194,137,78209,1,8,0:0:0:0:
221,94,78385,1,8,0:0:0:0:
197,129,78474,1,0,0:0:0:0:
194,137,78562,1,8,0:0:0:0:
209,119,78738,1,0,0:0:0:0:
217,120,78827,1,0,0:0:0:0:
190,126,78915,1,8,0:0:0:0:
189,86,79003,1,8,0:0:0:0:
189,86,79091,1,0,0:0:0:0:
200,78,79268,1,0,0:0:0:0:
201,78,79312,1,0,0:0:0:0:
200,78,79356,1,0,0:0:0:0:
243,139,79444,1,8,0:0:0:0:
232,173,79621,1,8,0:0:0:0:
262,182,79886,1,0,0:0:0:0:
262,182,79974,1,8,0:0:0:0:
248,198,80151,1,0,0:0:0:0:
181,97,80239,1,8,0:0:0:0:
191,105,80327,1,0,0:0:0:0:
193,105,80415,1,8,0:0:0:0:
240,198,80592,1,0,0:0:0:0:
195,148,80680,1,8,0:0:0:0:
197,128,80856,1,0,0:0:0:0:
194,137,81033,1,8,0:0:0:0:
221,94,81209,1,8,0:0:0:0:
197,129,81298,1,0,0:0:0:0:
194,137,81386,1,8,0:0:0:0:
209,119,81562,1,12,0:0:0:0:
87,59,81738,1,0,0:0:0:0:
189,86,81827,1,8,0:0:0:0:
189,86,81915,1,0,0:0:0:0:
194,62,82004,1,8,0:0:0:0:
200,78,82092,1,0,0:0:0:0:
201,78,82136,1,0,0:0:0:0:
177,141,82180,1,0,0:0:0:0:
192,202,82268,1,12,0:0:0:0:
182,168,82444,1,12,0:0:0:0:
263,175,82621,1,0,0:0:0:0:
263,175,82709,1,0,0:0:0:0:
263,175,82797,1,8,0:0:0:0:
186,121,82974,1,0,0:0:0:0:
186,121,83062,1,0,0:0:0:0:
186,121,83150,1,8,0:0:0:0:
187,130,83327,1,0,0:0:0:0:
192,102,83415,1,0,0:0:0:0:
186,91,83503,1,8,0:0:0:0:
208,98,83680,1,4,0:0:0:0:
205,134,83856,1,4,0:0:0:0:
208,105,84033,1,8,0:0:0:0:
209,105,84121,1,8,0:0:0:0:
209,105,84209,1,0,0:0:0:0:
212,108,84386,1,8,0:0:0:0:
213,108,84474,1,8,0:0:0:0:
213,108,84562,1,0,0:0:0:0:
185,68,84739,1,8,0:0:0:0:
214,108,84827,1,8,0:0:0:0:
216,168,84915,1,0,0:0:0:0:
216,168,84959,1,0,0:0:0:0:
219,172,85003,1,0,0:0:0:0:
192,202,85092,1,12,0:0:0:0:
182,168,85268,1,12,0:0:0:0:
263,175,85445,1,0,0:0:0:0:
263,175,85533,1,0,0:0:0:0:
263,175,85621,1,8,0:0:0:0:
186,121,85798,1,0,0:0:0:0:
186,121,85886,1,0,0:0:0:0:
186,121,85974,1,8,0:0:0:0:
187,130,86151,1,0,0:0:0:0:
192,102,86239,1,0,0:0:0:0:
186,91,86327,1,8,0:0:0:0:
208,98,86504,1,4,0:0:0:0:
205,134,86680,1,4,0:0:0:0:
208,105,86857,1,8,0:0:0:0:
209,105,86945,1,8,0:0:0:0:
209,105,87033,1,0,0:0:0:0:
225,207,87209,1,8,0:0:0:0:
225,207,87297,1,8,0:0:0:0:
225,207,87385,1,0,0:0:0:0:
215,145,87561,1,0,0:0:0:0:
215,146,87649,1,8,0:0:0:0:
215,146,87693,1,8,0:0:0:0:
201,136,87738,1,8,0:0:0:0:
193,123,87826,1,0,0:0:0:0:
198,124,87914,1,12,0:0:0:0:
192,120,88092,1,12,0:0:0:0:
200,112,88268,1,0,0:0:0:0:
208,112,88356,1,0,0:0:0:0:
200,112,88444,1,8,0:0:0:0:
192,136,88621,1,4,0:0:0:0:
201,136,88797,1,4,0:0:0:0:
208,104,88974,1,8,0:0:0:0:
208,104,89062,1,8,0:0:0:0:
208,104,89150,1,0,0:0:0:0:
224,128,89327,1,12,0:0:0:0:
192,120,89504,1,12,0:0:0:0:
200,112,89680,1,0,0:0:0:0:
208,112,89768,1,0,0:0:0:0:
200,112,89856,1,8,0:0:0:0:
192,136,90033,1,4,0:0:0:0:
201,136,90209,1,4,0:0:0:0:
208,104,90386,1,8,0:0:0:0:
208,104,90474,1,8,0:0:0:0:
208,104,90562,1,0,0:0:0:0:
280,200,90606,1,0,0:0:0:0:
280,200,90650,1,0,0:0:0:0:
192,120,90739,1,12,0:0:0:0:
216,144,90915,1,0,0:0:0:0:
216,144,91003,1,0,0:0:0:0:
208,128,91092,1,12,0:0:0:0:
216,144,91268,1,0,0:0:0:0:
216,144,91356,1,0,0:0:0:0:
208,128,91445,1,12,0:0:0:0:
216,144,91621,1,0,0:0:0:0:
216,144,91709,1,0,0:0:0:0:
208,128,91798,1,12,0:0:0:0:
168,176,91974,1,0,0:0:0:0:
168,176,92062,1,0,0:0:0:0:
200,144,92150,1,12,0:0:0:0:
212,117,92327,1,0,0:0:0:0:
208,128,92415,1,0,0:0:0:0:
208,112,92503,1,8,0:0:0:0:
192,104,92592,1,0,0:0:0:0:
208,168,92680,1,8,0:0:0:0:
208,104,92856,1,8,0:0:0:0:
208,104,92900,1,8,0:0:0:0:
208,104,92944,1,8,0:0:0:0:
192,96,93033,1,0,0:0:0:0:
216,144,93209,1,0,0:0:0:0:
216,146,93297,1,8,0:0:0:0:
216,143,93386,1,0,0:0:0:0:
216,146,93430,1,0,0:0:0:0:
216,146,93474,1,0,0:0:0:0:
176,40,93562,1,8,0:0:0:0:
296,188,98503,5,8,0:0:0:0:
212,125,98768,1,0,0:0:0:0:
212,149,98856,1,8,0:0:0:0:
212,125,98944,1,8,0:0:0:0:
212,125,99033,1,0,0:0:0:0:
213,130,99077,1,0,0:0:0:0:
215,165,99121,1,0,0:0:0:0:
212,165,99209,1,8,0:0:0:0:
209,132,99385,1,8,0:0:0:0:
216,132,99562,1,0,0:0:0:0:
216,132,99650,1,0,0:0:0:0:
216,132,99738,1,8,0:0:0:0:
197,104,99915,1,0,0:0:0:0:
207,108,100091,1,8,0:0:0:0:
209,108,100268,1,0,0:0:0:0:
209,108,100356,1,0,0:0:0:0:
209,108,100444,1,8,0:0:0:0:
199,92,100621,1,8,0:0:0:0:
199,92,100797,1,8,0:0:0:0:
199,93,100974,1,0,0:0:0:0:
269,197,101062,1,0,0:0:0:0:
269,197,101150,1,8,0:0:0:0:
269,197,101327,1,8,0:0:0:0:
269,197,101503,1,8,0:0:0:0:
224,155,101680,1,8,0:0:0:0:
224,155,101768,1,8,0:0:0:0:
223,229,101856,1,0,0:0:0:0:
223,229,101900,1,0,0:0:0:0:
223,229,101944,1,0,0:0:0:0:
223,229,102033,1,8,0:0:0:0:
201,80,102209,1,8,0:0:0:0:
205,87,102385,1,0,0:0:0:0:
205,87,102474,1,0,0:0:0:0:
198,85,102562,1,8,0:0:0:0:
225,135,102738,1,0,0:0:0:0:
227,138,102915,1,8,0:0:0:0:
202,87,103091,1,0,0:0:0:0:
202,87,103180,1,0,0:0:0:0:
205,87,103268,1,8,0:0:0:0:
221,183,103444,1,8,0:0:0:0:
248,203,103621,1,8,0:0:0:0:
248,203,103797,1,0,0:0:0:0:
248,203,103885,1,0,0:0:0:0:
230,185,103974,1,8,0:0:0:0:
230,185,104150,1,0,0:0:0:0:
188,139,104327,1,0,0:0:0:0:
228,186,104415,1,0,0:0:0:0:
230,185,104503,1,12,0:0:0:0:
242,137,104680,1,0,0:0:0:0:
192,237,104724,1,0,0:0:0:0:
192,237,104768,1,0,0:0:0:0:
204,214,104856,1,8,0:0:0:0:
146,160,105033,1,8,0:0:0:0:
265,182,105209,1,0,0:0:0:0:
233,135,105297,1,8,0:0:0:0:
234,135,105385,1,0,0:0:0:0:
191,152,105474,1,8,0:0:0:0:
212,125,105562,1,0,0:0:0:0:
200,144,105650,1,0,0:0:0:0:
201,150,105738,1,8,0:0:0:0:
172,112,105827,1,8,0:0:0:0:
178,113,105915,1,0,0:0:0:0:
206,145,106091,1,8,0:0:0:0:
223,142,106268,1,8,0:0:0:0:
215,197,106356,1,8,0:0:0:0:
219,198,106444,1,0,0:0:0:0:
196,144,106533,1,0,0:0:0:0:
196,144,106621,1,8,0:0:0:0:
197,120,106709,1,8,0:0:0:0:
207,138,106797,1,0,0:0:0:0:
258,204,106885,1,0,0:0:0:0:
206,207,107680,5,8,0:0:0:0:
162,93,108385,1,8,0:0:0:0:
202,157,109091,1,0,0:0:0:0:
182,128,110503,1,8,0:0:0:0:
183,158,111209,1,8,0:0:0:0:
183,158,111915,1,0,0:0:0:0:
236,179,112885,1,8,0:0:0:0:
236,179,112930,1,8,0:0:0:0:
222,190,112974,1,8,0:0:0:0:
203,80,113150,1,8,0:0:0:0:
207,116,113327,1,0,0:0:0:0:
207,116,113503,1,0,0:0:0:0:
198,115,113679,1,8,0:0:0:0:
198,115,113768,1,8,0:0:0:0:
198,115,113856,1,0,0:0:0:0:
198,115,114032,1,8,0:0:0:0:
198,115,114121,1,8,0:0:0:0:
198,115,114209,1,0,0:0:0:0:
198,115,114385,1,8,0:0:0:0:
188,157,114562,1,8,0:0:0:0:
190,112,114650,1,0,0:0:0:0:
190,112,114738,1,8,0:0:0:0:
190,112,114915,1,0,0:0:0:0:
190,112,115091,1,8,0:0:0:0:
191,75,115179,1,0,0:0:0:0:
191,75,115268,1,0,0:0:0:0:
191,75,115444,1,8,0:0:0:0:
191,75,115532,1,0,0:0:0:0:
191,75,115621,1,0,0:0:0:0:
191,75,115797,1,8,0:0:0:0:
228,128,115974,1,0,0:0:0:0:
228,128,116062,1,0,0:0:0:0:
219,135,116150,1,8,0:0:0:0:
219,135,116327,1,0,0:0:0:0:
219,135,116415,1,0,0:0:0:0:
219,135,116503,1,8,0:0:0:0:
203,105,116680,1,0,0:0:0:0:
203,105,116768,1,0,0:0:0:0:
203,105,116856,1,12,0:0:0:0:
229,167,117033,1,0,0:0:0:0:
229,167,117121,1,0,0:0:0:0:
229,167,117209,1,8,0:0:0:0:
229,167,117297,1,8,0:0:0:0:
201,112,117385,1,0,0:0:0:0:
201,112,117430,1,0,0:0:0:0:
198,116,117474,1,0,0:0:0:0:
201,140,117562,1,8,0:0:0:0:
201,197,117739,1,8,0:0:0:0:
206,93,117827,1,0,0:0:0:0:
211,88,117915,1,8,0:0:0:0:
201,151,118092,1,0,0:0:0:0:
176,154,118180,1,8,0:0:0:0:
220,117,118268,1,0,0:0:0:0:
197,127,118356,1,8,0:0:0:0:
197,127,118445,1,0,0:0:0:0:
223,70,118489,1,0,0:0:0:0:
174,178,118533,1,8,0:0:0:0:
174,178,118621,1,0,0:0:0:0:
188,103,118798,1,8,0:0:0:0:
192,86,118886,1,8,0:0:0:0:
232,164,118974,1,0,0:0:0:0:
178,90,119150,1,8,0:0:0:0:
212,150,119239,1,0,0:0:0:0:
196,105,119327,1,8,0:0:0:0:
196,105,119371,1,8,0:0:0:0:
206,144,119415,1,0,0:0:0:0:
204,145,119503,1,8,0:0:0:0:
220,184,119592,1,8,0:0:0:0:
221,184,119680,1,0,0:0:0:0:
182,143,119856,1,8,0:0:0:0:
190,100,119945,1,0,0:0:0:0:
219,121,120033,1,8,0:0:0:0:
190,157,120121,1,8,0:0:0:0:
190,157,120209,1,0,0:0:0:0:
190,157,120253,1,0,0:0:0:0:
188,137,120298,1,0,0:0:0:0:
190,138,120386,1,8,0:0:0:0:
248,170,120474,1,0,0:0:0:0:
181,151,120562,1,0,0:0:0:0:
197,167,120650,1,0,0:0:0:0:
197,167,120739,1,8,0:0:0:0:
188,167,120915,1,8,0:0:0:0:
176,154,121003,1,8,0:0:0:0:
220,117,121091,1,0,0:0:0:0:
176,172,121268,1,8,0:0:0:0:
212,150,121356,1,0,0:0:0:0:
202,118,121400,1,0,0:0:0:0:
202,118,121444,1,8,0:0:0:0:
188,49,121532,1,0,0:0:0:0:
188,103,121621,1,8,0:0:0:0:
204,166,121709,1,0,0:0:0:0:
189,124,121798,1,8,0:0:0:0:
178,90,121973,1,8,0:0:0:0:
212,150,122062,1,0,0:0:0:0:
196,105,122150,1,8,0:0:0:0:
140,110,122327,1,0,0:0:0:0:
192,141,122415,1,0,0:0:0:0:
192,141,122503,1,8,0:0:0:0:
229,200,122591,1,8,0:0:0:0:
229,200,122680,1,0,0:0:0:0:
229,200,122724,1,0,0:0:0:0:
212,150,122768,1,8,0:0:0:0:
187,162,122856,1,0,0:0:0:0:
219,153,122945,1,8,0:0:0:0:
194,172,122989,1,8,0:0:0:0:
194,172,123033,1,8,0:0:0:0:
172,111,123121,1,0,0:0:0:0:
214,133,123209,1,8,0:0:0:0:
206,93,123474,1,0,0:0:0:0:
149,162,123518,1,0,0:0:0:0:
211,88,123562,1,8,0:0:0:0:
206,131,123650,1,0,0:0:0:0:
206,131,123739,1,8,0:0:0:0:
220,117,123915,1,0,0:0:0:0:
232,164,124003,1,8,0:0:0:0:
207,170,124092,1,0,0:0:0:0:
207,170,124136,1,0,0:0:0:0:
183,164,124180,1,8,0:0:0:0:
183,164,124268,1,0,0:0:0:0:
188,103,124445,1,8,0:0:0:0:
192,86,124533,1,8,0:0:0:0:
232,164,124621,1,0,0:0:0:0:
155,99,124798,1,8,0:0:0:0:
212,150,124886,1,0,0:0:0:0:
204,155,124974,1,8,0:0:0:0:
177,157,125018,1,8,0:0:0:0:
177,157,125062,1,0,0:0:0:0:
177,157,125150,1,8,0:0:0:0:
191,154,125327,1,8,0:0:0:0:
192,117,125415,1,0,0:0:0:0:
201,101,125503,1,8,0:0:0:0:
181,71,125592,1,0,0:0:0:0:
219,121,125680,1,8,0:0:0:0:
184,125,125768,1,8,0:0:0:0:
184,125,125856,1,0,0:0:0:0:
184,125,125900,1,0,0:0:0:0:
188,137,125945,1,0,0:0:0:0:
190,138,126033,1,8,0:0:0:0:
201,197,126209,1,8,0:0:0:0:
206,93,126297,5,0,0:0:0:0:
211,88,126385,1,8,0:0:0:0:
240,153,126562,1,0,0:0:0:0:
180,115,126650,1,0,0:0:0:0:
185,101,126739,1,8,0:0:0:0:
216,161,126915,1,0,0:0:0:0:
211,211,127003,1,0,0:0:0:0:
263,163,127091,1,12,0:0:0:0:
234,174,127445,1,0,0:0:0:0:
232,173,127620,1,8,0:0:0:0:
175,137,127797,1,0,0:0:0:0:
200,143,127885,1,0,0:0:0:0:
199,137,127974,1,8,0:0:0:0:
198,134,128150,1,0,0:0:0:0:
158,105,128238,1,8,0:0:0:0:
158,105,128327,1,0,0:0:0:0:
189,182,128415,1,8,0:0:0:0:
178,90,128503,1,0,0:0:0:0:
197,114,128680,1,8,0:0:0:0:
246,136,128768,1,8,0:0:0:0:
209,99,128856,1,0,0:0:0:0:
241,164,129033,1,8,0:0:0:0:
200,143,129209,1,8,0:0:0:0:
200,143,129297,1,0,0:0:0:0:
199,137,129386,1,8,0:0:0:0:
198,134,129562,1,0,0:0:0:0:
206,201,129650,1,0,0:0:0:0:
128,152,129738,1,8,0:0:0:0:
200,143,129827,1,0,0:0:0:0:
200,143,129915,1,8,0:0:0:0:
166,117,130091,1,0,0:0:0:0:
199,137,130135,1,0,0:0:0:0:
190,117,130180,1,0,0:0:0:0:
234,174,130268,1,8,0:0:0:0:
232,173,130443,1,8,0:0:0:0:
175,137,130620,1,0,0:0:0:0:
216,135,130709,1,8,0:0:0:0:
203,179,130885,1,8,0:0:0:0:
198,134,130973,1,0,0:0:0:0:
158,105,131061,1,8,0:0:0:0:
158,105,131150,1,0,0:0:0:0:
189,182,131238,1,8,0:0:0:0:
178,90,131326,1,0,0:0:0:0:
197,114,131503,1,8,0:0:0:0:
246,136,131591,1,8,0:0:0:0:
209,99,131679,1,0,0:0:0:0:
241,164,131856,1,8,0:0:0:0:
200,143,132032,1,8,0:0:0:0:
200,143,132120,1,0,0:0:0:0:
206,136,132297,1,0,0:0:0:0:
206,136,132385,1,8,0:0:0:0:
144,174,132562,1,8,0:0:0:0:
258,210,132650,1,8,0:0:0:0:
189,134,132739,1,0,0:0:0:0:
215,163,132827,1,8,0:0:0:0:
164,182,132871,1,8,0:0:0:0:
168,117,132915,1,8,0:0:0:0:
212,158,133004,1,0,0:0:0:0:
234,174,133091,1,8,0:0:0:0:
232,173,133268,1,8,0:0:0:0:
175,137,133444,1,0,0:0:0:0:
200,143,133533,1,0,0:0:0:0:
199,137,133621,1,8,0:0:0:0:
198,134,133796,1,0,0:0:0:0:
158,105,133884,1,8,0:0:0:0:
158,105,133973,1,0,0:0:0:0:
189,182,134061,1,8,0:0:0:0:
178,90,134149,1,0,0:0:0:0:
197,114,134326,1,8,0:0:0:0:
246,136,134414,1,8,0:0:0:0:
209,99,134502,1,0,0:0:0:0:
241,164,134679,1,8,0:0:0:0:
200,143,134855,1,8,0:0:0:0:
200,143,134943,1,0,0:0:0:0:
199,137,135032,1,8,0:0:0:0:
198,134,135208,1,0,0:0:0:0:
206,201,135296,1,0,0:0:0:0:
128,152,135384,1,8,0:0:0:0:
200,143,135473,1,0,0:0:0:0:
200,143,135561,1,8,0:0:0:0:
166,117,135737,1,0,0:0:0:0:
199,137,135783,1,0,0:0:0:0:
190,117,135827,1,0,0:0:0:0:
234,174,135915,1,8,0:0:0:0:
232,173,136091,1,8,0:0:0:0:
175,137,136268,1,0,0:0:0:0:
216,135,136356,1,8,0:0:0:0:
203,179,136533,1,8,0:0:0:0:
198,134,136621,1,0,0:0:0:0:
158,105,136709,1,8,0:0:0:0:
158,105,136797,1,0,0:0:0:0:
189,182,136885,1,8,0:0:0:0:
178,90,136974,1,0,0:0:0:0:
197,114,137150,1,8,0:0:0:0:
246,136,137238,1,8,0:0:0:0:
209,99,137327,1,0,0:0:0:0:
241,164,137503,1,8,0:0:0:0:
200,143,137680,1,8,0:0:0:0:
200,143,137768,5,0,0:0:0:0:
206,136,137944,1,0,0:0:0:0:
206,136,138033,1,8,0:0:0:0:
200,163,138121,1,0,0:0:0:0:
133,119,138209,1,0,0:0:0:0:
189,160,138297,1,0,0:0:0:0:
189,134,138385,1,12,0:0:0:0:
276,139,138562,1,0,0:0:0:0:
264,143,138606,1,0,0:0:0:0:
264,143,138650,1,0,0:0:0:0:
192,169,138738,1,12,0:0:0:0:
232,173,138914,1,12,0:0:0:0:
263,175,139091,1,0,0:0:0:0:
263,175,139179,1,0,0:0:0:0:
263,175,139267,1,8,0:0:0:0:
186,121,139444,1,0,0:0:0:0:
186,121,139532,1,0,0:0:0:0:
186,121,139620,1,8,0:0:0:0:
187,130,139797,1,0,0:0:0:0:
192,102,139885,1,0,0:0:0:0:
186,91,139973,1,8,0:0:0:0:
208,98,140150,1,4,0:0:0:0:
205,134,140326,1,4,0:0:0:0:
208,105,140503,1,8,0:0:0:0:
209,105,140591,1,8,0:0:0:0:
209,105,140679,1,0,0:0:0:0:
212,108,140856,1,8,0:0:0:0:
213,108,140944,1,8,0:0:0:0:
213,108,141032,1,0,0:0:0:0:
185,68,141209,1,8,0:0:0:0:
214,108,141297,1,8,0:0:0:0:
216,168,141385,1,0,0:0:0:0:
216,168,141429,1,0,0:0:0:0:
219,172,141473,1,0,0:0:0:0:
192,202,141562,1,12,0:0:0:0:
182,168,141738,1,12,0:0:0:0:
263,175,141915,1,0,0:0:0:0:
263,175,142003,1,0,0:0:0:0:
263,175,142091,1,8,0:0:0:0:
186,121,142268,1,0,0:0:0:0:
186,121,142356,1,0,0:0:0:0:
186,121,142444,1,8,0:0:0:0:
187,130,142621,1,0,0:0:0:0:
192,102,142709,1,0,0:0:0:0:
186,91,142797,1,8,0:0:0:0:
208,98,142974,1,4,0:0:0:0:
205,134,143150,1,4,0:0:0:0:
208,105,143327,1,8,0:0:0:0:
209,105,143415,1,8,0:0:0:0:
209,105,143503,1,0,0:0:0:0:
212,108,143680,1,8,0:0:0:0:
213,108,143768,1,8,0:0:0:0:
213,108,143856,1,0,0:0:0:0:
215,145,144033,1,0,0:0:0:0:
215,146,144121,1,8,0:0:0:0:
215,146,144165,1,8,0:0:0:0:
201,136,144210,1,8,0:0:0:0:
193,123,144298,1,0,0:0:0:0:
198,124,144386,1,12,0:0:0:0:
182,168,144561,1,12,0:0:0:0:
263,175,144738,1,0,0:0:0:0:
263,175,144826,1,0,0:0:0:0:
263,175,144914,1,8,0:0:0:0:
186,121,145091,1,0,0:0:0:0:
186,121,145179,1,0,0:0:0:0:
186,121,145267,1,8,0:0:0:0:
187,130,145444,1,0,0:0:0:0:
192,102,145532,1,0,0:0:0:0:
186,91,145620,1,8,0:0:0:0:
208,98,145797,1,4,0:0:0:0:
205,134,145973,1,4,0:0:0:0:
208,105,146150,1,8,0:0:0:0:
209,105,146238,1,8,0:0:0:0:
209,105,146326,1,0,0:0:0:0:
212,108,146503,1,8,0:0:0:0:
213,108,146591,1,8,0:0:0:0:
213,108,146679,1,0,0:0:0:0:
185,68,146856,1,8,0:0:0:0:
214,108,146944,1,8,0:0:0:0:
216,168,147032,1,0,0:0:0:0:
216,168,147076,1,0,0:0:0:0:
219,172,147120,1,0,0:0:0:0:
192,202,147209,1,12,0:0:0:0:
182,168,147385,1,12,0:0:0:0:
263,175,147562,1,0,0:0:0:0:
263,175,147650,1,0,0:0:0:0:
263,175,147738,1,8,0:0:0:0:
186,121,147915,1,0,0:0:0:0:
186,121,148003,1,0,0:0:0:0:
186,121,148091,1,8,0:0:0:0:
187,130,148268,1,0,0:0:0:0:
192,102,148356,1,0,0:0:0:0:
186,91,148444,1,8,0:0:0:0:
208,98,148621,1,4,0:0:0:0:
205,134,148797,1,4,0:0:0:0:
208,105,148974,1,8,0:0:0:0:
209,105,149062,5,8,0:0:0:0:
209,105,149150,1,0,0:0:0:0:
212,108,149327,1,8,0:0:0:0:
213,108,149415,1,8,0:0:0:0:
213,108,149503,1,0,0:0:0:0:
215,145,149680,1,0,0:0:0:0:
215,146,149768,1,8,0:0:0:0:
215,146,149812,1,8,0:0:0:0:
201,136,149857,1,8,0:0:0:0:
193,123,149945,1,0,0:0:0:0:
198,124,150033,1,12,0:0:0:0:
192,120,150210,5,12,0:0:0:0:
200,112,150386,1,0,0:0:0:0:
208,112,150474,1,0,0:0:0:0:
200,112,150562,1,8,0:0:0:0:
192,136,150739,1,4,0:0:0:0:
201,136,150915,1,4,0:0:0:0:
208,104,151092,1,8,0:0:0:0:
208,104,151180,1,8,0:0:0:0:
208,104,151268,1,0,0:0:0:0:
224,128,151445,1,12,0:0:0:0:
192,120,151622,1,12,0:0:0:0:
200,112,151798,1,0,0:0:0:0:
208,112,151886,1,0,0:0:0:0:
200,112,151974,1,8,0:0:0:0:
192,136,152151,1,4,0:0:0:0:
201,136,152327,1,4,0:0:0:0:
208,104,152504,1,8,0:0:0:0:
208,104,152592,1,8,0:0:0:0:
208,104,152680,1,0,0:0:0:0:
280,200,152724,1,0,0:0:0:0:
280,200,152768,1,0,0:0:0:0:
192,120,152857,1,12,0:0:0:0:
216,144,153033,1,0,0:0:0:0:
216,144,153121,1,0,0:0:0:0:
208,128,153210,1,12,0:0:0:0:
216,144,153386,1,0,0:0:0:0:
216,144,153474,1,0,0:0:0:0:
208,128,153563,1,12,0:0:0:0:
216,144,153739,1,0,0:0:0:0:
216,144,153827,1,0,0:0:0:0:
208,128,153916,1,12,0:0:0:0:
168,176,154092,1,0,0:0:0:0:
168,176,154180,1,0,0:0:0:0:
200,144,154268,1,12,0:0:0:0:
212,117,154445,1,0,0:0:0:0:
208,128,154533,1,0,0:0:0:0:
208,112,154621,1,8,0:0:0:0:
192,104,154710,1,0,0:0:0:0:
208,168,154798,1,8,0:0:0:0:
208,104,154974,1,8,0:0:0:0:
208,104,155018,1,8,0:0:0:0:
208,104,155062,1,8,0:0:0:0:
192,96,155151,1,0,0:0:0:0:
216,144,155327,1,0,0:0:0:0:
216,146,155415,1,8,0:0:0:0:
216,143,155504,1,0,0:0:0:0:
216,146,155548,1,0,0:0:0:0:
216,146,155592,1,0,0:0:0:0:
176,40,155680,1,12,0:0:0:0:
