osu file format v14

[General]
AudioFilename: audio.mp3
AudioLeadIn: 0
PreviewTime: 49775
Countdown: 0
SampleSet: Normal
StackLeniency: 0.7
Mode: 1
LetterboxInBreaks: 0
WidescreenStoryboard: 1

[Editor]
Bookmarks: 15915,27033,38503,149503
DistanceSpacing: 1.2
BeatDivisor: 4
GridSize: 8
TimelineZoom: 1.740001

[Metadata]
Title:Lost Umbrella (7_7 bootleg)
TitleUnicode:ロストアンブレラ (7_7 bootleg)
Artist:inabakumori
ArtistUnicode:稲葉曇
Creator:Horiiizon
Version:Hivie's Oni
Source:
Tags:7_7 Genjuro Hivie electronic japanese rock j-rock jrock breakcore kaai yuki 歌愛ユキ nukunuku nigirimeshi ぬくぬくにぎりめし vocaloid cumori アンチサイクロン ANTICYCLONE trushcan
BeatmapID:2998012
BeatmapSetID:1454002

[Difficulty]
HPDrainRate:5.5
CircleSize:2
OverallDifficulty:5.5
ApproachRate:8
SliderMultiplier:1.4
SliderTickRate:1

[Events]
//Background and Video events
0,0,"9bd69344-67fe-4f0b-9c6a-c42236321055.png",0,0
//Break Periods
2,10468,15165
2,93762,97753
//Storyboard Layer 0 (Background)
//Storyboard Layer 1 (Fail)
//Storyboard Layer 2 (Pass)
//Storyboard Layer 3 (Foreground)
//Storyboard Layer 4 (Overlay)
//Storyboard Sound Samples

[TimingPoints]
386,352.941176470588,4,1,0,100,1,0
386,-142.857142857143,4,1,0,100,0,0
6033,-99.9999999999999,4,1,0,100,0,0
10268,-76.9230769230769,4,1,0,100,0,0
11591,-125,4,1,0,100,0,0
15915,-99.9999999999999,4,1,0,100,0,0
49797,-100,4,1,0,100,0,1
55444,-100,4,1,0,100,0,0
55797,-100,4,1,0,100,0,1
59680,-100,4,1,0,100,0,0
94885,-125,4,1,0,100,0,0
98503,-100,4,1,0,100,0,0
107680,-142.857142857143,4,1,0,100,0,0
113327,-100,4,1,0,100,0,0
117562,-100,4,1,0,100,0,1
123209,-100,4,1,0,100,0,0
123562,-100,4,1,0,100,0,1
127444,-100,4,1,0,100,0,0

[HitObjects]
206,207,386,5,8,0:0:0:0:
162,93,1091,1,8,0:0:0:0:
202,157,1797,1,0,0:0:0:0:
182,128,3209,1,8,0:0:0:0:
183,158,3915,1,8,0:0:0:0:
183,158,4621,1,0,0:0:0:0:
207,116,6033,1,0,0:0:0:0:
198,115,6385,1,8,0:0:0:0:
198,115,6562,1,0,0:0:0:0:
198,115,6738,1,8,0:0:0:0:
198,115,6827,1,8,0:0:0:0:
198,115,6915,1,0,0:0:0:0:
198,115,7091,1,8,0:0:0:0:
188,157,7268,1,0,0:0:0:0:
190,112,7356,1,0,0:0:0:0:
190,112,7444,1,8,0:0:0:0:
190,112,7621,1,0,0:0:0:0:
190,112,7797,1,8,0:0:0:0:
191,75,7974,1,0,0:0:0:0:
191,75,8150,1,8,0:0:0:0:
191,75,8327,1,0,0:0:0:0:
191,75,8503,1,8,0:0:0:0:
196,136,8680,1,0,0:0:0:0:
237,164,8768,1,8,0:0:0:0:
167,84,9033,1,8,0:0:0:0:
167,75,9121,1,0,0:0:0:0:
187,78,9209,1,8,0:0:0:0:
188,114,9385,1,8,0:0:0:0:
188,114,9562,1,0,0:0:0:0:
191,113,9738,1,0,0:0:0:0:
188,114,9915,1,8,0:0:0:0:
222,154,10268,1,4,0:0:0:0:
223,205,15915,5,8,0:0:0:0:
224,160,16091,1,0,0:0:0:0:
214,160,16268,1,8,0:0:0:0:
201,122,16444,1,0,0:0:0:0:
266,166,16533,1,0,0:0:0:0:
201,122,16621,1,8,0:0:0:0:
221,77,16797,1,8,0:0:0:0:
173,167,16885,1,0,0:0:0:0:
218,172,17062,1,8,0:0:0:0:
201,122,17150,1,8,0:0:0:0:
214,150,17327,1,0,0:0:0:0:
243,164,17503,1,0,0:0:0:0:
196,171,17680,1,8,0:0:0:0:
185,94,17856,1,8,0:0:0:0:
204,167,17944,1,8,0:0:0:0:
196,101,18033,1,0,0:0:0:0:
201,97,18209,1,8,0:0:0:0:
171,100,18385,1,0,0:0:0:0:
154,142,18474,1,0,0:0:0:0:
223,205,18562,1,0,0:0:0:0:
223,205,18650,1,0,0:0:0:0:
223,205,18738,5,8,0:0:0:0:
206,202,18915,1,0,0:0:0:0:
214,160,19091,1,8,0:0:0:0:
201,122,19268,1,0,0:0:0:0:
201,122,19356,1,8,0:0:0:0:
201,122,19444,1,0,0:0:0:0:
74,75,19621,1,0,0:0:0:0:
190,97,19709,1,8,0:0:0:0:
184,76,19885,1,0,0:0:0:0:
167,68,19974,1,0,0:0:0:0:
214,150,20150,1,8,0:0:0:0:
243,164,20327,1,0,0:0:0:0:
196,171,20503,1,8,0:0:0:0:
185,94,20680,1,8,0:0:0:0:
214,177,20768,1,8,0:0:0:0:
196,101,20856,1,0,0:0:0:0:
133,119,21033,1,0,0:0:0:0:
171,100,21209,1,8,0:0:0:0:
219,210,21562,5,8,0:0:0:0:
220,165,21738,1,0,0:0:0:0:
210,165,21915,1,8,0:0:0:0:
197,127,22091,1,0,0:0:0:0:
262,171,22180,1,0,0:0:0:0:
197,127,22268,1,8,0:0:0:0:
217,82,22444,1,8,0:0:0:0:
169,172,22533,1,0,0:0:0:0:
214,177,22709,1,8,0:0:0:0:
197,127,22797,1,8,0:0:0:0:
210,155,22974,1,0,0:0:0:0:
239,169,23150,1,0,0:0:0:0:
192,176,23327,1,8,0:0:0:0:
181,99,23503,1,0,0:0:0:0:
200,172,23591,1,8,0:0:0:0:
192,106,23680,1,0,0:0:0:0:
197,102,23856,1,8,0:0:0:0:
167,105,24033,1,0,0:0:0:0:
150,147,24121,1,8,0:0:0:0:
219,210,24209,1,0,0:0:0:0:
219,210,24297,1,0,0:0:0:0:
219,210,24385,5,8,0:0:0:0:
202,207,24562,1,0,0:0:0:0:
210,165,24738,1,8,0:0:0:0:
197,127,24915,1,0,0:0:0:0:
197,127,25003,1,8,0:0:0:0:
197,127,25091,1,0,0:0:0:0:
70,80,25268,1,0,0:0:0:0:
186,102,25356,1,8,0:0:0:0:
180,81,25533,1,0,0:0:0:0:
163,73,25621,1,0,0:0:0:0:
210,155,25797,1,8,0:0:0:0:
239,169,25974,1,0,0:0:0:0:
192,176,26150,5,8,0:0:0:0:
181,99,26327,1,8,0:0:0:0:
210,182,26415,1,8,0:0:0:0:
192,106,26503,1,0,0:0:0:0:
197,170,26591,1,0,0:0:0:0:
195,170,26680,1,0,0:0:0:0:
201,145,26856,5,12,0:0:0:0:
183,110,27033,1,0,0:0:0:0:
78,103,27209,1,12,0:0:0:0:
182,168,27385,1,12,0:0:0:0:
263,175,27738,1,8,0:0:0:0:
186,121,28091,1,8,0:0:0:0:
186,91,28444,1,8,0:0:0:0:
208,98,28621,1,4,0:0:0:0:
205,134,28797,1,4,0:0:0:0:
209,105,29150,1,8,0:0:0:0:
213,108,29503,1,8,0:0:0:0:
185,68,29680,1,8,0:0:0:0:
216,168,29856,1,0,0:0:0:0:
219,172,29944,1,0,0:0:0:0:
192,202,30033,1,12,0:0:0:0:
182,168,30209,1,12,0:0:0:0:
263,175,30562,1,8,0:0:0:0:
186,121,30915,1,8,0:0:0:0:
186,91,31268,1,8,0:0:0:0:
208,98,31444,1,4,0:0:0:0:
205,134,31621,1,4,0:0:0:0:
209,105,31974,1,8,0:0:0:0:
213,108,32327,1,8,0:0:0:0:
215,145,32503,1,0,0:0:0:0:
215,146,32591,1,0,0:0:0:0:
201,136,32680,1,0,0:0:0:0:
193,123,32768,1,0,0:0:0:0:
198,124,32856,1,12,0:0:0:0:
192,120,33033,1,12,0:0:0:0:
200,112,33385,1,8,0:0:0:0:
192,136,33562,1,4,0:0:0:0:
201,136,33738,1,4,0:0:0:0:
208,104,34091,1,0,0:0:0:0:
224,128,34268,1,12,0:0:0:0:
192,120,34444,1,12,0:0:0:0:
200,112,34797,1,8,0:0:0:0:
192,136,34974,1,4,0:0:0:0:
201,136,35150,1,4,0:0:0:0:
208,104,35327,1,8,0:0:0:0:
208,104,35415,1,8,0:0:0:0:
208,104,35503,1,0,0:0:0:0:
192,120,35680,1,12,0:0:0:0:
216,144,35856,1,0,0:0:0:0:
208,128,36033,1,12,0:0:0:0:
216,144,36209,1,0,0:0:0:0:
208,128,36385,1,12,0:0:0:0:
216,144,36562,1,0,0:0:0:0:
208,128,36738,1,12,0:0:0:0:
168,176,36915,1,0,0:0:0:0:
200,144,37091,1,12,0:0:0:0:
212,117,37268,1,0,0:0:0:0:
208,128,37356,1,0,0:0:0:0:
208,112,37444,1,8,0:0:0:0:
208,168,37621,1,0,0:0:0:0:
208,104,37797,1,8,0:0:0:0:
208,104,37885,1,8,0:0:0:0:
192,96,37974,1,0,0:0:0:0:
216,144,38150,1,8,0:0:0:0:
216,146,38238,1,8,0:0:0:0:
216,143,38327,1,0,0:0:0:0:
216,146,38415,1,0,0:0:0:0:
176,40,38503,1,8,0:0:0:0:
176,112,38856,1,0,0:0:0:0:
185,133,39033,1,8,0:0:0:0:
168,144,39121,1,8,0:0:0:0:
168,144,39209,1,0,0:0:0:0:
176,104,39385,1,8,0:0:0:0:
192,112,39562,1,0,0:0:0:0:
168,131,39738,1,0,0:0:0:0:
202,140,39827,1,0,0:0:0:0:
192,72,39915,1,8,0:0:0:0:
208,160,40091,1,0,0:0:0:0:
176,136,40268,1,8,0:0:0:0:
192,120,40444,1,8,0:0:0:0:
200,112,40621,1,0,0:0:0:0:
184,176,40709,1,0,0:0:0:0:
191,156,40797,1,0,0:0:0:0:
134,176,40974,1,8,0:0:0:0:
176,96,41062,1,8,0:0:0:0:
200,128,41150,1,0,0:0:0:0:
200,128,41238,1,0,0:0:0:0:
176,40,41327,1,8,0:0:0:0:
175,108,41680,1,8,0:0:0:0:
185,133,41856,1,8,0:0:0:0:
168,144,42033,1,0,0:0:0:0:
168,144,42121,1,8,0:0:0:0:
176,104,42209,1,0,0:0:0:0:
169,156,42385,1,0,0:0:0:0:
154,104,42562,1,8,0:0:0:0:
202,140,42650,1,0,0:0:0:0:
192,72,42738,1,8,0:0:0:0:
173,143,42915,1,0,0:0:0:0:
141,108,43091,1,8,0:0:0:0:
192,120,43268,1,8,0:0:0:0:
200,112,43444,1,0,0:0:0:0:
184,176,43533,1,0,0:0:0:0:
191,156,43621,1,8,0:0:0:0:
134,176,43797,1,0,0:0:0:0:
176,96,43885,1,0,0:0:0:0:
200,128,43974,1,0,0:0:0:0:
200,128,44062,1,0,0:0:0:0:
176,40,44150,1,8,0:0:0:0:
176,112,44503,1,0,0:0:0:0:
185,133,44680,1,8,0:0:0:0:
168,144,44768,1,8,0:0:0:0:
168,144,44856,1,0,0:0:0:0:
176,104,45033,1,8,0:0:0:0:
192,112,45209,1,0,0:0:0:0:
168,131,45385,1,0,0:0:0:0:
202,140,45474,1,0,0:0:0:0:
192,72,45562,1,8,0:0:0:0:
208,160,45738,1,0,0:0:0:0:
176,136,45915,1,8,0:0:0:0:
192,120,46091,1,0,0:0:0:0:
200,112,46268,1,8,0:0:0:0:
184,176,46356,1,8,0:0:0:0:
191,156,46444,1,0,0:0:0:0:
134,176,46621,1,8,0:0:0:0:
176,96,46709,1,8,0:0:0:0:
200,128,46797,1,0,0:0:0:0:
200,128,46885,1,0,0:0:0:0:
176,40,46974,1,8,0:0:0:0:
283,230,47680,1,0,0:0:0:0:
271,162,48385,1,8,0:0:0:0:
220,159,48738,1,8,0:0:0:0:
236,202,49091,1,12,0:0:0:0:
228,159,49268,1,0,0:0:0:0:
226,159,49356,1,0,0:0:0:0:
220,159,49444,1,8,0:0:0:0:
161,62,49533,1,8,0:0:0:0:
201,140,49621,1,0,0:0:0:0:
201,140,49709,1,0,0:0:0:0:
201,140,49797,1,8,0:0:0:0:
211,88,50150,1,8,0:0:0:0:
201,151,50327,1,0,0:0:0:0:
220,117,50503,1,0,0:0:0:0:
197,127,50591,1,8,0:0:0:0:
197,127,50680,1,0,0:0:0:0:
174,178,50856,1,8,0:0:0:0:
188,103,51033,1,0,0:0:0:0:
192,86,51121,1,0,0:0:0:0:
232,164,51209,1,8,0:0:0:0:
178,90,51385,1,8,0:0:0:0:
196,105,51562,1,0,0:0:0:0:
204,145,51738,1,8,0:0:0:0:
220,184,51827,1,8,0:0:0:0:
221,184,51915,1,8,0:0:0:0:
182,143,52091,1,0,0:0:0:0:
219,121,52268,1,8,0:0:0:0:
190,157,52356,1,8,0:0:0:0:
190,157,52444,1,0,0:0:0:0:
190,157,52533,1,0,0:0:0:0:
190,138,52621,1,8,0:0:0:0:
181,151,52797,1,0,0:0:0:0:
197,167,52974,1,8,0:0:0:0:
188,167,53150,1,8,0:0:0:0:
176,154,53238,1,8,0:0:0:0:
220,117,53327,1,0,0:0:0:0:
176,172,53503,1,8,0:0:0:0:
212,150,53591,1,0,0:0:0:0:
202,118,53680,1,8,0:0:0:0:
188,103,53856,1,0,0:0:0:0:
189,124,54033,1,8,0:0:0:0:
178,90,54209,1,0,0:0:0:0:
212,150,54297,1,8,0:0:0:0:
196,105,54385,1,8,0:0:0:0:
140,110,54562,1,0,0:0:0:0:
192,141,54738,1,8,0:0:0:0:
169,121,54915,1,0,0:0:0:0:
187,162,55091,1,8,0:0:0:0:
219,153,55180,1,8,0:0:0:0:
212,150,55268,1,0,0:0:0:0:
172,111,55356,1,0,0:0:0:0:
214,133,55444,1,8,0:0:0:0:
211,88,55797,1,8,0:0:0:0:
206,131,55974,1,8,0:0:0:0:
220,117,56150,1,0,0:0:0:0:
232,164,56238,1,8,0:0:0:0:
207,170,56327,1,0,0:0:0:0:
183,164,56415,1,8,0:0:0:0:
183,164,56503,1,0,0:0:0:0:
188,103,56680,1,8,0:0:0:0:
232,164,56856,1,0,0:0:0:0:
155,99,57033,1,8,0:0:0:0:
204,155,57209,1,0,0:0:0:0:
177,157,57297,1,0,0:0:0:0:
177,157,57385,1,8,0:0:0:0:
191,154,57562,1,8,0:0:0:0:
201,101,57738,1,8,0:0:0:0:
181,71,57915,1,0,0:0:0:0:
184,125,58003,1,0,0:0:0:0:
184,125,58091,1,0,0:0:0:0:
188,137,58180,1,0,0:0:0:0:
190,138,58268,1,8,0:0:0:0:
201,197,58444,1,8,0:0:0:0:
211,88,58621,1,8,0:0:0:0:
180,115,58709,1,0,0:0:0:0:
240,153,58797,1,8,0:0:0:0:
185,101,58974,1,0,0:0:0:0:
216,161,59150,1,0,0:0:0:0:
216,161,59327,1,8,0:0:0:0:
204,116,59415,1,0,0:0:0:0:
176,108,59503,1,8,0:0:0:0:
176,108,59591,1,8,0:0:0:0:
234,174,59680,1,0,0:0:0:0:
214,160,60033,1,8,0:0:0:0:
201,122,60209,1,0,0:0:0:0:
266,166,60297,1,0,0:0:0:0:
201,122,60385,1,8,0:0:0:0:
221,77,60562,1,8,0:0:0:0:
173,167,60650,1,0,0:0:0:0:
218,172,60827,1,0,0:0:0:0:
201,122,60915,1,8,0:0:0:0:
214,150,61091,1,0,0:0:0:0:
243,164,61268,1,0,0:0:0:0:
196,171,61444,1,8,0:0:0:0:
185,94,61621,1,8,0:0:0:0:
204,167,61709,1,8,0:0:0:0:
196,101,61797,1,0,0:0:0:0:
201,97,61974,1,8,0:0:0:0:
171,100,62150,1,0,0:0:0:0:
154,142,62238,1,0,0:0:0:0:
223,205,62327,1,0,0:0:0:0:
223,205,62415,1,0,0:0:0:0:
223,205,62503,5,8,0:0:0:0:
206,202,62680,1,0,0:0:0:0:
214,160,62856,1,8,0:0:0:0:
201,122,63033,1,0,0:0:0:0:
201,122,63121,1,8,0:0:0:0:
201,122,63209,1,0,0:0:0:0:
74,75,63385,1,0,0:0:0:0:
190,97,63474,1,8,0:0:0:0:
184,76,63650,1,8,0:0:0:0:
167,68,63738,1,0,0:0:0:0:
214,150,63915,1,8,0:0:0:0:
243,164,64091,1,0,0:0:0:0:
196,171,64268,1,8,0:0:0:0:
185,94,64444,1,8,0:0:0:0:
214,177,64533,1,8,0:0:0:0:
196,101,64621,1,0,0:0:0:0:
133,119,64797,1,8,0:0:0:0:
171,100,64974,1,8,0:0:0:0:
219,210,65327,5,8,0:0:0:0:
220,165,65503,1,0,0:0:0:0:
210,165,65680,1,8,0:0:0:0:
197,127,65856,1,0,0:0:0:0:
262,171,65944,1,0,0:0:0:0:
197,127,66033,1,8,0:0:0:0:
217,82,66209,1,8,0:0:0:0:
169,172,66297,1,0,0:0:0:0:
214,177,66474,1,8,0:0:0:0:
197,127,66562,1,0,0:0:0:0:
210,155,66738,1,8,0:0:0:0:
239,169,66915,1,0,0:0:0:0:
192,176,67091,1,8,0:0:0:0:
181,99,67268,1,0,0:0:0:0:
200,172,67356,1,8,0:0:0:0:
192,106,67444,1,0,0:0:0:0:
197,102,67621,1,8,0:0:0:0:
167,105,67797,1,0,0:0:0:0:
150,147,67885,1,8,0:0:0:0:
219,210,67974,1,0,0:0:0:0:
219,210,68062,1,0,0:0:0:0:
219,210,68150,5,8,0:0:0:0:
202,207,68327,1,0,0:0:0:0:
210,165,68503,1,8,0:0:0:0:
197,127,68680,1,0,0:0:0:0:
197,127,68768,1,8,0:0:0:0:
197,127,68856,1,0,0:0:0:0:
70,80,69033,1,0,0:0:0:0:
186,102,69121,1,8,0:0:0:0:
180,81,69297,1,0,0:0:0:0:
163,73,69385,1,8,0:0:0:0:
210,155,69562,1,0,0:0:0:0:
239,169,69738,1,0,0:0:0:0:
192,176,69915,5,8,0:0:0:0:
181,99,70091,5,8,0:0:0:0:
210,182,70180,1,8,0:0:0:0:
192,106,70268,1,0,0:0:0:0:
197,170,70356,1,0,0:0:0:0:
195,170,70444,1,0,0:0:0:0:
201,145,70621,5,12,0:0:0:0:
204,186,70797,5,0,0:0:0:0:
217,207,70885,1,0,0:0:0:0:
204,186,70974,1,8,0:0:0:0:
232,173,71150,5,8,0:0:0:0:
262,182,71503,1,8,0:0:0:0:
248,198,71680,1,0,0:0:0:0:
241,198,71856,1,8,0:0:0:0:
195,148,72033,1,0,0:0:0:0:
240,198,72121,1,0,0:0:0:0:
195,148,72209,1,8,0:0:0:0:
197,128,72385,1,0,0:0:0:0:
194,137,72562,1,8,0:0:0:0:
197,129,72827,1,0,0:0:0:0:
194,137,72915,1,8,0:0:0:0:
209,119,73091,1,0,0:0:0:0:
190,126,73268,1,8,0:0:0:0:
176,95,73444,1,8,0:0:0:0:
142,152,73621,1,0,0:0:0:0:
142,152,73709,1,0,0:0:0:0:
243,139,73797,1,8,0:0:0:0:
232,173,73974,1,8,0:0:0:0:
262,182,74327,1,8,0:0:0:0:
248,198,74503,1,0,0:0:0:0:
241,198,74680,1,8,0:0:0:0:
195,148,74856,1,0,0:0:0:0:
240,198,74944,1,0,0:0:0:0:
195,148,75033,1,8,0:0:0:0:
197,128,75209,1,0,0:0:0:0:
194,137,75385,1,8,0:0:0:0:
197,129,75650,1,0,0:0:0:0:
194,137,75738,1,8,0:0:0:0:
209,119,75915,1,0,0:0:0:0:
190,126,76091,1,8,0:0:0:0:
202,156,76268,1,8,0:0:0:0:
202,156,76356,1,8,0:0:0:0:
202,156,76444,1,8,0:0:0:0:
203,148,76533,1,8,0:0:0:0:
203,148,76621,1,0,0:0:0:0:
232,173,76797,1,8,0:0:0:0:
262,182,77150,1,8,0:0:0:0:
248,198,77327,1,0,0:0:0:0:
191,105,77503,1,0,0:0:0:0:
193,105,77591,1,8,0:0:0:0:
240,198,77680,1,0,0:0:0:0:
195,148,77856,1,8,0:0:0:0:
197,128,78033,1,0,0:0:0:0:
194,137,78209,1,8,0:0:0:0:
197,129,78297,1,0,0:0:0:0:
221,94,78385,1,8,0:0:0:0:
194,137,78562,1,8,0:0:0:0:
209,119,78738,1,0,0:0:0:0:
190,126,78915,1,8,0:0:0:0:
189,86,79091,1,0,0:0:0:0:
189,86,79180,1,0,0:0:0:0:
200,78,79268,1,0,0:0:0:0:
200,78,79356,1,0,0:0:0:0:
243,139,79444,1,8,0:0:0:0:
232,173,79621,1,8,0:0:0:0:
262,182,79974,1,8,0:0:0:0:
248,198,80150,1,0,0:0:0:0:
181,97,80238,1,8,0:0:0:0:
191,105,80327,1,0,0:0:0:0:
193,105,80503,1,8,0:0:0:0:
195,148,80680,1,8,0:0:0:0:
197,128,80856,1,0,0:0:0:0:
194,137,81033,1,8,0:0:0:0:
197,129,81121,1,0,0:0:0:0:
221,94,81209,1,8,0:0:0:0:
194,137,81385,1,0,0:0:0:0:
209,119,81562,1,12,0:0:0:0:
87,59,81738,1,0,0:0:0:0:
189,86,81915,1,0,0:0:0:0:
194,62,82003,1,0,0:0:0:0:
200,78,82091,1,0,0:0:0:0:
177,141,82180,1,0,0:0:0:0:
78,103,82268,1,12,0:0:0:0:
182,168,82444,1,12,0:0:0:0:
263,175,82797,1,8,0:0:0:0:
186,121,83150,1,8,0:0:0:0:
186,91,83503,1,8,0:0:0:0:
208,98,83680,1,4,0:0:0:0:
205,134,83856,1,4,0:0:0:0:
209,105,84209,1,8,0:0:0:0:
213,108,84562,1,8,0:0:0:0:
185,68,84738,1,8,0:0:0:0:
216,168,84915,1,0,0:0:0:0:
219,172,85003,1,0,0:0:0:0:
192,202,85091,1,12,0:0:0:0:
182,168,85268,1,12,0:0:0:0:
263,175,85621,1,8,0:0:0:0:
186,121,85974,1,8,0:0:0:0:
186,91,86327,1,8,0:0:0:0:
208,98,86503,1,4,0:0:0:0:
205,134,86680,1,4,0:0:0:0:
209,105,87033,1,8,0:0:0:0:
213,108,87385,1,8,0:0:0:0:
215,145,87562,1,8,0:0:0:0:
215,146,87650,1,8,0:0:0:0:
201,136,87738,1,8,0:0:0:0:
193,123,87827,1,8,0:0:0:0:
198,124,87915,1,4,0:0:0:0:
192,120,88091,1,4,0:0:0:0:
200,112,88444,1,8,0:0:0:0:
192,136,88621,1,4,0:0:0:0:
201,136,88797,1,4,0:0:0:0:
208,104,89150,1,0,0:0:0:0:
224,128,89327,1,12,0:0:0:0:
192,120,89503,1,12,0:0:0:0:
200,112,89856,1,0,0:0:0:0:
192,136,90033,1,12,0:0:0:0:
201,136,90209,1,12,0:0:0:0:
208,104,90385,1,0,0:0:0:0:
208,104,90474,1,0,0:0:0:0:
208,104,90562,1,0,0:0:0:0:
192,120,90738,1,12,0:0:0:0:
216,144,90915,1,0,0:0:0:0:
208,128,91091,1,12,0:0:0:0:
216,144,91268,1,0,0:0:0:0:
208,128,91444,1,12,0:0:0:0:
216,144,91621,1,0,0:0:0:0:
208,128,91797,1,12,0:0:0:0:
168,176,91974,1,0,0:0:0:0:
200,144,92150,1,12,0:0:0:0:
212,117,92327,1,0,0:0:0:0:
208,128,92415,1,0,0:0:0:0:
208,112,92503,1,8,0:0:0:0:
208,168,92680,1,0,0:0:0:0:
208,104,92856,1,8,0:0:0:0:
208,104,92944,1,8,0:0:0:0:
192,96,93033,1,0,0:0:0:0:
216,144,93209,1,8,0:0:0:0:
216,146,93297,1,8,0:0:0:0:
216,143,93385,1,0,0:0:0:0:
216,146,93474,1,0,0:0:0:0:
176,40,93562,1,8,0:0:0:0:
296,188,98503,5,8,0:0:0:0:
212,125,98768,1,0,0:0:0:0:
212,149,98856,1,8,0:0:0:0:
212,125,99033,1,0,0:0:0:0:
215,165,99121,1,0,0:0:0:0:
212,165,99209,1,8,0:0:0:0:
216,132,99562,1,0,0:0:0:0:
216,132,99738,1,8,0:0:0:0:
197,104,99915,1,0,0:0:0:0:
207,108,100091,1,8,0:0:0:0:
209,108,100268,1,0,0:0:0:0:
209,108,100356,1,0,0:0:0:0:
209,108,100444,1,8,0:0:0:0:
199,92,100621,1,8,0:0:0:0:
199,92,100797,1,8,0:0:0:0:
199,93,100974,1,0,0:0:0:0:
269,197,101062,1,0,0:0:0:0:
269,197,101150,1,8,0:0:0:0:
269,197,101327,1,8,0:0:0:0:
269,197,101503,1,8,0:0:0:0:
224,155,101680,1,8,0:0:0:0:
224,155,101768,1,8,0:0:0:0:
223,229,101856,1,0,0:0:0:0:
223,229,101944,1,0,0:0:0:0:
223,229,102033,1,8,0:0:0:0:
205,87,102385,1,0,0:0:0:0:
198,85,102562,1,8,0:0:0:0:
225,135,102738,1,0,0:0:0:0:
227,138,102915,1,8,0:0:0:0:
202,87,103091,1,0,0:0:0:0:
202,87,103180,1,0,0:0:0:0:
205,87,103268,1,8,0:0:0:0:
221,183,103444,1,8,0:0:0:0:
248,203,103621,1,8,0:0:0:0:
248,203,103797,1,0,0:0:0:0:
248,203,103885,1,0,0:0:0:0:
230,185,103974,1,8,0:0:0:0:
230,185,104150,1,0,0:0:0:0:
188,139,104327,1,0,0:0:0:0:
230,185,104503,1,12,0:0:0:0:
242,137,104680,1,0,0:0:0:0:
192,237,104768,1,0,0:0:0:0:
204,214,104856,1,8,0:0:0:0:
146,160,105033,1,8,0:0:0:0:
265,182,105209,1,0,0:0:0:0:
233,135,105297,1,8,0:0:0:0:
234,135,105385,1,0,0:0:0:0:
212,125,105562,1,8,0:0:0:0:
201,150,105738,1,0,0:0:0:0:
172,112,105827,1,8,0:0:0:0:
178,113,106003,1,8,0:0:0:0:
206,145,106091,1,0,0:0:0:0:
223,142,106268,1,8,0:0:0:0:
219,198,106444,1,0,0:0:0:0:
196,144,106621,1,8,0:0:0:0:
197,120,106709,1,8,0:0:0:0:
207,138,106797,1,0,0:0:0:0:
213,162,106885,1,0,0:0:0:0:
206,207,107680,5,8,0:0:0:0:
162,93,108385,1,8,0:0:0:0:
202,157,109091,1,0,0:0:0:0:
182,128,110503,1,8,0:0:0:0:
183,158,111209,1,8,0:0:0:0:
183,158,111915,1,0,0:0:0:0:
236,179,112885,1,8,0:0:0:0:
222,190,112974,1,8,0:0:0:0:
207,116,113327,1,0,0:0:0:0:
198,115,113680,1,8,0:0:0:0:
198,115,113856,1,0,0:0:0:0:
198,115,114033,1,8,0:0:0:0:
198,115,114121,1,8,0:0:0:0:
198,115,114209,1,0,0:0:0:0:
198,115,114385,1,8,0:0:0:0:
188,157,114562,1,0,0:0:0:0:
190,112,114650,1,0,0:0:0:0:
190,112,114738,1,8,0:0:0:0:
190,112,114915,1,0,0:0:0:0:
190,112,115091,1,8,0:0:0:0:
191,75,115268,1,0,0:0:0:0:
191,75,115444,1,8,0:0:0:0:
191,75,115621,1,0,0:0:0:0:
191,75,115797,1,8,0:0:0:0:
196,136,115974,1,0,0:0:0:0:
237,164,116062,1,0,0:0:0:0:
219,135,116150,1,8,0:0:0:0:
219,135,116327,1,0,0:0:0:0:
219,135,116503,1,8,0:0:0:0:
203,105,116680,1,0,0:0:0:0:
203,105,116856,1,12,0:0:0:0:
229,167,117033,1,0,0:0:0:0:
229,167,117209,1,8,0:0:0:0:
229,167,117297,1,8,0:0:0:0:
201,112,117385,1,0,0:0:0:0:
198,116,117474,1,0,0:0:0:0:
201,140,117562,1,8,0:0:0:0:
211,88,117915,1,8,0:0:0:0:
201,151,118091,1,0,0:0:0:0:
220,117,118268,1,0,0:0:0:0:
197,127,118356,1,8,0:0:0:0:
197,127,118444,1,0,0:0:0:0:
174,178,118621,1,8,0:0:0:0:
188,103,118797,1,0,0:0:0:0:
192,86,118885,1,0,0:0:0:0:
232,164,118974,1,8,0:0:0:0:
178,90,119150,1,8,0:0:0:0:
196,105,119327,1,0,0:0:0:0:
204,145,119503,1,8,0:0:0:0:
220,184,119591,1,8,0:0:0:0:
221,184,119680,1,0,0:0:0:0:
182,143,119856,1,8,0:0:0:0:
219,121,120033,1,0,0:0:0:0:
190,157,120121,1,0,0:0:0:0:
190,157,120209,1,0,0:0:0:0:
190,157,120297,1,0,0:0:0:0:
190,138,120385,1,8,0:0:0:0:
181,151,120562,1,0,0:0:0:0:
197,167,120738,1,8,0:0:0:0:
188,167,120915,1,8,0:0:0:0:
176,154,121003,1,8,0:0:0:0:
220,117,121091,1,0,0:0:0:0:
176,172,121268,1,8,0:0:0:0:
212,150,121356,1,0,0:0:0:0:
202,118,121444,1,8,0:0:0:0:
188,103,121621,1,0,0:0:0:0:
189,124,121797,1,8,0:0:0:0:
178,90,121974,1,0,0:0:0:0:
212,150,122062,1,8,0:0:0:0:
196,105,122150,1,8,0:0:0:0:
140,110,122327,1,0,0:0:0:0:
192,141,122503,1,8,0:0:0:0:
169,121,122680,1,0,0:0:0:0:
187,162,122856,1,8,0:0:0:0:
219,153,122944,1,8,0:0:0:0:
212,150,123033,1,8,0:0:0:0:
172,111,123121,1,8,0:0:0:0:
214,133,123209,1,0,0:0:0:0:
211,88,123562,1,8,0:0:0:0:
206,131,123738,1,8,0:0:0:0:
220,117,123915,1,0,0:0:0:0:
232,164,124003,1,8,0:0:0:0:
207,170,124091,1,0,0:0:0:0:
183,164,124180,1,0,0:0:0:0:
183,164,124268,1,8,0:0:0:0:
188,103,124444,1,8,0:0:0:0:
232,164,124621,1,0,0:0:0:0:
155,99,124797,1,8,0:0:0:0:
204,155,124974,1,0,0:0:0:0:
177,157,125062,1,0,0:0:0:0:
177,157,125150,1,8,0:0:0:0:
191,154,125327,1,8,0:0:0:0:
201,101,125503,1,8,0:0:0:0:
181,71,125680,1,0,0:0:0:0:
184,125,125768,1,0,0:0:0:0:
184,125,125856,1,0,0:0:0:0:
188,137,125944,1,0,0:0:0:0:
190,138,126033,1,8,0:0:0:0:
201,197,126209,1,8,0:0:0:0:
211,88,126385,5,8,0:0:0:0:
180,115,126474,1,0,0:0:0:0:
240,153,126562,1,8,0:0:0:0:
185,101,126738,1,0,0:0:0:0:
216,161,126915,1,0,0:0:0:0:
263,163,127091,1,12,0:0:0:0:
234,174,127444,1,0,0:0:0:0:
232,173,127621,1,8,0:0:0:0:
175,137,127797,1,0,0:0:0:0:
199,137,127974,1,8,0:0:0:0:
198,134,128150,1,0,0:0:0:0:
158,105,128238,1,8,0:0:0:0:
189,182,128415,1,8,0:0:0:0:
178,90,128503,1,0,0:0:0:0:
197,114,128680,1,8,0:0:0:0:
209,99,128856,1,0,0:0:0:0:
241,164,129033,1,8,0:0:0:0:
200,143,129209,1,0,0:0:0:0:
199,137,129385,1,8,0:0:0:0:
198,134,129562,1,0,0:0:0:0:
206,201,129650,1,8,0:0:0:0:
200,143,129738,1,0,0:0:0:0:
200,143,129827,1,0,0:0:0:0:
200,143,129915,1,8,0:0:0:0:
166,117,130091,1,0,0:0:0:0:
190,117,130180,1,0,0:0:0:0:
234,174,130268,1,8,0:0:0:0:
175,137,130621,1,0,0:0:0:0:
203,179,130797,1,8,0:0:0:0:
198,134,130974,1,0,0:0:0:0:
158,105,131062,1,8,0:0:0:0:
189,182,131238,1,0,0:0:0:0:
178,90,131327,1,0,0:0:0:0:
197,114,131503,1,8,0:0:0:0:
209,99,131680,1,0,0:0:0:0:
241,164,131856,1,8,0:0:0:0:
200,143,132033,1,0,0:0:0:0:
200,143,132121,1,0,0:0:0:0:
206,136,132209,1,8,0:0:0:0:
206,136,132385,1,0,0:0:0:0:
144,174,132562,1,8,0:0:0:0:
189,134,132738,1,8,0:0:0:0:
215,163,132827,1,8,0:0:0:0:
164,182,132915,1,8,0:0:0:0:
212,158,133003,1,8,0:0:0:0:
234,174,133091,1,0,0:0:0:0:
175,137,133444,1,0,0:0:0:0:
199,137,133621,1,8,0:0:0:0:
198,134,133797,1,0,0:0:0:0:
158,105,133885,1,8,0:0:0:0:
189,182,134062,1,8,0:0:0:0:
178,90,134150,1,0,0:0:0:0:
197,114,134327,1,8,0:0:0:0:
209,99,134503,1,0,0:0:0:0:
241,164,134680,1,8,0:0:0:0:
200,143,134856,1,0,0:0:0:0:
199,137,135033,1,8,0:0:0:0:
198,134,135209,1,0,0:0:0:0:
206,201,135297,1,8,0:0:0:0:
200,143,135474,1,8,0:0:0:0:
200,143,135562,1,0,0:0:0:0:
166,117,135738,1,0,0:0:0:0:
190,117,135827,1,0,0:0:0:0:
234,174,135915,1,8,0:0:0:0:
232,173,136091,1,8,0:0:0:0:
175,137,136268,1,0,0:0:0:0:
216,135,136444,1,8,0:0:0:0:
203,179,136533,1,8,0:0:0:0:
198,134,136621,1,0,0:0:0:0:
158,105,136797,1,8,0:0:0:0:
178,90,136974,1,0,0:0:0:0:
197,114,137150,1,8,0:0:0:0:
246,136,137238,1,8,0:0:0:0:
209,99,137327,1,0,0:0:0:0:
241,164,137503,1,8,0:0:0:0:
200,143,137680,1,8,0:0:0:0:
206,136,137856,1,8,0:0:0:0:
206,136,138033,1,0,0:0:0:0:
200,163,138121,1,0,0:0:0:0:
133,119,138209,1,0,0:0:0:0:
189,160,138297,1,0,0:0:0:0:
189,134,138385,1,12,0:0:0:0:
276,139,138562,1,0,0:0:0:0:
78,103,138738,1,12,0:0:0:0:
182,168,138915,1,12,0:0:0:0:
263,175,139268,1,8,0:0:0:0:
186,121,139621,1,8,0:0:0:0:
186,91,139974,1,8,0:0:0:0:
208,98,140150,1,4,0:0:0:0:
205,134,140327,1,4,0:0:0:0:
209,105,140680,1,8,0:0:0:0:
213,108,141033,1,8,0:0:0:0:
185,68,141209,1,8,0:0:0:0:
216,168,141385,1,0,0:0:0:0:
219,172,141474,1,0,0:0:0:0:
192,202,141562,1,12,0:0:0:0:
182,168,141738,1,12,0:0:0:0:
263,175,142091,1,8,0:0:0:0:
186,121,142444,1,8,0:0:0:0:
186,91,142797,1,8,0:0:0:0:
208,98,142974,1,4,0:0:0:0:
205,134,143150,1,4,0:0:0:0:
209,105,143503,1,8,0:0:0:0:
213,108,143856,5,8,0:0:0:0:
215,145,144033,1,0,0:0:0:0:
215,146,144121,1,0,0:0:0:0:
201,136,144209,1,0,0:0:0:0:
193,123,144297,1,0,0:0:0:0:
78,103,144385,1,12,0:0:0:0:
182,168,144562,1,12,0:0:0:0:
263,175,144915,1,8,0:0:0:0:
186,121,145268,1,8,0:0:0:0:
186,91,145621,1,8,0:0:0:0:
208,98,145797,1,4,0:0:0:0:
205,134,145974,1,4,0:0:0:0:
209,105,146327,1,8,0:0:0:0:
213,108,146680,1,8,0:0:0:0:
185,68,146856,1,8,0:0:0:0:
216,168,147033,1,0,0:0:0:0:
219,172,147121,1,0,0:0:0:0:
192,202,147209,1,12,0:0:0:0:
182,168,147385,1,12,0:0:0:0:
263,175,147738,1,8,0:0:0:0:
186,121,148091,1,8,0:0:0:0:
186,91,148444,1,8,0:0:0:0:
208,98,148621,1,4,0:0:0:0:
205,134,148797,1,4,0:0:0:0:
209,105,149150,1,8,0:0:0:0:
213,108,149503,1,8,0:0:0:0:
215,145,149680,1,8,0:0:0:0:
215,146,149768,1,8,0:0:0:0:
201,136,149856,1,8,0:0:0:0:
193,123,149944,1,8,0:0:0:0:
198,124,150033,1,4,0:0:0:0:
192,120,150209,1,4,0:0:0:0:
200,112,150562,1,8,0:0:0:0:
192,136,150738,1,4,0:0:0:0:
201,136,150915,1,4,0:0:0:0:
208,104,151268,1,0,0:0:0:0:
224,128,151444,1,12,0:0:0:0:
192,120,151621,1,12,0:0:0:0:
200,112,151974,1,0,0:0:0:0:
192,136,152150,1,12,0:0:0:0:
201,136,152327,1,12,0:0:0:0:
208,104,152503,1,0,0:0:0:0:
208,104,152591,1,0,0:0:0:0:
208,104,152680,1,0,0:0:0:0:
192,120,152856,1,12,0:0:0:0:
216,144,153033,1,0,0:0:0:0:
208,128,153209,1,12,0:0:0:0:
216,144,153385,1,0,0:0:0:0:
208,128,153562,1,12,0:0:0:0:
216,144,153738,1,0,0:0:0:0:
208,128,153915,1,12,0:0:0:0:
168,176,154091,1,0,0:0:0:0:
200,144,154268,1,12,0:0:0:0:
212,117,154444,1,0,0:0:0:0:
208,128,154533,1,0,0:0:0:0:
208,112,154621,1,8,0:0:0:0:
208,168,154797,1,0,0:0:0:0:
208,104,154974,1,8,0:0:0:0:
208,104,155062,1,8,0:0:0:0:
192,96,155150,1,8,0:0:0:0:
216,144,155327,1,0,0:0:0:0:
216,146,155415,1,0,0:0:0:0:
216,143,155503,1,0,0:0:0:0:
216,146,155591,1,0,0:0:0:0:
176,40,155680,1,8,0:0:0:0:
