osu file format v14

[General]
AudioFilename: audio.mp3
AudioLeadIn: 0
PreviewTime: 49775
Countdown: 0
SampleSet: Normal
StackLeniency: 0.7
Mode: 1
LetterboxInBreaks: 0
WidescreenStoryboard: 1

[Editor]
Bookmarks: 15915,27209,38503,49797,59680,70974,82268,93562,107680,117562,127444,138738
DistanceSpacing: 1.2
BeatDivisor: 8
GridSize: 32
TimelineZoom: 3.815998

[Metadata]
Title:Lost Umbrella (7_7 bootleg)
TitleUnicode:ロストアンブレラ (7_7 bootleg)
Artist:inabakumori
ArtistUnicode:稲葉曇
Creator:Horiiizon
Version:Genjuro's Hell Oni
Source:
Tags:7_7 Genjuro Hivie electronic japanese rock j-rock jrock breakcore kaai yuki 歌愛ユキ nukunuku nigirimeshi ぬくぬくにぎりめし vocaloid cumori アンチサイクロン ANTICYCLONE trushcan
BeatmapID:2992544
BeatmapSetID:1454002

[Difficulty]
HPDrainRate:5.2
CircleSize:2
OverallDifficulty:6.7
ApproachRate:10
SliderMultiplier:2.8
SliderTickRate:1

[Events]
//Background and Video events
0,0,"9bd69344-67fe-4f0b-9c6a-c42236321055.png",0,0
//Break Periods
2,10468,15465
2,93762,98053
//Storyboard Layer 0 (Background)
//Storyboard Layer 1 (Fail)
//Storyboard Layer 2 (Pass)
//Storyboard Layer 3 (Foreground)
//Storyboard Layer 4 (Overlay)
//Storyboard Sound Samples

[TimingPoints]
386,352.941176470588,4,1,0,100,1,0
386,-133.333333333333,4,1,0,100,0,0
15871,-114.285714285714,4,1,0,100,0,0
49753,-100,4,1,0,100,0,0
49797,-100,4,1,0,100,0,1
55444,-100,4,1,0,100,0,0
55797,-100,4,1,0,100,0,1
59680,-100,4,1,0,100,0,0
59768,-114.285714285714,4,1,0,100,0,0
93650,-133.333333333333,4,1,0,100,0,0
98459,-114.285714285714,4,1,0,100,0,0
107635,-133.333333333333,4,1,0,100,0,0
116106,-114.285714285714,4,1,0,100,0,0
117518,-100,4,1,0,100,0,0
117562,-100,4,1,0,100,0,1
123209,-100,4,1,0,100,0,0
123562,-100,4,1,0,100,0,1
127091,-100,4,1,0,100,0,0
127400,-114.285714285714,4,1,0,100,0,0
127444,-114.285714285714,4,1,0,100,0,1
138738,-114.285714285714,4,1,0,100,0,0

[HitObjects]
256,192,386,5,0,0:0:0:0:
256,192,1091,1,0,0:0:0:0:
256,192,1797,1,0,0:0:0:0:
256,192,3209,1,0,0:0:0:0:
256,192,3915,1,0,0:0:0:0:
256,192,4621,1,0,0:0:0:0:
256,192,6033,1,0,0:0:0:0:
256,192,6209,1,8,0:0:0:0:
256,192,6297,1,8,0:0:0:0:
256,192,6385,1,0,0:0:0:0:
256,192,6562,1,8,0:0:0:0:
256,192,6738,1,0,0:0:0:0:
256,192,6827,1,8,0:0:0:0:
256,192,6915,1,0,0:0:0:0:
256,192,7003,1,0,0:0:0:0:
256,192,7091,1,8,0:0:0:0:
256,192,7268,1,8,0:0:0:0:
256,192,7444,1,0,0:0:0:0:
256,192,7621,1,8,0:0:0:0:
256,192,7709,1,8,0:0:0:0:
256,192,7797,1,0,0:0:0:0:
256,192,7974,1,0,0:0:0:0:
256,192,8062,1,8,0:0:0:0:
256,192,8238,1,8,0:0:0:0:
256,192,8327,1,0,0:0:0:0:
256,192,8415,1,0,0:0:0:0:
256,192,8503,1,8,0:0:0:0:
256,192,8680,1,8,0:0:0:0:
256,192,8856,1,0,0:0:0:0:
256,192,9033,1,8,0:0:0:0:
256,192,9121,1,8,0:0:0:0:
256,192,9209,1,0,0:0:0:0:
256,192,9297,1,8,0:0:0:0:
256,192,9385,1,0,0:0:0:0:
256,192,9562,1,8,0:0:0:0:
256,192,9738,1,8,0:0:0:0:
256,192,10268,1,4,0:0:0:0:
256,192,15915,5,4,0:0:0:0:
256,192,16091,1,8,0:0:0:0:
256,192,16180,1,8,0:0:0:0:
256,192,16268,1,0,0:0:0:0:
256,192,16356,1,0,0:0:0:0:
256,192,16444,1,8,0:0:0:0:
256,192,16621,1,0,0:0:0:0:
256,192,16797,1,8,0:0:0:0:
256,192,16885,1,0,0:0:0:0:
256,192,17062,1,0,0:0:0:0:
256,192,17150,1,8,0:0:0:0:
256,192,17327,1,0,0:0:0:0:
256,192,17503,1,8,0:0:0:0:
256,192,17591,1,8,0:0:0:0:
256,192,17680,1,0,0:0:0:0:
256,192,17768,1,0,0:0:0:0:
256,192,17856,1,8,0:0:0:0:
256,192,17944,1,8,0:0:0:0:
256,192,18033,1,0,0:0:0:0:
256,192,18209,1,8,0:0:0:0:
256,192,18297,1,0,0:0:0:0:
256,192,18385,1,8,0:0:0:0:
256,192,18474,1,0,0:0:0:0:
256,192,18562,1,8,0:0:0:0:
256,192,18606,1,8,0:0:0:0:
256,192,18650,1,8,0:0:0:0:
256,192,18738,1,0,0:0:0:0:
256,192,18915,1,8,0:0:0:0:
256,192,19003,1,8,0:0:0:0:
256,192,19091,1,0,0:0:0:0:
256,192,19180,1,8,0:0:0:0:
256,192,19268,1,8,0:0:0:0:
256,192,19444,1,0,0:0:0:0:
256,192,19621,1,8,0:0:0:0:
256,192,19709,1,0,0:0:0:0:
256,192,19885,1,0,0:0:0:0:
256,192,19974,1,8,0:0:0:0:
256,192,20150,1,0,0:0:0:0:
256,192,20327,1,8,0:0:0:0:
256,192,20415,1,8,0:0:0:0:
256,192,20503,1,0,0:0:0:0:
256,192,20591,1,8,0:0:0:0:
256,192,20680,1,8,0:0:0:0:
256,192,20768,1,8,0:0:0:0:
256,192,20856,1,0,0:0:0:0:
256,192,21033,1,8,0:0:0:0:
256,192,21121,1,0,0:0:0:0:
256,192,21209,1,8,0:0:0:0:
256,192,21297,1,8,0:0:0:0:
256,192,21341,1,8,0:0:0:0:
256,192,21385,1,8,0:0:0:0:
256,192,21474,1,8,0:0:0:0:
256,192,21562,1,0,0:0:0:0:
256,192,21738,1,8,0:0:0:0:
256,192,21827,1,8,0:0:0:0:
256,192,21915,1,0,0:0:0:0:
256,192,22003,1,0,0:0:0:0:
256,192,22091,1,8,0:0:0:0:
256,192,22268,1,0,0:0:0:0:
256,192,22356,1,8,0:0:0:0:
256,192,22444,1,8,0:0:0:0:
256,192,22533,1,0,0:0:0:0:
256,192,22709,1,0,0:0:0:0:
256,192,22797,1,8,0:0:0:0:
256,192,22974,1,0,0:0:0:0:
256,192,23150,1,8,0:0:0:0:
256,192,23238,1,8,0:0:0:0:
256,192,23327,1,0,0:0:0:0:
256,192,23415,1,0,0:0:0:0:
256,192,23503,1,8,0:0:0:0:
256,192,23591,1,8,0:0:0:0:
256,192,23680,1,0,0:0:0:0:
256,192,23856,1,8,0:0:0:0:
256,192,23944,1,0,0:0:0:0:
256,192,24033,1,8,0:0:0:0:
256,192,24121,1,0,0:0:0:0:
256,192,24209,1,8,0:0:0:0:
256,192,24253,1,8,0:0:0:0:
256,192,24297,1,8,0:0:0:0:
256,192,24385,1,0,0:0:0:0:
256,192,24562,1,8,0:0:0:0:
256,192,24650,1,8,0:0:0:0:
256,192,24738,1,0,0:0:0:0:
256,192,24827,1,8,0:0:0:0:
256,192,24915,1,8,0:0:0:0:
256,192,25091,1,0,0:0:0:0:
256,192,25180,1,8,0:0:0:0:
256,192,25268,1,8,0:0:0:0:
256,192,25356,1,0,0:0:0:0:
256,192,25444,1,0,0:0:0:0:
256,192,25533,1,0,0:0:0:0:
256,192,25621,1,8,0:0:0:0:
256,192,25797,1,0,0:0:0:0:
256,192,25974,1,8,0:0:0:0:
256,192,26062,1,8,0:0:0:0:
256,192,26150,1,0,0:0:0:0:
256,192,26238,1,8,0:0:0:0:
256,192,26327,1,8,0:0:0:0:
256,192,26415,1,8,0:0:0:0:
256,192,26503,1,0,0:0:0:0:
256,192,26591,1,8,0:0:0:0:
256,192,26680,1,0,0:0:0:0:
256,192,26856,1,8,0:0:0:0:
256,192,27033,1,0,0:0:0:0:
256,192,27077,1,0,0:0:0:0:
256,192,27121,1,0,0:0:0:0:
256,192,27209,1,12,0:0:0:0:
256,192,27385,1,12,0:0:0:0:
256,192,27562,1,0,0:0:0:0:
256,192,27650,1,0,0:0:0:0:
256,192,27738,1,8,0:0:0:0:
256,192,27915,1,0,0:0:0:0:
256,192,28091,1,8,0:0:0:0:
256,192,28180,1,8,0:0:0:0:
256,192,28268,1,0,0:0:0:0:
256,192,28444,1,0,0:0:0:0:
256,192,28621,1,12,0:0:0:0:
256,192,28797,1,12,0:0:0:0:
256,192,28974,1,0,0:0:0:0:
256,192,29062,1,0,0:0:0:0:
256,192,29150,1,8,0:0:0:0:
256,192,29327,1,0,0:0:0:0:
256,192,29503,1,8,0:0:0:0:
256,192,29591,1,0,0:0:0:0:
256,192,29680,1,8,0:0:0:0:
256,192,29768,1,8,0:0:0:0:
256,192,29856,1,0,0:0:0:0:
256,192,29900,1,0,0:0:0:0:
256,192,29944,1,0,0:0:0:0:
256,192,30033,1,12,0:0:0:0:
256,192,30209,1,12,0:0:0:0:
256,192,30385,1,0,0:0:0:0:
256,192,30474,1,0,0:0:0:0:
256,192,30562,1,8,0:0:0:0:
256,192,30738,1,0,0:0:0:0:
256,192,30915,1,8,0:0:0:0:
256,192,31003,1,8,0:0:0:0:
256,192,31091,1,0,0:0:0:0:
256,192,31180,1,8,0:0:0:0:
256,192,31268,1,0,0:0:0:0:
256,192,31444,1,12,0:0:0:0:
256,192,31621,1,12,0:0:0:0:
256,192,31797,1,0,0:0:0:0:
256,192,31885,1,0,0:0:0:0:
256,192,31974,1,8,0:0:0:0:
256,192,32150,1,0,0:0:0:0:
256,192,32327,1,8,0:0:0:0:
256,192,32415,1,0,0:0:0:0:
256,192,32503,1,8,0:0:0:0:
256,192,32591,1,8,0:0:0:0:
256,192,32635,1,8,0:0:0:0:
256,192,32680,1,8,0:0:0:0:
256,192,32768,1,0,0:0:0:0:
256,192,32856,1,12,0:0:0:0:
256,192,33033,1,12,0:0:0:0:
256,192,33209,1,0,0:0:0:0:
256,192,33297,1,0,0:0:0:0:
256,192,33385,1,0,0:0:0:0:
256,192,33562,1,12,0:0:0:0:
256,192,33738,1,12,0:0:0:0:
256,192,33915,1,0,0:0:0:0:
256,192,34003,1,8,0:0:0:0:
256,192,34091,1,0,0:0:0:0:
256,192,34268,1,12,0:0:0:0:
256,192,34444,1,12,0:0:0:0:
256,192,34621,1,0,0:0:0:0:
256,192,34709,1,0,0:0:0:0:
256,192,34797,1,0,0:0:0:0:
256,192,34974,1,12,0:0:0:0:
256,192,35150,1,12,0:0:0:0:
256,192,35327,1,0,0:0:0:0:
256,192,35415,1,8,0:0:0:0:
256,192,35503,1,0,0:0:0:0:
256,192,35547,1,0,0:0:0:0:
256,192,35591,1,0,0:0:0:0:
256,192,35680,1,12,0:0:0:0:
256,192,35856,1,0,0:0:0:0:
256,192,35944,1,0,0:0:0:0:
256,192,36033,1,12,0:0:0:0:
256,192,36209,1,0,0:0:0:0:
256,192,36385,1,12,0:0:0:0:
256,192,36562,1,0,0:0:0:0:
256,192,36650,1,0,0:0:0:0:
256,192,36738,1,12,0:0:0:0:
256,192,36915,1,0,0:0:0:0:
256,192,37091,1,12,0:0:0:0:
256,192,37268,1,12,0:0:0:0:
256,192,37444,1,12,0:0:0:0:
256,192,37621,1,12,0:0:0:0:
256,192,37797,1,0,0:0:0:0:
256,192,37841,1,0,0:0:0:0:
256,192,37885,1,0,0:0:0:0:
256,192,37974,1,8,0:0:0:0:
256,192,38062,1,8,0:0:0:0:
256,192,38150,1,0,0:0:0:0:
256,192,38238,1,0,0:0:0:0:
256,192,38327,1,8,0:0:0:0:
256,192,38371,1,8,0:0:0:0:
256,192,38415,1,8,0:0:0:0:
256,192,38503,1,4,0:0:0:0:
256,192,38680,1,8,0:0:0:0:
256,192,38768,1,8,0:0:0:0:
256,192,38856,1,0,0:0:0:0:
256,192,38900,1,0,0:0:0:0:
256,192,38944,1,8,0:0:0:0:
256,192,39033,1,0,0:0:0:0:
256,192,39121,1,0,0:0:0:0:
256,192,39209,1,8,0:0:0:0:
256,192,39385,1,0,0:0:0:0:
256,192,39474,1,0,0:0:0:0:
256,192,39562,1,8,0:0:0:0:
256,192,39606,1,8,0:0:0:0:
256,192,39650,1,0,0:0:0:0:
256,192,39738,1,8,0:0:0:0:
256,192,39827,1,8,0:0:0:0:
256,192,39915,1,0,0:0:0:0:
256,192,40091,1,8,0:0:0:0:
256,192,40180,1,0,0:0:0:0:
256,192,40268,1,8,0:0:0:0:
256,192,40312,1,8,0:0:0:0:
256,192,40356,1,8,0:0:0:0:
256,192,40444,1,0,0:0:0:0:
256,192,40533,1,8,0:0:0:0:
256,192,40621,1,0,0:0:0:0:
256,192,40665,1,0,0:0:0:0:
256,192,40709,1,0,0:0:0:0:
256,192,40797,1,8,0:0:0:0:
256,192,40885,1,8,0:0:0:0:
256,192,40974,1,0,0:0:0:0:
256,192,41062,1,0,0:0:0:0:
256,192,41150,1,8,0:0:0:0:
256,192,41194,1,8,0:0:0:0:
256,192,41238,1,8,0:0:0:0:
256,192,41283,1,8,0:0:0:0:
256,192,41327,1,0,0:0:0:0:
256,192,41503,1,0,0:0:0:0:
256,192,41591,1,0,0:0:0:0:
256,192,41680,1,8,0:0:0:0:
256,192,41724,1,8,0:0:0:0:
256,192,41768,1,0,0:0:0:0:
256,192,41856,1,8,0:0:0:0:
256,192,41944,1,8,0:0:0:0:
256,192,42033,1,0,0:0:0:0:
256,192,42209,1,8,0:0:0:0:
256,192,42297,1,8,0:0:0:0:
256,192,42385,1,0,0:0:0:0:
256,192,42430,1,0,0:0:0:0:
256,192,42474,1,8,0:0:0:0:
256,192,42562,1,0,0:0:0:0:
256,192,42650,1,0,0:0:0:0:
256,192,42738,1,8,0:0:0:0:
256,192,42915,1,0,0:0:0:0:
256,192,43003,1,8,0:0:0:0:
256,192,43091,1,0,0:0:0:0:
256,192,43135,1,0,0:0:0:0:
256,192,43180,1,0,0:0:0:0:
256,192,43268,1,8,0:0:0:0:
256,192,43356,1,0,0:0:0:0:
256,192,43444,1,8,0:0:0:0:
256,192,43488,1,8,0:0:0:0:
256,192,43533,1,8,0:0:0:0:
256,192,43621,1,0,0:0:0:0:
256,192,43709,1,0,0:0:0:0:
256,192,43797,1,8,0:0:0:0:
256,192,43885,1,8,0:0:0:0:
256,192,43974,1,0,0:0:0:0:
256,192,44018,1,0,0:0:0:0:
256,192,44062,1,0,0:0:0:0:
256,192,44106,1,0,0:0:0:0:
256,192,44150,1,8,0:0:0:0:
256,192,44327,1,8,0:0:0:0:
256,192,44371,1,8,0:0:0:0:
256,192,44415,1,0,0:0:0:0:
256,192,44503,1,8,0:0:0:0:
256,192,44591,1,8,0:0:0:0:
256,192,44680,1,0,0:0:0:0:
256,192,44768,1,0,0:0:0:0:
256,192,44856,1,8,0:0:0:0:
256,192,45033,1,0,0:0:0:0:
256,192,45077,1,0,0:0:0:0:
256,192,45121,1,8,0:0:0:0:
256,192,45209,1,0,0:0:0:0:
256,192,45297,1,0,0:0:0:0:
256,192,45385,1,8,0:0:0:0:
256,192,45474,1,8,0:0:0:0:
256,192,45562,1,0,0:0:0:0:
256,192,45738,1,8,0:0:0:0:
256,192,45783,1,8,0:0:0:0:
256,192,45827,1,8,0:0:0:0:
256,192,45915,1,0,0:0:0:0:
256,192,46003,1,8,0:0:0:0:
256,192,46091,1,0,0:0:0:0:
256,192,46135,1,0,0:0:0:0:
256,192,46180,1,0,0:0:0:0:
256,192,46268,1,8,0:0:0:0:
256,192,46356,1,0,0:0:0:0:
256,192,46444,1,8,0:0:0:0:
256,192,46533,1,8,0:0:0:0:
256,192,46621,1,0,0:0:0:0:
256,192,46709,1,8,0:0:0:0:
256,192,46797,1,0,0:0:0:0:
256,192,46841,1,0,0:0:0:0:
256,192,46885,1,8,0:0:0:0:
256,192,46930,1,8,0:0:0:0:
256,192,46974,1,0,0:0:0:0:
256,192,48385,1,8,0:0:0:0:
256,192,48738,1,8,0:0:0:0:
256,192,49091,1,12,0:0:0:0:
256,192,49268,1,0,0:0:0:0:
256,192,49356,1,0,0:0:0:0:
256,192,49444,1,8,0:0:0:0:
256,192,49533,1,8,0:0:0:0:
256,192,49621,1,8,0:0:0:0:
256,192,49709,1,8,0:0:0:0:
256,192,49797,1,4,0:0:0:0:
256,192,49974,1,8,0:0:0:0:
256,192,50062,1,0,0:0:0:0:
256,192,50106,1,0,0:0:0:0:
256,192,50150,1,8,0:0:0:0:
256,192,50238,1,8,0:0:0:0:
256,192,50327,1,0,0:0:0:0:
256,192,50415,1,8,0:0:0:0:
256,192,50459,1,8,0:0:0:0:
256,192,50503,1,0,0:0:0:0:
256,192,50591,1,0,0:0:0:0:
256,192,50680,1,8,0:0:0:0:
256,192,50768,1,0,0:0:0:0:
256,192,50812,1,0,0:0:0:0:
256,192,50856,1,8,0:0:0:0:
256,192,50900,1,8,0:0:0:0:
256,192,50944,1,0,0:0:0:0:
256,192,51033,1,8,0:0:0:0:
256,192,51121,1,8,0:0:0:0:
256,192,51209,1,0,0:0:0:0:
256,192,51297,1,0,0:0:0:0:
256,192,51385,1,8,0:0:0:0:
256,192,51474,1,0,0:0:0:0:
256,192,51518,1,0,0:0:0:0:
256,192,51562,1,0,0:0:0:0:
256,192,51650,1,8,0:0:0:0:
256,192,51738,1,0,0:0:0:0:
256,192,51827,1,8,0:0:0:0:
256,192,51871,1,8,0:0:0:0:
256,192,51915,1,8,0:0:0:0:
256,192,52003,1,0,0:0:0:0:
256,192,52091,1,8,0:0:0:0:
256,192,52180,1,8,0:0:0:0:
256,192,52268,1,8,0:0:0:0:
256,192,52356,1,0,0:0:0:0:
256,192,52444,1,8,0:0:0:0:
256,192,52488,1,8,0:0:0:0:
256,192,52533,1,8,0:0:0:0:
256,192,52577,1,8,0:0:0:0:
256,192,52621,1,0,0:0:0:0:
256,192,52797,1,0,0:0:0:0:
256,192,52885,1,8,0:0:0:0:
256,192,52930,1,8,0:0:0:0:
256,192,52974,1,0,0:0:0:0:
256,192,53062,1,0,0:0:0:0:
256,192,53150,1,8,0:0:0:0:
256,192,53238,1,0,0:0:0:0:
256,192,53283,1,0,0:0:0:0:
256,192,53327,1,8,0:0:0:0:
256,192,53415,1,8,0:0:0:0:
256,192,53503,1,0,0:0:0:0:
256,192,53591,1,8,0:0:0:0:
256,192,53635,1,8,0:0:0:0:
256,192,53680,1,0,0:0:0:0:
256,192,53724,1,0,0:0:0:0:
256,192,53768,1,8,0:0:0:0:
256,192,53856,1,0,0:0:0:0:
256,192,53944,1,0,0:0:0:0:
256,192,54033,1,8,0:0:0:0:
256,192,54121,1,8,0:0:0:0:
256,192,54209,1,0,0:0:0:0:
256,192,54297,1,8,0:0:0:0:
256,192,54341,1,8,0:0:0:0:
256,192,54385,1,8,0:0:0:0:
256,192,54474,1,0,0:0:0:0:
256,192,54562,1,8,0:0:0:0:
256,192,54650,1,0,0:0:0:0:
256,192,54694,1,0,0:0:0:0:
256,192,54738,1,0,0:0:0:0:
256,192,54827,1,8,0:0:0:0:
256,192,54915,1,0,0:0:0:0:
256,192,55091,1,8,0:0:0:0:
256,192,55180,1,8,0:0:0:0:
256,192,55224,1,8,0:0:0:0:
256,192,55268,1,8,0:0:0:0:
256,192,55356,1,8,0:0:0:0:
256,192,55444,1,0,0:0:0:0:
256,192,55709,1,0,0:0:0:0:
256,192,55753,1,0,0:0:0:0:
256,192,55797,1,8,0:0:0:0:
256,192,55885,1,8,0:0:0:0:
256,192,55974,1,0,0:0:0:0:
256,192,56062,1,8,0:0:0:0:
256,192,56106,1,8,0:0:0:0:
256,192,56150,1,0,0:0:0:0:
256,192,56238,1,0,0:0:0:0:
256,192,56327,1,8,0:0:0:0:
256,192,56415,1,0,0:0:0:0:
256,192,56459,1,0,0:0:0:0:
256,192,56503,1,8,0:0:0:0:
256,192,56547,1,8,0:0:0:0:
256,192,56591,1,0,0:0:0:0:
256,192,56680,1,8,0:0:0:0:
256,192,56768,1,8,0:0:0:0:
256,192,56856,1,0,0:0:0:0:
256,192,56944,1,0,0:0:0:0:
256,192,57033,1,8,0:0:0:0:
256,192,57121,1,0,0:0:0:0:
256,192,57165,1,0,0:0:0:0:
256,192,57209,1,0,0:0:0:0:
256,192,57297,1,8,0:0:0:0:
256,192,57385,1,0,0:0:0:0:
256,192,57474,1,8,0:0:0:0:
256,192,57518,1,8,0:0:0:0:
256,192,57562,1,8,0:0:0:0:
256,192,57650,1,0,0:0:0:0:
256,192,57738,1,8,0:0:0:0:
256,192,57827,1,8,0:0:0:0:
256,192,57915,1,8,0:0:0:0:
256,192,58003,1,0,0:0:0:0:
256,192,58091,1,8,0:0:0:0:
256,192,58135,1,8,0:0:0:0:
256,192,58180,1,8,0:0:0:0:
256,192,58224,1,8,0:0:0:0:
256,192,58268,1,0,0:0:0:0:
256,192,58444,1,0,0:0:0:0:
256,192,58533,1,8,0:0:0:0:
256,192,58577,1,8,0:0:0:0:
256,192,58621,1,0,0:0:0:0:
256,192,58709,1,0,0:0:0:0:
256,192,58797,1,8,0:0:0:0:
256,192,58885,1,0,0:0:0:0:
256,192,58930,1,0,0:0:0:0:
256,192,58974,1,8,0:0:0:0:
256,192,59062,1,8,0:0:0:0:
256,192,59150,1,0,0:0:0:0:
256,192,59327,1,8,0:0:0:0:
256,192,59503,1,8,0:0:0:0:
256,192,59591,1,8,0:0:0:0:
256,192,59680,1,4,0:0:0:0:
256,192,59856,1,8,0:0:0:0:
256,192,59945,1,8,0:0:0:0:
256,192,60033,1,0,0:0:0:0:
256,192,60121,1,0,0:0:0:0:
256,192,60209,1,8,0:0:0:0:
256,192,60386,1,0,0:0:0:0:
256,192,60562,1,8,0:0:0:0:
256,192,60650,1,0,0:0:0:0:
256,192,60827,1,0,0:0:0:0:
256,192,60915,1,8,0:0:0:0:
256,192,61092,1,0,0:0:0:0:
256,192,61268,1,8,0:0:0:0:
256,192,61356,1,8,0:0:0:0:
256,192,61445,1,0,0:0:0:0:
256,192,61533,1,0,0:0:0:0:
256,192,61621,1,8,0:0:0:0:
256,192,61709,1,8,0:0:0:0:
256,192,61798,1,0,0:0:0:0:
256,192,61974,1,8,0:0:0:0:
256,192,62062,1,0,0:0:0:0:
256,192,62150,1,8,0:0:0:0:
256,192,62239,1,0,0:0:0:0:
256,192,62327,1,8,0:0:0:0:
256,192,62371,1,8,0:0:0:0:
256,192,62415,1,8,0:0:0:0:
256,192,62503,1,0,0:0:0:0:
256,192,62680,1,8,0:0:0:0:
256,192,62768,1,8,0:0:0:0:
256,192,62856,1,0,0:0:0:0:
256,192,62945,1,8,0:0:0:0:
256,192,63033,1,8,0:0:0:0:
256,192,63209,1,0,0:0:0:0:
256,192,63386,1,8,0:0:0:0:
256,192,63474,1,0,0:0:0:0:
256,192,63650,1,0,0:0:0:0:
256,192,63739,1,8,0:0:0:0:
256,192,63915,1,0,0:0:0:0:
256,192,64092,1,8,0:0:0:0:
256,192,64180,1,8,0:0:0:0:
256,192,64268,1,0,0:0:0:0:
256,192,64356,1,8,0:0:0:0:
256,192,64445,1,8,0:0:0:0:
256,192,64533,1,8,0:0:0:0:
256,192,64621,1,0,0:0:0:0:
256,192,64798,1,8,0:0:0:0:
256,192,64974,1,8,0:0:0:0:
256,192,65062,1,8,0:0:0:0:
256,192,65106,1,8,0:0:0:0:
256,192,65150,1,8,0:0:0:0:
256,192,65239,1,8,0:0:0:0:
256,192,65327,1,0,0:0:0:0:
256,192,65503,1,8,0:0:0:0:
256,192,65592,1,8,0:0:0:0:
256,192,65680,1,0,0:0:0:0:
256,192,65768,1,0,0:0:0:0:
256,192,65856,1,8,0:0:0:0:
256,192,66033,1,0,0:0:0:0:
256,192,66121,1,8,0:0:0:0:
256,192,66209,1,8,0:0:0:0:
256,192,66298,1,0,0:0:0:0:
256,192,66474,1,0,0:0:0:0:
256,192,66562,1,8,0:0:0:0:
256,192,66739,1,0,0:0:0:0:
256,192,66915,1,8,0:0:0:0:
256,192,67003,1,8,0:0:0:0:
256,192,67092,1,0,0:0:0:0:
256,192,67180,1,0,0:0:0:0:
256,192,67268,1,8,0:0:0:0:
256,192,67356,1,8,0:0:0:0:
256,192,67445,1,0,0:0:0:0:
256,192,67621,1,8,0:0:0:0:
256,192,67709,1,0,0:0:0:0:
256,192,67798,1,8,0:0:0:0:
256,192,67886,1,0,0:0:0:0:
256,192,67974,1,8,0:0:0:0:
256,192,68018,1,8,0:0:0:0:
256,192,68062,1,8,0:0:0:0:
256,192,68150,1,0,0:0:0:0:
256,192,68327,1,8,0:0:0:0:
256,192,68415,1,8,0:0:0:0:
256,192,68503,1,0,0:0:0:0:
256,192,68592,1,8,0:0:0:0:
256,192,68680,1,8,0:0:0:0:
256,192,68856,1,0,0:0:0:0:
256,192,68945,1,8,0:0:0:0:
256,192,69033,1,8,0:0:0:0:
256,192,69121,1,0,0:0:0:0:
256,192,69298,1,0,0:0:0:0:
256,192,69386,1,8,0:0:0:0:
256,192,69562,1,0,0:0:0:0:
256,192,69739,1,8,0:0:0:0:
256,192,69827,1,8,0:0:0:0:
256,192,69915,1,0,0:0:0:0:
256,192,70003,1,8,0:0:0:0:
256,192,70092,1,8,0:0:0:0:
256,192,70180,1,8,0:0:0:0:
256,192,70268,1,0,0:0:0:0:
256,192,70445,1,0,0:0:0:0:
256,192,70621,1,8,0:0:0:0:
256,192,70798,1,0,0:0:0:0:
256,192,70842,1,0,0:0:0:0:
256,192,70886,1,0,0:0:0:0:
256,192,70974,1,12,0:0:0:0:
256,192,71150,1,0,0:0:0:0:
256,192,71238,1,8,0:0:0:0:
256,192,71327,1,0,0:0:0:0:
256,192,71415,1,0,0:0:0:0:
256,192,71503,1,8,0:0:0:0:
256,192,71591,1,0,0:0:0:0:
256,192,71680,1,8,0:0:0:0:
256,192,71768,1,8,0:0:0:0:
256,192,71856,1,0,0:0:0:0:
256,192,71944,1,0,0:0:0:0:
256,192,72033,1,0,0:0:0:0:
256,192,72121,1,8,0:0:0:0:
256,192,72209,1,8,0:0:0:0:
256,192,72297,1,8,0:0:0:0:
256,192,72385,1,0,0:0:0:0:
256,192,72562,1,8,0:0:0:0:
256,192,72650,1,0,0:0:0:0:
256,192,72738,1,8,0:0:0:0:
256,192,72827,1,8,0:0:0:0:
256,192,72915,1,0,0:0:0:0:
256,192,73003,1,8,0:0:0:0:
256,192,73091,1,0,0:0:0:0:
256,192,73180,1,0,0:0:0:0:
256,192,73268,1,8,0:0:0:0:
256,192,73356,1,0,0:0:0:0:
256,192,73444,1,8,0:0:0:0:
256,192,73533,1,0,0:0:0:0:
256,192,73621,1,8,0:0:0:0:
256,192,73665,1,8,0:0:0:0:
256,192,73709,1,8,0:0:0:0:
256,192,73797,1,0,0:0:0:0:
256,192,73974,1,8,0:0:0:0:
256,192,74062,1,0,0:0:0:0:
256,192,74150,1,8,0:0:0:0:
256,192,74238,1,8,0:0:0:0:
256,192,74327,1,0,0:0:0:0:
256,192,74415,1,8,0:0:0:0:
256,192,74503,1,0,0:0:0:0:
256,192,74591,1,0,0:0:0:0:
256,192,74680,1,8,0:0:0:0:
256,192,74768,1,8,0:0:0:0:
256,192,74856,1,8,0:0:0:0:
256,192,74944,1,0,0:0:0:0:
256,192,75033,1,0,0:0:0:0:
256,192,75121,1,0,0:0:0:0:
256,192,75209,1,8,0:0:0:0:
256,192,75385,1,0,0:0:0:0:
256,192,75474,1,8,0:0:0:0:
256,192,75562,1,0,0:0:0:0:
256,192,75650,1,0,0:0:0:0:
256,192,75738,1,8,0:0:0:0:
256,192,75827,1,0,0:0:0:0:
256,192,75915,1,8,0:0:0:0:
256,192,76091,1,8,0:0:0:0:
256,192,76180,1,0,0:0:0:0:
256,192,76268,1,8,0:0:0:0:
256,192,76356,1,8,0:0:0:0:
256,192,76400,1,8,0:0:0:0:
256,192,76444,1,8,0:0:0:0:
256,192,76533,1,8,0:0:0:0:
256,192,76621,1,0,0:0:0:0:
256,192,76797,1,0,0:0:0:0:
256,192,76885,1,0,0:0:0:0:
256,192,76974,1,8,0:0:0:0:
256,192,77062,1,0,0:0:0:0:
256,192,77150,1,8,0:0:0:0:
256,192,77238,1,8,0:0:0:0:
256,192,77327,1,0,0:0:0:0:
256,192,77415,1,8,0:0:0:0:
256,192,77503,1,0,0:0:0:0:
256,192,77591,1,8,0:0:0:0:
256,192,77680,1,8,0:0:0:0:
256,192,77768,1,0,0:0:0:0:
256,192,77856,1,8,0:0:0:0:
256,192,77944,1,8,0:0:0:0:
256,192,78033,1,0,0:0:0:0:
256,192,78209,1,8,0:0:0:0:
256,192,78297,1,8,0:0:0:0:
256,192,78385,1,0,0:0:0:0:
256,192,78474,1,8,0:0:0:0:
256,192,78562,1,0,0:0:0:0:
256,192,78650,1,0,0:0:0:0:
256,192,78738,1,8,0:0:0:0:
256,192,78827,1,0,0:0:0:0:
256,192,78915,1,8,0:0:0:0:
256,192,79003,1,8,0:0:0:0:
256,192,79091,1,0,0:0:0:0:
256,192,79180,1,0,0:0:0:0:
256,192,79268,1,8,0:0:0:0:
256,192,79312,1,8,0:0:0:0:
256,192,79356,1,8,0:0:0:0:
256,192,79444,1,0,0:0:0:0:
256,192,79621,1,8,0:0:0:0:
256,192,79709,1,8,0:0:0:0:
256,192,79798,1,0,0:0:0:0:
256,192,79886,1,8,0:0:0:0:
256,192,79974,1,0,0:0:0:0:
256,192,80062,1,0,0:0:0:0:
256,192,80151,1,8,0:0:0:0:
256,192,80239,1,0,0:0:0:0:
256,192,80327,1,8,0:0:0:0:
256,192,80415,1,0,0:0:0:0:
256,192,80504,1,0,0:0:0:0:
256,192,80592,1,8,0:0:0:0:
256,192,80680,1,0,0:0:0:0:
256,192,80768,1,0,0:0:0:0:
256,192,80857,1,8,0:0:0:0:
256,192,81033,1,0,0:0:0:0:
256,192,81121,1,0,0:0:0:0:
256,192,81209,1,8,0:0:0:0:
256,192,81298,1,0,0:0:0:0:
256,192,81386,1,8,0:0:0:0:
256,192,81474,1,8,0:0:0:0:
256,192,81562,1,0,0:0:0:0:
256,192,81738,1,8,0:0:0:0:
256,192,81915,1,0,0:0:0:0:
256,192,82003,1,0,0:0:0:0:
256,192,82091,1,0,0:0:0:0:
256,192,82180,1,0,0:0:0:0:
256,192,82268,1,12,0:0:0:0:
256,192,82444,1,12,0:0:0:0:
256,192,82621,1,0,0:0:0:0:
256,192,82709,1,0,0:0:0:0:
256,192,82797,1,8,0:0:0:0:
256,192,82974,1,0,0:0:0:0:
256,192,83150,1,8,0:0:0:0:
256,192,83238,1,8,0:0:0:0:
256,192,83327,1,0,0:0:0:0:
256,192,83503,1,0,0:0:0:0:
256,192,83680,1,12,0:0:0:0:
256,192,83856,1,12,0:0:0:0:
256,192,84033,1,0,0:0:0:0:
256,192,84121,1,0,0:0:0:0:
256,192,84209,1,8,0:0:0:0:
256,192,84385,1,0,0:0:0:0:
256,192,84562,1,8,0:0:0:0:
256,192,84650,1,0,0:0:0:0:
256,192,84738,1,8,0:0:0:0:
256,192,84827,1,8,0:0:0:0:
256,192,84915,1,0,0:0:0:0:
256,192,84959,1,0,0:0:0:0:
256,192,85003,1,0,0:0:0:0:
256,192,85091,1,12,0:0:0:0:
256,192,85268,1,12,0:0:0:0:
256,192,85444,1,0,0:0:0:0:
256,192,85533,1,0,0:0:0:0:
256,192,85621,1,8,0:0:0:0:
256,192,85797,1,0,0:0:0:0:
256,192,85974,1,8,0:0:0:0:
256,192,86062,1,8,0:0:0:0:
256,192,86150,1,0,0:0:0:0:
256,192,86238,1,8,0:0:0:0:
256,192,86327,1,0,0:0:0:0:
256,192,86503,1,12,0:0:0:0:
256,192,86680,1,12,0:0:0:0:
256,192,86856,1,0,0:0:0:0:
256,192,86944,1,0,0:0:0:0:
256,192,87033,1,8,0:0:0:0:
256,192,87209,1,0,0:0:0:0:
256,192,87385,1,8,0:0:0:0:
256,192,87474,1,0,0:0:0:0:
256,192,87562,1,8,0:0:0:0:
256,192,87650,1,8,0:0:0:0:
256,192,87694,1,8,0:0:0:0:
256,192,87738,1,8,0:0:0:0:
256,192,87827,1,0,0:0:0:0:
256,192,87915,1,12,0:0:0:0:
256,192,88091,1,12,0:0:0:0:
256,192,88268,1,0,0:0:0:0:
256,192,88356,1,0,0:0:0:0:
256,192,88444,1,0,0:0:0:0:
256,192,88621,1,12,0:0:0:0:
256,192,88797,1,12,0:0:0:0:
256,192,88974,1,0,0:0:0:0:
256,192,89062,1,8,0:0:0:0:
256,192,89150,1,0,0:0:0:0:
256,192,89327,1,12,0:0:0:0:
256,192,89503,1,12,0:0:0:0:
256,192,89680,1,0,0:0:0:0:
256,192,89768,1,0,0:0:0:0:
256,192,89856,1,0,0:0:0:0:
256,192,90033,1,12,0:0:0:0:
256,192,90209,1,12,0:0:0:0:
256,192,90385,1,0,0:0:0:0:
256,192,90474,1,8,0:0:0:0:
256,192,90562,1,0,0:0:0:0:
256,192,90606,1,0,0:0:0:0:
256,192,90650,1,0,0:0:0:0:
256,192,90738,1,12,0:0:0:0:
256,192,90915,1,0,0:0:0:0:
256,192,91003,1,0,0:0:0:0:
256,192,91091,1,12,0:0:0:0:
256,192,91268,1,0,0:0:0:0:
256,192,91444,1,12,0:0:0:0:
256,192,91621,1,0,0:0:0:0:
256,192,91709,1,0,0:0:0:0:
256,192,91797,1,12,0:0:0:0:
256,192,91974,1,0,0:0:0:0:
256,192,92150,1,12,0:0:0:0:
256,192,92327,1,12,0:0:0:0:
256,192,92503,1,12,0:0:0:0:
256,192,92680,1,12,0:0:0:0:
256,192,92856,1,0,0:0:0:0:
256,192,92900,1,0,0:0:0:0:
256,192,92944,1,0,0:0:0:0:
256,192,93033,1,8,0:0:0:0:
256,192,93121,1,8,0:0:0:0:
256,192,93209,1,0,0:0:0:0:
256,192,93297,1,0,0:0:0:0:
256,192,93385,1,8,0:0:0:0:
256,192,93430,1,8,0:0:0:0:
256,192,93474,1,8,0:0:0:0:
256,192,93562,1,4,0:0:0:0:
256,192,98503,5,8,0:0:0:0:
256,192,98768,1,0,0:0:0:0:
256,192,98856,1,8,0:0:0:0:
256,192,98944,1,0,0:0:0:0:
256,192,99033,1,8,0:0:0:0:
256,192,99077,1,8,0:0:0:0:
256,192,99121,1,8,0:0:0:0:
256,192,99209,1,4,0:0:0:0:
256,192,99385,1,8,0:0:0:0:
256,192,99474,1,8,0:0:0:0:
256,192,99562,1,0,0:0:0:0:
256,192,99650,1,0,0:0:0:0:
256,192,99738,1,8,0:0:0:0:
256,192,99915,1,0,0:0:0:0:
256,192,100003,1,8,0:0:0:0:
256,192,100091,1,8,0:0:0:0:
256,192,100180,1,0,0:0:0:0:
256,192,100356,1,0,0:0:0:0:
256,192,100444,1,8,0:0:0:0:
256,192,100621,1,0,0:0:0:0:
256,192,100797,1,8,0:0:0:0:
256,192,100885,1,8,0:0:0:0:
256,192,100974,1,0,0:0:0:0:
256,192,101062,1,0,0:0:0:0:
256,192,101150,1,8,0:0:0:0:
256,192,101238,1,8,0:0:0:0:
256,192,101327,1,0,0:0:0:0:
256,192,101503,1,8,0:0:0:0:
256,192,101591,1,0,0:0:0:0:
256,192,101680,1,8,0:0:0:0:
256,192,101768,1,0,0:0:0:0:
256,192,101856,1,8,0:0:0:0:
256,192,101900,1,8,0:0:0:0:
256,192,101944,1,8,0:0:0:0:
256,192,102032,1,0,0:0:0:0:
256,192,102209,1,8,0:0:0:0:
256,192,102297,1,8,0:0:0:0:
256,192,102385,1,0,0:0:0:0:
256,192,102474,1,8,0:0:0:0:
256,192,102562,1,8,0:0:0:0:
256,192,102738,1,0,0:0:0:0:
256,192,102827,1,8,0:0:0:0:
256,192,102915,1,8,0:0:0:0:
256,192,103003,1,0,0:0:0:0:
256,192,103091,1,0,0:0:0:0:
256,192,103180,1,0,0:0:0:0:
256,192,103268,1,8,0:0:0:0:
256,192,103444,1,0,0:0:0:0:
256,192,103621,1,8,0:0:0:0:
256,192,103709,1,8,0:0:0:0:
256,192,103797,1,0,0:0:0:0:
256,192,103885,1,8,0:0:0:0:
256,192,103974,1,8,0:0:0:0:
256,192,104062,1,8,0:0:0:0:
256,192,104150,1,0,0:0:0:0:
256,192,104238,1,8,0:0:0:0:
256,192,104327,1,0,0:0:0:0:
256,192,104503,1,8,0:0:0:0:
256,192,104680,1,0,0:0:0:0:
256,192,104724,1,0,0:0:0:0:
256,192,104768,1,0,0:0:0:0:
256,192,104856,1,12,0:0:0:0:
256,192,105033,1,0,0:0:0:0:
256,192,105121,1,0,0:0:0:0:
256,192,105209,1,8,0:0:0:0:
256,192,105297,1,8,0:0:0:0:
256,192,105385,1,0,0:0:0:0:
256,192,105474,1,8,0:0:0:0:
256,192,105562,1,8,0:0:0:0:
256,192,105650,1,8,0:0:0:0:
256,192,105738,1,0,0:0:0:0:
256,192,105827,1,0,0:0:0:0:
256,192,105915,1,8,0:0:0:0:
256,192,106003,1,0,0:0:0:0:
256,192,106091,1,8,0:0:0:0:
256,192,106180,1,8,0:0:0:0:
256,192,106268,1,0,0:0:0:0:
256,192,106444,1,8,0:0:0:0:
256,192,106533,1,8,0:0:0:0:
256,192,106621,1,8,0:0:0:0:
256,192,106709,1,8,0:0:0:0:
256,192,106797,1,0,0:0:0:0:
256,192,106885,1,0,0:0:0:0:
256,192,106974,1,8,0:0:0:0:
256,192,107680,1,0,0:0:0:0:
256,192,108385,1,0,0:0:0:0:
256,192,109091,1,0,0:0:0:0:
256,192,110503,1,0,0:0:0:0:
256,192,111209,1,0,0:0:0:0:
256,192,111915,1,0,0:0:0:0:
256,192,113327,1,0,0:0:0:0:
256,192,113680,1,8,0:0:0:0:
256,192,113856,1,8,0:0:0:0:
256,192,113944,1,8,0:0:0:0:
256,192,114033,1,0,0:0:0:0:
256,192,114209,1,0,0:0:0:0:
256,192,114385,1,8,0:0:0:0:
256,192,114562,1,8,0:0:0:0:
256,192,114738,1,0,0:0:0:0:
256,192,115091,1,8,0:0:0:0:
256,192,115268,1,0,0:0:0:0:
256,192,115356,1,8,0:0:0:0:
256,192,115533,1,8,0:0:0:0:
256,192,115621,1,0,0:0:0:0:
256,192,115797,1,8,0:0:0:0:
256,192,115974,1,0,0:0:0:0:
256,192,116150,1,8,0:0:0:0:
256,192,116503,1,8,0:0:0:0:
256,192,116856,1,12,0:0:0:0:
256,192,117033,1,0,0:0:0:0:
256,192,117121,1,0,0:0:0:0:
256,192,117209,1,8,0:0:0:0:
256,192,117297,1,8,0:0:0:0:
256,192,117385,1,8,0:0:0:0:
256,192,117474,1,8,0:0:0:0:
256,192,117562,1,4,0:0:0:0:
256,192,117738,1,8,0:0:0:0:
256,192,117826,1,0,0:0:0:0:
256,192,117870,1,0,0:0:0:0:
256,192,117914,1,8,0:0:0:0:
256,192,118002,1,8,0:0:0:0:
256,192,118091,1,0,0:0:0:0:
256,192,118179,1,8,0:0:0:0:
256,192,118223,1,8,0:0:0:0:
256,192,118267,1,0,0:0:0:0:
256,192,118355,1,0,0:0:0:0:
256,192,118444,1,8,0:0:0:0:
256,192,118532,1,0,0:0:0:0:
256,192,118576,1,0,0:0:0:0:
256,192,118620,1,8,0:0:0:0:
256,192,118664,1,8,0:0:0:0:
256,192,118708,1,0,0:0:0:0:
256,192,118797,1,8,0:0:0:0:
256,192,118885,1,8,0:0:0:0:
256,192,118973,1,0,0:0:0:0:
256,192,119061,1,0,0:0:0:0:
256,192,119149,1,8,0:0:0:0:
256,192,119238,1,0,0:0:0:0:
256,192,119282,1,0,0:0:0:0:
256,192,119326,1,0,0:0:0:0:
256,192,119414,1,8,0:0:0:0:
256,192,119502,1,0,0:0:0:0:
256,192,119591,1,8,0:0:0:0:
256,192,119635,1,8,0:0:0:0:
256,192,119679,1,8,0:0:0:0:
256,192,119767,1,0,0:0:0:0:
256,192,119855,1,8,0:0:0:0:
256,192,119944,1,8,0:0:0:0:
256,192,120032,1,8,0:0:0:0:
256,192,120120,1,0,0:0:0:0:
256,192,120208,1,8,0:0:0:0:
256,192,120252,1,8,0:0:0:0:
256,192,120297,1,8,0:0:0:0:
256,192,120341,1,8,0:0:0:0:
256,192,120385,1,0,0:0:0:0:
256,192,120561,1,0,0:0:0:0:
256,192,120649,1,8,0:0:0:0:
256,192,120694,1,8,0:0:0:0:
256,192,120738,1,0,0:0:0:0:
256,192,120826,1,0,0:0:0:0:
256,192,120914,1,8,0:0:0:0:
256,192,121002,1,0,0:0:0:0:
256,192,121047,1,0,0:0:0:0:
256,192,121091,1,8,0:0:0:0:
256,192,121179,1,8,0:0:0:0:
256,192,121267,1,0,0:0:0:0:
256,192,121355,1,8,0:0:0:0:
256,192,121399,1,8,0:0:0:0:
256,192,121444,1,0,0:0:0:0:
256,192,121488,1,0,0:0:0:0:
256,192,121532,1,8,0:0:0:0:
256,192,121620,1,0,0:0:0:0:
256,192,121708,1,0,0:0:0:0:
256,192,121797,1,8,0:0:0:0:
256,192,121885,1,8,0:0:0:0:
256,192,121973,1,0,0:0:0:0:
256,192,122061,1,8,0:0:0:0:
256,192,122105,1,8,0:0:0:0:
256,192,122149,1,8,0:0:0:0:
256,192,122238,1,0,0:0:0:0:
256,192,122326,1,8,0:0:0:0:
256,192,122414,1,0,0:0:0:0:
256,192,122458,1,0,0:0:0:0:
256,192,122502,1,0,0:0:0:0:
256,192,122591,1,8,0:0:0:0:
256,192,122679,1,0,0:0:0:0:
256,192,122855,1,8,0:0:0:0:
256,192,122944,1,8,0:0:0:0:
256,192,122988,1,8,0:0:0:0:
256,192,123032,1,8,0:0:0:0:
256,192,123120,1,8,0:0:0:0:
256,192,123208,1,0,0:0:0:0:
256,192,123473,1,0,0:0:0:0:
256,192,123517,1,0,0:0:0:0:
256,192,123561,1,8,0:0:0:0:
256,192,123649,1,8,0:0:0:0:
256,192,123738,1,0,0:0:0:0:
256,192,123826,1,8,0:0:0:0:
256,192,123870,1,8,0:0:0:0:
256,192,123914,1,0,0:0:0:0:
256,192,124002,1,0,0:0:0:0:
256,192,124091,1,8,0:0:0:0:
256,192,124179,1,0,0:0:0:0:
256,192,124223,1,0,0:0:0:0:
256,192,124267,1,8,0:0:0:0:
256,192,124311,1,8,0:0:0:0:
256,192,124355,1,0,0:0:0:0:
256,192,124444,1,8,0:0:0:0:
256,192,124532,1,8,0:0:0:0:
256,192,124620,1,0,0:0:0:0:
256,192,124708,1,0,0:0:0:0:
256,192,124797,1,8,0:0:0:0:
256,192,124885,1,0,0:0:0:0:
256,192,124929,1,0,0:0:0:0:
256,192,124973,1,0,0:0:0:0:
256,192,125061,1,8,0:0:0:0:
256,192,125149,1,0,0:0:0:0:
256,192,125238,1,8,0:0:0:0:
256,192,125282,1,8,0:0:0:0:
256,192,125326,1,8,0:0:0:0:
256,192,125414,1,0,0:0:0:0:
256,192,125502,1,8,0:0:0:0:
256,192,125591,1,8,0:0:0:0:
256,192,125679,1,8,0:0:0:0:
256,192,125767,1,0,0:0:0:0:
256,192,125855,1,8,0:0:0:0:
256,192,125899,1,8,0:0:0:0:
256,192,125944,1,8,0:0:0:0:
256,192,125988,1,8,0:0:0:0:
256,192,126032,1,0,0:0:0:0:
256,192,126208,1,0,0:0:0:0:
256,192,126297,1,8,0:0:0:0:
256,192,126341,1,8,0:0:0:0:
256,192,126385,1,0,0:0:0:0:
256,192,126473,1,0,0:0:0:0:
256,192,126561,1,8,0:0:0:0:
256,192,126649,1,0,0:0:0:0:
256,192,126694,1,0,0:0:0:0:
256,192,126738,1,8,0:0:0:0:
256,192,126826,1,8,0:0:0:0:
256,192,126914,1,0,0:0:0:0:
256,192,127091,1,12,0:0:0:0:
256,192,127444,1,4,0:0:0:0:
256,192,127621,1,8,0:0:0:0:
256,192,127709,1,0,0:0:0:0:
256,192,127797,1,8,0:0:0:0:
256,192,127885,1,8,0:0:0:0:
256,192,127974,1,0,0:0:0:0:
256,192,128062,1,8,0:0:0:0:
256,192,128150,1,0,0:0:0:0:
256,192,128238,1,0,0:0:0:0:
256,192,128327,1,8,0:0:0:0:
256,192,128415,1,8,0:0:0:0:
256,192,128503,1,8,0:0:0:0:
256,192,128591,1,0,0:0:0:0:
256,192,128680,1,0,0:0:0:0:
256,192,128768,1,0,0:0:0:0:
256,192,128856,1,8,0:0:0:0:
256,192,128944,1,8,0:0:0:0:
256,192,129033,1,0,0:0:0:0:
256,192,129121,1,8,0:0:0:0:
256,192,129209,1,0,0:0:0:0:
256,192,129297,1,0,0:0:0:0:
256,192,129385,1,8,0:0:0:0:
256,192,129474,1,0,0:0:0:0:
256,192,129562,1,8,0:0:0:0:
256,192,129650,1,8,0:0:0:0:
256,192,129738,1,0,0:0:0:0:
256,192,129827,1,0,0:0:0:0:
256,192,129915,1,8,0:0:0:0:
256,192,130003,1,0,0:0:0:0:
256,192,130091,1,8,0:0:0:0:
256,192,130135,1,8,0:0:0:0:
256,192,130180,1,8,0:0:0:0:
256,192,130224,1,8,0:0:0:0:
256,192,130268,1,0,0:0:0:0:
256,192,130444,1,0,0:0:0:0:
256,192,130532,1,8,0:0:0:0:
256,192,130620,1,0,0:0:0:0:
256,192,130708,1,0,0:0:0:0:
256,192,130797,1,8,0:0:0:0:
256,192,130885,1,0,0:0:0:0:
256,192,130974,1,8,0:0:0:0:
256,192,131061,1,8,0:0:0:0:
256,192,131150,1,0,0:0:0:0:
256,192,131238,1,0,0:0:0:0:
256,192,131326,1,0,0:0:0:0:
256,192,131414,1,8,0:0:0:0:
256,192,131503,1,8,0:0:0:0:
256,192,131591,1,8,0:0:0:0:
256,192,131679,1,0,0:0:0:0:
256,192,131767,1,0,0:0:0:0:
256,192,131856,1,8,0:0:0:0:
256,192,131944,1,0,0:0:0:0:
256,192,132032,1,8,0:0:0:0:
256,192,132120,1,8,0:0:0:0:
256,192,132208,1,0,0:0:0:0:
256,192,132297,1,8,0:0:0:0:
256,192,132385,1,0,0:0:0:0:
256,192,132561,1,8,0:0:0:0:
256,192,132650,1,0,0:0:0:0:
256,192,132738,1,8,0:0:0:0:
256,192,132826,1,8,0:0:0:0:
256,192,132871,1,8,0:0:0:0:
256,192,132914,1,8,0:0:0:0:
256,192,133003,1,8,0:0:0:0:
256,192,133091,1,0,0:0:0:0:
256,192,133268,1,8,0:0:0:0:
256,192,133356,1,8,0:0:0:0:
256,192,133444,1,0,0:0:0:0:
256,192,133533,1,8,0:0:0:0:
256,192,133621,1,0,0:0:0:0:
256,192,133709,1,0,0:0:0:0:
256,192,133797,1,8,0:0:0:0:
256,192,133885,1,0,0:0:0:0:
256,192,133974,1,8,0:0:0:0:
256,192,134062,1,0,0:0:0:0:
256,192,134150,1,0,0:0:0:0:
256,192,134238,1,8,0:0:0:0:
256,192,134327,1,0,0:0:0:0:
256,192,134415,1,0,0:0:0:0:
256,192,134503,1,8,0:0:0:0:
256,192,134591,1,8,0:0:0:0:
256,192,134680,1,0,0:0:0:0:
256,192,134768,1,0,0:0:0:0:
256,192,134856,1,8,0:0:0:0:
256,192,134944,1,0,0:0:0:0:
256,192,135033,1,8,0:0:0:0:
256,192,135121,1,8,0:0:0:0:
256,192,135209,1,0,0:0:0:0:
256,192,135297,1,8,0:0:0:0:
256,192,135385,1,0,0:0:0:0:
256,192,135474,1,0,0:0:0:0:
256,192,135562,1,8,0:0:0:0:
256,192,135650,1,0,0:0:0:0:
256,192,135738,1,8,0:0:0:0:
256,192,135783,1,8,0:0:0:0:
256,192,135827,1,8,0:0:0:0:
256,192,135871,1,8,0:0:0:0:
256,192,135915,1,0,0:0:0:0:
256,192,136091,1,0,0:0:0:0:
256,192,136179,1,0,0:0:0:0:
256,192,136267,1,8,0:0:0:0:
256,192,136356,1,0,0:0:0:0:
256,192,136444,1,8,0:0:0:0:
256,192,136532,1,8,0:0:0:0:
256,192,136620,1,0,0:0:0:0:
256,192,136708,1,8,0:0:0:0:
256,192,136797,1,0,0:0:0:0:
256,192,136885,1,8,0:0:0:0:
256,192,136973,1,8,0:0:0:0:
256,192,137061,1,0,0:0:0:0:
256,192,137150,1,8,0:0:0:0:
256,192,137238,1,8,0:0:0:0:
256,192,137326,1,0,0:0:0:0:
256,192,137414,1,0,0:0:0:0:
256,192,137503,1,8,0:0:0:0:
256,192,137591,1,8,0:0:0:0:
256,192,137679,1,0,0:0:0:0:
256,192,137767,1,8,0:0:0:0:
256,192,137856,1,0,0:0:0:0:
256,192,137944,1,0,0:0:0:0:
256,192,138032,1,8,0:0:0:0:
256,192,138120,1,0,0:0:0:0:
256,192,138208,1,0,0:0:0:0:
256,192,138297,1,0,0:0:0:0:
256,192,138385,1,8,0:0:0:0:
256,192,138562,1,0,0:0:0:0:
256,192,138606,1,0,0:0:0:0:
256,192,138650,1,0,0:0:0:0:
256,192,138738,1,12,0:0:0:0:
256,192,138915,1,12,0:0:0:0:
256,192,139091,1,0,0:0:0:0:
256,192,139180,1,0,0:0:0:0:
256,192,139268,1,8,0:0:0:0:
256,192,139444,1,0,0:0:0:0:
256,192,139621,1,8,0:0:0:0:
256,192,139797,1,0,0:0:0:0:
256,192,139974,1,0,0:0:0:0:
256,192,140150,1,12,0:0:0:0:
256,192,140327,1,12,0:0:0:0:
256,192,140503,1,0,0:0:0:0:
256,192,140591,1,0,0:0:0:0:
256,192,140680,1,8,0:0:0:0:
256,192,140856,1,0,0:0:0:0:
256,192,141033,1,8,0:0:0:0:
256,192,141121,1,0,0:0:0:0:
256,192,141209,1,8,0:0:0:0:
256,192,141385,1,0,0:0:0:0:
256,192,141430,1,0,0:0:0:0:
256,192,141474,1,0,0:0:0:0:
256,192,141562,1,12,0:0:0:0:
256,192,141738,1,12,0:0:0:0:
256,192,141915,1,0,0:0:0:0:
256,192,142003,1,0,0:0:0:0:
256,192,142091,1,8,0:0:0:0:
256,192,142268,1,0,0:0:0:0:
256,192,142444,1,8,0:0:0:0:
256,192,142621,1,0,0:0:0:0:
256,192,142797,1,0,0:0:0:0:
256,192,142974,1,12,0:0:0:0:
256,192,143150,1,12,0:0:0:0:
256,192,143327,1,0,0:0:0:0:
256,192,143415,1,0,0:0:0:0:
256,192,143503,1,8,0:0:0:0:
256,192,143680,1,0,0:0:0:0:
256,192,143856,1,8,0:0:0:0:
256,192,143944,1,0,0:0:0:0:
256,192,144033,1,8,0:0:0:0:
256,192,144121,1,8,0:0:0:0:
256,192,144165,1,8,0:0:0:0:
256,192,144209,1,8,0:0:0:0:
256,192,144297,1,0,0:0:0:0:
256,192,144385,1,12,0:0:0:0:
256,192,144561,1,12,0:0:0:0:
256,192,144738,1,0,0:0:0:0:
256,192,144826,1,0,0:0:0:0:
256,192,144914,1,8,0:0:0:0:
256,192,145091,1,0,0:0:0:0:
256,192,145267,1,8,0:0:0:0:
256,192,145356,1,8,0:0:0:0:
256,192,145444,1,0,0:0:0:0:
256,192,145620,1,0,0:0:0:0:
256,192,145797,1,12,0:0:0:0:
256,192,145973,1,12,0:0:0:0:
256,192,146150,1,0,0:0:0:0:
256,192,146238,1,0,0:0:0:0:
256,192,146326,1,8,0:0:0:0:
256,192,146503,1,0,0:0:0:0:
256,192,146679,1,8,0:0:0:0:
256,192,146767,1,0,0:0:0:0:
256,192,146856,1,8,0:0:0:0:
256,192,146944,1,8,0:0:0:0:
256,192,147032,1,0,0:0:0:0:
256,192,147076,1,0,0:0:0:0:
256,192,147120,1,0,0:0:0:0:
256,192,147209,1,12,0:0:0:0:
256,192,147385,1,12,0:0:0:0:
256,192,147561,1,0,0:0:0:0:
256,192,147650,1,0,0:0:0:0:
256,192,147738,1,8,0:0:0:0:
256,192,147914,1,0,0:0:0:0:
256,192,148091,1,8,0:0:0:0:
256,192,148179,1,8,0:0:0:0:
256,192,148267,1,0,0:0:0:0:
256,192,148356,1,8,0:0:0:0:
256,192,148444,1,0,0:0:0:0:
256,192,148620,1,12,0:0:0:0:
256,192,148797,1,12,0:0:0:0:
256,192,148973,1,0,0:0:0:0:
256,192,149061,1,0,0:0:0:0:
256,192,149150,1,8,0:0:0:0:
256,192,149326,1,0,0:0:0:0:
256,192,149503,1,8,0:0:0:0:
256,192,149591,1,0,0:0:0:0:
256,192,149679,1,8,0:0:0:0:
256,192,149767,1,8,0:0:0:0:
256,192,149811,1,8,0:0:0:0:
256,192,149856,1,8,0:0:0:0:
256,192,149944,1,0,0:0:0:0:
256,192,150032,1,12,0:0:0:0:
256,192,150209,1,12,0:0:0:0:
256,192,150385,1,0,0:0:0:0:
256,192,150473,1,0,0:0:0:0:
256,192,150561,1,0,0:0:0:0:
256,192,150738,1,12,0:0:0:0:
256,192,150914,1,12,0:0:0:0:
256,192,151091,1,0,0:0:0:0:
256,192,151179,1,8,0:0:0:0:
256,192,151267,1,0,0:0:0:0:
256,192,151444,1,12,0:0:0:0:
256,192,151620,1,12,0:0:0:0:
256,192,151797,1,0,0:0:0:0:
256,192,151885,1,0,0:0:0:0:
256,192,151973,1,0,0:0:0:0:
256,192,152150,1,12,0:0:0:0:
256,192,152326,1,12,0:0:0:0:
256,192,152503,1,0,0:0:0:0:
256,192,152591,1,8,0:0:0:0:
256,192,152679,1,0,0:0:0:0:
256,192,152723,1,0,0:0:0:0:
256,192,152767,1,0,0:0:0:0:
256,192,152856,1,12,0:0:0:0:
256,192,153032,1,0,0:0:0:0:
256,192,153120,1,0,0:0:0:0:
256,192,153209,1,12,0:0:0:0:
256,192,153385,1,0,0:0:0:0:
256,192,153561,1,12,0:0:0:0:
256,192,153738,1,0,0:0:0:0:
256,192,153826,1,0,0:0:0:0:
256,192,153914,1,12,0:0:0:0:
256,192,154091,1,0,0:0:0:0:
256,192,154267,1,12,0:0:0:0:
256,192,154444,1,12,0:0:0:0:
256,192,154620,1,12,0:0:0:0:
256,192,154797,1,12,0:0:0:0:
256,192,154973,1,0,0:0:0:0:
256,192,155017,1,0,0:0:0:0:
256,192,155061,1,0,0:0:0:0:
256,192,155150,1,8,0:0:0:0:
256,192,155238,1,8,0:0:0:0:
256,192,155326,1,0,0:0:0:0:
256,192,155414,1,0,0:0:0:0:
256,192,155503,1,8,0:0:0:0:
256,192,155547,1,8,0:0:0:0:
256,192,155591,1,8,0:0:0:0:
256,192,155679,1,4,0:0:0:0:
