osu file format v14

[General]
AudioFilename: audio.mp3
AudioLeadIn: 0
PreviewTime: 49775
Countdown: 0
SampleSet: Normal
StackLeniency: 0.7
Mode: 1
LetterboxInBreaks: 0
WidescreenStoryboard: 0

[Editor]
DistanceSpacing: 1.2
BeatDivisor: 4
GridSize: 8
TimelineZoom: 1.84

[Metadata]
Title:Lost Umbrella (7_7 bootleg)
TitleUnicode:ロストアンブレラ (7_7 bootleg)
Artist:inabakumori
ArtistUnicode:稲葉曇
Creator:Horiiizon
Version:7_7's lost
Source:
Tags:7_7 Genjuro Hivie electronic japanese rock j-rock jrock breakcore kaai yuki 歌愛ユキ nukunuku nigirimeshi ぬくぬくにぎりめし vocaloid cumori アンチサイクロン ANTICYCLONE trushcan
BeatmapID:2989058
BeatmapSetID:1454002

[Difficulty]
HPDrainRate:5
CircleSize:5
OverallDifficulty:7.4
ApproachRate:5
SliderMultiplier:2.8
SliderTickRate:1

[Events]
//Background and Video events
0,0,"9bd69344-67fe-4f0b-9c6a-c42236321055.png",0,0
//Break Periods
2,10468,14362
//Storyboard Layer 0 (Background)
//Storyboard Layer 1 (Fail)
//Storyboard Layer 2 (Pass)
//Storyboard Layer 3 (Foreground)
//Storyboard Layer 4 (Overlay)
//Storyboard Sound Samples

[TimingPoints]
386,352.941176470588,4,1,0,100,1,0
386,-133.333333333333,4,1,0,100,0,0
6033,-117.647058823529,4,1,0,100,0,0
10268,-100,4,1,0,100,0,0
47680,-133.333333333333,4,1,0,100,0,0
48385,-117.647058823529,4,1,0,100,0,0
49091,-100,4,1,0,100,0,0
49797,-100,4,1,0,100,0,1
55444,-100,4,1,0,100,0,0
55797,-100,4,1,0,100,0,1
59680,-100,4,1,0,100,0,0
106974,-133.333333333333,4,1,0,100,0,0
113327,-117.647058823529,4,1,0,100,0,0
116150,-108.108108108108,4,1,0,100,0,0
116856,-100,4,1,0,100,0,0
117385,-99.009900990099,4,1,0,100,0,0
117430,-98.0392156862745,4,1,0,100,0,0
117474,-97.0873786407767,4,1,0,100,0,0
117518,-96.1538461538461,4,1,0,100,0,0
117562,-95.2380952380952,4,1,0,100,0,1
123209,-95.2380952380952,4,1,0,100,0,0
123562,-95.2380952380952,4,1,0,100,0,1
127444,-100,4,1,0,100,0,0

[HitObjects]
282,228,386,5,0,0:0:0:0:
259,256,1091,1,0,0:0:0:0:
259,256,1797,1,0,0:0:0:0:
259,256,3209,1,0,0:0:0:0:
259,256,3915,1,0,0:0:0:0:
259,256,4621,1,0,0:0:0:0:
250,261,6033,1,0,0:0:0:0:
250,261,6209,1,2,0:0:0:0:
250,261,6385,1,0,0:0:0:0:
250,261,6474,1,0,0:0:0:0:
251,269,6562,1,2,0:0:0:0:
261,256,6738,1,0,0:0:0:0:
261,256,6915,1,2,0:0:0:0:
261,256,7003,1,0,0:0:0:0:
261,256,7180,1,0,0:0:0:0:
261,256,7268,1,2,0:0:0:0:
271,261,7356,1,2,0:0:0:0:
272,274,7444,1,0,0:0:0:0:
272,274,7621,1,2,0:0:0:0:
272,274,7797,1,0,0:0:0:0:
272,274,7885,1,0,0:0:0:0:
272,274,7974,1,2,0:0:0:0:
272,274,8150,1,0,0:0:0:0:
272,274,8327,1,2,0:0:0:0:
272,274,8415,1,0,0:0:0:0:
272,274,8503,1,2,0:0:0:0:
232,171,8591,1,2,0:0:0:0:
272,274,8680,1,0,0:0:0:0:
272,274,8768,1,2,0:0:0:0:
272,274,8856,1,0,0:0:0:0:
256,250,9033,1,2,0:0:0:0:
271,265,9121,1,2,0:0:0:0:
271,265,9209,1,0,0:0:0:0:
271,261,9297,1,0,0:0:0:0:
271,265,9385,1,2,0:0:0:0:
271,261,9562,1,0,0:0:0:0:
271,261,9738,1,0,0:0:0:0:
271,265,9915,1,2,0:0:0:0:
271,261,10268,1,4,0:0:0:0:
209,153,15562,5,0,0:0:0:0:
209,153,15606,1,0,0:0:0:0:
209,153,15650,1,0,0:0:0:0:
209,153,15694,1,0,0:0:0:0:
209,153,15738,1,2,0:0:0:0:
209,153,15827,1,2,0:0:0:0:
256,192,15915,5,4,0:0:0:0:
113,140,16091,1,2,0:0:0:0:
113,140,16180,1,0,0:0:0:0:
113,140,16268,1,2,0:0:0:0:
113,140,16312,1,2,0:0:0:0:
113,140,16356,1,0,0:0:0:0:
113,140,16400,1,0,0:0:0:0:
113,140,16444,1,2,0:0:0:0:
113,140,16533,1,0,0:0:0:0:
113,140,16621,1,2,0:0:0:0:
113,140,16665,1,0,0:0:0:0:
113,140,16709,1,0,0:0:0:0:
113,140,16797,1,2,0:0:0:0:
113,140,16885,1,0,0:0:0:0:
113,140,16930,1,0,0:0:0:0:
113,140,16974,1,2,0:0:0:0:
113,140,17062,1,0,0:0:0:0:
113,140,17150,1,2,0:0:0:0:
113,140,17238,1,2,0:0:0:0:
113,140,17327,1,0,0:0:0:0:
202,167,17503,1,2,0:0:0:0:
202,167,17591,1,0,0:0:0:0:
202,167,17680,1,2,0:0:0:0:
202,167,17724,1,2,0:0:0:0:
202,167,17768,1,0,0:0:0:0:
202,167,17812,1,0,0:0:0:0:
202,167,17856,1,2,0:0:0:0:
202,167,17944,1,2,0:0:0:0:
202,167,18033,1,0,0:0:0:0:
202,167,18121,1,0,0:0:0:0:
202,167,18165,1,0,0:0:0:0:
202,167,18209,1,2,0:0:0:0:
202,167,18297,1,0,0:0:0:0:
202,167,18385,1,2,0:0:0:0:
206,163,18430,1,2,0:0:0:0:
202,167,18474,1,0,0:0:0:0:
202,167,18518,1,0,0:0:0:0:
202,167,18562,1,2,0:0:0:0:
171,112,18606,1,0,0:0:0:0:
202,167,18650,1,2,0:0:0:0:
171,112,18694,1,2,0:0:0:0:
256,192,18738,5,0,0:0:0:0:
113,140,18915,1,2,0:0:0:0:
113,140,19003,1,0,0:0:0:0:
113,140,19091,1,2,0:0:0:0:
113,140,19135,1,2,0:0:0:0:
113,140,19180,1,0,0:0:0:0:
113,140,19224,1,0,0:0:0:0:
113,140,19268,1,2,0:0:0:0:
113,140,19356,1,0,0:0:0:0:
113,140,19444,1,2,0:0:0:0:
113,140,19488,1,0,0:0:0:0:
113,140,19533,1,0,0:0:0:0:
113,140,19621,1,2,0:0:0:0:
113,140,19709,1,0,0:0:0:0:
113,140,19753,1,0,0:0:0:0:
113,140,19797,1,2,0:0:0:0:
113,140,19885,1,0,0:0:0:0:
113,140,19974,1,2,0:0:0:0:
113,140,20062,1,2,0:0:0:0:
113,140,20150,1,0,0:0:0:0:
202,167,20327,1,2,0:0:0:0:
202,167,20415,1,0,0:0:0:0:
202,167,20503,1,2,0:0:0:0:
202,167,20547,1,2,0:0:0:0:
202,167,20591,1,0,0:0:0:0:
202,167,20635,1,0,0:0:0:0:
202,167,20680,1,2,0:0:0:0:
202,167,20768,1,0,0:0:0:0:
85,132,20812,1,0,0:0:0:0:
85,132,20856,1,0,0:0:0:0:
194,119,20944,1,2,0:0:0:0:
194,119,20988,1,2,0:0:0:0:
194,119,21033,1,0,0:0:0:0:
202,167,21121,1,0,0:0:0:0:
202,167,21209,1,2,0:0:0:0:
202,167,21297,1,2,0:0:0:0:
202,167,21341,1,2,0:0:0:0:
202,167,21385,1,2,0:0:0:0:
202,167,21474,1,2,0:0:0:0:
256,192,21562,5,4,0:0:0:0:
113,140,21738,1,2,0:0:0:0:
113,140,21827,1,0,0:0:0:0:
113,140,21915,1,2,0:0:0:0:
113,140,21959,1,2,0:0:0:0:
113,140,22003,1,0,0:0:0:0:
113,140,22047,1,0,0:0:0:0:
113,140,22091,1,2,0:0:0:0:
113,140,22180,1,0,0:0:0:0:
90,147,22224,1,0,0:0:0:0:
113,140,22268,1,2,0:0:0:0:
113,140,22356,1,0,0:0:0:0:
113,140,22444,1,2,0:0:0:0:
196,112,22488,1,2,0:0:0:0:
196,112,22533,1,2,0:0:0:0:
113,140,22621,1,0,0:0:0:0:
113,140,22709,1,0,0:0:0:0:
113,140,22797,1,2,0:0:0:0:
113,140,22885,1,2,0:0:0:0:
113,140,22974,1,0,0:0:0:0:
202,167,23150,1,2,0:0:0:0:
202,167,23238,1,0,0:0:0:0:
202,167,23327,1,2,0:0:0:0:
202,167,23371,1,2,0:0:0:0:
202,167,23415,1,0,0:0:0:0:
202,167,23459,1,0,0:0:0:0:
202,167,23503,1,2,0:0:0:0:
202,167,23591,1,2,0:0:0:0:
202,167,23635,1,2,0:0:0:0:
202,167,23680,1,0,0:0:0:0:
202,167,23768,1,0,0:0:0:0:
202,167,23812,1,0,0:0:0:0:
202,167,23856,1,2,0:0:0:0:
202,167,23944,1,0,0:0:0:0:
202,167,24033,1,2,0:0:0:0:
206,163,24077,1,2,0:0:0:0:
202,167,24121,1,0,0:0:0:0:
202,167,24165,1,0,0:0:0:0:
202,167,24209,1,2,0:0:0:0:
171,112,24253,1,0,0:0:0:0:
202,167,24297,1,2,0:0:0:0:
171,112,24341,1,2,0:0:0:0:
256,192,24385,5,0,0:0:0:0:
113,140,24562,1,2,0:0:0:0:
113,140,24650,1,0,0:0:0:0:
113,140,24738,1,2,0:0:0:0:
113,140,24783,1,2,0:0:0:0:
113,140,24827,1,0,0:0:0:0:
113,140,24871,1,0,0:0:0:0:
113,140,24915,1,2,0:0:0:0:
113,140,25003,1,0,0:0:0:0:
113,140,25047,1,0,0:0:0:0:
113,140,25091,1,2,0:0:0:0:
113,140,25180,1,0,0:0:0:0:
113,140,25268,1,2,0:0:0:0:
178,128,25312,1,2,0:0:0:0:
113,140,25356,1,2,0:0:0:0:
113,140,25444,1,0,0:0:0:0:
113,140,25533,1,0,0:0:0:0:
113,140,25621,1,2,0:0:0:0:
113,140,25709,1,2,0:0:0:0:
113,140,25797,1,0,0:0:0:0:
189,136,25885,1,0,0:0:0:0:
189,136,25930,1,0,0:0:0:0:
202,167,25974,1,2,0:0:0:0:
202,167,26062,1,0,0:0:0:0:
202,167,26150,1,2,0:0:0:0:
202,167,26194,1,2,0:0:0:0:
202,167,26238,1,0,0:0:0:0:
202,167,26283,1,0,0:0:0:0:
202,167,26327,1,2,0:0:0:0:
202,167,26415,1,0,0:0:0:0:
85,132,26459,1,0,0:0:0:0:
85,132,26503,1,0,0:0:0:0:
194,119,26591,1,2,0:0:0:0:
194,119,26635,1,2,0:0:0:0:
194,119,26680,1,0,0:0:0:0:
202,167,26768,1,0,0:0:0:0:
202,167,26856,1,6,0:0:0:0:
202,167,27033,1,0,0:0:0:0:
202,167,27077,1,0,0:0:0:0:
202,167,27121,1,0,0:0:0:0:
202,167,27165,1,0,0:0:0:0:
202,167,27209,1,0,0:0:0:0:
291,160,27385,1,4,0:0:0:0:
306,133,27562,1,0,0:0:0:0:
306,133,27650,1,0,0:0:0:0:
306,133,27738,1,2,0:0:0:0:
306,133,27915,1,0,0:0:0:0:
306,133,28003,1,0,0:0:0:0:
306,133,28091,1,2,0:0:0:0:
306,133,28268,1,0,0:0:0:0:
306,133,28356,1,0,0:0:0:0:
306,133,28444,1,2,0:0:0:0:
306,133,28621,1,4,0:0:0:0:
306,133,28797,1,4,0:0:0:0:
195,134,28974,1,0,0:0:0:0:
195,134,29062,1,0,0:0:0:0:
195,134,29150,1,2,0:0:0:0:
195,134,29327,1,0,0:0:0:0:
195,134,29415,1,0,0:0:0:0:
195,134,29503,1,2,0:0:0:0:
326,131,29680,1,2,0:0:0:0:
195,134,29768,1,0,0:0:0:0:
195,134,29856,1,0,0:0:0:0:
326,131,29900,1,0,0:0:0:0:
326,131,29944,1,0,0:0:0:0:
326,131,29988,1,0,0:0:0:0:
202,167,30033,1,0,0:0:0:0:
291,160,30209,1,4,0:0:0:0:
306,133,30385,1,0,0:0:0:0:
306,133,30474,1,0,0:0:0:0:
306,133,30562,1,2,0:0:0:0:
306,133,30738,1,0,0:0:0:0:
306,133,30827,1,0,0:0:0:0:
306,133,30915,1,2,0:0:0:0:
306,133,31091,1,0,0:0:0:0:
306,133,31180,1,0,0:0:0:0:
306,133,31268,1,2,0:0:0:0:
306,133,31444,1,4,0:0:0:0:
306,133,31621,1,4,0:0:0:0:
195,134,31797,1,0,0:0:0:0:
195,134,31885,1,0,0:0:0:0:
195,134,31974,1,2,0:0:0:0:
195,134,32150,1,0,0:0:0:0:
195,134,32238,1,0,0:0:0:0:
259,127,32327,1,2,0:0:0:0:
261,93,32415,1,0,0:0:0:0:
326,131,32503,1,2,0:0:0:0:
195,134,32591,1,2,0:0:0:0:
326,131,32635,1,2,0:0:0:0:
195,134,32680,1,2,0:0:0:0:
326,131,32768,1,2,0:0:0:0:
212,145,32856,1,4,0:0:0:0:
212,145,33033,1,4,0:0:0:0:
212,145,33209,1,0,0:0:0:0:
212,145,33297,1,0,0:0:0:0:
295,190,33385,1,2,0:0:0:0:
212,145,33562,1,4,0:0:0:0:
212,145,33738,1,4,0:0:0:0:
212,145,33915,1,0,0:0:0:0:
212,145,34003,1,0,0:0:0:0:
295,190,34091,1,2,0:0:0:0:
212,145,34268,1,4,0:0:0:0:
212,145,34444,1,4,0:0:0:0:
212,145,34621,1,0,0:0:0:0:
212,145,34709,1,0,0:0:0:0:
295,190,34797,1,2,0:0:0:0:
212,145,34974,1,4,0:0:0:0:
212,145,35150,1,4,0:0:0:0:
295,190,35327,1,2,0:0:0:0:
212,145,35415,1,0,0:0:0:0:
212,145,35503,1,0,0:0:0:0:
236,180,35547,1,0,0:0:0:0:
236,180,35591,1,0,0:0:0:0:
236,180,35635,1,0,0:0:0:0:
236,180,35680,1,0,0:0:0:0:
322,184,35856,1,6,0:0:0:0:
236,180,36033,1,0,0:0:0:0:
236,180,36121,1,0,0:0:0:0:
322,184,36209,1,6,0:0:0:0:
236,180,36385,1,0,0:0:0:0:
315,179,36562,1,6,0:0:0:0:
236,180,36738,1,0,0:0:0:0:
236,180,36827,1,0,0:0:0:0:
315,179,36915,1,6,0:0:0:0:
236,180,37091,1,6,0:0:0:0:
236,180,37268,1,2,0:0:0:0:
236,180,37356,1,0,0:0:0:0:
236,180,37400,1,0,0:0:0:0:
236,180,37444,1,2,0:0:0:0:
236,180,37533,1,0,0:0:0:0:
236,180,37621,1,2,0:0:0:0:
236,180,37709,1,0,0:0:0:0:
236,180,37797,1,2,0:0:0:0:
236,180,37841,1,2,0:0:0:0:
236,180,37885,1,0,0:0:0:0:
236,180,37974,1,2,0:0:0:0:
236,180,38062,1,0,0:0:0:0:
236,180,38150,1,2,0:0:0:0:
236,180,38238,1,2,0:0:0:0:
236,180,38327,1,2,0:0:0:0:
236,180,38371,1,2,0:0:0:0:
236,180,38415,1,2,0:0:0:0:
236,180,38459,1,2,0:0:0:0:
236,180,38503,1,0,0:0:0:0:
461,97,38680,1,0,0:0:0:0:
231,184,38856,1,2,0:0:0:0:
231,184,38944,1,0,0:0:0:0:
231,184,39033,1,2,0:0:0:0:
231,184,39121,1,2,0:0:0:0:
231,184,39209,1,0,0:0:0:0:
231,184,39385,1,0,0:0:0:0:
231,184,39474,1,0,0:0:0:0:
231,184,39562,1,2,0:0:0:0:
231,184,39650,1,0,0:0:0:0:
231,184,39694,1,0,0:0:0:0:
231,184,39738,1,2,0:0:0:0:
231,184,39827,1,2,0:0:0:0:
231,184,39915,1,0,0:0:0:0:
231,177,40091,1,0,0:0:0:0:
231,177,40180,1,0,0:0:0:0:
231,177,40268,1,2,0:0:0:0:
231,177,40312,1,2,0:0:0:0:
231,177,40356,1,0,0:0:0:0:
231,177,40400,1,0,0:0:0:0:
231,177,40444,1,2,0:0:0:0:
231,177,40533,1,2,0:0:0:0:
231,177,40621,1,0,0:0:0:0:
231,177,40665,1,0,0:0:0:0:
231,177,40709,1,0,0:0:0:0:
231,177,40797,1,2,0:0:0:0:
231,177,40885,1,0,0:0:0:0:
231,177,40974,1,2,0:0:0:0:
231,177,41062,1,2,0:0:0:0:
231,177,41150,1,0,0:0:0:0:
203,122,41194,1,0,0:0:0:0:
231,177,41238,1,2,0:0:0:0:
203,122,41283,1,2,0:0:0:0:
236,180,41327,1,0,0:0:0:0:
461,97,41503,1,0,0:0:0:0:
231,184,41680,1,2,0:0:0:0:
231,184,41768,1,2,0:0:0:0:
231,184,41856,1,0,0:0:0:0:
231,184,41944,1,2,0:0:0:0:
231,184,42033,1,0,0:0:0:0:
231,184,42209,1,0,0:0:0:0:
231,184,42297,1,0,0:0:0:0:
231,184,42385,1,2,0:0:0:0:
231,184,42430,1,2,0:0:0:0:
231,184,42474,1,0,0:0:0:0:
231,184,42562,1,2,0:0:0:0:
231,184,42650,1,2,0:0:0:0:
231,184,42738,1,0,0:0:0:0:
231,177,42915,1,0,0:0:0:0:
231,177,43003,1,0,0:0:0:0:
231,177,43047,1,0,0:0:0:0:
231,177,43091,1,2,0:0:0:0:
231,177,43180,1,0,0:0:0:0:
231,177,43268,1,2,0:0:0:0:
231,177,43356,1,0,0:0:0:0:
231,177,43444,1,2,0:0:0:0:
231,177,43488,1,0,0:0:0:0:
231,177,43533,1,0,0:0:0:0:
231,177,43621,1,2,0:0:0:0:
231,177,43709,1,2,0:0:0:0:
231,177,43797,1,0,0:0:0:0:
267,77,43841,1,0,0:0:0:0:
231,177,43885,1,2,0:0:0:0:
231,177,43974,1,0,0:0:0:0:
270,135,44018,1,0,0:0:0:0:
270,135,44062,1,0,0:0:0:0:
270,135,44106,1,0,0:0:0:0:
231,177,44150,1,0,0:0:0:0:
461,97,44327,1,0,0:0:0:0:
231,184,44503,1,2,0:0:0:0:
231,184,44591,1,0,0:0:0:0:
231,184,44680,1,2,0:0:0:0:
231,184,44768,1,2,0:0:0:0:
231,184,44856,1,0,0:0:0:0:
231,184,45033,1,0,0:0:0:0:
231,184,45121,1,0,0:0:0:0:
231,184,45209,1,2,0:0:0:0:
231,184,45297,1,0,0:0:0:0:
231,184,45341,1,0,0:0:0:0:
231,184,45385,1,2,0:0:0:0:
231,184,45474,1,2,0:0:0:0:
231,184,45562,1,0,0:0:0:0:
231,177,45738,1,0,0:0:0:0:
231,177,45827,1,0,0:0:0:0:
231,177,45915,1,2,0:0:0:0:
231,177,45959,1,2,0:0:0:0:
231,177,46003,1,0,0:0:0:0:
231,177,46047,1,0,0:0:0:0:
231,177,46091,1,2,0:0:0:0:
231,177,46180,1,0,0:0:0:0:
231,177,46268,1,2,0:0:0:0:
231,177,46312,1,2,0:0:0:0:
231,177,46356,1,2,0:0:0:0:
231,177,46444,1,0,0:0:0:0:
231,177,46533,1,0,0:0:0:0:
231,177,46621,1,2,0:0:0:0:
231,177,46665,1,0,0:0:0:0:
231,177,46709,1,0,0:0:0:0:
231,177,46797,1,2,0:0:0:0:
203,122,46841,1,2,0:0:0:0:
231,177,46885,1,2,0:0:0:0:
203,122,46930,1,2,0:0:0:0:
236,180,46974,1,0,0:0:0:0:
204,147,47680,1,0,0:0:0:0:
210,148,48385,1,2,0:0:0:0:
242,155,48562,1,0,0:0:0:0:
242,155,48650,1,0,0:0:0:0:
242,155,48738,1,2,0:0:0:0:
242,155,48915,1,0,0:0:0:0:
242,155,49003,1,0,0:0:0:0:
242,155,49091,1,6,0:0:0:0:
242,155,49268,1,0,0:0:0:0:
242,155,49356,1,0,0:0:0:0:
242,155,49444,1,2,0:0:0:0:
242,155,49533,1,0,0:0:0:0:
181,81,49621,1,2,0:0:0:0:
181,81,49665,1,2,0:0:0:0:
242,155,49709,1,2,0:0:0:0:
181,81,49753,1,2,0:0:0:0:
181,81,49797,1,0,0:0:0:0:
174,179,49974,1,0,0:0:0:0:
174,179,50062,1,0,0:0:0:0:
174,179,50150,1,2,0:0:0:0:
174,179,50194,1,2,0:0:0:0:
174,179,50238,1,0,0:0:0:0:
174,179,50283,1,0,0:0:0:0:
174,179,50327,1,2,0:0:0:0:
174,179,50415,1,0,0:0:0:0:
174,179,50459,1,0,0:0:0:0:
174,179,50503,1,2,0:0:0:0:
174,179,50591,1,0,0:0:0:0:
174,179,50680,1,2,0:0:0:0:
174,179,50724,1,2,0:0:0:0:
174,179,50768,1,2,0:0:0:0:
174,179,50856,1,0,0:0:0:0:
174,179,50900,1,2,0:0:0:0:
174,179,50944,1,2,0:0:0:0:
174,179,50988,1,2,0:0:0:0:
174,179,51033,1,0,0:0:0:0:
174,179,51121,1,0,0:0:0:0:
230,225,51209,1,2,0:0:0:0:
230,225,51253,1,2,0:0:0:0:
230,225,51297,1,0,0:0:0:0:
177,195,51341,1,0,0:0:0:0:
230,225,51385,1,2,0:0:0:0:
230,225,51430,1,0,0:0:0:0:
230,225,51474,1,0,0:0:0:0:
230,225,51562,1,2,0:0:0:0:
230,225,51650,1,0,0:0:0:0:
188,238,51694,1,0,0:0:0:0:
230,225,51738,1,2,0:0:0:0:
230,225,51827,1,0,0:0:0:0:
200,258,51915,1,2,0:0:0:0:
200,258,51959,1,2,0:0:0:0:
200,258,52003,1,2,0:0:0:0:
200,258,52047,1,2,0:0:0:0:
200,258,52091,1,0,0:0:0:0:
200,258,52180,1,0,0:0:0:0:
200,258,52268,1,2,0:0:0:0:
200,258,52312,1,2,0:0:0:0:
200,258,52356,1,0,0:0:0:0:
200,258,52444,1,2,0:0:0:0:
166,143,52488,1,0,0:0:0:0:
200,258,52533,1,2,0:0:0:0:
166,143,52577,1,2,0:0:0:0:
166,143,52621,1,0,0:0:0:0:
166,143,52709,1,0,0:0:0:0:
166,143,52797,1,2,0:0:0:0:
166,143,52885,1,0,0:0:0:0:
166,143,52974,1,2,0:0:0:0:
166,143,53018,1,0,0:0:0:0:
166,143,53062,1,0,0:0:0:0:
166,143,53106,1,0,0:0:0:0:
166,143,53150,1,2,0:0:0:0:
166,143,53238,1,2,0:0:0:0:
237,178,53327,1,0,0:0:0:0:
237,178,53371,1,2,0:0:0:0:
166,143,53415,1,2,0:0:0:0:
166,143,53459,1,2,0:0:0:0:
166,143,53503,1,0,0:0:0:0:
224,156,53547,1,0,0:0:0:0:
166,143,53591,1,2,0:0:0:0:
166,143,53680,1,0,0:0:0:0:
56,151,53724,1,0,0:0:0:0:
166,143,53768,1,2,0:0:0:0:
115,142,53812,1,2,0:0:0:0:
166,143,53856,1,0,0:0:0:0:
166,143,53944,1,2,0:0:0:0:
161,154,54033,1,0,0:0:0:0:
202,183,54077,1,0,0:0:0:0:
161,154,54121,1,0,0:0:0:0:
161,154,54209,1,2,0:0:0:0:
214,146,54253,1,0,0:0:0:0:
214,146,54297,1,0,0:0:0:0:
161,154,54385,1,2,0:0:0:0:
161,154,54430,1,2,0:0:0:0:
161,154,54474,1,0,0:0:0:0:
161,154,54518,1,0,0:0:0:0:
161,154,54562,1,2,0:0:0:0:
161,154,54650,1,0,0:0:0:0:
161,154,54738,1,2,0:0:0:0:
161,154,54827,1,0,0:0:0:0:
161,154,54871,1,0,0:0:0:0:
161,154,54915,1,2,0:0:0:0:
161,154,55003,1,0,0:0:0:0:
161,154,55091,1,2,0:0:0:0:
161,154,55135,1,2,0:0:0:0:
161,154,55180,1,0,0:0:0:0:
234,168,55268,1,2,0:0:0:0:
234,168,55312,1,2,0:0:0:0:
234,168,55356,1,2,0:0:0:0:
234,168,55400,1,2,0:0:0:0:
181,81,55444,1,0,0:0:0:0:
174,179,55709,1,0,0:0:0:0:
236,176,55753,1,0,0:0:0:0:
174,179,55797,1,0,0:0:0:0:
174,179,55885,1,2,0:0:0:0:
174,179,55930,1,2,0:0:0:0:
174,179,55974,1,0,0:0:0:0:
174,179,56062,1,2,0:0:0:0:
174,179,56150,1,0,0:0:0:0:
174,179,56238,1,0,0:0:0:0:
116,107,56283,1,0,0:0:0:0:
174,179,56327,1,2,0:0:0:0:
174,179,56415,1,0,0:0:0:0:
174,179,56503,1,2,0:0:0:0:
174,179,56547,1,2,0:0:0:0:
174,179,56591,1,0,0:0:0:0:
174,179,56635,1,0,0:0:0:0:
174,179,56680,1,2,0:0:0:0:
174,179,56768,1,0,0:0:0:0:
230,225,56856,1,2,0:0:0:0:
230,225,56900,1,0,0:0:0:0:
230,225,56944,1,0,0:0:0:0:
236,167,56988,1,0,0:0:0:0:
230,225,57033,1,2,0:0:0:0:
230,225,57077,1,2,0:0:0:0:
230,225,57121,1,0,0:0:0:0:
230,225,57209,1,2,0:0:0:0:
230,225,57297,1,0,0:0:0:0:
188,238,57341,1,0,0:0:0:0:
230,225,57385,1,2,0:0:0:0:
230,225,57474,1,0,0:0:0:0:
200,258,57562,1,2,0:0:0:0:
200,258,57606,1,2,0:0:0:0:
200,258,57650,1,2,0:0:0:0:
200,258,57694,1,2,0:0:0:0:
200,258,57738,1,0,0:0:0:0:
200,258,57827,1,0,0:0:0:0:
200,258,57915,1,2,0:0:0:0:
200,258,57959,1,2,0:0:0:0:
200,258,58003,1,0,0:0:0:0:
200,258,58091,1,2,0:0:0:0:
166,143,58135,1,0,0:0:0:0:
200,258,58180,1,2,0:0:0:0:
166,143,58224,1,2,0:0:0:0:
166,143,58268,1,0,0:0:0:0:
166,143,58356,1,0,0:0:0:0:
166,143,58444,1,2,0:0:0:0:
166,143,58533,1,0,0:0:0:0:
166,143,58621,1,2,0:0:0:0:
166,143,58665,1,0,0:0:0:0:
166,143,58709,1,0,0:0:0:0:
166,143,58753,1,0,0:0:0:0:
166,143,58797,1,2,0:0:0:0:
166,143,58885,1,2,0:0:0:0:
237,178,58974,1,0,0:0:0:0:
237,178,59018,1,0,0:0:0:0:
166,143,59062,1,2,0:0:0:0:
166,143,59106,1,2,0:0:0:0:
166,143,59150,1,0,0:0:0:0:
224,156,59194,1,2,0:0:0:0:
166,143,59238,1,0,0:0:0:0:
203,103,59283,1,0,0:0:0:0:
189,154,59327,1,2,0:0:0:0:
189,154,59415,1,0,0:0:0:0:
189,154,59459,1,0,0:0:0:0:
189,154,59503,1,2,0:0:0:0:
189,154,59591,1,2,0:0:0:0:
256,192,59680,5,4,0:0:0:0:
113,140,59856,1,2,0:0:0:0:
113,140,59944,1,0,0:0:0:0:
113,140,60033,1,2,0:0:0:0:
113,140,60077,1,2,0:0:0:0:
113,140,60121,1,0,0:0:0:0:
113,140,60165,1,0,0:0:0:0:
113,140,60209,1,2,0:0:0:0:
113,140,60297,1,0,0:0:0:0:
113,140,60385,1,2,0:0:0:0:
113,140,60430,1,0,0:0:0:0:
113,140,60474,1,0,0:0:0:0:
113,140,60562,1,2,0:0:0:0:
113,140,60650,1,0,0:0:0:0:
113,140,60694,1,0,0:0:0:0:
113,140,60738,1,2,0:0:0:0:
113,140,60827,1,0,0:0:0:0:
113,140,60915,1,2,0:0:0:0:
113,140,61003,1,2,0:0:0:0:
113,140,61091,1,0,0:0:0:0:
202,167,61268,1,2,0:0:0:0:
202,167,61356,1,0,0:0:0:0:
202,167,61444,1,2,0:0:0:0:
202,167,61488,1,2,0:0:0:0:
202,167,61533,1,0,0:0:0:0:
202,167,61577,1,0,0:0:0:0:
202,167,61621,1,2,0:0:0:0:
202,167,61709,1,2,0:0:0:0:
202,167,61797,1,0,0:0:0:0:
202,167,61885,1,0,0:0:0:0:
202,167,61930,1,0,0:0:0:0:
202,167,61974,1,2,0:0:0:0:
202,167,62062,1,0,0:0:0:0:
202,167,62150,1,2,0:0:0:0:
206,163,62194,1,2,0:0:0:0:
202,167,62238,1,0,0:0:0:0:
202,167,62283,1,0,0:0:0:0:
202,167,62327,1,2,0:0:0:0:
171,112,62371,1,0,0:0:0:0:
202,167,62415,1,2,0:0:0:0:
171,112,62459,1,2,0:0:0:0:
256,192,62503,5,0,0:0:0:0:
113,140,62680,1,2,0:0:0:0:
113,140,62768,1,0,0:0:0:0:
113,140,62856,1,2,0:0:0:0:
113,140,62900,1,2,0:0:0:0:
113,140,62944,1,0,0:0:0:0:
113,140,62988,1,0,0:0:0:0:
113,140,63033,1,2,0:0:0:0:
113,140,63121,1,0,0:0:0:0:
113,140,63209,1,2,0:0:0:0:
113,140,63253,1,0,0:0:0:0:
113,140,63297,1,0,0:0:0:0:
113,140,63385,1,2,0:0:0:0:
113,140,63474,1,0,0:0:0:0:
113,140,63518,1,0,0:0:0:0:
113,140,63562,1,2,0:0:0:0:
113,140,63650,1,0,0:0:0:0:
113,140,63738,1,2,0:0:0:0:
113,140,63827,1,2,0:0:0:0:
113,140,63915,1,0,0:0:0:0:
202,167,64091,1,2,0:0:0:0:
202,167,64180,1,0,0:0:0:0:
202,167,64268,1,2,0:0:0:0:
202,167,64312,1,2,0:0:0:0:
202,167,64356,1,0,0:0:0:0:
202,167,64400,1,0,0:0:0:0:
202,167,64444,1,2,0:0:0:0:
202,167,64533,1,0,0:0:0:0:
85,132,64621,1,0,0:0:0:0:
194,119,64797,1,2,0:0:0:0:
202,167,64885,1,0,0:0:0:0:
202,167,64974,1,2,0:0:0:0:
202,167,65062,1,2,0:0:0:0:
202,167,65106,1,2,0:0:0:0:
202,167,65150,1,2,0:0:0:0:
202,167,65238,1,2,0:0:0:0:
256,192,65327,5,4,0:0:0:0:
113,140,65503,1,2,0:0:0:0:
113,140,65591,1,0,0:0:0:0:
113,140,65680,1,2,0:0:0:0:
113,140,65724,1,2,0:0:0:0:
113,140,65768,1,0,0:0:0:0:
113,140,65812,1,0,0:0:0:0:
113,140,65856,1,2,0:0:0:0:
113,140,65944,1,0,0:0:0:0:
90,147,65988,1,0,0:0:0:0:
113,140,66033,1,2,0:0:0:0:
113,140,66121,1,0,0:0:0:0:
113,140,66209,1,2,0:0:0:0:
196,112,66253,1,2,0:0:0:0:
196,112,66297,1,2,0:0:0:0:
113,140,66385,1,0,0:0:0:0:
113,140,66474,1,0,0:0:0:0:
113,140,66562,1,2,0:0:0:0:
113,140,66650,1,2,0:0:0:0:
113,140,66738,1,0,0:0:0:0:
202,167,66915,1,2,0:0:0:0:
202,167,67003,1,0,0:0:0:0:
202,167,67091,1,2,0:0:0:0:
202,167,67135,1,2,0:0:0:0:
202,167,67180,1,0,0:0:0:0:
202,167,67224,1,0,0:0:0:0:
202,167,67268,1,2,0:0:0:0:
202,167,67356,1,2,0:0:0:0:
202,167,67400,1,2,0:0:0:0:
202,167,67444,1,0,0:0:0:0:
202,167,67533,1,0,0:0:0:0:
202,167,67577,1,0,0:0:0:0:
202,167,67621,1,2,0:0:0:0:
202,167,67709,1,0,0:0:0:0:
202,167,67797,1,2,0:0:0:0:
206,163,67841,1,2,0:0:0:0:
202,167,67885,1,0,0:0:0:0:
202,167,67930,1,0,0:0:0:0:
202,167,67974,1,2,0:0:0:0:
171,112,68018,1,0,0:0:0:0:
202,167,68062,1,2,0:0:0:0:
171,112,68106,1,2,0:0:0:0:
256,192,68150,5,0,0:0:0:0:
113,140,68327,1,2,0:0:0:0:
113,140,68415,1,0,0:0:0:0:
113,140,68503,1,2,0:0:0:0:
113,140,68547,1,2,0:0:0:0:
113,140,68591,1,0,0:0:0:0:
113,140,68635,1,0,0:0:0:0:
113,140,68680,1,2,0:0:0:0:
113,140,68768,1,0,0:0:0:0:
113,140,68812,1,0,0:0:0:0:
113,140,68856,1,2,0:0:0:0:
113,140,68944,1,0,0:0:0:0:
113,140,69033,1,2,0:0:0:0:
178,128,69077,1,2,0:0:0:0:
113,140,69121,1,2,0:0:0:0:
113,140,69209,1,0,0:0:0:0:
113,140,69297,1,0,0:0:0:0:
113,140,69385,1,2,0:0:0:0:
113,140,69474,1,2,0:0:0:0:
113,140,69562,1,0,0:0:0:0:
189,136,69650,1,0,0:0:0:0:
189,136,69694,1,0,0:0:0:0:
202,167,69738,1,2,0:0:0:0:
202,167,69827,1,0,0:0:0:0:
202,167,69915,1,2,0:0:0:0:
202,167,69959,1,2,0:0:0:0:
202,167,70003,1,0,0:0:0:0:
202,167,70047,1,0,0:0:0:0:
202,167,70091,1,2,0:0:0:0:
202,167,70180,1,0,0:0:0:0:
85,132,70224,1,0,0:0:0:0:
85,132,70268,1,0,0:0:0:0:
194,119,70356,1,2,0:0:0:0:
194,119,70400,1,2,0:0:0:0:
194,119,70444,1,0,0:0:0:0:
202,167,70533,1,0,0:0:0:0:
202,167,70621,1,6,0:0:0:0:
202,167,70797,1,0,0:0:0:0:
202,167,70841,1,0,0:0:0:0:
202,167,70885,1,0,0:0:0:0:
202,167,70930,1,0,0:0:0:0:
202,167,70974,1,0,0:0:0:0:
201,158,71150,1,2,0:0:0:0:
201,158,71327,1,0,0:0:0:0:
201,158,71415,1,0,0:0:0:0:
201,158,71503,1,2,0:0:0:0:
201,158,71591,1,0,0:0:0:0:
200,160,71680,1,0,0:0:0:0:
200,160,71724,1,0,0:0:0:0:
200,160,71768,1,2,0:0:0:0:
198,161,71812,1,2,0:0:0:0:
196,163,71856,1,0,0:0:0:0:
196,163,71944,1,0,0:0:0:0:
196,163,72033,1,2,0:0:0:0:
196,163,72077,1,0,0:0:0:0:
196,163,72121,1,0,0:0:0:0:
196,163,72209,1,2,0:0:0:0:
196,163,72297,1,2,0:0:0:0:
201,158,72385,1,0,0:0:0:0:
205,159,72562,1,2,0:0:0:0:
200,160,72650,1,0,0:0:0:0:
202,161,72738,1,2,0:0:0:0:
202,161,72827,1,2,0:0:0:0:
196,163,72915,1,0,0:0:0:0:
196,163,73003,1,2,0:0:0:0:
196,163,73091,1,0,0:0:0:0:
196,163,73135,1,0,0:0:0:0:
206,157,73180,1,0,0:0:0:0:
206,157,73268,1,2,0:0:0:0:
205,159,73356,1,0,0:0:0:0:
205,159,73444,1,2,0:0:0:0:
200,160,73533,1,0,0:0:0:0:
202,161,73621,1,0,0:0:0:0:
206,161,73665,1,0,0:0:0:0:
206,161,73709,1,0,0:0:0:0:
203,163,73753,1,0,0:0:0:0:
202,167,73797,1,0,0:0:0:0:
201,158,73974,1,2,0:0:0:0:
201,158,74150,1,0,0:0:0:0:
201,158,74238,1,0,0:0:0:0:
201,158,74327,1,2,0:0:0:0:
201,158,74415,1,0,0:0:0:0:
200,160,74503,1,0,0:0:0:0:
200,160,74547,1,0,0:0:0:0:
200,160,74591,1,2,0:0:0:0:
198,161,74635,1,2,0:0:0:0:
196,163,74680,1,0,0:0:0:0:
196,163,74768,1,0,0:0:0:0:
196,163,74856,1,2,0:0:0:0:
196,163,74900,1,0,0:0:0:0:
196,163,74944,1,0,0:0:0:0:
196,163,75033,1,2,0:0:0:0:
196,163,75121,1,2,0:0:0:0:
201,158,75209,1,0,0:0:0:0:
205,159,75385,1,2,0:0:0:0:
200,160,75474,1,0,0:0:0:0:
202,161,75562,1,2,0:0:0:0:
202,161,75650,1,2,0:0:0:0:
196,163,75738,1,0,0:0:0:0:
196,163,75827,1,2,0:0:0:0:
203,180,75915,1,4,0:0:0:0:
203,180,76091,1,2,0:0:0:0:
203,180,76180,1,0,0:0:0:0:
203,180,76268,1,2,0:0:0:0:
191,94,76356,1,2,0:0:0:0:
191,94,76400,1,2,0:0:0:0:
202,161,76444,1,2,0:0:0:0:
206,161,76533,1,2,0:0:0:0:
202,167,76621,1,4,0:0:0:0:
201,158,76797,1,2,0:0:0:0:
206,149,76885,1,0,0:0:0:0:
151,128,76974,1,2,0:0:0:0:
199,114,77062,1,2,0:0:0:0:
199,118,77106,1,2,0:0:0:0:
202,117,77150,1,0,0:0:0:0:
205,115,77238,1,2,0:0:0:0:
200,160,77327,1,0,0:0:0:0:
200,160,77371,1,0,0:0:0:0:
200,160,77415,1,2,0:0:0:0:
198,161,77459,1,2,0:0:0:0:
196,163,77503,1,0,0:0:0:0:
196,163,77591,1,2,0:0:0:0:
196,163,77680,1,0,0:0:0:0:
196,163,77724,1,0,0:0:0:0:
196,163,77768,1,2,0:0:0:0:
196,163,77856,1,0,0:0:0:0:
196,163,77944,1,2,0:0:0:0:
201,158,78033,1,0,0:0:0:0:
200,126,78077,1,0,0:0:0:0:
199,127,78121,1,0,0:0:0:0:
200,126,78165,1,0,0:0:0:0:
205,159,78209,1,2,0:0:0:0:
200,160,78297,1,0,0:0:0:0:
202,161,78385,1,2,0:0:0:0:
219,119,78430,1,2,0:0:0:0:
202,161,78474,1,0,0:0:0:0:
196,163,78562,1,2,0:0:0:0:
196,163,78650,1,2,0:0:0:0:
196,163,78738,1,0,0:0:0:0:
196,163,78783,1,0,0:0:0:0:
206,157,78827,1,0,0:0:0:0:
206,157,78915,1,2,0:0:0:0:
205,159,79003,1,0,0:0:0:0:
211,148,79047,1,0,0:0:0:0:
205,159,79091,1,2,0:0:0:0:
200,160,79180,1,0,0:0:0:0:
202,161,79268,1,2,0:0:0:0:
206,161,79312,1,2,0:0:0:0:
206,161,79356,1,2,0:0:0:0:
203,163,79400,1,2,0:0:0:0:
202,167,79444,1,0,0:0:0:0:
201,158,79621,1,2,0:0:0:0:
237,121,79709,1,2,0:0:0:0:
201,158,79797,1,0,0:0:0:0:
228,137,79841,1,0,0:0:0:0:
201,158,79885,1,0,0:0:0:0:
228,137,79930,1,0,0:0:0:0:
228,137,79974,1,2,0:0:0:0:
201,158,80062,1,0,0:0:0:0:
200,160,80150,1,2,0:0:0:0:
200,160,80194,1,2,0:0:0:0:
200,160,80238,1,0,0:0:0:0:
198,161,80283,1,0,0:0:0:0:
196,163,80327,1,2,0:0:0:0:
196,163,80415,1,2,0:0:0:0:
196,163,80503,1,0,0:0:0:0:
196,163,80547,1,0,0:0:0:0:
196,163,80591,1,2,0:0:0:0:
196,163,80680,1,0,0:0:0:0:
196,163,80768,1,2,0:0:0:0:
201,158,80856,1,0,0:0:0:0:
170,149,80944,1,0,0:0:0:0:
170,149,80988,1,0,0:0:0:0:
205,159,81033,1,2,0:0:0:0:
200,160,81121,1,0,0:0:0:0:
202,161,81209,1,2,0:0:0:0:
187,125,81253,1,0,0:0:0:0:
187,125,81297,1,0,0:0:0:0:
196,163,81385,1,2,0:0:0:0:
196,163,81474,1,0,0:0:0:0:
203,180,81562,1,6,0:0:0:0:
168,133,81738,1,0,0:0:0:0:
169,133,81827,1,0,0:0:0:0:
169,133,81915,1,2,0:0:0:0:
169,133,82003,1,0,0:0:0:0:
169,133,82091,1,2,0:0:0:0:
169,133,82135,1,2,0:0:0:0:
173,129,82180,1,2,0:0:0:0:
174,128,82224,1,2,0:0:0:0:
202,167,82268,1,0,0:0:0:0:
291,160,82444,1,4,0:0:0:0:
306,133,82621,1,0,0:0:0:0:
306,133,82709,1,0,0:0:0:0:
306,133,82797,1,2,0:0:0:0:
306,133,82974,1,0,0:0:0:0:
306,133,83062,1,0,0:0:0:0:
306,133,83150,1,2,0:0:0:0:
306,133,83327,1,0,0:0:0:0:
306,133,83415,1,0,0:0:0:0:
306,133,83503,1,2,0:0:0:0:
306,133,83680,1,4,0:0:0:0:
306,133,83856,1,4,0:0:0:0:
195,134,84033,1,0,0:0:0:0:
195,134,84121,1,0,0:0:0:0:
195,134,84209,1,2,0:0:0:0:
195,134,84385,1,0,0:0:0:0:
195,134,84474,1,0,0:0:0:0:
195,134,84562,1,2,0:0:0:0:
326,131,84738,1,2,0:0:0:0:
195,134,84827,1,0,0:0:0:0:
195,134,84915,1,0,0:0:0:0:
326,131,84959,1,0,0:0:0:0:
326,131,85003,1,0,0:0:0:0:
326,131,85047,1,0,0:0:0:0:
202,167,85091,1,0,0:0:0:0:
291,160,85268,1,4,0:0:0:0:
306,133,85444,1,0,0:0:0:0:
306,133,85533,1,0,0:0:0:0:
306,133,85621,1,2,0:0:0:0:
306,133,85797,1,0,0:0:0:0:
306,133,85885,1,0,0:0:0:0:
306,133,85974,1,2,0:0:0:0:
306,133,86150,1,0,0:0:0:0:
306,133,86238,1,0,0:0:0:0:
306,133,86327,1,2,0:0:0:0:
306,133,86503,1,4,0:0:0:0:
306,133,86680,1,4,0:0:0:0:
195,134,86856,1,0,0:0:0:0:
195,134,86944,1,0,0:0:0:0:
195,134,87033,1,2,0:0:0:0:
195,134,87209,1,0,0:0:0:0:
195,134,87297,1,0,0:0:0:0:
259,127,87385,1,2,0:0:0:0:
261,93,87474,1,0,0:0:0:0:
326,131,87562,1,2,0:0:0:0:
195,134,87650,1,2,0:0:0:0:
326,131,87694,1,2,0:0:0:0:
195,134,87738,1,2,0:0:0:0:
326,131,87827,1,2,0:0:0:0:
212,145,87915,1,4,0:0:0:0:
212,145,88091,1,4,0:0:0:0:
212,145,88268,1,0,0:0:0:0:
212,145,88356,1,0,0:0:0:0:
295,190,88444,1,2,0:0:0:0:
212,145,88621,1,4,0:0:0:0:
212,145,88797,1,4,0:0:0:0:
212,145,88974,1,0,0:0:0:0:
212,145,89062,1,0,0:0:0:0:
295,190,89150,1,2,0:0:0:0:
212,145,89327,1,4,0:0:0:0:
212,145,89503,1,4,0:0:0:0:
212,145,89680,1,0,0:0:0:0:
212,145,89768,1,0,0:0:0:0:
295,190,89856,1,2,0:0:0:0:
212,145,90033,1,4,0:0:0:0:
212,145,90209,1,4,0:0:0:0:
295,190,90385,1,2,0:0:0:0:
212,145,90474,1,0,0:0:0:0:
212,145,90562,1,0,0:0:0:0:
236,180,90606,1,0,0:0:0:0:
236,180,90650,1,0,0:0:0:0:
236,180,90694,1,0,0:0:0:0:
236,180,90738,1,0,0:0:0:0:
322,184,90915,1,6,0:0:0:0:
236,180,91091,1,0,0:0:0:0:
236,180,91180,1,0,0:0:0:0:
322,184,91268,1,6,0:0:0:0:
236,180,91444,1,0,0:0:0:0:
315,179,91621,1,6,0:0:0:0:
236,180,91797,1,0,0:0:0:0:
236,180,91885,1,0,0:0:0:0:
315,179,91974,1,6,0:0:0:0:
236,180,92150,1,6,0:0:0:0:
236,180,92327,1,2,0:0:0:0:
236,180,92415,1,0,0:0:0:0:
236,180,92459,1,0,0:0:0:0:
236,180,92503,1,2,0:0:0:0:
236,180,92591,1,0,0:0:0:0:
236,180,92680,1,2,0:0:0:0:
236,180,92768,1,0,0:0:0:0:
236,180,92856,1,2,0:0:0:0:
236,180,92900,1,2,0:0:0:0:
236,180,92944,1,0,0:0:0:0:
236,180,93033,1,2,0:0:0:0:
236,180,93121,1,0,0:0:0:0:
236,180,93209,1,2,0:0:0:0:
236,180,93297,1,2,0:0:0:0:
236,180,93385,1,2,0:0:0:0:
236,180,93430,1,2,0:0:0:0:
236,180,93474,1,2,0:0:0:0:
236,180,93518,1,2,0:0:0:0:
236,180,93562,1,0,0:0:0:0:
278,211,95680,1,0,0:0:0:0:
278,211,95768,1,2,0:0:0:0:
278,211,95856,1,0,0:0:0:0:
278,211,95944,1,2,0:0:0:0:
278,211,96033,1,0,0:0:0:0:
278,211,96121,1,2,0:0:0:0:
278,211,96209,1,0,0:0:0:0:
191,112,96297,1,2,0:0:0:0:
188,132,96385,1,0,0:0:0:0:
188,132,96474,1,0,0:0:0:0:
188,132,96562,1,2,0:0:0:0:
221,146,96738,1,2,0:0:0:0:
255,165,96915,1,0,0:0:0:0:
247,168,97091,1,2,0:0:0:0:
247,168,97268,1,2,0:0:0:0:
247,168,97444,1,0,0:0:0:0:
255,165,97533,1,0,0:0:0:0:
247,168,97621,1,2,0:0:0:0:
249,154,97797,1,0,0:0:0:0:
251,154,97974,1,2,0:0:0:0:
251,154,98150,1,2,0:0:0:0:
251,154,98327,1,2,0:0:0:0:
259,153,98503,1,0,0:0:0:0:
260,150,98768,1,0,0:0:0:0:
260,150,98812,1,0,0:0:0:0:
260,150,98856,1,2,0:0:0:0:
260,150,98944,1,2,0:0:0:0:
260,150,99033,1,2,0:0:0:0:
260,150,99077,1,2,0:0:0:0:
260,150,99121,1,2,0:0:0:0:
260,150,99165,1,2,0:0:0:0:
260,150,99209,1,0,0:0:0:0:
211,169,99385,1,2,0:0:0:0:
211,169,99562,1,0,0:0:0:0:
211,169,99650,1,0,0:0:0:0:
211,169,99738,1,2,0:0:0:0:
211,169,99915,1,0,0:0:0:0:
271,198,100091,1,2,0:0:0:0:
271,198,100268,1,0,0:0:0:0:
271,198,100356,1,0,0:0:0:0:
271,198,100444,1,2,0:0:0:0:
211,169,100621,1,0,0:0:0:0:
271,198,100797,1,2,0:0:0:0:
271,198,100974,1,0,0:0:0:0:
271,198,101062,1,0,0:0:0:0:
271,198,101150,1,2,0:0:0:0:
211,169,101327,1,0,0:0:0:0:
271,198,101503,1,2,0:0:0:0:
271,198,101680,1,2,0:0:0:0:
271,198,101768,1,0,0:0:0:0:
302,165,101856,1,0,0:0:0:0:
336,160,101900,1,0,0:0:0:0:
302,165,101944,1,0,0:0:0:0:
336,160,101988,1,0,0:0:0:0:
211,169,102033,1,0,0:0:0:0:
278,145,102209,1,2,0:0:0:0:
278,145,102297,1,2,0:0:0:0:
278,145,102385,1,0,0:0:0:0:
278,145,102430,1,0,0:0:0:0:
278,145,102474,1,0,0:0:0:0:
278,145,102562,1,2,0:0:0:0:
278,145,102650,1,2,0:0:0:0:
278,145,102738,1,0,0:0:0:0:
278,145,102827,1,0,0:0:0:0:
278,145,102871,1,0,0:0:0:0:
278,145,102915,1,2,0:0:0:0:
278,145,103003,1,0,0:0:0:0:
278,145,103091,1,2,0:0:0:0:
278,145,103180,1,0,0:0:0:0:
278,145,103268,1,2,0:0:0:0:
278,145,103356,1,2,0:0:0:0:
278,145,103444,1,0,0:0:0:0:
279,129,103621,1,2,0:0:0:0:
279,129,103709,1,0,0:0:0:0:
279,129,103797,1,2,0:0:0:0:
279,129,103841,1,2,0:0:0:0:
279,129,103885,1,0,0:0:0:0:
279,129,103930,1,0,0:0:0:0:
279,129,103974,1,2,0:0:0:0:
279,129,104062,1,0,0:0:0:0:
279,129,104150,1,2,0:0:0:0:
279,129,104194,1,0,0:0:0:0:
279,129,104238,1,0,0:0:0:0:
279,129,104327,1,2,0:0:0:0:
279,129,104415,1,0,0:0:0:0:
279,129,104503,1,6,0:0:0:0:
269,135,104680,1,0,0:0:0:0:
269,135,104724,1,0,0:0:0:0:
269,135,104768,1,0,0:0:0:0:
269,135,104812,1,0,0:0:0:0:
269,135,104856,1,0,0:0:0:0:
269,135,105033,1,0,0:0:0:0:
269,135,105121,1,2,0:0:0:0:
269,135,105165,1,0,0:0:0:0:
269,135,105209,1,0,0:0:0:0:
269,135,105297,1,2,0:0:0:0:
269,135,105385,1,0,0:0:0:0:
269,135,105474,1,2,0:0:0:0:
269,135,105518,1,2,0:0:0:0:
269,135,105562,1,0,0:0:0:0:
269,135,105650,1,0,0:0:0:0:
269,135,105738,1,2,0:0:0:0:
269,135,105783,1,2,0:0:0:0:
269,135,105827,1,0,0:0:0:0:
269,135,105871,1,0,0:0:0:0:
269,135,105915,1,2,0:0:0:0:
269,135,106003,1,0,0:0:0:0:
269,135,106047,1,0,0:0:0:0:
269,135,106091,1,2,0:0:0:0:
269,135,106180,1,2,0:0:0:0:
251,137,106268,1,0,0:0:0:0:
251,137,106444,1,0,0:0:0:0:
251,137,106621,1,2,0:0:0:0:
251,137,106709,1,2,0:0:0:0:
251,137,106797,1,2,0:0:0:0:
251,137,106885,1,2,0:0:0:0:
282,228,107680,5,0,0:0:0:0:
259,256,108385,1,0,0:0:0:0:
259,256,109091,1,0,0:0:0:0:
259,256,110503,1,0,0:0:0:0:
259,256,111209,1,0,0:0:0:0:
259,256,111915,1,0,0:0:0:0:
186,149,112885,1,0,0:0:0:0:
186,149,112930,1,0,0:0:0:0:
186,149,112974,1,2,0:0:0:0:
250,261,113327,1,0,0:0:0:0:
250,261,113503,1,2,0:0:0:0:
250,261,113680,1,0,0:0:0:0:
250,261,113768,1,0,0:0:0:0:
251,269,113856,1,2,0:0:0:0:
261,256,114033,1,0,0:0:0:0:
261,256,114209,1,2,0:0:0:0:
261,256,114297,1,0,0:0:0:0:
261,256,114474,1,0,0:0:0:0:
261,256,114562,1,2,0:0:0:0:
271,261,114650,1,2,0:0:0:0:
272,274,114738,1,0,0:0:0:0:
272,274,114915,1,2,0:0:0:0:
272,274,115091,1,0,0:0:0:0:
272,274,115180,1,0,0:0:0:0:
272,274,115268,1,2,0:0:0:0:
272,274,115444,1,0,0:0:0:0:
272,274,115621,1,2,0:0:0:0:
272,274,115709,1,0,0:0:0:0:
272,274,115797,1,2,0:0:0:0:
232,171,115885,1,2,0:0:0:0:
272,274,115974,1,0,0:0:0:0:
272,274,116062,1,0,0:0:0:0:
272,274,116150,1,2,0:0:0:0:
256,250,116327,1,0,0:0:0:0:
271,265,116415,1,0,0:0:0:0:
271,265,116503,1,2,0:0:0:0:
271,265,116680,1,0,0:0:0:0:
197,142,116768,1,0,0:0:0:0:
197,142,116856,1,6,0:0:0:0:
271,261,117033,1,0,0:0:0:0:
172,129,117121,1,0,0:0:0:0:
186,101,117209,1,2,0:0:0:0:
186,101,117297,1,0,0:0:0:0:
186,101,117385,1,2,0:0:0:0:
186,101,117430,1,2,0:0:0:0:
186,101,117474,1,2,0:0:0:0:
186,101,117518,1,2,0:0:0:0:
181,81,117562,1,0,0:0:0:0:
174,179,117738,1,0,0:0:0:0:
174,179,117827,1,0,0:0:0:0:
174,179,117915,1,2,0:0:0:0:
174,179,117959,1,2,0:0:0:0:
174,179,118003,1,0,0:0:0:0:
174,179,118047,1,0,0:0:0:0:
174,179,118091,1,2,0:0:0:0:
174,179,118180,1,0,0:0:0:0:
174,179,118224,1,0,0:0:0:0:
174,179,118268,1,2,0:0:0:0:
174,179,118356,1,0,0:0:0:0:
174,179,118444,1,2,0:0:0:0:
174,179,118488,1,2,0:0:0:0:
174,179,118533,1,2,0:0:0:0:
174,179,118621,1,0,0:0:0:0:
174,179,118665,1,2,0:0:0:0:
174,179,118709,1,2,0:0:0:0:
174,179,118753,1,2,0:0:0:0:
174,179,118797,1,0,0:0:0:0:
174,179,118885,1,0,0:0:0:0:
230,225,118974,1,2,0:0:0:0:
230,225,119018,1,2,0:0:0:0:
230,225,119062,1,0,0:0:0:0:
263,95,119106,1,0,0:0:0:0:
230,225,119150,1,2,0:0:0:0:
230,225,119194,1,0,0:0:0:0:
230,225,119238,1,0,0:0:0:0:
230,225,119327,1,2,0:0:0:0:
230,225,119415,1,0,0:0:0:0:
188,238,119459,1,0,0:0:0:0:
230,225,119503,1,2,0:0:0:0:
230,225,119591,1,0,0:0:0:0:
200,258,119680,1,2,0:0:0:0:
200,258,119724,1,2,0:0:0:0:
200,258,119768,1,2,0:0:0:0:
200,258,119812,1,2,0:0:0:0:
200,258,119856,1,0,0:0:0:0:
200,258,119944,1,0,0:0:0:0:
200,258,120033,1,2,0:0:0:0:
200,258,120077,1,2,0:0:0:0:
200,258,120121,1,0,0:0:0:0:
200,258,120209,1,2,0:0:0:0:
166,143,120253,1,0,0:0:0:0:
200,258,120297,1,2,0:0:0:0:
166,143,120341,1,2,0:0:0:0:
166,143,120385,1,0,0:0:0:0:
166,143,120474,1,0,0:0:0:0:
166,143,120562,1,2,0:0:0:0:
166,143,120650,1,0,0:0:0:0:
166,143,120738,1,2,0:0:0:0:
166,143,120783,1,0,0:0:0:0:
166,143,120827,1,0,0:0:0:0:
166,143,120871,1,0,0:0:0:0:
166,143,120915,1,2,0:0:0:0:
166,143,121003,1,2,0:0:0:0:
237,178,121091,1,0,0:0:0:0:
237,178,121135,1,2,0:0:0:0:
166,143,121180,1,2,0:0:0:0:
166,143,121224,1,2,0:0:0:0:
166,143,121268,1,0,0:0:0:0:
224,156,121312,1,0,0:0:0:0:
166,143,121356,1,2,0:0:0:0:
166,143,121444,1,0,0:0:0:0:
163,133,121488,1,0,0:0:0:0:
169,133,121533,1,2,0:0:0:0:
173,136,121577,1,2,0:0:0:0:
183,135,121621,1,0,0:0:0:0:
166,143,121709,1,2,0:0:0:0:
161,154,121797,1,0,0:0:0:0:
181,84,121841,1,0,0:0:0:0:
161,154,121885,1,2,0:0:0:0:
161,154,121930,1,2,0:0:0:0:
161,154,121974,1,0,0:0:0:0:
181,84,122018,1,2,0:0:0:0:
161,154,122062,1,0,0:0:0:0:
161,154,122150,1,2,0:0:0:0:
161,154,122194,1,2,0:0:0:0:
161,154,122238,1,0,0:0:0:0:
161,154,122283,1,0,0:0:0:0:
161,154,122327,1,2,0:0:0:0:
161,154,122415,1,0,0:0:0:0:
161,154,122503,1,2,0:0:0:0:
161,154,122591,1,0,0:0:0:0:
161,154,122635,1,0,0:0:0:0:
161,154,122680,1,2,0:0:0:0:
161,154,122768,1,0,0:0:0:0:
161,154,122856,1,2,0:0:0:0:
161,154,122900,1,2,0:0:0:0:
161,154,122944,1,0,0:0:0:0:
234,168,123033,1,2,0:0:0:0:
234,168,123077,1,2,0:0:0:0:
234,168,123121,1,2,0:0:0:0:
234,168,123165,1,2,0:0:0:0:
181,81,123209,1,0,0:0:0:0:
174,179,123474,1,0,0:0:0:0:
236,176,123518,1,0,0:0:0:0:
174,179,123562,1,0,0:0:0:0:
174,179,123650,1,2,0:0:0:0:
174,179,123694,1,2,0:0:0:0:
174,179,123738,1,0,0:0:0:0:
174,179,123827,1,2,0:0:0:0:
174,179,123915,1,0,0:0:0:0:
174,179,124003,1,0,0:0:0:0:
116,107,124047,1,0,0:0:0:0:
174,179,124091,1,2,0:0:0:0:
174,179,124180,1,0,0:0:0:0:
174,179,124268,1,2,0:0:0:0:
174,179,124312,1,2,0:0:0:0:
174,179,124356,1,0,0:0:0:0:
174,179,124400,1,0,0:0:0:0:
174,179,124444,1,2,0:0:0:0:
174,179,124533,1,0,0:0:0:0:
230,225,124621,1,2,0:0:0:0:
230,225,124665,1,0,0:0:0:0:
230,225,124709,1,0,0:0:0:0:
216,103,124753,1,0,0:0:0:0:
230,225,124797,1,2,0:0:0:0:
230,225,124841,1,2,0:0:0:0:
230,225,124885,1,0,0:0:0:0:
230,225,124974,1,2,0:0:0:0:
230,225,125062,1,0,0:0:0:0:
188,238,125106,1,0,0:0:0:0:
230,225,125150,1,2,0:0:0:0:
230,225,125238,1,0,0:0:0:0:
200,258,125327,1,2,0:0:0:0:
200,258,125371,1,2,0:0:0:0:
200,258,125415,1,2,0:0:0:0:
200,258,125459,1,2,0:0:0:0:
200,258,125503,1,0,0:0:0:0:
200,258,125591,1,0,0:0:0:0:
200,258,125680,1,2,0:0:0:0:
200,258,125724,1,2,0:0:0:0:
200,258,125768,1,0,0:0:0:0:
200,258,125856,1,2,0:0:0:0:
166,143,125900,1,0,0:0:0:0:
200,258,125944,1,2,0:0:0:0:
166,143,125988,1,2,0:0:0:0:
166,143,126033,1,0,0:0:0:0:
166,143,126121,1,0,0:0:0:0:
166,143,126209,1,2,0:0:0:0:
166,143,126297,1,0,0:0:0:0:
166,143,126385,1,2,0:0:0:0:
166,143,126430,1,0,0:0:0:0:
166,143,126474,1,0,0:0:0:0:
166,143,126518,1,0,0:0:0:0:
166,143,126562,1,2,0:0:0:0:
166,143,126650,1,2,0:0:0:0:
237,178,126738,1,0,0:0:0:0:
237,178,126783,1,0,0:0:0:0:
166,143,126827,1,2,0:0:0:0:
166,143,126871,1,2,0:0:0:0:
166,143,126915,1,0,0:0:0:0:
224,156,126959,1,2,0:0:0:0:
166,143,127003,1,0,0:0:0:0:
189,154,127091,1,6,0:0:0:0:
166,158,127444,1,4,0:0:0:0:
247,173,127621,1,2,0:0:0:0:
247,173,127709,1,0,0:0:0:0:
247,173,127797,1,2,0:0:0:0:
247,173,127841,1,0,0:0:0:0:
247,173,127885,1,0,0:0:0:0:
247,173,127974,1,2,0:0:0:0:
247,173,128062,1,2,0:0:0:0:
247,173,128106,1,2,0:0:0:0:
247,173,128150,1,0,0:0:0:0:
247,173,128238,1,0,0:0:0:0:
247,173,128283,1,0,0:0:0:0:
247,173,128327,1,2,0:0:0:0:
242,175,128415,1,0,0:0:0:0:
247,173,128503,1,2,0:0:0:0:
247,173,128547,1,2,0:0:0:0:
247,173,128591,1,0,0:0:0:0:
251,169,128635,1,0,0:0:0:0:
251,169,128680,1,2,0:0:0:0:
251,169,128724,1,0,0:0:0:0:
251,169,128768,1,0,0:0:0:0:
265,164,128856,1,2,0:0:0:0:
265,164,128944,1,0,0:0:0:0:
265,164,128988,1,0,0:0:0:0:
266,163,129033,1,2,0:0:0:0:
266,163,129121,1,0,0:0:0:0:
266,163,129209,1,2,0:0:0:0:
266,163,129253,1,2,0:0:0:0:
266,163,129297,1,0,0:0:0:0:
266,163,129385,1,2,0:0:0:0:
266,163,129474,1,0,0:0:0:0:
266,163,129518,1,2,0:0:0:0:
266,163,129562,1,2,0:0:0:0:
266,163,129650,1,0,0:0:0:0:
265,164,129694,1,0,0:0:0:0:
265,164,129738,1,2,0:0:0:0:
265,164,129827,1,0,0:0:0:0:
266,163,129915,1,2,0:0:0:0:
266,163,129959,1,2,0:0:0:0:
266,163,130003,1,2,0:0:0:0:
266,163,130047,1,2,0:0:0:0:
266,163,130091,1,0,0:0:0:0:
226,113,130135,1,0,0:0:0:0:
271,158,130180,1,2,0:0:0:0:
226,113,130224,1,2,0:0:0:0:
101,168,130268,1,0,0:0:0:0:
176,126,130356,1,0,0:0:0:0:
247,173,130444,1,2,0:0:0:0:
247,173,130533,1,0,0:0:0:0:
247,173,130621,1,2,0:0:0:0:
247,173,130665,1,2,0:0:0:0:
247,173,130709,1,0,0:0:0:0:
247,173,130797,1,2,0:0:0:0:
247,173,130885,1,0,0:0:0:0:
247,173,130930,1,0,0:0:0:0:
247,173,130974,1,2,0:0:0:0:
247,173,131062,1,0,0:0:0:0:
247,173,131106,1,0,0:0:0:0:
247,173,131150,1,2,0:0:0:0:
242,175,131238,1,0,0:0:0:0:
247,173,131327,1,2,0:0:0:0:
247,173,131371,1,2,0:0:0:0:
247,173,131415,1,0,0:0:0:0:
251,169,131459,1,0,0:0:0:0:
251,169,131503,1,2,0:0:0:0:
251,169,131547,1,2,0:0:0:0:
251,169,131591,1,2,0:0:0:0:
265,164,131680,1,0,0:0:0:0:
265,164,131768,1,0,0:0:0:0:
265,164,131812,1,0,0:0:0:0:
266,163,131856,1,2,0:0:0:0:
266,163,131944,1,0,0:0:0:0:
266,163,132033,1,2,0:0:0:0:
266,163,132077,1,0,0:0:0:0:
266,163,132121,1,0,0:0:0:0:
266,163,132209,1,2,0:0:0:0:
266,163,132297,1,2,0:0:0:0:
266,163,132341,1,2,0:0:0:0:
266,163,132385,1,0,0:0:0:0:
266,163,132474,1,0,0:0:0:0:
265,164,132518,1,0,0:0:0:0:
265,164,132562,1,2,0:0:0:0:
265,164,132650,1,0,0:0:0:0:
266,163,132738,1,2,0:0:0:0:
266,163,132783,1,2,0:0:0:0:
266,163,132827,1,0,0:0:0:0:
266,163,132871,1,2,0:0:0:0:
266,163,132915,1,2,0:0:0:0:
271,158,133003,1,2,0:0:0:0:
166,158,133091,1,4,0:0:0:0:
247,173,133268,1,2,0:0:0:0:
247,173,133356,1,0,0:0:0:0:
247,173,133444,1,2,0:0:0:0:
247,173,133488,1,0,0:0:0:0:
247,173,133533,1,0,0:0:0:0:
247,173,133621,1,2,0:0:0:0:
247,173,133709,1,2,0:0:0:0:
247,173,133753,1,2,0:0:0:0:
247,173,133797,1,0,0:0:0:0:
247,173,133885,1,0,0:0:0:0:
247,173,133930,1,0,0:0:0:0:
247,173,133974,1,2,0:0:0:0:
242,175,134062,1,0,0:0:0:0:
247,173,134150,1,2,0:0:0:0:
247,173,134194,1,2,0:0:0:0:
247,173,134238,1,0,0:0:0:0:
251,169,134283,1,0,0:0:0:0:
251,169,134327,1,2,0:0:0:0:
251,169,134371,1,0,0:0:0:0:
251,169,134415,1,0,0:0:0:0:
265,164,134503,1,2,0:0:0:0:
265,164,134591,1,0,0:0:0:0:
265,164,134635,1,0,0:0:0:0:
266,163,134680,1,2,0:0:0:0:
266,163,134768,1,0,0:0:0:0:
266,163,134856,1,2,0:0:0:0:
266,163,134900,1,2,0:0:0:0:
266,163,134944,1,0,0:0:0:0:
266,163,135033,1,2,0:0:0:0:
266,163,135121,1,0,0:0:0:0:
266,163,135165,1,2,0:0:0:0:
266,163,135209,1,2,0:0:0:0:
266,163,135297,1,0,0:0:0:0:
265,164,135341,1,0,0:0:0:0:
265,164,135385,1,2,0:0:0:0:
265,164,135474,1,0,0:0:0:0:
266,163,135562,1,2,0:0:0:0:
266,163,135606,1,2,0:0:0:0:
266,163,135650,1,2,0:0:0:0:
266,163,135694,1,2,0:0:0:0:
266,163,135738,1,0,0:0:0:0:
226,113,135783,1,0,0:0:0:0:
271,158,135827,1,2,0:0:0:0:
226,113,135871,1,2,0:0:0:0:
101,168,135915,1,0,0:0:0:0:
176,126,136003,1,0,0:0:0:0:
247,173,136091,1,2,0:0:0:0:
247,173,136180,1,0,0:0:0:0:
247,173,136268,1,2,0:0:0:0:
247,173,136312,1,2,0:0:0:0:
247,173,136356,1,0,0:0:0:0:
247,173,136444,1,2,0:0:0:0:
247,173,136533,1,0,0:0:0:0:
247,173,136577,1,0,0:0:0:0:
247,173,136621,1,2,0:0:0:0:
247,173,136709,1,0,0:0:0:0:
247,173,136753,1,0,0:0:0:0:
247,173,136797,1,2,0:0:0:0:
242,175,136885,1,0,0:0:0:0:
247,173,136974,1,2,0:0:0:0:
247,173,137018,1,2,0:0:0:0:
247,173,137062,1,0,0:0:0:0:
251,169,137106,1,0,0:0:0:0:
251,169,137150,1,2,0:0:0:0:
251,169,137194,1,2,0:0:0:0:
251,169,137238,1,2,0:0:0:0:
265,164,137327,1,0,0:0:0:0:
265,164,137415,1,0,0:0:0:0:
265,164,137459,1,0,0:0:0:0:
266,163,137503,1,2,0:0:0:0:
266,163,137591,1,0,0:0:0:0:
266,163,137680,1,2,0:0:0:0:
266,163,137724,1,0,0:0:0:0:
266,163,137768,1,0,0:0:0:0:
266,163,137856,1,2,0:0:0:0:
266,163,137944,1,2,0:0:0:0:
266,163,137988,1,2,0:0:0:0:
266,163,138033,1,0,0:0:0:0:
266,163,138121,1,0,0:0:0:0:
265,164,138165,1,0,0:0:0:0:
265,164,138209,1,2,0:0:0:0:
265,164,138297,1,0,0:0:0:0:
266,163,138385,1,6,0:0:0:0:
150,147,138562,1,0,0:0:0:0:
150,147,138606,1,0,0:0:0:0:
150,147,138650,1,0,0:0:0:0:
150,147,138694,1,0,0:0:0:0:
202,167,138738,1,0,0:0:0:0:
291,160,138915,1,4,0:0:0:0:
306,133,139091,1,0,0:0:0:0:
306,133,139180,1,0,0:0:0:0:
306,133,139268,1,2,0:0:0:0:
306,133,139444,1,0,0:0:0:0:
306,133,139533,1,0,0:0:0:0:
306,133,139621,1,2,0:0:0:0:
306,133,139797,1,0,0:0:0:0:
306,133,139885,1,0,0:0:0:0:
306,133,139974,1,2,0:0:0:0:
306,133,140150,1,4,0:0:0:0:
306,133,140327,1,4,0:0:0:0:
195,134,140503,1,0,0:0:0:0:
195,134,140591,1,0,0:0:0:0:
195,134,140680,1,2,0:0:0:0:
195,134,140856,1,0,0:0:0:0:
195,134,140944,1,0,0:0:0:0:
195,134,141033,1,2,0:0:0:0:
326,131,141209,1,2,0:0:0:0:
195,134,141297,1,0,0:0:0:0:
195,134,141385,1,0,0:0:0:0:
326,131,141430,1,0,0:0:0:0:
326,131,141474,1,0,0:0:0:0:
326,131,141518,1,0,0:0:0:0:
202,167,141562,1,0,0:0:0:0:
291,160,141738,1,4,0:0:0:0:
306,133,141915,1,0,0:0:0:0:
306,133,142003,1,0,0:0:0:0:
306,133,142091,1,2,0:0:0:0:
306,133,142268,1,0,0:0:0:0:
306,133,142356,1,0,0:0:0:0:
306,133,142444,1,2,0:0:0:0:
306,133,142621,1,0,0:0:0:0:
306,133,142709,1,0,0:0:0:0:
306,133,142797,1,2,0:0:0:0:
306,133,142974,1,4,0:0:0:0:
306,133,143150,1,4,0:0:0:0:
195,134,143327,1,0,0:0:0:0:
195,134,143415,1,0,0:0:0:0:
195,134,143503,1,2,0:0:0:0:
195,134,143680,1,0,0:0:0:0:
195,134,143768,1,0,0:0:0:0:
259,127,143856,1,2,0:0:0:0:
261,93,143944,1,0,0:0:0:0:
326,131,144033,1,2,0:0:0:0:
195,134,144121,1,2,0:0:0:0:
326,131,144165,1,2,0:0:0:0:
195,134,144209,1,2,0:0:0:0:
326,131,144297,1,2,0:0:0:0:
202,167,144385,1,4,0:0:0:0:
291,160,144562,1,4,0:0:0:0:
306,133,144738,1,0,0:0:0:0:
306,133,144827,1,0,0:0:0:0:
306,133,144915,1,2,0:0:0:0:
306,133,145091,1,0,0:0:0:0:
306,133,145180,1,0,0:0:0:0:
306,133,145268,1,2,0:0:0:0:
306,133,145444,1,0,0:0:0:0:
306,133,145533,1,0,0:0:0:0:
306,133,145621,1,2,0:0:0:0:
306,133,145797,1,4,0:0:0:0:
306,133,145974,1,4,0:0:0:0:
195,134,146150,1,0,0:0:0:0:
195,134,146238,1,0,0:0:0:0:
195,134,146327,1,2,0:0:0:0:
195,134,146503,1,0,0:0:0:0:
195,134,146591,1,0,0:0:0:0:
195,134,146680,1,2,0:0:0:0:
326,131,146856,1,2,0:0:0:0:
195,134,146944,1,0,0:0:0:0:
195,134,147033,1,0,0:0:0:0:
326,131,147077,1,0,0:0:0:0:
326,131,147121,1,0,0:0:0:0:
326,131,147165,1,0,0:0:0:0:
202,167,147209,1,0,0:0:0:0:
291,160,147385,1,4,0:0:0:0:
306,133,147562,1,0,0:0:0:0:
306,133,147650,1,0,0:0:0:0:
306,133,147738,1,2,0:0:0:0:
306,133,147915,1,0,0:0:0:0:
306,133,148003,1,0,0:0:0:0:
306,133,148091,1,2,0:0:0:0:
306,133,148268,1,0,0:0:0:0:
306,133,148356,1,0,0:0:0:0:
306,133,148444,1,2,0:0:0:0:
306,133,148621,1,4,0:0:0:0:
306,133,148797,1,4,0:0:0:0:
195,134,148974,5,0,0:0:0:0:
195,134,149062,1,0,0:0:0:0:
195,134,149150,1,2,0:0:0:0:
195,134,149327,1,0,0:0:0:0:
195,134,149415,1,0,0:0:0:0:
259,127,149503,1,2,0:0:0:0:
261,93,149591,1,0,0:0:0:0:
326,131,149680,1,2,0:0:0:0:
195,134,149768,1,2,0:0:0:0:
326,131,149812,1,2,0:0:0:0:
195,134,149856,1,2,0:0:0:0:
326,131,149944,1,2,0:0:0:0:
212,145,150033,1,4,0:0:0:0:
212,145,150209,1,4,0:0:0:0:
212,145,150385,1,0,0:0:0:0:
212,145,150474,1,0,0:0:0:0:
295,190,150562,1,2,0:0:0:0:
212,145,150738,1,4,0:0:0:0:
212,145,150915,1,4,0:0:0:0:
212,145,151091,1,0,0:0:0:0:
212,145,151180,1,0,0:0:0:0:
295,190,151268,1,2,0:0:0:0:
212,145,151444,1,4,0:0:0:0:
212,145,151621,1,4,0:0:0:0:
212,145,151797,1,0,0:0:0:0:
212,145,151885,1,0,0:0:0:0:
295,190,151974,1,2,0:0:0:0:
212,145,152150,1,4,0:0:0:0:
212,145,152327,1,4,0:0:0:0:
295,190,152503,1,2,0:0:0:0:
212,145,152591,1,0,0:0:0:0:
212,145,152680,1,0,0:0:0:0:
236,180,152724,1,0,0:0:0:0:
236,180,152768,1,0,0:0:0:0:
236,180,152812,1,0,0:0:0:0:
236,180,152856,1,0,0:0:0:0:
322,184,153033,1,6,0:0:0:0:
236,180,153209,1,0,0:0:0:0:
236,180,153297,1,0,0:0:0:0:
322,184,153385,1,6,0:0:0:0:
236,180,153562,1,0,0:0:0:0:
315,179,153738,1,6,0:0:0:0:
236,180,153915,1,0,0:0:0:0:
236,180,154003,1,0,0:0:0:0:
315,179,154091,1,6,0:0:0:0:
236,180,154268,1,6,0:0:0:0:
236,180,154444,1,2,0:0:0:0:
236,180,154533,1,0,0:0:0:0:
236,180,154577,1,0,0:0:0:0:
236,180,154621,1,2,0:0:0:0:
236,180,154709,1,0,0:0:0:0:
236,180,154797,1,2,0:0:0:0:
236,180,154885,1,0,0:0:0:0:
236,180,154974,1,2,0:0:0:0:
236,180,155018,1,2,0:0:0:0:
236,180,155062,1,0,0:0:0:0:
236,180,155150,1,2,0:0:0:0:
236,180,155238,1,0,0:0:0:0:
236,180,155327,1,2,0:0:0:0:
236,180,155415,1,2,0:0:0:0:
236,180,155503,1,2,0:0:0:0:
236,180,155547,1,2,0:0:0:0:
236,180,155591,1,2,0:0:0:0:
236,180,155635,1,2,0:0:0:0:
236,180,155680,1,0,0:0:0:0:
