osu file format v14

[General]
AudioFilename: audio.mp3
AudioLeadIn: 0
PreviewTime: 153537
Countdown: 0
SampleSet: Normal
StackLeniency: 0.7
Mode: 1
LetterboxInBreaks: 0
WidescreenStoryboard: 1

[Editor]
Bookmarks: 3129,9863,22925,35986,49047,62108,75170,78435,86598,88231,101292,114353,127414,140476,153537,166598,179659,192721,205782,209047,222516,235170
DistanceSpacing: 1.7
BeatDivisor: 4
GridSize: 32
TimelineZoom: 1.5

[Metadata]
Title:Lagtrain
TitleUnicode:ラグトレイン
Artist:inabakumori
ArtistUnicode:稲葉曇
Creator:doulph
Version:Wandering Futsuu
Source:
Tags:kaai yuki 歌愛ユキ nukunuku nigirimeshi ぬくぬくにぎりめし cumori vocaloid rock japanese jrock j-rock poly6c
BeatmapID:2747732
BeatmapSetID:1326266

[Difficulty]
HPDrainRate:7
CircleSize:5
OverallDifficulty:4
ApproachRate:5
SliderMultiplier:1.4
SliderTickRate:1

[Events]
//Background and Video events
0,0,"pic.jpg",0,-50
//Break Periods
//Storyboard Layer 0 (Background)
//Storyboard Layer 1 (Fail)
//Storyboard Layer 2 (Pass)
//Storyboard Layer 3 (Foreground)
//Storyboard Layer 4 (Overlay)
//Storyboard Sound Samples

[TimingPoints]
68,408.163265306122,4,1,0,70,1,0
22925,-100,4,1,0,80,0,1
35986,-100,4,1,0,80,0,0
36088,-100,4,1,0,75,0,0
49149,-100,4,1,0,70,0,0
62210,-100,4,1,0,65,0,0
72292,-100,4,1,0,70,0,0
73313,-100,4,1,0,75,0,0
77803,-100,4,1,0,80,0,0
78435,-100,4,1,0,80,0,1
86598,-100,4,1,0,80,0,0
88231,-100,4,1,0,80,0,1
101292,-100,4,1,0,80,0,0
101394,-100,4,1,0,75,0,0
114455,-100,4,1,0,70,0,0
127516,-100,4,1,0,65,0,0
140252,-100,4,1,0,67,0,0
140456,-100,4,1,0,70,0,0
151680,-100,4,1,0,75,0,0
153537,-100,4,1,0,80,0,1
166598,-100,4,1,0,80,0,0
166700,-100,4,1,0,75,0,0
179761,-100,4,1,0,65,0,0
182496,-100,4,1,0,67,0,0
182905,-100,4,1,0,70,0,0
192701,-100,4,1,0,75,0,0
205150,-100,4,1,0,80,0,0
209047,-100,4,1,0,80,0,1
221700,-100,4,1,0,80,0,0
222516,-100,4,1,0,80,0,1
235170,-100,4,1,0,80,0,0
235272,-100,4,1,0,75,0,0
246170,-100,4,1,0,80,0,0

[HitObjects]
256,192,3333,1,8,0:0:0:0:
256,192,3741,1,0,0:0:0:0:
256,192,4149,1,8,0:0:0:0:
256,192,4761,1,0,0:0:0:0:
256,192,5170,1,8,0:0:0:0:
256,192,6598,1,8,0:0:0:0:
256,192,7006,1,0,0:0:0:0:
256,192,7414,1,8,0:0:0:0:
256,192,8027,1,0,0:0:0:0:
256,192,9863,1,0,0:0:0:0:
256,192,10272,1,0,0:0:0:0:
256,192,10680,1,8,0:0:0:0:
256,192,11496,1,0,0:0:0:0:
256,192,11904,1,8,0:0:0:0:
256,192,12312,1,8,0:0:0:0:
256,192,13129,1,8,0:0:0:0:
256,192,13537,1,8,0:0:0:0:
256,192,13945,1,0,0:0:0:0:
256,192,14557,1,8,0:0:0:0:
256,192,15782,1,8,0:0:0:0:
256,192,15986,1,0,0:0:0:0:
256,192,16394,1,0,0:0:0:0:
256,192,16802,1,0,0:0:0:0:
256,192,17210,1,8,0:0:0:0:
256,192,18027,1,0,0:0:0:0:
256,192,18435,1,8,0:0:0:0:
256,192,18843,1,0,0:0:0:0:
256,192,19251,1,8,0:0:0:0:
256,192,20067,1,8,0:0:0:0:
256,192,20476,1,0,0:0:0:0:
256,192,21292,1,8,0:0:0:0:
256,192,22925,1,12,0:0:0:0:
256,192,23333,1,0,0:0:0:0:
256,192,23537,1,0,0:0:0:0:
256,192,23741,1,8,0:0:0:0:
256,192,24149,1,0,0:0:0:0:
256,192,24557,1,8,0:0:0:0:
256,192,24965,1,0,0:0:0:0:
256,192,25170,1,8,0:0:0:0:
256,192,25374,1,8,0:0:0:0:
256,192,26190,1,8,0:0:0:0:
256,192,26598,1,8,0:0:0:0:
256,192,27006,1,0,0:0:0:0:
256,192,27414,1,0,0:0:0:0:
256,192,27619,1,8,0:0:0:0:
256,192,28231,1,8,0:0:0:0:
256,192,28435,1,8,0:0:0:0:
256,192,28843,1,8,0:0:0:0:
256,192,29047,1,0,0:0:0:0:
256,192,29455,1,12,0:0:0:0:
256,192,29863,1,0,0:0:0:0:
256,192,30067,1,0,0:0:0:0:
256,192,30272,1,8,0:0:0:0:
256,192,30680,1,0,0:0:0:0:
256,192,31088,1,8,0:0:0:0:
256,192,31496,1,0,0:0:0:0:
256,192,31700,1,8,0:0:0:0:
256,192,31904,1,8,0:0:0:0:
256,192,32312,1,8,0:0:0:0:
256,192,32516,1,0,0:0:0:0:
256,192,33129,1,8,0:0:0:0:
256,192,33537,1,0,0:0:0:0:
256,192,34149,1,0,0:0:0:0:
256,192,34353,1,8,0:0:0:0:
256,192,34557,1,8,0:0:0:0:
256,192,34761,1,0,0:0:0:0:
256,192,34965,1,0,0:0:0:0:
256,192,35170,1,8,0:0:0:0:
256,192,35578,1,8,0:0:0:0:
256,192,35986,1,12,0:0:0:0:
256,192,36802,1,8,0:0:0:0:
256,192,37414,1,0,0:0:0:0:
256,192,37823,1,8,0:0:0:0:
256,192,38231,1,8,0:0:0:0:
256,192,38843,1,0,0:0:0:0:
256,192,39251,1,8,0:0:0:0:
256,192,40067,1,8,0:0:0:0:
256,192,40680,1,0,0:0:0:0:
256,192,41088,1,8,0:0:0:0:
256,192,41496,1,0,0:0:0:0:
256,192,42108,1,0,0:0:0:0:
256,192,42516,1,12,0:0:0:0:
256,192,43333,1,8,0:0:0:0:
256,192,43945,1,0,0:0:0:0:
256,192,44353,1,8,0:0:0:0:
256,192,44761,1,8,0:0:0:0:
256,192,45374,1,0,0:0:0:0:
256,192,45782,1,8,0:0:0:0:
256,192,46598,1,8,0:0:0:0:
256,192,47210,1,0,0:0:0:0:
256,192,47619,1,0,0:0:0:0:
256,192,48027,1,8,0:0:0:0:
256,192,48435,1,0,0:0:0:0:
256,192,48639,1,8,0:0:0:0:
256,192,49047,1,12,0:0:0:0:
256,192,49455,1,0,0:0:0:0:
256,192,49863,1,8,0:0:0:0:
256,192,50476,1,0,0:0:0:0:
256,192,50884,1,0,0:0:0:0:
256,192,52312,1,8,0:0:0:0:
256,192,52721,1,8,0:0:0:0:
256,192,53129,1,0,0:0:0:0:
256,192,53537,1,8,0:0:0:0:
256,192,53741,1,0,0:0:0:0:
256,192,54149,1,0,0:0:0:0:
256,192,54557,1,8,0:0:0:0:
256,192,55578,1,8,0:0:0:0:
256,192,55986,1,0,0:0:0:0:
256,192,56394,1,8,0:0:0:0:
256,192,57006,1,0,0:0:0:0:
256,192,57414,1,0,0:0:0:0:
256,192,58843,1,8,0:0:0:0:
256,192,59251,1,8,0:0:0:0:
256,192,59659,1,0,0:0:0:0:
256,192,60067,1,8,0:0:0:0:
256,192,60272,1,8,0:0:0:0:
256,192,60680,1,8,0:0:0:0:
256,192,60884,1,8,0:0:0:0:
256,192,61088,1,0,0:0:0:0:
256,192,61496,1,0,0:0:0:0:
256,192,61700,1,0,0:0:0:0:
256,192,62108,1,12,0:0:0:0:
256,192,62516,1,0,0:0:0:0:
256,192,62721,1,0,0:0:0:0:
256,192,63333,1,0,0:0:0:0:
256,192,63537,1,8,0:0:0:0:
256,192,64149,1,0,0:0:0:0:
256,192,64353,1,0,0:0:0:0:
256,192,64761,1,0,0:0:0:0:
256,192,65170,1,8,0:0:0:0:
256,192,65782,1,8,0:0:0:0:
256,192,65986,1,0,0:0:0:0:
256,192,66598,1,0,0:0:0:0:
256,192,66802,1,0,0:0:0:0:
256,192,67210,1,8,0:0:0:0:
256,192,67414,1,8,0:0:0:0:
256,192,68231,1,0,0:0:0:0:
256,192,68435,1,0,0:0:0:0:
256,192,69047,1,8,0:0:0:0:
256,192,69251,1,8,0:0:0:0:
256,192,69863,1,0,0:0:0:0:
256,192,70067,1,8,0:0:0:0:
256,192,70680,1,0,0:0:0:0:
256,192,70884,1,0,0:0:0:0:
256,192,71496,1,0,0:0:0:0:
256,192,71700,1,8,0:0:0:0:
256,192,72312,1,8,0:0:0:0:
256,192,72516,1,8,0:0:0:0:
256,192,73129,1,8,0:0:0:0:
256,192,73333,1,4,0:0:0:0:
256,192,73741,1,4,0:0:0:0:
256,192,74149,1,4,0:0:0:0:
256,192,74557,1,4,0:0:0:0:
256,192,74761,1,4,0:0:0:0:
256,192,75170,1,12,0:0:0:0:
256,192,75374,1,12,0:0:0:0:
256,192,77823,1,4,0:0:0:0:
256,192,78027,1,4,0:0:0:0:
256,192,78231,1,4,0:0:0:0:
256,192,78435,1,12,0:0:0:0:
256,192,78843,1,0,0:0:0:0:
256,192,79251,1,8,0:0:0:0:
256,192,79659,1,0,0:0:0:0:
256,192,79863,1,8,0:0:0:0:
256,192,80476,1,8,0:0:0:0:
256,192,80680,1,8,0:0:0:0:
256,192,81088,1,8,0:0:0:0:
256,192,81292,1,0,0:0:0:0:
256,192,81700,1,12,0:0:0:0:
256,192,82108,1,0,0:0:0:0:
256,192,82312,1,0,0:0:0:0:
256,192,82516,1,8,0:0:0:0:
256,192,82925,1,0,0:0:0:0:
256,192,83333,1,8,0:0:0:0:
256,192,83741,1,0,0:0:0:0:
256,192,83945,1,8,0:0:0:0:
256,192,84149,1,8,0:0:0:0:
256,192,84557,1,8,0:0:0:0:
256,192,84761,1,0,0:0:0:0:
256,192,85374,1,8,0:0:0:0:
256,192,85782,1,0,0:0:0:0:
256,192,86598,1,8,0:0:0:0:
256,192,88231,1,12,0:0:0:0:
256,192,88639,1,8,0:0:0:0:
256,192,88843,1,8,0:0:0:0:
256,192,89047,1,0,0:0:0:0:
256,192,89455,1,0,0:0:0:0:
256,192,89863,1,8,0:0:0:0:
256,192,90272,1,8,0:0:0:0:
256,192,90476,1,0,0:0:0:0:
256,192,90680,1,0,0:0:0:0:
256,192,91496,1,8,0:0:0:0:
256,192,91904,1,8,0:0:0:0:
256,192,92312,1,0,0:0:0:0:
256,192,92721,1,0,0:0:0:0:
256,192,92925,1,8,0:0:0:0:
256,192,93537,1,8,0:0:0:0:
256,192,93741,1,8,0:0:0:0:
256,192,94149,1,8,0:0:0:0:
256,192,94353,1,0,0:0:0:0:
256,192,94761,1,12,0:0:0:0:
256,192,95170,1,0,0:0:0:0:
256,192,95374,1,0,0:0:0:0:
256,192,95578,1,8,0:0:0:0:
256,192,95986,1,0,0:0:0:0:
256,192,96394,1,8,0:0:0:0:
256,192,96802,1,0,0:0:0:0:
256,192,97006,1,8,0:0:0:0:
256,192,97210,1,8,0:0:0:0:
256,192,97619,1,8,0:0:0:0:
256,192,97823,1,0,0:0:0:0:
256,192,98435,1,8,0:0:0:0:
256,192,98843,1,0,0:0:0:0:
256,192,99455,1,0,0:0:0:0:
256,192,99659,1,8,0:0:0:0:
256,192,99863,1,8,0:0:0:0:
256,192,100067,1,0,0:0:0:0:
256,192,100271,1,0,0:0:0:0:
256,192,100476,1,8,0:0:0:0:
256,192,100884,1,8,0:0:0:0:
256,192,101292,1,12,0:0:0:0:
256,192,102108,1,8,0:0:0:0:
256,192,102721,1,0,0:0:0:0:
256,192,103129,1,8,0:0:0:0:
256,192,103537,1,8,0:0:0:0:
256,192,104149,1,0,0:0:0:0:
256,192,104557,1,8,0:0:0:0:
256,192,105374,1,8,0:0:0:0:
256,192,105986,1,8,0:0:0:0:
256,192,106394,1,0,0:0:0:0:
256,192,106802,1,0,0:0:0:0:
256,192,107414,1,0,0:0:0:0:
256,192,107619,1,0,0:0:0:0:
256,192,107823,1,8,0:0:0:0:
256,192,108231,1,12,0:0:0:0:
256,192,108639,1,0,0:0:0:0:
256,192,109251,1,0,0:0:0:0:
256,192,109659,1,8,0:0:0:0:
256,192,110067,1,8,0:0:0:0:
256,192,110680,1,0,0:0:0:0:
256,192,111088,1,8,0:0:0:0:
256,192,111904,1,8,0:0:0:0:
256,192,112516,1,0,0:0:0:0:
256,192,112925,1,0,0:0:0:0:
256,192,113129,1,8,0:0:0:0:
256,192,113333,1,0,0:0:0:0:
256,192,113741,1,0,0:0:0:0:
256,192,113945,1,8,0:0:0:0:
256,192,114353,1,12,0:0:0:0:
256,192,114761,1,0,0:0:0:0:
256,192,115170,1,8,0:0:0:0:
256,192,116802,1,0,0:0:0:0:
256,192,117210,1,8,0:0:0:0:
256,192,117619,1,12,0:0:0:0:
256,192,118027,1,0,0:0:0:0:
256,192,118435,1,8,0:0:0:0:
256,192,118843,1,8,0:0:0:0:
256,192,119251,1,0,0:0:0:0:
256,192,119863,1,8,0:0:0:0:
256,192,120884,1,12,0:0:0:0:
256,192,121292,1,0,0:0:0:0:
256,192,121700,1,8,0:0:0:0:
256,192,122516,1,0,0:0:0:0:
256,192,123333,1,8,0:0:0:0:
256,192,123741,1,0,0:0:0:0:
256,192,124149,1,8,0:0:0:0:
256,192,124557,1,8,0:0:0:0:
256,192,124965,1,0,0:0:0:0:
256,192,125374,1,0,0:0:0:0:
256,192,125578,1,8,0:0:0:0:
256,192,125986,1,8,0:0:0:0:
256,192,126394,1,8,0:0:0:0:
256,192,127006,1,0,0:0:0:0:
256,192,127210,1,0,0:0:0:0:
256,192,127414,1,12,0:0:0:0:
256,192,127823,1,0,0:0:0:0:
256,192,128639,1,0,0:0:0:0:
256,192,128843,1,8,0:0:0:0:
256,192,129455,1,0,0:0:0:0:
256,192,129659,1,0,0:0:0:0:
256,192,130067,1,0,0:0:0:0:
256,192,130476,1,8,0:0:0:0:
256,192,130680,1,0,0:0:0:0:
256,192,131496,1,0,0:0:0:0:
256,192,131904,1,0,0:0:0:0:
256,192,132312,1,8,0:0:0:0:
256,192,132925,1,0,0:0:0:0:
256,192,133537,1,8,0:0:0:0:
256,192,133741,1,8,0:0:0:0:
256,192,133945,1,4,0:0:0:0:
256,192,134353,1,8,0:0:0:0:
256,192,134557,1,0,0:0:0:0:
256,192,135170,1,0,0:0:0:0:
256,192,135374,1,8,0:0:0:0:
256,192,135986,1,0,0:0:0:0:
256,192,136190,1,0,0:0:0:0:
256,192,136598,1,0,0:0:0:0:
256,192,137210,1,8,0:0:0:0:
256,192,138027,1,0,0:0:0:0:
256,192,138435,1,8,0:0:0:0:
256,192,138843,1,0,0:0:0:0:
256,192,139251,1,8,0:0:0:0:
256,192,139659,1,0,0:0:0:0:
256,192,140067,1,8,0:0:0:0:
256,192,140272,1,0,0:0:0:0:
256,192,140476,1,12,0:0:0:0:
256,192,140884,1,0,0:0:0:0:
256,192,141292,1,8,0:0:0:0:
256,192,141700,1,8,0:0:0:0:
256,192,141904,1,0,0:0:0:0:
256,192,142516,1,0,0:0:0:0:
256,192,142721,1,0,0:0:0:0:
256,192,143129,1,0,0:0:0:0:
256,192,143537,1,0,0:0:0:0:
256,192,143741,1,8,0:0:0:0:
256,192,144149,1,8,0:0:0:0:
256,192,144557,1,0,0:0:0:0:
256,192,144965,1,0,0:0:0:0:
256,192,145170,1,0,0:0:0:0:
256,192,145578,1,8,0:0:0:0:
256,192,145782,1,8,0:0:0:0:
256,192,146598,1,8,0:0:0:0:
256,192,146802,1,0,0:0:0:0:
256,192,147006,1,12,0:0:0:0:
256,192,147414,1,0,0:0:0:0:
256,192,147823,1,8,0:0:0:0:
256,192,148231,1,8,0:0:0:0:
256,192,148435,1,0,0:0:0:0:
256,192,149047,1,0,0:0:0:0:
256,192,149251,1,0,0:0:0:0:
256,192,149659,1,0,0:0:0:0:
256,192,150067,1,0,0:0:0:0:
256,192,150272,1,8,0:0:0:0:
256,192,150680,1,8,0:0:0:0:
256,192,150884,1,0,0:0:0:0:
256,192,151088,1,8,0:0:0:0:
256,192,151496,1,8,0:0:0:0:
256,192,151700,1,4,0:0:0:0:
256,192,152108,1,4,0:0:0:0:
256,192,152516,1,4,0:0:0:0:
256,192,152925,1,4,0:0:0:0:
256,192,153129,1,4,0:0:0:0:
256,192,153537,1,12,0:0:0:0:
256,192,153945,1,8,0:0:0:0:
256,192,154149,1,8,0:0:0:0:
256,192,154353,1,0,0:0:0:0:
256,192,154761,1,0,0:0:0:0:
256,192,155170,1,8,0:0:0:0:
256,192,155578,1,0,0:0:0:0:
256,192,155782,1,0,0:0:0:0:
256,192,155986,1,8,0:0:0:0:
256,192,156802,1,8,0:0:0:0:
256,192,157210,1,8,0:0:0:0:
256,192,157619,1,0,0:0:0:0:
256,192,158027,1,0,0:0:0:0:
256,192,158231,1,8,0:0:0:0:
256,192,158843,1,8,0:0:0:0:
256,192,159047,1,8,0:0:0:0:
256,192,159455,1,8,0:0:0:0:
256,192,159659,1,0,0:0:0:0:
256,192,160067,1,12,0:0:0:0:
256,192,160476,1,0,0:0:0:0:
256,192,160680,1,0,0:0:0:0:
256,192,160884,1,8,0:0:0:0:
256,192,161292,1,0,0:0:0:0:
256,192,161700,1,8,0:0:0:0:
256,192,162108,1,0,0:0:0:0:
256,192,162312,1,8,0:0:0:0:
256,192,162516,1,8,0:0:0:0:
256,192,162925,1,8,0:0:0:0:
256,192,163129,1,0,0:0:0:0:
256,192,163741,1,8,0:0:0:0:
256,192,164149,1,0,0:0:0:0:
256,192,164761,1,0,0:0:0:0:
256,192,164965,1,8,0:0:0:0:
256,192,165170,1,8,0:0:0:0:
256,192,165374,1,0,0:0:0:0:
256,192,165578,1,0,0:0:0:0:
256,192,165782,1,8,0:0:0:0:
256,192,166190,1,8,0:0:0:0:
256,192,166598,1,0,0:0:0:0:
256,192,167006,1,12,0:0:0:0:
256,192,167414,1,0,0:0:0:0:
256,192,168231,1,0,0:0:0:0:
256,192,168639,1,8,0:0:0:0:
256,192,169047,1,0,0:0:0:0:
256,192,169659,1,8,0:0:0:0:
256,192,170272,1,8,0:0:0:0:
256,192,170680,1,0,0:0:0:0:
256,192,171292,1,8,0:0:0:0:
256,192,171700,1,8,0:0:0:0:
256,192,172108,1,8,0:0:0:0:
256,192,172516,1,8,0:0:0:0:
256,192,172721,1,0,0:0:0:0:
256,192,173129,1,0,0:0:0:0:
256,192,173333,1,0,0:0:0:0:
256,192,173537,1,12,0:0:0:0:
256,192,173945,1,8,0:0:0:0:
256,192,174761,1,8,0:0:0:0:
256,192,175170,1,0,0:0:0:0:
256,192,175578,1,8,0:0:0:0:
256,192,176190,1,8,0:0:0:0:
256,192,176802,1,8,0:0:0:0:
256,192,177210,1,0,0:0:0:0:
256,192,177619,1,8,0:0:0:0:
256,192,177823,1,0,0:0:0:0:
256,192,178231,1,8,0:0:0:0:
256,192,178435,1,0,0:0:0:0:
256,192,178639,1,0,0:0:0:0:
256,192,179047,1,8,0:0:0:0:
256,192,179251,1,8,0:0:0:0:
256,192,179659,1,12,0:0:0:0:
256,192,182516,1,0,0:0:0:0:
256,192,182925,1,12,0:0:0:0:
256,192,183333,1,8,0:0:0:0:
256,192,184149,1,8,0:0:0:0:
256,192,184965,1,8,0:0:0:0:
256,192,185170,1,0,0:0:0:0:
256,192,185578,1,0,0:0:0:0:
256,192,185782,1,8,0:0:0:0:
256,192,186190,1,12,0:0:0:0:
256,192,186598,1,0,0:0:0:0:
256,192,187414,1,8,0:0:0:0:
256,192,187823,1,0,0:0:0:0:
256,192,188231,1,8,0:0:0:0:
256,192,189047,1,0,0:0:0:0:
256,192,189251,1,0,0:0:0:0:
256,192,189455,1,12,0:0:0:0:
256,192,189863,1,8,0:0:0:0:
256,192,190680,1,8,0:0:0:0:
256,192,191088,1,0,0:0:0:0:
256,192,191496,1,0,0:0:0:0:
256,192,191700,1,8,0:0:0:0:
256,192,192108,1,8,0:0:0:0:
256,192,192312,1,8,0:0:0:0:
256,192,192721,1,12,0:0:0:0:
256,192,192925,1,0,0:0:0:0:
256,192,193537,1,4,0:0:0:0:
256,192,193741,1,8,0:0:0:0:
256,192,194353,1,4,0:0:0:0:
256,192,194557,1,8,0:0:0:0:
256,192,195170,1,4,0:0:0:0:
256,192,195986,1,12,0:0:0:0:
256,192,196190,1,0,0:0:0:0:
256,192,196802,1,4,0:0:0:0:
256,192,197006,1,8,0:0:0:0:
256,192,197619,1,4,0:0:0:0:
256,192,197823,1,8,0:0:0:0:
256,192,198435,1,4,0:0:0:0:
256,192,199047,1,0,0:0:0:0:
256,192,199251,1,12,0:0:0:0:
256,192,199659,1,0,0:0:0:0:
256,192,200067,1,8,0:0:0:0:
256,192,200476,1,8,0:0:0:0:
256,192,200884,1,0,0:0:0:0:
256,192,201292,1,8,0:0:0:0:
256,192,201700,1,0,0:0:0:0:
256,192,202108,1,0,0:0:0:0:
256,192,202516,1,12,0:0:0:0:
256,192,202925,1,0,0:0:0:0:
256,192,203129,1,8,0:0:0:0:
256,192,203333,1,0,0:0:0:0:
256,192,203741,1,0,0:0:0:0:
256,192,203945,1,12,0:0:0:0:
256,192,204353,1,4,0:0:0:0:
256,192,204761,1,12,0:0:0:0:
256,192,205170,1,4,0:0:0:0:
256,192,205374,1,4,0:0:0:0:
256,192,209047,1,12,0:0:0:0:
256,192,209455,1,8,0:0:0:0:
256,192,209659,1,0,0:0:0:0:
256,192,209863,1,8,0:0:0:0:
256,192,210272,1,0,0:0:0:0:
256,192,210680,1,8,0:0:0:0:
256,192,211088,1,8,0:0:0:0:
256,192,211292,1,8,0:0:0:0:
256,192,211496,1,0,0:0:0:0:
256,192,211904,1,0,0:0:0:0:
256,192,212312,1,8,0:0:0:0:
256,192,212721,1,0,0:0:0:0:
256,192,213129,1,8,0:0:0:0:
256,192,213537,1,0,0:0:0:0:
256,192,213741,1,8,0:0:0:0:
256,192,214353,1,8,0:0:0:0:
256,192,214557,1,8,0:0:0:0:
256,192,214965,1,8,0:0:0:0:
256,192,215170,1,0,0:0:0:0:
256,192,215578,1,12,0:0:0:0:
256,192,215986,1,0,0:0:0:0:
256,192,216190,1,8,0:0:0:0:
256,192,216394,1,8,0:0:0:0:
256,192,216802,1,0,0:0:0:0:
256,192,217210,1,8,0:0:0:0:
256,192,217619,1,8,0:0:0:0:
256,192,217823,1,0,0:0:0:0:
256,192,218027,1,8,0:0:0:0:
256,192,218435,1,8,0:0:0:0:
256,192,218639,1,0,0:0:0:0:
256,192,219251,1,8,0:0:0:0:
256,192,219659,1,0,0:0:0:0:
256,192,220272,1,0,0:0:0:0:
256,192,220476,1,8,0:0:0:0:
256,192,220884,1,8,0:0:0:0:
256,192,221292,1,0,0:0:0:0:
256,192,221496,1,0,0:0:0:0:
256,192,221700,1,8,0:0:0:0:
256,192,222516,1,12,0:0:0:0:
256,192,222925,1,8,0:0:0:0:
256,192,223333,1,8,0:0:0:0:
256,192,223537,1,8,0:0:0:0:
256,192,223741,1,0,0:0:0:0:
256,192,224149,1,8,0:0:0:0:
256,192,224353,1,0,0:0:0:0:
256,192,224557,1,8,0:0:0:0:
256,192,224965,1,0,0:0:0:0:
256,192,225170,1,8,0:0:0:0:
256,192,225374,1,8,0:0:0:0:
256,192,225782,1,8,0:0:0:0:
256,192,226190,1,0,0:0:0:0:
256,192,226598,1,0,0:0:0:0:
256,192,226802,1,8,0:0:0:0:
256,192,227414,1,0,0:0:0:0:
256,192,227619,1,8,0:0:0:0:
256,192,228027,1,8,0:0:0:0:
256,192,228231,1,8,0:0:0:0:
256,192,228639,1,12,0:0:0:0:
256,192,229047,1,0,0:0:0:0:
256,192,229251,1,0,0:0:0:0:
256,192,229455,1,8,0:0:0:0:
256,192,229863,1,0,0:0:0:0:
256,192,230067,1,8,0:0:0:0:
256,192,230272,1,0,0:0:0:0:
256,192,230680,1,0,0:0:0:0:
256,192,230884,1,8,0:0:0:0:
256,192,231088,1,8,0:0:0:0:
256,192,231496,1,8,0:0:0:0:
256,192,231700,1,0,0:0:0:0:
256,192,232312,1,8,0:0:0:0:
256,192,232721,1,0,0:0:0:0:
256,192,233333,1,0,0:0:0:0:
256,192,233537,1,8,0:0:0:0:
256,192,233741,1,0,0:0:0:0:
256,192,233945,1,0,0:0:0:0:
256,192,234149,1,8,0:0:0:0:
256,192,234353,1,8,0:0:0:0:
256,192,234761,1,0,0:0:0:0:
256,192,234965,1,0,0:0:0:0:
256,192,235170,1,12,0:0:0:0:
256,192,235986,1,12,0:0:0:0:
256,192,236802,1,12,0:0:0:0:
256,192,237414,1,0,0:0:0:0:
256,192,237619,1,12,0:0:0:0:
256,192,238027,1,0,0:0:0:0:
256,192,238435,1,12,0:0:0:0:
256,192,239251,1,12,0:0:0:0:
256,192,240067,1,12,0:0:0:0:
256,192,240680,1,0,0:0:0:0:
256,192,240884,1,12,0:0:0:0:
256,192,241292,1,0,0:0:0:0:
256,192,241700,1,12,0:0:0:0:
256,192,242108,1,12,0:0:0:0:
256,192,242516,1,4,0:0:0:0:
256,192,242925,1,4,0:0:0:0:
256,192,243333,1,12,0:0:0:0:
256,192,243741,1,12,0:0:0:0:
256,192,244149,1,4,0:0:0:0:
256,192,244557,1,4,0:0:0:0:
256,192,244965,1,12,0:0:0:0:
256,192,245374,1,12,0:0:0:0:
256,192,245782,1,4,0:0:0:0:
256,192,246190,1,4,0:0:0:0:
256,192,246394,1,12,0:0:0:0:
