osu file format v14

[General]
AudioFilename: audio.mp3
AudioLeadIn: 0
PreviewTime: 153537
Countdown: 0
SampleSet: Normal
StackLeniency: 0.7
Mode: 1
LetterboxInBreaks: 0
WidescreenStoryboard: 0

[Editor]
Bookmarks: 3129,9863,22925,35986,49047,62108,75170,78435,86598,88231,101292,114353,127414,140476,153537,166598,179659,192721,205782,209047,222516,235170
DistanceSpacing: 1.7
BeatDivisor: 8
GridSize: 32
TimelineZoom: 1.5

[Metadata]
Title:Lagtrain
TitleUnicode:ラグトレイン
Artist:inabakumori
ArtistUnicode:稲葉曇
Creator:doulph
Version:Vagrant Oni
Source:
Tags:kaai yuki 歌愛ユキ nukunuku nigirimeshi ぬくぬくにぎりめし cumori vocaloid rock japanese jrock j-rock poly6c
BeatmapID:2747731
BeatmapSetID:1326266

[Difficulty]
HPDrainRate:5
CircleSize:5
OverallDifficulty:5.5
ApproachRate:5
SliderMultiplier:1.4
SliderTickRate:1

[Events]
//Background and Video events
0,0,"pic.jpg",0,-50
//Break Periods
//Storyboard Layer 0 (Background)
//Storyboard Layer 1 (Fail)
//Storyboard Layer 2 (Pass)
//Storyboard Layer 3 (Foreground)
//Storyboard Layer 4 (Overlay)
//Storyboard Sound Samples

[TimingPoints]
68,408.163265306122,4,1,0,70,1,0
21680,-100,4,1,0,67,0,0
22088,-105.263157894737,4,1,0,65,0,0
22292,-111.111111111111,4,1,0,65,0,0
22496,-117.647058823529,4,1,0,65,0,0
22925,-71.4285714285714,4,1,0,80,0,1
23027,-80,4,1,0,80,0,1
35986,-80,4,1,0,80,0,0
36088,-100,4,1,0,75,0,0
47619,-100,4,1,0,75,0,0
47823,-105.263157894737,4,1,0,75,0,0
48027,-111.111111111111,4,1,0,75,0,0
48231,-117.647058823529,4,1,0,75,0,0
48435,-125,4,1,0,75,0,0
48639,-133.333333333333,4,1,0,75,0,0
49027,-80,4,1,0,75,0,0
49149,-100,4,1,0,70,0,0
60762,-101.818167008267,4,1,0,70,0,0
60864,-103.703672976689,4,1,0,70,0,0
61068,-107.692357396473,4,1,0,70,0,0
61272,-112.000017920003,4,1,0,70,0,0
61476,-116.666647222225,4,1,0,70,0,0
61578,-119.148895608887,4,1,0,70,0,0
61680,-121.739066918748,4,1,0,70,0,0
61884,-127.272773553736,4,1,0,70,0,0
62088,-133.333333333333,4,1,0,70,0,0
62210,-133.103507942952,4,1,0,65,0,0
72292,-133.103507942952,4,1,0,70,0,0
73313,-122.740048850539,4,1,0,75,0,0
73721,-105.910774408991,4,1,0,75,0,0
73925,-99.1157880547635,4,1,0,75,0,0
74027,-96.0350950651406,4,1,0,75,0,0
74129,-93.1401358542022,4,1,0,75,0,0
74537,-83.117781220701,4,1,0,75,0,0
74741,-78.8741814831817,4,1,0,75,0,0
75150,-71.566439061535,4,1,0,75,0,0
77803,-71.4285714285714,4,1,0,80,0,0
78435,-71.4285714285714,4,1,0,80,0,1
78537,-80,4,1,0,80,0,1
86598,-80,4,1,0,80,0,0
86986,-85.6721105581452,4,1,0,75,0,0
87394,-92.2098363920873,4,1,0,72,0,0
87599,-95.8678097944307,4,1,0,71,0,0
87803,-99.8278967060787,4,1,0,70,0,0
88231,-71.4285714285714,4,1,0,80,0,1
88333,-80,4,1,0,80,0,1
101292,-80,4,1,0,80,0,0
101394,-100,4,1,0,75,0,0
108211,-80,4,1,0,75,0,0
108333,-100,4,1,0,75,0,0
112599,-101.807179238666,4,1,0,75,0,0
112701,-103.68098604765,4,1,0,75,0,0
112905,-107.643321700678,4,1,0,75,0,0
113007,-109.740211996142,4,1,0,75,0,0
113109,-111.920545366433,4,1,0,75,0,0
113313,-116.551746644475,4,1,0,75,0,0
113381,-118.181796694219,4,1,0,75,0,0
113449,-119.85808802378,4,1,0,75,0,0
113517,-121.582764427315,4,1,0,75,0,0
113721,-127.067709299577,4,1,0,75,0,0
113925,-133.070917484055,4,1,0,75,0,0
114333,-80,4,1,0,75,0,0
114455,-125,4,1,0,70,0,0
116782,-117.647058823529,4,1,0,70,0,0
116986,-111.111111111111,4,1,0,70,0,0
117190,-105.263157894737,4,1,0,70,0,0
117599,-80,4,1,0,70,0,0
117721,-100,4,1,0,70,0,0
126068,-102.040816326531,4,1,0,70,0,0
126170,-103.703672976689,4,1,0,70,0,0
126374,-107.692357396473,4,1,0,70,0,0
126578,-112.000017920003,4,1,0,70,0,0
126782,-116.666647222225,4,1,0,70,0,0
126986,-121.739066918748,4,1,0,70,0,0
127190,-127.272773553736,4,1,0,70,0,0
127394,-133.333333333333,4,1,0,70,0,0
127516,-133.333333333333,4,1,0,65,0,0
138823,-125,4,1,0,65,0,0
139027,-121.212121212121,4,1,0,65,0,0
139231,-117.647058823529,4,1,0,65,0,0
139435,-114.285714285714,4,1,0,65,0,0
139639,-111.111111111111,4,1,0,65,0,0
140047,-95.2380952380952,4,1,0,65,0,0
140252,-86.9565217391304,4,1,0,66,0,0
140354,-83.3333333333333,4,1,0,68,0,0
140456,-80,4,1,0,70,0,0
140578,-100,4,1,0,70,0,0
146578,-95.2380952380952,4,1,0,70,0,0
146782,-86.9565217391304,4,1,0,70,0,0
146884,-83.3333333333333,4,1,0,70,0,0
146986,-80,4,1,0,70,0,0
147108,-100,4,1,0,70,0,0
151680,-96.1538461538461,4,1,0,75,0,0
152088,-89.2857142857143,4,1,0,75,0,0
152292,-86.2068965517241,4,1,0,75,0,0
152394,-84.7457627118644,4,1,0,75,0,0
152496,-83.3333333333333,4,1,0,75,0,0
152905,-78.125,4,1,0,75,0,0
153109,-75.7575757575758,4,1,0,75,0,0
153313,-73.5294117647059,4,1,0,75,0,0
153415,-72.463768115942,4,1,0,75,0,0
153537,-71.4285714285714,4,1,0,80,0,1
153639,-80,4,1,0,80,0,1
166598,-80,4,1,0,79,0,0
166782,-84.2105263157895,4,1,0,78,0,0
166986,-88.8888888888889,4,1,0,77,0,0
167190,-94.1176470588235,4,1,0,76,0,0
167394,-100,4,1,0,75,0,0
173109,-80,4,1,0,75,0,0
173721,-84.2105263157895,4,1,0,75,0,0
173925,-88.8888888888889,4,1,0,75,0,0
174333,-100,4,1,0,75,0,0
177803,-102.857166367352,4,1,0,75,0,0
177905,-104.347862381865,4,1,0,75,0,0
178007,-105.88240276819,4,1,0,75,0,0
178211,-109.090869421502,4,1,0,75,0,0
178313,-110.769203502965,4,1,0,75,0,0
178415,-112.499985937502,4,1,0,75,0,0
178619,-116.129047242458,4,1,0,75,0,0
178721,-118.032817844674,4,1,0,75,0,0
178823,-120.000048000019,4,1,0,75,0,0
179027,-124.137862544628,4,1,0,75,0,0
179231,-128.571391836745,4,1,0,75,0,0
179435,-133.333333333333,4,1,0,75,0,0
179639,-80,4,1,0,75,0,0
179761,-133.333333333333,4,1,0,65,0,0
182496,-117.647058823529,4,1,0,66,0,0
182701,-95.2380952380952,4,1,0,68,0,0
182905,-80,4,1,0,70,0,0
183027,-100,4,1,0,70,0,0
192088,-95.2380952380952,4,1,0,70,0,0
192292,-90.9090909090909,4,1,0,70,0,0
192414,-100,4,1,0,70,0,0
192701,-100,4,1,0,75,0,0
199639,-111.111111111111,4,1,0,75,0,0
199843,-108.695652173913,4,1,0,75,0,0
200047,-106.382978723404,4,1,0,75,0,0
200252,-104.166666666667,4,1,0,75,0,0
200354,-103.092783505155,4,1,0,75,0,0
200456,-102.040816326531,4,1,0,75,0,0
200660,-100,4,1,0,75,0,0
200864,-98.0392156862745,4,1,0,75,0,0
201068,-96.1538461538461,4,1,0,75,0,0
201170,-95.2380952380952,4,1,0,75,0,0
201272,-94.3396226415094,4,1,0,75,0,0
201476,-92.5925925925926,4,1,0,75,0,0
201680,-90.9090909090909,4,1,0,75,0,0
201884,-89.2857142857143,4,1,0,75,0,0
202088,-87.719298245614,4,1,0,75,0,0
202190,-86.9565217391304,4,1,0,75,0,0
202292,-86.2068965517241,4,1,0,75,0,0
202496,-84.7457627118644,4,1,0,75,0,0
202701,-83.3333333333333,4,1,0,75,0,0
202803,-82.6446280991736,4,1,0,75,0,0
202905,-81.9672131147541,4,1,0,75,0,0
203007,-81.3008130081301,4,1,0,75,0,0
203109,-80.6451612903226,4,1,0,75,0,0
203211,-80,4,1,0,75,0,0
203313,-79.3650793650794,4,1,0,75,0,0
203517,-78.125,4,1,0,75,0,0
203619,-77.5193798449612,4,1,0,75,0,0
203721,-76.9230769230769,4,1,0,75,0,0
203925,-75.7575757575758,4,1,0,75,0,0
204333,-73.5294117647059,4,1,0,75,0,0
204537,-72.463768115942,4,1,0,75,0,0
204639,-71.9424460431655,4,1,0,75,0,0
204741,-71.4285714285714,4,1,0,75,0,0
205150,-71.4285714285714,4,1,0,80,0,0
209047,-71.4285714285714,4,1,0,80,0,1
209149,-80,4,1,0,80,0,1
221700,-80,4,1,0,80,0,0
221884,-88.8888888888889,4,1,0,80,0,0
222088,-100,4,1,0,80,0,0
222516,-71.4285714285714,4,1,0,80,0,1
222619,-80,4,1,0,80,0,1
235170,-80,4,1,0,80,0,0
235272,-100,4,1,0,75,0,0
241578,-99.4827889800925,4,1,0,75,0,0
241680,-98.970802623518,4,1,0,75,0,0
241884,-97.9626703448384,4,1,0,75,0,0
242088,-96.9747749215474,4,1,0,75,0,0
242292,-96.0066974272125,4,1,0,75,0,0
242496,-95.0576667335239,4,1,0,75,0,0
242701,-94.1272148133646,4,1,0,75,0,0
242905,-93.2148882819564,4,1,0,75,0,0
243109,-92.3199921712647,4,1,0,75,0,0
243313,-91.4421153121651,4,1,0,75,0,0
243517,-90.5808588152386,4,1,0,75,0,0
243721,-89.7355940720667,4,1,0,75,0,0
243925,-88.9060378757502,4,1,0,75,0,0
244027,-88.4969065906301,4,1,0,75,0,0
244129,-88.0916011705612,4,1,0,75,0,0
244333,-87.2919505473642,4,1,0,75,0,0
244435,-86.8975825092546,4,1,0,75,0,0
244537,-86.5067618010362,4,1,0,75,0,0
244741,-85.7354991263553,4,1,0,75,0,0
244945,-84.9779397268469,4,1,0,75,0,0
245150,-84.233579716554,4,1,0,75,0,0
245354,-83.5021468401953,4,1,0,75,0,0
245558,-82.7833757736106,4,1,0,75,0,0
245762,-82.0768058333627,4,1,0,75,0,0
246170,-80.6993079227353,4,1,0,80,0,0
246374,-80.0277216027632,4,1,0,80,0,0

[HitObjects]
256,192,3129,5,0,1:0:0:0:
256,192,3231,1,0,1:0:0:0:
256,192,3333,1,8,1:0:0:0:
256,192,3741,1,0,1:0:0:0:
256,192,4149,1,8,1:0:0:0:
256,192,4557,1,8,1:0:0:0:
256,192,4761,1,0,1:0:0:0:
256,192,5170,1,8,1:0:0:0:
256,192,5986,1,0,1:0:0:0:
256,192,6190,1,8,1:0:0:0:
256,192,6598,1,8,1:0:0:0:
256,192,7006,1,0,1:0:0:0:
256,192,7414,1,8,1:0:0:0:
256,192,7823,1,0,1:0:0:0:
256,192,8027,1,0,1:0:0:0:
256,192,9251,1,0,1:0:0:0:
256,192,9455,1,8,1:0:0:0:
256,192,9863,1,0,1:0:0:0:
256,192,10067,1,0,1:0:0:0:
256,192,10272,1,8,1:0:0:0:
256,192,10476,1,0,1:0:0:0:
256,192,10680,1,8,1:0:0:0:
256,192,11088,1,0,1:0:0:0:
256,192,11292,1,0,1:0:0:0:
256,192,11496,1,8,1:0:0:0:
256,192,11904,1,0,1:0:0:0:
256,192,12108,1,8,1:0:0:0:
256,192,12312,1,8,1:0:0:0:
256,192,12721,1,0,1:0:0:0:
256,192,12925,1,8,1:0:0:0:
256,192,13129,1,0,1:0:0:0:
256,192,13537,1,8,1:0:0:0:
256,192,13945,1,0,1:0:0:0:
256,192,14149,1,8,1:0:0:0:
256,192,14353,1,0,1:0:0:0:
256,192,14557,1,8,1:0:0:0:
256,192,14965,1,8,1:0:0:0:
256,192,15170,1,8,1:0:0:0:
256,192,15374,1,8,1:0:0:0:
256,192,15782,1,8,1:0:0:0:
256,192,15986,1,0,1:0:0:0:
256,192,16394,1,0,1:0:0:0:
256,192,16598,1,0,1:0:0:0:
256,192,16802,1,8,1:0:0:0:
256,192,17006,1,8,1:0:0:0:
256,192,17210,1,0,1:0:0:0:
256,192,17619,1,0,1:0:0:0:
256,192,17823,1,0,1:0:0:0:
256,192,18027,1,8,1:0:0:0:
256,192,18231,1,0,1:0:0:0:
256,192,18435,1,0,1:0:0:0:
256,192,18639,1,8,1:0:0:0:
256,192,18843,1,8,1:0:0:0:
256,192,19251,1,8,1:0:0:0:
256,192,19455,1,0,1:0:0:0:
256,192,19863,1,8,1:0:0:0:
256,192,20067,1,8,1:0:0:0:
256,192,20476,1,0,1:0:0:0:
256,192,20680,1,0,1:0:0:0:
256,192,21088,1,0,1:0:0:0:
256,192,21292,1,8,1:0:0:0:
256,192,21700,1,8,1:0:0:0:
256,192,22108,1,8,1:0:0:0:
256,192,22312,1,8,1:0:0:0:
256,192,22516,1,0,1:0:0:0:
256,192,22925,1,12,1:0:0:0:
256,192,23129,1,0,1:0:0:0:
256,192,23231,1,0,1:0:0:0:
256,192,23333,1,8,1:0:0:0:
256,192,23537,1,8,1:0:0:0:
256,192,23639,1,8,1:0:0:0:
256,192,23741,1,0,1:0:0:0:
256,192,23945,1,8,1:0:0:0:
256,192,24149,1,0,1:0:0:0:
256,192,24353,1,0,1:0:0:0:
256,192,24455,1,0,1:0:0:0:
256,192,24557,1,8,1:0:0:0:
256,192,24761,1,8,1:0:0:0:
256,192,24965,1,0,1:0:0:0:
256,192,25170,1,0,1:0:0:0:
256,192,25272,1,8,1:0:0:0:
256,192,25374,1,8,1:0:0:0:
256,192,25782,1,8,1:0:0:0:
256,192,25986,1,0,1:0:0:0:
256,192,26088,1,0,1:0:0:0:
256,192,26190,1,8,1:0:0:0:
256,192,26394,1,0,1:0:0:0:
256,192,26598,1,8,1:0:0:0:
256,192,26802,1,8,1:0:0:0:
256,192,26904,1,8,1:0:0:0:
256,192,27006,1,0,1:0:0:0:
256,192,27210,1,8,1:0:0:0:
256,192,27414,1,0,1:0:0:0:
256,192,27619,1,8,1:0:0:0:
256,192,28027,1,8,1:0:0:0:
256,192,28231,1,8,1:0:0:0:
256,192,28435,1,8,1:0:0:0:
256,192,28843,1,8,1:0:0:0:
256,192,29047,1,0,1:0:0:0:
256,192,29455,1,12,1:0:0:0:
256,192,29659,1,0,1:0:0:0:
256,192,29761,1,0,1:0:0:0:
256,192,29863,1,8,1:0:0:0:
256,192,30067,1,8,1:0:0:0:
256,192,30170,1,8,1:0:0:0:
256,192,30272,1,0,1:0:0:0:
256,192,30476,1,8,1:0:0:0:
256,192,30680,1,0,1:0:0:0:
256,192,30884,1,0,1:0:0:0:
256,192,30986,1,0,1:0:0:0:
256,192,31088,1,8,1:0:0:0:
256,192,31292,1,8,1:0:0:0:
256,192,31496,1,0,1:0:0:0:
256,192,31700,1,8,1:0:0:0:
256,192,31802,1,0,1:0:0:0:
256,192,31904,1,8,1:0:0:0:
256,192,32312,1,8,1:0:0:0:
256,192,32516,1,0,1:0:0:0:
256,192,32721,1,8,1:0:0:0:
256,192,32925,1,0,1:0:0:0:
256,192,33027,1,0,1:0:0:0:
256,192,33129,1,8,1:0:0:0:
256,192,33333,1,0,1:0:0:0:
256,192,33537,1,8,1:0:0:0:
256,192,33639,1,0,1:0:0:0:
256,192,33741,1,0,1:0:0:0:
256,192,33945,1,8,1:0:0:0:
256,192,34149,1,8,1:0:0:0:
256,192,34251,1,0,1:0:0:0:
256,192,34353,1,8,1:0:0:0:
256,192,34557,1,0,1:0:0:0:
256,192,34659,1,0,1:0:0:0:
256,192,34761,1,8,1:0:0:0:
256,192,34863,1,8,1:0:0:0:
256,192,34965,1,0,1:0:0:0:
256,192,35170,1,8,1:0:0:0:
256,192,35374,1,0,1:0:0:0:
256,192,35578,1,8,1:0:0:0:
256,192,35782,1,0,1:0:0:0:
256,192,35986,1,12,1:0:0:0:
256,192,36394,1,0,1:0:0:0:
256,192,36802,1,8,1:0:0:0:
256,192,37210,1,8,1:0:0:0:
256,192,37414,1,0,1:0:0:0:
256,192,37823,1,8,1:0:0:0:
256,192,38027,1,0,1:0:0:0:
256,192,38231,1,8,1:0:0:0:
256,192,38333,1,8,1:0:0:0:
256,192,38435,1,0,1:0:0:0:
256,192,38639,1,8,1:0:0:0:
256,192,38741,1,8,1:0:0:0:
256,192,38843,1,0,1:0:0:0:
256,192,39047,1,0,1:0:0:0:
256,192,39251,1,8,1:0:0:0:
256,192,39659,1,0,1:0:0:0:
256,192,40067,1,8,1:0:0:0:
256,192,40476,1,8,1:0:0:0:
256,192,40680,1,0,1:0:0:0:
256,192,41088,1,0,1:0:0:0:
256,192,41292,1,8,1:0:0:0:
256,192,41496,1,8,1:0:0:0:
256,192,41598,1,0,1:0:0:0:
256,192,41700,1,0,1:0:0:0:
256,192,41904,1,8,1:0:0:0:
256,192,42006,1,0,1:0:0:0:
256,192,42108,1,0,1:0:0:0:
256,192,42312,1,0,1:0:0:0:
256,192,42414,1,0,1:0:0:0:
256,192,42516,1,12,1:0:0:0:
256,192,42925,1,0,1:0:0:0:
256,192,43333,1,8,1:0:0:0:
256,192,43741,1,8,1:0:0:0:
256,192,43945,1,0,1:0:0:0:
256,192,44353,1,8,1:0:0:0:
256,192,44557,1,0,1:0:0:0:
256,192,44761,1,8,1:0:0:0:
256,192,44863,1,8,1:0:0:0:
256,192,44965,1,0,1:0:0:0:
256,192,45170,1,8,1:0:0:0:
256,192,45272,1,8,1:0:0:0:
256,192,45374,1,0,1:0:0:0:
256,192,45578,1,0,1:0:0:0:
256,192,45782,1,8,1:0:0:0:
256,192,46190,1,0,1:0:0:0:
256,192,46598,1,8,1:0:0:0:
256,192,47006,1,0,1:0:0:0:
256,192,47210,1,0,1:0:0:0:
256,192,47619,1,0,1:0:0:0:
256,192,47823,1,8,1:0:0:0:
256,192,48027,1,0,1:0:0:0:
256,192,48231,1,8,1:0:0:0:
256,192,48435,1,0,1:0:0:0:
256,192,48639,1,8,1:0:0:0:
256,192,49047,1,12,1:0:0:0:
256,192,49455,1,0,1:0:0:0:
256,192,49659,1,0,1:0:0:0:
256,192,49863,1,8,1:0:0:0:
256,192,50272,1,8,1:0:0:0:
256,192,50476,1,0,1:0:0:0:
256,192,50884,1,0,1:0:0:0:
256,192,51292,1,8,1:0:0:0:
256,192,51700,1,8,1:0:0:0:
256,192,51904,1,8,1:0:0:0:
256,192,52108,1,0,1:0:0:0:
256,192,52312,1,8,1:0:0:0:
256,192,52721,1,8,1:0:0:0:
256,192,53129,1,0,1:0:0:0:
256,192,53333,1,0,1:0:0:0:
256,192,53537,1,8,1:0:0:0:
256,192,53741,1,0,1:0:0:0:
256,192,53945,1,0,1:0:0:0:
256,192,54149,1,8,1:0:0:0:
256,192,54557,1,8,1:0:0:0:
256,192,54761,1,0,1:0:0:0:
256,192,54965,1,0,1:0:0:0:
256,192,55067,1,0,1:0:0:0:
256,192,55170,1,8,1:0:0:0:
256,192,55374,1,0,1:0:0:0:
256,192,55578,1,8,1:0:0:0:
256,192,55782,1,0,1:0:0:0:
256,192,55986,1,0,1:0:0:0:
256,192,56190,1,8,1:0:0:0:
256,192,56394,1,8,1:0:0:0:
256,192,56802,1,8,1:0:0:0:
256,192,57006,1,0,1:0:0:0:
256,192,57414,1,0,1:0:0:0:
256,192,57823,1,0,1:0:0:0:
256,192,58027,1,8,1:0:0:0:
256,192,58231,1,0,1:0:0:0:
256,192,58435,1,8,1:0:0:0:
256,192,58639,1,0,1:0:0:0:
256,192,58843,1,8,1:0:0:0:
256,192,59251,1,8,1:0:0:0:
256,192,59455,1,0,1:0:0:0:
256,192,59659,1,8,1:0:0:0:
256,192,59863,1,0,1:0:0:0:
256,192,60067,1,8,1:0:0:0:
256,192,60272,1,8,1:0:0:0:
256,192,60680,1,8,1:0:0:0:
256,192,60782,1,8,1:0:0:0:
256,192,60884,1,0,1:0:0:0:
256,192,61088,1,8,1:0:0:0:
256,192,61292,1,0,1:0:0:0:
256,192,61496,1,0,1:0:0:0:
256,192,61598,1,8,1:0:0:0:
256,192,61700,1,0,1:0:0:0:
256,192,61904,1,0,1:0:0:0:
256,192,62108,1,12,1:0:0:0:
256,192,62516,1,0,1:0:0:0:
256,192,62721,1,0,1:0:0:0:
256,192,63333,1,0,1:0:0:0:
256,192,63537,1,8,1:0:0:0:
256,192,64149,1,0,1:0:0:0:
256,192,64353,1,0,1:0:0:0:
256,192,64761,1,0,1:0:0:0:
256,192,64863,1,8,1:0:0:0:
256,192,64965,1,0,1:0:0:0:
256,192,65170,1,8,1:0:0:0:
256,192,65782,1,8,1:0:0:0:
256,192,65884,1,0,1:0:0:0:
256,192,65986,1,8,1:0:0:0:
256,192,66598,1,0,1:0:0:0:
256,192,66802,1,0,1:0:0:0:
256,192,67210,1,0,1:0:0:0:
256,192,67414,1,8,1:0:0:0:
256,192,68027,1,0,1:0:0:0:
256,192,68129,1,8,1:0:0:0:
256,192,68231,1,0,1:0:0:0:
256,192,68435,1,8,1:0:0:0:
256,192,69047,1,8,1:0:0:0:
256,192,69251,1,8,1:0:0:0:
256,192,69863,1,0,1:0:0:0:
256,192,70067,1,8,1:0:0:0:
256,192,70680,1,0,1:0:0:0:
256,192,70884,1,0,1:0:0:0:
256,192,71292,1,8,1:0:0:0:
256,192,71394,1,0,1:0:0:0:
256,192,71496,1,8,1:0:0:0:
256,192,71700,1,8,1:0:0:0:
256,192,72312,1,8,1:0:0:0:
256,192,72516,1,8,1:0:0:0:
256,192,73129,1,8,1:0:0:0:
256,192,73333,1,4,1:0:0:0:
256,192,73741,1,4,1:0:0:0:
256,192,73945,1,8,1:0:0:0:
256,192,74047,1,8,1:0:0:0:
256,192,74149,1,4,1:0:0:0:
256,192,74557,1,4,1:0:0:0:
256,192,74761,1,4,1:0:0:0:
256,192,75170,1,12,1:0:0:0:
256,192,75374,1,12,1:0:0:0:
256,192,77823,1,4,1:0:0:0:
256,192,78027,1,4,1:0:0:0:
256,192,78231,1,4,1:0:0:0:
256,192,78435,1,12,1:0:0:0:
256,192,78639,1,0,1:0:0:0:
256,192,78741,1,0,1:0:0:0:
256,192,78843,1,8,1:0:0:0:
256,192,79047,1,8,1:0:0:0:
256,192,79251,1,0,1:0:0:0:
256,192,79455,1,8,1:0:0:0:
256,192,79557,1,0,1:0:0:0:
256,192,79659,1,0,1:0:0:0:
256,192,79863,1,8,1:0:0:0:
256,192,80272,1,8,1:0:0:0:
256,192,80476,1,0,1:0:0:0:
256,192,80680,1,8,1:0:0:0:
256,192,81088,1,8,1:0:0:0:
256,192,81292,1,0,1:0:0:0:
256,192,81700,1,12,1:0:0:0:
256,192,81904,1,0,1:0:0:0:
256,192,82006,1,0,1:0:0:0:
256,192,82108,1,8,1:0:0:0:
256,192,82312,1,8,1:0:0:0:
256,192,82414,1,8,1:0:0:0:
256,192,82516,1,0,1:0:0:0:
256,192,82721,1,0,1:0:0:0:
256,192,82925,1,8,1:0:0:0:
256,192,83129,1,0,1:0:0:0:
256,192,83231,1,8,1:0:0:0:
256,192,83333,1,0,1:0:0:0:
256,192,83537,1,0,1:0:0:0:
256,192,83741,1,8,1:0:0:0:
256,192,83945,1,8,1:0:0:0:
256,192,84047,1,0,1:0:0:0:
256,192,84149,1,8,1:0:0:0:
256,192,84557,1,8,1:0:0:0:
256,192,84761,1,0,1:0:0:0:
256,192,84965,1,8,1:0:0:0:
256,192,85170,1,0,1:0:0:0:
256,192,85272,1,0,1:0:0:0:
256,192,85374,1,8,1:0:0:0:
256,192,85578,1,0,1:0:0:0:
256,192,85782,1,8,1:0:0:0:
256,192,85884,1,8,1:0:0:0:
256,192,85986,1,0,1:0:0:0:
256,192,86190,1,8,1:0:0:0:
256,192,86394,1,0,1:0:0:0:
256,192,86496,1,8,1:0:0:0:
256,192,86598,1,8,1:0:0:0:
256,192,87006,1,8,1:0:0:0:
256,192,87414,1,8,1:0:0:0:
256,192,87619,1,8,1:0:0:0:
256,192,87823,1,0,1:0:0:0:
256,192,88231,1,12,1:0:0:0:
256,192,88435,1,0,1:0:0:0:
256,192,88537,1,0,1:0:0:0:
256,192,88639,1,8,1:0:0:0:
256,192,88843,1,8,1:0:0:0:
256,192,88945,1,8,1:0:0:0:
256,192,89047,1,0,1:0:0:0:
256,192,89251,1,0,1:0:0:0:
256,192,89455,1,8,1:0:0:0:
256,192,89659,1,0,1:0:0:0:
256,192,89761,1,8,1:0:0:0:
256,192,89863,1,8,1:0:0:0:
256,192,90067,1,0,1:0:0:0:
256,192,90272,1,8,1:0:0:0:
256,192,90476,1,8,1:0:0:0:
256,192,90578,1,0,1:0:0:0:
256,192,90680,1,0,1:0:0:0:
256,192,91088,1,8,1:0:0:0:
256,192,91292,1,0,1:0:0:0:
256,192,91394,1,0,1:0:0:0:
256,192,91496,1,8,1:0:0:0:
256,192,91700,1,0,1:0:0:0:
256,192,91904,1,8,1:0:0:0:
256,192,92108,1,8,1:0:0:0:
256,192,92210,1,8,1:0:0:0:
256,192,92312,1,0,1:0:0:0:
256,192,92516,1,8,1:0:0:0:
256,192,92721,1,0,1:0:0:0:
256,192,92925,1,8,1:0:0:0:
256,192,93333,1,8,1:0:0:0:
256,192,93537,1,0,1:0:0:0:
256,192,93741,1,8,1:0:0:0:
256,192,94149,1,8,1:0:0:0:
256,192,94353,1,0,1:0:0:0:
256,192,94761,1,12,1:0:0:0:
256,192,94965,1,0,1:0:0:0:
256,192,95067,1,0,1:0:0:0:
256,192,95170,1,8,1:0:0:0:
256,192,95374,1,8,1:0:0:0:
256,192,95476,1,8,1:0:0:0:
256,192,95578,1,0,1:0:0:0:
256,192,95782,1,0,1:0:0:0:
256,192,95986,1,8,1:0:0:0:
256,192,96190,1,0,1:0:0:0:
256,192,96292,1,8,1:0:0:0:
256,192,96394,1,0,1:0:0:0:
256,192,96598,1,0,1:0:0:0:
256,192,96802,1,8,1:0:0:0:
256,192,97006,1,8,1:0:0:0:
256,192,97108,1,0,1:0:0:0:
256,192,97210,1,8,1:0:0:0:
256,192,97619,1,8,1:0:0:0:
256,192,97823,1,0,1:0:0:0:
256,192,98027,1,8,1:0:0:0:
256,192,98231,1,8,1:0:0:0:
256,192,98333,1,0,1:0:0:0:
256,192,98435,1,8,1:0:0:0:
256,192,98639,1,0,1:0:0:0:
256,192,98843,1,8,1:0:0:0:
256,192,98945,1,8,1:0:0:0:
256,192,99047,1,0,1:0:0:0:
256,192,99251,1,8,1:0:0:0:
256,192,99455,1,0,1:0:0:0:
256,192,99557,1,8,1:0:0:0:
256,192,99659,1,8,1:0:0:0:
256,192,99863,1,8,1:0:0:0:
256,192,99965,1,8,1:0:0:0:
256,192,100067,1,0,1:0:0:0:
256,192,100170,1,0,1:0:0:0:
256,192,100272,1,8,1:0:0:0:
256,192,100476,1,8,1:0:0:0:
256,192,100680,1,0,1:0:0:0:
256,192,100884,1,8,1:0:0:0:
256,192,101088,1,0,1:0:0:0:
256,192,101292,1,12,1:0:0:0:
256,192,101700,1,0,1:0:0:0:
256,192,102108,1,8,1:0:0:0:
256,192,102516,1,8,1:0:0:0:
256,192,102721,1,0,1:0:0:0:
256,192,103129,1,8,1:0:0:0:
256,192,103333,1,0,1:0:0:0:
256,192,103537,1,8,1:0:0:0:
256,192,103639,1,0,1:0:0:0:
256,192,103741,1,8,1:0:0:0:
256,192,103945,1,8,1:0:0:0:
256,192,104047,1,0,1:0:0:0:
256,192,104149,1,8,1:0:0:0:
256,192,104353,1,0,1:0:0:0:
256,192,104557,1,8,1:0:0:0:
256,192,104965,1,0,1:0:0:0:
256,192,105374,1,8,1:0:0:0:
256,192,105782,1,8,1:0:0:0:
256,192,105986,1,0,1:0:0:0:
256,192,106394,1,0,1:0:0:0:
256,192,106598,1,8,1:0:0:0:
256,192,106802,1,0,1:0:0:0:
256,192,106904,1,8,1:0:0:0:
256,192,107006,1,0,1:0:0:0:
256,192,107210,1,0,1:0:0:0:
256,192,107312,1,8,1:0:0:0:
256,192,107414,1,0,1:0:0:0:
256,192,107619,1,0,1:0:0:0:
256,192,107721,1,0,1:0:0:0:
256,192,107823,1,8,1:0:0:0:
256,192,108231,1,12,1:0:0:0:
256,192,108639,1,0,1:0:0:0:
256,192,109047,1,8,1:0:0:0:
256,192,109251,1,0,1:0:0:0:
256,192,109659,1,8,1:0:0:0:
256,192,109863,1,0,1:0:0:0:
256,192,110067,1,8,1:0:0:0:
256,192,110170,1,0,1:0:0:0:
256,192,110272,1,8,1:0:0:0:
256,192,110476,1,8,1:0:0:0:
256,192,110578,1,0,1:0:0:0:
256,192,110680,1,8,1:0:0:0:
256,192,110884,1,0,1:0:0:0:
256,192,111088,1,8,1:0:0:0:
256,192,111496,1,0,1:0:0:0:
256,192,111904,1,8,1:0:0:0:
256,192,112312,1,0,1:0:0:0:
256,192,112516,1,0,1:0:0:0:
256,192,112619,1,0,1:0:0:0:
256,192,112721,1,8,1:0:0:0:
256,192,112925,1,8,1:0:0:0:
256,192,113027,1,8,1:0:0:0:
256,192,113129,1,0,1:0:0:0:
256,192,113333,1,8,1:0:0:0:
256,192,113401,1,0,1:0:0:0:
256,192,113469,1,0,1:0:0:0:
256,192,113537,1,8,1:0:0:0:
256,192,113741,1,0,1:0:0:0:
256,192,113945,1,8,1:0:0:0:
256,192,114353,1,12,1:0:0:0:
256,192,114761,1,0,1:0:0:0:
256,192,114965,1,8,1:0:0:0:
256,192,115170,1,8,1:0:0:0:
256,192,116598,1,8,1:0:0:0:
256,192,116802,1,0,1:0:0:0:
256,192,117006,1,0,1:0:0:0:
256,192,117210,1,8,1:0:0:0:
256,192,117619,1,12,1:0:0:0:
256,192,118027,1,0,1:0:0:0:
256,192,118435,1,8,1:0:0:0:
256,192,118639,1,0,1:0:0:0:
256,192,118843,1,8,1:0:0:0:
256,192,119047,1,8,1:0:0:0:
256,192,119149,1,0,1:0:0:0:
256,192,119251,1,0,1:0:0:0:
256,192,119455,1,0,1:0:0:0:
256,192,119863,1,8,1:0:0:0:
256,192,120067,1,0,1:0:0:0:
256,192,120272,1,0,1:0:0:0:
256,192,120476,1,8,1:0:0:0:
256,192,120884,1,12,1:0:0:0:
256,192,121088,1,0,1:0:0:0:
256,192,121292,1,0,1:0:0:0:
256,192,121496,1,8,1:0:0:0:
256,192,121700,1,8,1:0:0:0:
256,192,122108,1,8,1:0:0:0:
256,192,122312,1,8,1:0:0:0:
256,192,122414,1,0,1:0:0:0:
256,192,122516,1,0,1:0:0:0:
256,192,122721,1,0,1:0:0:0:
256,192,123129,1,8,1:0:0:0:
256,192,123333,1,8,1:0:0:0:
256,192,123537,1,0,1:0:0:0:
256,192,123741,1,8,1:0:0:0:
256,192,123945,1,0,1:0:0:0:
256,192,124149,1,8,1:0:0:0:
256,192,124557,1,8,1:0:0:0:
256,192,124965,1,8,1:0:0:0:
256,192,125170,1,8,1:0:0:0:
256,192,125374,1,0,1:0:0:0:
256,192,125578,1,8,1:0:0:0:
256,192,125986,1,0,1:0:0:0:
256,192,126088,1,0,1:0:0:0:
256,192,126190,1,8,1:0:0:0:
256,192,126394,1,0,1:0:0:0:
256,192,126598,1,8,1:0:0:0:
256,192,126802,1,8,1:0:0:0:
256,192,127006,1,0,1:0:0:0:
256,192,127210,1,0,1:0:0:0:
256,192,127414,1,12,1:0:0:0:
256,192,127823,1,0,1:0:0:0:
256,192,128027,1,0,1:0:0:0:
256,192,128639,1,0,1:0:0:0:
256,192,128843,1,8,1:0:0:0:
256,192,129455,1,0,1:0:0:0:
256,192,129659,1,0,1:0:0:0:
256,192,130067,1,0,1:0:0:0:
256,192,130476,1,8,1:0:0:0:
256,192,130680,1,0,1:0:0:0:
256,192,130782,1,0,1:0:0:0:
256,192,130884,1,8,1:0:0:0:
256,192,131088,1,0,1:0:0:0:
256,192,131292,1,0,1:0:0:0:
256,192,131700,1,0,1:0:0:0:
256,192,132108,1,0,1:0:0:0:
256,192,132210,1,0,1:0:0:0:
256,192,132312,1,8,1:0:0:0:
256,192,132516,1,0,1:0:0:0:
256,192,132925,1,0,1:0:0:0:
256,192,133333,1,8,1:0:0:0:
256,192,133537,1,8,1:0:0:0:
256,192,133673,1,8,1:0:0:0:
256,192,133809,1,8,1:0:0:0:
256,192,133945,1,4,1:0:0:0:
256,192,134353,1,8,1:0:0:0:
256,192,134557,1,0,1:0:0:0:
256,192,135170,1,0,1:0:0:0:
256,192,135374,1,8,1:0:0:0:
256,192,135986,1,0,1:0:0:0:
256,192,136190,1,0,1:0:0:0:
256,192,136598,1,0,1:0:0:0:
256,192,137006,1,8,1:0:0:0:
256,192,137210,1,0,1:0:0:0:
256,192,137312,1,0,1:0:0:0:
256,192,137414,1,8,1:0:0:0:
256,192,137619,1,0,1:0:0:0:
256,192,137823,1,0,1:0:0:0:
256,192,138231,1,0,1:0:0:0:
256,192,138435,1,8,1:0:0:0:
256,192,138843,1,0,1:0:0:0:
256,192,139047,1,0,1:0:0:0:
256,192,139251,1,8,1:0:0:0:
256,192,139455,1,8,1:0:0:0:
256,192,139659,1,0,1:0:0:0:
256,192,140067,1,8,1:0:0:0:
256,192,140272,1,0,1:0:0:0:
256,192,140374,1,0,1:0:0:0:
256,192,140476,1,12,1:0:0:0:
256,192,140884,1,0,1:0:0:0:
256,192,141088,1,0,1:0:0:0:
256,192,141292,1,8,1:0:0:0:
256,192,141700,1,8,1:0:0:0:
256,192,141802,1,0,1:0:0:0:
256,192,141904,1,8,1:0:0:0:
256,192,142108,1,0,1:0:0:0:
256,192,142516,1,0,1:0:0:0:
256,192,142721,1,0,1:0:0:0:
256,192,143129,1,0,1:0:0:0:
256,192,143333,1,8,1:0:0:0:
256,192,143537,1,0,1:0:0:0:
256,192,143639,1,0,1:0:0:0:
256,192,143741,1,8,1:0:0:0:
256,192,143945,1,0,1:0:0:0:
256,192,144149,1,8,1:0:0:0:
256,192,144251,1,8,1:0:0:0:
256,192,144353,1,0,1:0:0:0:
256,192,144557,1,8,1:0:0:0:
256,192,144761,1,0,1:0:0:0:
256,192,144965,1,0,1:0:0:0:
256,192,145170,1,8,1:0:0:0:
256,192,145578,1,8,1:0:0:0:
256,192,145782,1,8,1:0:0:0:
256,192,146190,1,0,1:0:0:0:
256,192,146598,1,8,1:0:0:0:
256,192,146802,1,0,1:0:0:0:
256,192,146904,1,0,1:0:0:0:
256,192,147006,1,12,1:0:0:0:
256,192,147414,1,0,1:0:0:0:
256,192,147619,1,0,1:0:0:0:
256,192,147823,1,8,1:0:0:0:
256,192,148231,1,8,1:0:0:0:
256,192,148333,1,0,1:0:0:0:
256,192,148435,1,8,1:0:0:0:
256,192,148639,1,0,1:0:0:0:
256,192,149047,1,0,1:0:0:0:
256,192,149251,1,0,1:0:0:0:
256,192,149659,1,0,1:0:0:0:
256,192,149863,1,8,1:0:0:0:
256,192,150067,1,0,1:0:0:0:
256,192,150170,1,0,1:0:0:0:
256,192,150272,1,8,1:0:0:0:
256,192,150476,1,0,1:0:0:0:
256,192,150680,1,8,1:0:0:0:
256,192,150782,1,8,1:0:0:0:
256,192,150884,1,0,1:0:0:0:
256,192,151088,1,8,1:0:0:0:
256,192,151292,1,0,1:0:0:0:
256,192,151496,1,8,1:0:0:0:
256,192,151700,1,4,1:0:0:0:
256,192,152108,1,4,1:0:0:0:
256,192,152312,1,8,1:0:0:0:
256,192,152414,1,8,1:0:0:0:
256,192,152516,1,4,1:0:0:0:
256,192,152925,1,4,1:0:0:0:
256,192,153129,1,4,1:0:0:0:
256,192,153333,1,0,1:0:0:0:
256,192,153435,1,0,1:0:0:0:
256,192,153537,1,12,1:0:0:0:
256,192,153741,1,8,1:0:0:0:
256,192,153843,1,0,1:0:0:0:
256,192,153945,1,8,1:0:0:0:
256,192,154149,1,0,1:0:0:0:
256,192,154251,1,8,1:0:0:0:
256,192,154353,1,0,1:0:0:0:
256,192,154557,1,0,1:0:0:0:
256,192,154761,1,8,1:0:0:0:
256,192,154965,1,8,1:0:0:0:
256,192,155068,1,8,1:0:0:0:
256,192,155170,1,0,1:0:0:0:
256,192,155374,1,0,1:0:0:0:
256,192,155578,1,8,1:0:0:0:
256,192,155782,1,8,1:0:0:0:
256,192,155884,1,0,1:0:0:0:
256,192,155986,1,0,1:0:0:0:
256,192,156394,1,8,1:0:0:0:
256,192,156598,1,0,1:0:0:0:
256,192,156700,1,8,1:0:0:0:
256,192,156802,1,8,1:0:0:0:
256,192,157006,1,8,1:0:0:0:
256,192,157210,1,0,1:0:0:0:
256,192,157414,1,8,1:0:0:0:
256,192,157516,1,8,1:0:0:0:
256,192,157619,1,0,1:0:0:0:
256,192,157823,1,8,1:0:0:0:
256,192,158027,1,0,1:0:0:0:
256,192,158231,1,8,1:0:0:0:
256,192,158639,1,0,1:0:0:0:
256,192,158843,1,8,1:0:0:0:
256,192,159047,1,8,1:0:0:0:
256,192,159455,1,8,1:0:0:0:
256,192,159659,1,0,1:0:0:0:
256,192,160067,1,12,1:0:0:0:
256,192,160272,1,0,1:0:0:0:
256,192,160374,1,8,1:0:0:0:
256,192,160476,1,0,1:0:0:0:
256,192,160680,1,8,1:0:0:0:
256,192,160782,1,0,1:0:0:0:
256,192,160884,1,8,1:0:0:0:
256,192,161088,1,0,1:0:0:0:
256,192,161292,1,8,1:0:0:0:
256,192,161496,1,0,1:0:0:0:
256,192,161598,1,0,1:0:0:0:
256,192,161700,1,8,1:0:0:0:
256,192,161904,1,0,1:0:0:0:
256,192,162108,1,8,1:0:0:0:
256,192,162312,1,0,1:0:0:0:
256,192,162414,1,8,1:0:0:0:
256,192,162516,1,8,1:0:0:0:
256,192,162925,1,8,1:0:0:0:
256,192,163129,1,0,1:0:0:0:
256,192,163333,1,8,1:0:0:0:
256,192,163537,1,0,1:0:0:0:
256,192,163639,1,8,1:0:0:0:
256,192,163741,1,0,1:0:0:0:
256,192,163945,1,8,1:0:0:0:
256,192,164149,1,0,1:0:0:0:
256,192,164251,1,0,1:0:0:0:
256,192,164353,1,8,1:0:0:0:
256,192,164557,1,0,1:0:0:0:
256,192,164761,1,8,1:0:0:0:
256,192,164863,1,8,1:0:0:0:
256,192,164965,1,0,1:0:0:0:
256,192,165170,1,0,1:0:0:0:
256,192,165272,1,0,1:0:0:0:
256,192,165374,1,8,1:0:0:0:
256,192,165476,1,8,1:0:0:0:
256,192,165578,1,0,1:0:0:0:
256,192,165782,1,8,1:0:0:0:
256,192,165986,1,0,1:0:0:0:
256,192,166190,1,8,1:0:0:0:
256,192,166394,1,8,1:0:0:0:
256,192,166598,1,0,1:0:0:0:
256,192,166802,1,0,1:0:0:0:
256,192,167006,1,12,1:0:0:0:
256,192,167210,1,0,1:0:0:0:
256,192,167414,1,8,1:0:0:0:
256,192,167823,1,8,1:0:0:0:
256,192,168027,1,0,1:0:0:0:
256,192,168231,1,8,1:0:0:0:
256,192,168639,1,8,1:0:0:0:
256,192,168843,1,0,1:0:0:0:
256,192,169047,1,0,1:0:0:0:
256,192,169455,1,0,1:0:0:0:
256,192,169659,1,8,1:0:0:0:
256,192,170067,1,8,1:0:0:0:
256,192,170272,1,8,1:0:0:0:
256,192,170476,1,0,1:0:0:0:
256,192,170680,1,8,1:0:0:0:
256,192,171088,1,0,1:0:0:0:
256,192,171292,1,8,1:0:0:0:
256,192,171700,1,8,1:0:0:0:
256,192,171904,1,0,1:0:0:0:
256,192,172108,1,8,1:0:0:0:
256,192,172516,1,8,1:0:0:0:
256,192,172721,1,0,1:0:0:0:
256,192,172925,1,0,1:0:0:0:
256,192,173129,1,0,1:0:0:0:
256,192,173231,1,0,1:0:0:0:
256,192,173333,1,0,1:0:0:0:
256,192,173537,1,12,1:0:0:0:
256,192,173741,1,0,1:0:0:0:
256,192,173945,1,8,1:0:0:0:
256,192,174353,1,0,1:0:0:0:
256,192,174557,1,0,1:0:0:0:
256,192,174761,1,8,1:0:0:0:
256,192,175170,1,0,1:0:0:0:
256,192,175374,1,8,1:0:0:0:
256,192,175578,1,8,1:0:0:0:
256,192,175986,1,0,1:0:0:0:
256,192,176190,1,8,1:0:0:0:
256,192,176598,1,8,1:0:0:0:
256,192,176802,1,8,1:0:0:0:
256,192,177006,1,0,1:0:0:0:
256,192,177210,1,8,1:0:0:0:
256,192,177619,1,8,1:0:0:0:
256,192,177823,1,0,1:0:0:0:
256,192,177925,1,0,1:0:0:0:
256,192,178027,1,12,1:0:0:0:
256,192,178231,1,8,1:0:0:0:
256,192,178333,1,0,1:0:0:0:
256,192,178435,1,8,1:0:0:0:
256,192,178639,1,0,1:0:0:0:
256,192,178741,1,8,1:0:0:0:
256,192,178843,1,0,1:0:0:0:
256,192,179047,1,8,1:0:0:0:
256,192,179251,1,8,1:0:0:0:
256,192,179455,1,0,1:0:0:0:
256,192,179659,1,12,1:0:0:0:
256,192,180067,1,0,1:0:0:0:
256,192,180272,1,0,1:0:0:0:
256,192,180884,1,8,1:0:0:0:
256,192,181088,1,8,1:0:0:0:
256,192,181700,1,0,1:0:0:0:
256,192,181904,1,8,1:0:0:0:
256,192,182516,1,8,1:0:0:0:
256,192,182721,1,0,1:0:0:0:
256,192,182925,1,12,1:0:0:0:
256,192,183333,1,8,1:0:0:0:
256,192,183537,1,8,1:0:0:0:
256,192,183741,1,0,1:0:0:0:
256,192,184149,1,8,1:0:0:0:
256,192,184353,1,0,1:0:0:0:
256,192,184455,1,0,1:0:0:0:
256,192,184557,1,8,1:0:0:0:
256,192,184761,1,0,1:0:0:0:
256,192,184965,1,8,1:0:0:0:
256,192,185170,1,0,1:0:0:0:
256,192,185578,1,0,1:0:0:0:
256,192,185782,1,8,1:0:0:0:
256,192,185986,1,0,1:0:0:0:
256,192,186190,1,12,1:0:0:0:
256,192,186598,1,0,1:0:0:0:
256,192,186802,1,0,1:0:0:0:
256,192,187006,1,8,1:0:0:0:
256,192,187414,1,8,1:0:0:0:
256,192,187619,1,8,1:0:0:0:
256,192,187721,1,8,1:0:0:0:
256,192,187823,1,0,1:0:0:0:
256,192,188027,1,0,1:0:0:0:
256,192,188231,1,8,1:0:0:0:
256,192,188435,1,0,1:0:0:0:
256,192,188843,1,8,1:0:0:0:
256,192,189047,1,0,1:0:0:0:
256,192,189251,1,0,1:0:0:0:
256,192,189455,1,12,1:0:0:0:
256,192,189863,1,8,1:0:0:0:
256,192,190068,1,8,1:0:0:0:
256,192,190272,1,0,1:0:0:0:
256,192,190680,1,8,1:0:0:0:
256,192,190884,1,8,1:0:0:0:
256,192,190986,1,0,1:0:0:0:
256,192,191088,1,0,1:0:0:0:
256,192,191292,1,0,1:0:0:0:
256,192,191496,1,0,1:0:0:0:
256,192,191598,1,0,1:0:0:0:
256,192,191700,1,8,1:0:0:0:
256,192,191904,1,0,1:0:0:0:
256,192,192108,1,8,1:0:0:0:
256,192,192312,1,8,1:0:0:0:
256,192,192721,1,12,1:0:0:0:
256,192,192925,1,4,1:0:0:0:
256,192,193129,1,0,1:0:0:0:
256,192,193333,1,0,1:0:0:0:
256,192,193537,1,4,1:0:0:0:
256,192,193741,1,4,1:0:0:0:
256,192,193945,1,8,1:0:0:0:
256,192,194149,1,8,1:0:0:0:
256,192,194353,1,4,1:0:0:0:
256,192,194557,1,4,1:0:0:0:
256,192,194761,1,8,1:0:0:0:
256,192,194965,1,8,1:0:0:0:
256,192,195170,1,4,1:0:0:0:
256,192,195374,1,4,1:0:0:0:
256,192,195578,1,8,1:0:0:0:
256,192,195782,1,0,1:0:0:0:
256,192,195986,1,12,1:0:0:0:
256,192,196190,1,4,1:0:0:0:
256,192,196394,1,0,1:0:0:0:
256,192,196598,1,0,1:0:0:0:
256,192,196802,1,4,1:0:0:0:
256,192,197006,1,4,1:0:0:0:
256,192,197210,1,8,1:0:0:0:
256,192,197414,1,0,1:0:0:0:
256,192,197619,1,4,1:0:0:0:
256,192,197823,1,4,1:0:0:0:
256,192,198027,1,8,1:0:0:0:
256,192,198231,1,0,1:0:0:0:
256,192,198435,1,4,1:0:0:0:
256,192,198639,1,4,1:0:0:0:
256,192,198843,1,0,1:0:0:0:
256,192,199047,1,8,1:0:0:0:
256,192,199251,1,12,1:0:0:0:
256,192,199659,1,0,1:0:0:0:
256,192,199863,1,0,1:0:0:0:
256,192,200067,1,8,1:0:0:0:
256,192,200272,1,0,1:0:0:0:
256,192,200374,1,0,1:0:0:0:
256,192,200476,1,8,1:0:0:0:
256,192,200680,1,0,1:0:0:0:
256,192,200884,1,8,1:0:0:0:
256,192,201088,1,0,1:0:0:0:
256,192,201190,1,8,1:0:0:0:
256,192,201292,1,8,1:0:0:0:
256,192,201496,1,0,1:0:0:0:
256,192,201700,1,0,1:0:0:0:
256,192,201904,1,8,1:0:0:0:
256,192,202108,1,0,1:0:0:0:
256,192,202210,1,0,1:0:0:0:
256,192,202312,1,8,1:0:0:0:
256,192,202516,1,12,1:0:0:0:
256,192,202721,1,0,1:0:0:0:
256,192,202823,1,0,1:0:0:0:
256,192,202925,1,8,1:0:0:0:
256,192,203027,1,8,1:0:0:0:
256,192,203129,1,0,1:0:0:0:
256,192,203231,1,0,1:0:0:0:
256,192,203333,1,8,1:0:0:0:
256,192,203537,1,8,1:0:0:0:
256,192,203639,1,8,1:0:0:0:
256,192,203741,1,4,1:0:0:0:
256,192,203945,1,12,1:0:0:0:
256,192,204353,1,4,1:0:0:0:
256,192,204557,1,0,1:0:0:0:
256,192,204659,1,0,1:0:0:0:
256,192,204761,1,12,1:0:0:0:
256,192,205170,1,4,1:0:0:0:
256,192,205374,1,4,1:0:0:0:
256,192,209047,1,12,1:0:0:0:
256,192,209251,1,8,1:0:0:0:
256,192,209353,1,8,1:0:0:0:
256,192,209455,1,0,1:0:0:0:
256,192,209659,1,0,1:0:0:0:
256,192,209761,1,8,1:0:0:0:
256,192,209863,1,8,1:0:0:0:
256,192,210067,1,8,1:0:0:0:
256,192,210272,1,0,1:0:0:0:
256,192,210476,1,8,1:0:0:0:
256,192,210578,1,0,1:0:0:0:
256,192,210680,1,8,1:0:0:0:
256,192,210884,1,8,1:0:0:0:
256,192,211088,1,0,1:0:0:0:
256,192,211292,1,8,1:0:0:0:
256,192,211394,1,0,1:0:0:0:
256,192,211496,1,0,1:0:0:0:
256,192,211904,1,8,1:0:0:0:
256,192,212108,1,0,1:0:0:0:
256,192,212210,1,0,1:0:0:0:
256,192,212312,1,8,1:0:0:0:
256,192,212516,1,0,1:0:0:0:
256,192,212721,1,8,1:0:0:0:
256,192,212925,1,8,1:0:0:0:
256,192,213027,1,8,1:0:0:0:
256,192,213129,1,0,1:0:0:0:
256,192,213333,1,8,1:0:0:0:
256,192,213435,1,0,1:0:0:0:
256,192,213537,1,0,1:0:0:0:
256,192,213741,1,8,1:0:0:0:
256,192,214149,1,8,1:0:0:0:
256,192,214353,1,0,1:0:0:0:
256,192,214557,1,8,1:0:0:0:
256,192,214965,1,8,1:0:0:0:
256,192,215170,1,8,1:0:0:0:
256,192,215578,1,12,1:0:0:0:
256,192,215782,1,0,1:0:0:0:
256,192,215884,1,8,1:0:0:0:
256,192,215986,1,8,1:0:0:0:
256,192,216190,1,8,1:0:0:0:
256,192,216292,1,8,1:0:0:0:
256,192,216394,1,0,1:0:0:0:
256,192,216598,1,0,1:0:0:0:
256,192,216802,1,8,1:0:0:0:
256,192,217006,1,0,1:0:0:0:
256,192,217108,1,8,1:0:0:0:
256,192,217210,1,0,1:0:0:0:
256,192,217414,1,0,1:0:0:0:
256,192,217619,1,8,1:0:0:0:
256,192,217823,1,8,1:0:0:0:
256,192,217925,1,0,1:0:0:0:
256,192,218027,1,8,1:0:0:0:
256,192,218435,1,8,1:0:0:0:
256,192,218639,1,0,1:0:0:0:
256,192,218843,1,8,1:0:0:0:
256,192,219047,1,0,1:0:0:0:
256,192,219149,1,0,1:0:0:0:
256,192,219251,1,8,1:0:0:0:
256,192,219455,1,0,1:0:0:0:
256,192,219659,1,8,1:0:0:0:
256,192,219761,1,8,1:0:0:0:
256,192,219863,1,0,1:0:0:0:
256,192,220067,1,8,1:0:0:0:
256,192,220272,1,0,1:0:0:0:
256,192,220374,1,8,1:0:0:0:
256,192,220476,1,8,1:0:0:0:
256,192,220680,1,0,1:0:0:0:
256,192,220782,1,0,1:0:0:0:
256,192,220884,1,8,1:0:0:0:
256,192,220986,1,8,1:0:0:0:
256,192,221088,1,0,1:0:0:0:
256,192,221292,1,8,1:0:0:0:
256,192,221394,1,8,1:0:0:0:
256,192,221496,1,0,1:0:0:0:
256,192,221700,1,8,1:0:0:0:
256,192,221904,1,8,1:0:0:0:
256,192,222108,1,4,1:0:0:0:
256,192,222516,1,12,1:0:0:0:
256,192,222721,1,0,1:0:0:0:
256,192,222823,1,0,1:0:0:0:
256,192,222925,1,8,1:0:0:0:
256,192,223129,1,0,1:0:0:0:
256,192,223333,1,8,1:0:0:0:
256,192,223537,1,8,1:0:0:0:
256,192,223639,1,8,1:0:0:0:
256,192,223741,1,0,1:0:0:0:
256,192,223945,1,8,1:0:0:0:
256,192,224149,1,0,1:0:0:0:
256,192,224251,1,0,1:0:0:0:
256,192,224353,1,8,1:0:0:0:
256,192,224455,1,8,1:0:0:0:
256,192,224557,1,0,1:0:0:0:
256,192,224761,1,8,1:0:0:0:
256,192,224863,1,0,1:0:0:0:
256,192,224965,1,8,1:0:0:0:
256,192,225170,1,0,1:0:0:0:
256,192,225374,1,8,1:0:0:0:
256,192,225578,1,0,1:0:0:0:
256,192,225680,1,8,1:0:0:0:
256,192,225782,1,0,1:0:0:0:
256,192,225986,1,0,1:0:0:0:
256,192,226190,1,8,1:0:0:0:
256,192,226394,1,8,1:0:0:0:
256,192,226496,1,8,1:0:0:0:
256,192,226598,1,0,1:0:0:0:
256,192,226700,1,0,1:0:0:0:
256,192,226802,1,8,1:0:0:0:
256,192,227210,1,8,1:0:0:0:
256,192,227312,1,8,1:0:0:0:
256,192,227414,1,0,1:0:0:0:
256,192,227619,1,8,1:0:0:0:
256,192,227823,1,0,1:0:0:0:
256,192,228027,1,8,1:0:0:0:
256,192,228129,1,0,1:0:0:0:
256,192,228231,1,8,1:0:0:0:
256,192,228639,1,12,1:0:0:0:
256,192,228843,1,0,1:0:0:0:
256,192,228945,1,8,1:0:0:0:
256,192,229047,1,0,1:0:0:0:
256,192,229251,1,0,1:0:0:0:
256,192,229353,1,0,1:0:0:0:
256,192,229455,1,8,1:0:0:0:
256,192,229659,1,0,1:0:0:0:
256,192,229863,1,8,1:0:0:0:
256,192,230067,1,8,1:0:0:0:
256,192,230170,1,0,1:0:0:0:
256,192,230272,1,8,1:0:0:0:
256,192,230476,1,0,1:0:0:0:
256,192,230680,1,8,1:0:0:0:
256,192,230782,1,8,1:0:0:0:
256,192,230884,1,0,1:0:0:0:
256,192,230986,1,0,1:0:0:0:
256,192,231088,1,8,1:0:0:0:
256,192,231496,1,8,1:0:0:0:
256,192,231598,1,8,1:0:0:0:
256,192,231700,1,0,1:0:0:0:
256,192,231904,1,0,1:0:0:0:
256,192,232108,1,0,1:0:0:0:
256,192,232210,1,8,1:0:0:0:
256,192,232312,1,0,1:0:0:0:
256,192,232516,1,8,1:0:0:0:
256,192,232721,1,8,1:0:0:0:
256,192,232823,1,0,1:0:0:0:
256,192,232925,1,8,1:0:0:0:
256,192,233129,1,0,1:0:0:0:
256,192,233333,1,0,1:0:0:0:
256,192,233435,1,8,1:0:0:0:
256,192,233537,1,8,1:0:0:0:
256,192,233741,1,0,1:0:0:0:
256,192,233843,1,0,1:0:0:0:
256,192,233945,1,8,1:0:0:0:
256,192,234047,1,8,1:0:0:0:
256,192,234149,1,0,1:0:0:0:
256,192,234353,1,8,1:0:0:0:
256,192,234557,1,0,1:0:0:0:
256,192,234761,1,4,1:0:0:0:
256,192,234965,1,0,1:0:0:0:
256,192,235170,1,12,1:0:0:0:
256,192,235578,1,0,1:0:0:0:
256,192,235986,1,12,1:0:0:0:
256,192,236394,1,8,1:0:0:0:
256,192,236598,1,0,1:0:0:0:
256,192,236802,1,12,1:0:0:0:
256,192,237006,1,8,1:0:0:0:
256,192,237414,1,0,1:0:0:0:
256,192,237619,1,12,1:0:0:0:
256,192,237823,1,0,1:0:0:0:
256,192,237925,1,8,1:0:0:0:
256,192,238027,1,8,1:0:0:0:
256,192,238231,1,0,1:0:0:0:
256,192,238435,1,12,1:0:0:0:
256,192,238843,1,0,1:0:0:0:
256,192,239251,1,12,1:0:0:0:
256,192,239659,1,8,1:0:0:0:
256,192,239863,1,0,1:0:0:0:
256,192,240067,1,12,1:0:0:0:
256,192,240272,1,0,1:0:0:0:
256,192,240680,1,0,1:0:0:0:
256,192,240884,1,12,1:0:0:0:
256,192,241088,1,0,1:0:0:0:
256,192,241292,1,8,1:0:0:0:
256,192,241496,1,0,1:0:0:0:
256,192,241598,1,0,1:0:0:0:
256,192,241700,1,12,1:0:0:0:
256,192,241904,1,8,1:0:0:0:
256,192,242108,1,4,1:0:0:0:
256,192,242312,1,0,1:0:0:0:
256,192,242516,1,12,1:0:0:0:
256,192,242721,1,8,1:0:0:0:
256,192,242925,1,4,1:0:0:0:
256,192,243129,1,0,1:0:0:0:
256,192,243231,1,0,1:0:0:0:
256,192,243333,1,12,1:0:0:0:
256,192,243537,1,8,1:0:0:0:
256,192,243741,1,4,1:0:0:0:
256,192,243945,1,0,1:0:0:0:
256,192,244149,1,12,1:0:0:0:
256,192,244353,1,8,1:0:0:0:
256,192,244455,1,8,1:0:0:0:
256,192,244557,1,4,1:0:0:0:
256,192,244761,1,0,1:0:0:0:
256,192,244965,1,12,1:0:0:0:
256,192,245170,1,0,1:0:0:0:
256,192,245374,1,12,1:0:0:0:
256,192,245578,1,8,1:0:0:0:
256,192,245782,1,4,1:0:0:0:
256,192,246190,1,4,1:0:0:0:
256,192,246394,1,12,1:0:0:0:
