osu file format v14

[General]
AudioFilename: audio.mp3
AudioLeadIn: 0
PreviewTime: 74965
Countdown: 0
SampleSet: Soft
StackLeniency: 0.4
Mode: 0
LetterboxInBreaks: 0
WidescreenStoryboard: 0

[Editor]
Bookmarks: 200038,205753,205957,206161,206365,206569,206977,207181,207385,207794,207998,208202
DistanceSpacing: 1
BeatDivisor: 12
GridSize: 8
TimelineZoom: 1.8

[Metadata]
Title:Lagtrain
TitleUnicode:ラグトレイン
Artist:inabakumori
ArtistUnicode:稲葉曇
Creator:Shii
Version:Repetition
Source:
Tags:japanese rock jrock shiitsuin mindmaster107 apo11o apollo Kaai Yuki 歌愛ユキ nukunuku nigirimeshi ぬくぬくにぎりめし VOCALOID cumori
BeatmapID:2722655
BeatmapSetID:1313664

[Difficulty]
HPDrainRate:5
CircleSize:5
OverallDifficulty:9
ApproachRate:8.5
SliderMultiplier:1.7
SliderTickRate:1

[Events]
//Background and Video events
0,0,"BG.jpg",0,0
Video,29,"video.mp4"
//Break Periods
//Storyboard Layer 0 (Background)
//Storyboard Layer 1 (Fail)
//Storyboard Layer 2 (Pass)
//Storyboard Layer 3 (Foreground)
//Storyboard Layer 4 (Overlay)
//Storyboard Sound Samples

[TimingPoints]
68,408.163265306122,4,2,1,60,1,0
10170,-100,4,2,1,5,0,0
10272,-100,4,2,1,60,0,0
16292,-100,4,2,1,5,0,0
16394,-100,4,2,1,60,0,0
22925,-80,4,2,1,79,0,1
23027,-80,4,2,1,5,0,1
23129,-80,4,2,1,79,0,1
23231,-80,4,2,1,5,0,1
23333,-80,4,2,1,79,0,1
23435,-80,4,2,1,5,0,1
23537,-80,4,2,1,79,0,1
23639,-80,4,2,1,5,0,1
23741,-80,4,2,1,79,0,1
23843,-80,4,2,1,5,0,1
23945,-80,4,2,1,79,0,1
24047,-80,4,2,1,5,0,1
24149,-80,4,2,1,79,0,1
24251,-80,4,2,1,5,0,1
24353,-80,4,2,1,79,0,1
24455,-80,4,2,1,5,0,1
24557,-80,4,2,1,79,0,1
24659,-80,4,2,1,5,0,1
24761,-80,4,2,1,79,0,1
24863,-80,4,2,1,5,0,1
24965,-80,4,2,1,79,0,1
25067,-80,4,2,1,5,0,1
25170,-80,4,2,1,79,0,1
25272,-80,4,2,1,5,0,1
25374,-80,4,2,1,79,0,1
25476,-80,4,2,1,5,0,1
25578,-80,4,2,1,79,0,1
25680,-80,4,2,1,5,0,1
25782,-80,4,2,1,79,0,1
25884,-80,4,2,1,5,0,1
25986,-80,4,2,1,79,0,1
26088,-80,4,2,1,79,0,1
26190,-80,4,2,1,79,0,1
28741,-80,4,2,1,5,0,1
28843,-80,4,2,1,79,0,1
29557,-80,4,2,1,5,0,1
29659,-80,4,2,1,79,0,1
29761,-80,4,2,1,5,0,1
29863,-80,4,2,1,79,0,1
29965,-80,4,2,1,5,0,1
30067,-80,4,2,1,79,0,1
30170,-80,4,2,1,5,0,1
30272,-80,4,2,1,79,0,1
30374,-80,4,2,1,5,0,1
30476,-80,4,2,1,79,0,1
30578,-80,4,2,1,5,0,1
30680,-80,4,2,1,79,0,1
30782,-80,4,2,1,5,0,1
30884,-80,4,2,1,79,0,1
30986,-80,4,2,1,5,0,1
31088,-80,4,2,1,79,0,1
31190,-80,4,2,1,5,0,1
31292,-80,4,2,1,79,0,1
31394,-80,4,2,1,5,0,1
31496,-80,4,2,1,79,0,1
31598,-80,4,2,1,5,0,1
31700,-80,4,2,1,79,0,1
31802,-80,4,2,1,5,0,1
31904,-80,4,2,1,79,0,1
32006,-80,4,2,1,5,0,1
32108,-80,4,2,1,79,0,1
32210,-80,4,2,1,5,0,1
32312,-80,4,2,1,79,0,1
32414,-80,4,2,1,5,0,1
32516,-80,4,2,1,79,0,1
32619,-80,4,2,1,5,0,1
32721,-80,4,2,1,79,0,1
33639,-80,4,2,1,5,0,1
33741,-80,4,2,1,79,0,1
33843,-80,4,2,1,5,0,1
33945,-80,4,2,1,79,0,1
35986,-100,4,2,1,71,0,0
37312,-100,4,2,1,5,0,0
37414,-100,4,2,1,71,0,0
38945,-100,4,2,1,5,0,0
39047,-100,4,2,1,71,0,0
40578,-100,4,2,1,5,0,0
40680,-100,4,2,1,71,0,0
42210,-100,4,2,1,5,0,0
42312,-100,4,2,1,71,0,0
43843,-100,4,2,1,5,0,0
43945,-100,4,2,1,71,0,0
45476,-100,4,2,1,5,0,0
45578,-100,4,2,1,71,0,0
47108,-100,4,2,1,5,0,0
47210,-100,4,2,1,71,0,0
47414,-250,4,2,1,49,0,0
48639,-166.666666666667,4,2,1,55,0,0
49047,-100,4,2,1,60,0,0
62108,-133.333333333333,4,2,1,54,0,0
68639,-111.111111111111,4,2,1,60,0,0
73129,-111.111111111111,4,2,1,69,0,0
75272,-111.111111111111,4,2,1,48,0,0
77823,-111.111111111111,4,2,1,59,0,0
78027,-111.111111111111,4,2,1,68,0,0
78231,-111.111111111111,4,2,1,76,0,0
78435,-80,4,2,1,79,0,1
78537,-80,4,2,1,5,0,1
78639,-80,4,2,1,79,0,1
78741,-80,4,2,1,5,0,1
78843,-80,4,2,1,79,0,1
78945,-80,4,2,1,5,0,1
79047,-80,4,2,1,79,0,1
79149,-80,4,2,1,5,0,1
79251,-80,4,2,1,79,0,1
79353,-80,4,2,1,5,0,1
79455,-80,4,2,1,79,0,1
79557,-80,4,2,1,5,0,1
79659,-80,4,2,1,79,0,1
79761,-80,4,2,1,5,0,1
79863,-80,4,2,1,79,0,1
79965,-80,4,2,1,5,0,1
80067,-80,4,2,1,79,0,1
80170,-80,4,2,1,5,0,1
80272,-80,4,2,1,79,0,1
80374,-80,4,2,1,5,0,1
80476,-80,4,2,1,79,0,1
80578,-80,4,2,1,5,0,1
80680,-80,4,2,1,79,0,1
80782,-80,4,2,1,5,0,1
80884,-80,4,2,1,79,0,1
80986,-80,4,2,1,5,0,1
81088,-80,4,2,1,79,0,1
81190,-80,4,2,1,5,0,1
81292,-80,4,2,1,79,0,1
81394,-80,4,2,1,5,0,1
81496,-80,4,2,1,79,0,1
81802,-80,4,2,1,5,0,1
81904,-80,4,2,1,79,0,1
82006,-80,4,2,1,5,0,1
82108,-80,4,2,1,79,0,1
82210,-80,4,2,1,5,0,1
82312,-80,4,2,1,79,0,1
82414,-80,4,2,1,5,0,1
82516,-80,4,2,1,79,0,1
82619,-80,4,2,1,5,0,1
82721,-80,4,2,1,79,0,1
82823,-80,4,2,1,5,0,1
82925,-80,4,2,1,79,0,1
83027,-80,4,2,1,5,0,1
83129,-80,4,2,1,79,0,1
83231,-80,4,2,1,5,0,1
83333,-80,4,2,1,79,0,1
83435,-80,4,2,1,5,0,1
83537,-80,4,2,1,79,0,1
83639,-80,4,2,1,5,0,1
83741,-80,4,2,1,79,0,1
83843,-80,4,2,1,5,0,1
83945,-80,4,2,1,79,0,1
84047,-80,4,2,1,5,0,1
84149,-80,4,2,1,79,0,1
84251,-80,4,2,1,5,0,1
84353,-80,4,2,1,79,0,1
84455,-80,4,2,1,5,0,1
84557,-80,4,2,1,79,0,1
84659,-80,4,2,1,5,0,1
84761,-80,4,2,1,79,0,1
84863,-80,4,2,1,5,0,1
84965,-80,4,2,1,79,0,1
86598,-100,4,2,1,57,0,0
88231,-74.0740740740741,4,2,1,81,0,1
88333,-74.0740740740741,4,2,1,5,0,1
88435,-74.0740740740741,4,2,1,81,0,1
88537,-74.0740740740741,4,2,1,5,0,1
88639,-74.0740740740741,4,2,1,81,0,1
88741,-74.0740740740741,4,2,1,5,0,1
88843,-74.0740740740741,4,2,1,81,0,1
88945,-74.0740740740741,4,2,1,5,0,1
89047,-74.0740740740741,4,2,1,81,0,1
89149,-74.0740740740741,4,2,1,5,0,1
89251,-74.0740740740741,4,2,1,81,0,1
89353,-74.0740740740741,4,2,1,5,0,1
89455,-74.0740740740741,4,2,1,81,0,1
89557,-74.0740740740741,4,2,1,5,0,1
89659,-74.0740740740741,4,2,1,81,0,1
89761,-74.0740740740741,4,2,1,5,0,1
89863,-74.0740740740741,4,2,1,81,0,1
89965,-74.0740740740741,4,2,1,5,0,1
90067,-74.0740740740741,4,2,1,81,0,1
90170,-74.0740740740741,4,2,1,5,0,1
90272,-74.0740740740741,4,2,1,81,0,1
90374,-74.0740740740741,4,2,1,5,0,1
90476,-74.0740740740741,4,2,1,81,0,1
90578,-74.0740740740741,4,2,1,5,0,1
90680,-74.0740740740741,4,2,1,81,0,1
90782,-74.0740740740741,4,2,1,5,0,1
90884,-74.0740740740741,4,2,1,81,0,1
90986,-74.0740740740741,4,2,1,5,0,1
91088,-74.0740740740741,4,2,1,81,0,1
91190,-74.0740740740741,4,2,1,5,0,1
91292,-74.0740740740741,4,2,1,81,0,1
91394,-74.0740740740741,4,2,1,5,0,1
91496,-74.0740740740741,4,2,1,81,0,1
94047,-74.0740740740741,4,2,1,5,0,1
94149,-74.0740740740741,4,2,1,81,0,1
94761,-74.0740740740741,4,2,1,81,0,1
94863,-74.0740740740741,4,2,1,5,0,1
94965,-74.0740740740741,4,2,1,81,0,1
95067,-74.0740740740741,4,2,1,5,0,1
95170,-74.0740740740741,4,2,1,81,0,1
95272,-74.0740740740741,4,2,1,5,0,1
95374,-74.0740740740741,4,2,1,81,0,1
95476,-74.0740740740741,4,2,1,5,0,1
95578,-74.0740740740741,4,2,1,81,0,1
95680,-74.0740740740741,4,2,1,5,0,1
95782,-74.0740740740741,4,2,1,81,0,1
95884,-74.0740740740741,4,2,1,5,0,1
95986,-74.0740740740741,4,2,1,81,0,1
96088,-74.0740740740741,4,2,1,5,0,1
96190,-74.0740740740741,4,2,1,81,0,1
96292,-74.0740740740741,4,2,1,5,0,1
96394,-74.0740740740741,4,2,1,81,0,1
96496,-74.0740740740741,4,2,1,5,0,1
96598,-74.0740740740741,4,2,1,81,0,1
96700,-74.0740740740741,4,2,1,5,0,1
96802,-74.0740740740741,4,2,1,81,0,1
96904,-74.0740740740741,4,2,1,5,0,1
97006,-74.0740740740741,4,2,1,81,0,1
97108,-74.0740740740741,4,2,1,5,0,1
97210,-74.0740740740741,4,2,1,81,0,1
97312,-74.0740740740741,4,2,1,5,0,1
97414,-74.0740740740741,4,2,1,81,0,1
97516,-74.0740740740741,4,2,1,5,0,1
97619,-74.0740740740741,4,2,1,81,0,1
97721,-74.0740740740741,4,2,1,5,0,1
97823,-74.0740740740741,4,2,1,81,0,1
97925,-74.0740740740741,4,2,1,5,0,1
98027,-74.0740740740741,4,2,1,81,0,1
98945,-74.0740740740741,4,2,1,5,0,1
99047,-74.0740740740741,4,2,1,81,0,1
99149,-74.0740740740741,4,2,1,5,0,1
99251,-74.0740740740741,4,2,1,81,0,1
101292,-100,4,2,1,71,0,0
102619,-100,4,2,1,5,0,0
102721,-100,4,2,1,71,0,0
104251,-100,4,2,1,5,0,0
104353,-100,4,2,1,71,0,0
105884,-100,4,2,1,5,0,0
105986,-100,4,2,1,71,0,0
107516,-100,4,2,1,5,0,0
107619,-100,4,2,1,71,0,0
109149,-100,4,2,1,5,0,0
109251,-100,4,2,1,71,0,0
110782,-100,4,2,1,5,0,0
110884,-100,4,2,1,71,0,0
112414,-100,4,2,1,5,0,0
112516,-100,4,2,1,71,0,0
112721,-100,4,2,1,64,0,0
114251,-100,4,2,1,5,0,0
114353,-133.333333333333,4,2,1,58,0,0
117619,-111.111111111111,4,2,1,64,0,0
117925,-111.111111111111,4,2,1,5,0,0
118027,-111.111111111111,4,2,1,64,0,0
124455,-111.111111111111,4,2,1,5,0,0
124557,-111.111111111111,4,2,1,64,0,0
127414,-133.333333333333,4,2,1,56,0,0
140476,-100,4,2,1,64,0,0
152925,-100,4,2,1,71,0,0
153129,-100,4,2,1,77,0,0
153333,-100,4,2,1,81,0,0
153537,-74.0740740740741,4,2,1,81,0,1
153639,-74.0740740740741,4,2,1,5,0,1
153741,-74.0740740740741,4,2,1,81,0,1
153843,-74.0740740740741,4,2,1,5,0,1
153945,-74.0740740740741,4,2,1,81,0,1
154047,-74.0740740740741,4,2,1,5,0,1
154149,-74.0740740740741,4,2,1,81,0,1
154251,-74.0740740740741,4,2,1,5,0,1
154353,-74.0740740740741,4,2,1,81,0,1
154455,-74.0740740740741,4,2,1,5,0,1
154557,-74.0740740740741,4,2,1,81,0,1
154659,-74.0740740740741,4,2,1,5,0,1
154761,-74.0740740740741,4,2,1,81,0,1
154863,-74.0740740740741,4,2,1,5,0,1
154965,-74.0740740740741,4,2,1,81,0,1
155067,-74.0740740740741,4,2,1,5,0,1
155170,-74.0740740740741,4,2,1,81,0,1
155272,-74.0740740740741,4,2,1,5,0,1
155374,-74.0740740740741,4,2,1,81,0,1
155476,-74.0740740740741,4,2,1,5,0,1
155578,-74.0740740740741,4,2,1,81,0,1
155680,-74.0740740740741,4,2,1,5,0,1
155782,-74.0740740740741,4,2,1,81,0,1
155884,-74.0740740740741,4,2,1,5,0,1
155986,-74.0740740740741,4,2,1,81,0,1
156088,-74.0740740740741,4,2,1,5,0,1
156190,-74.0740740740741,4,2,1,81,0,1
156292,-74.0740740740741,4,2,1,5,0,1
156394,-74.0740740740741,4,2,1,81,0,1
156496,-74.0740740740741,4,2,1,5,0,1
156598,-74.0740740740741,4,2,1,81,0,1
156700,-74.0740740740741,4,2,1,5,0,1
156802,-74.0740740740741,4,2,1,81,0,1
159353,-74.0740740740741,4,2,1,5,0,1
159455,-74.0740740740741,4,2,1,81,0,1
160170,-74.0740740740741,4,2,1,5,0,1
160272,-74.0740740740741,4,2,1,81,0,1
160374,-74.0740740740741,4,2,1,5,0,1
160476,-74.0740740740741,4,2,1,81,0,1
160578,-74.0740740740741,4,2,1,5,0,1
160680,-74.0740740740741,4,2,1,81,0,1
160782,-74.0740740740741,4,2,1,5,0,1
160884,-74.0740740740741,4,2,1,81,0,1
160986,-74.0740740740741,4,2,1,5,0,1
161088,-74.0740740740741,4,2,1,81,0,1
161190,-74.0740740740741,4,2,1,5,0,1
161292,-74.0740740740741,4,2,1,81,0,1
161394,-74.0740740740741,4,2,1,5,0,1
161496,-74.0740740740741,4,2,1,81,0,1
161598,-74.0740740740741,4,2,1,5,0,1
161700,-74.0740740740741,4,2,1,81,0,1
161802,-74.0740740740741,4,2,1,5,0,1
161904,-74.0740740740741,4,2,1,81,0,1
162006,-74.0740740740741,4,2,1,5,0,1
162108,-74.0740740740741,4,2,1,81,0,1
162210,-74.0740740740741,4,2,1,5,0,1
162312,-74.0740740740741,4,2,1,81,0,1
162414,-74.0740740740741,4,2,1,5,0,1
162516,-74.0740740740741,4,2,1,81,0,1
162619,-74.0740740740741,4,2,1,5,0,1
162721,-74.0740740740741,4,2,1,81,0,1
162823,-74.0740740740741,4,2,1,5,0,1
162925,-74.0740740740741,4,2,1,81,0,1
163027,-74.0740740740741,4,2,1,5,0,1
163129,-74.0740740740741,4,2,1,81,0,1
163231,-74.0740740740741,4,2,1,5,0,1
163333,-74.0740740740741,4,2,1,81,0,1
164251,-74.0740740740741,4,2,1,5,0,1
164353,-74.0740740740741,4,2,1,81,0,1
164455,-74.0740740740741,4,2,1,5,0,1
164557,-74.0740740740741,4,2,1,81,0,1
166598,-90.9090909090909,4,2,1,71,0,0
169557,-90.9090909090909,4,2,1,5,0,0
169659,-90.9090909090909,4,2,1,71,0,0
174455,-90.9090909090909,4,2,1,5,0,0
174557,-90.9090909090909,4,2,1,71,0,0
176088,-90.9090909090909,4,2,1,5,0,0
176190,-90.9090909090909,4,2,1,71,0,0
179659,-133.333333333333,4,2,1,52,0,0
182925,-111.111111111111,4,2,1,64,0,0
192721,-95.2380952380952,4,2,1,71,0,0
199251,-95.2380952380952,4,2,1,75,0,0
202516,-83.3333333333333,4,2,1,78,0,0
209047,-66.6666666666667,4,2,1,85,0,1
209149,-66.6666666666667,4,2,1,5,0,1
209251,-66.6666666666667,4,2,1,85,0,1
209353,-66.6666666666667,4,2,1,5,0,1
209455,-66.6666666666667,4,2,1,85,0,1
209557,-66.6666666666667,4,2,1,5,0,1
209659,-66.6666666666667,4,2,1,85,0,1
209761,-66.6666666666667,4,2,1,5,0,1
209863,-66.6666666666667,4,2,1,85,0,1
209965,-66.6666666666667,4,2,1,5,0,1
210067,-66.6666666666667,4,2,1,85,0,1
210170,-66.6666666666667,4,2,1,5,0,1
210272,-66.6666666666667,4,2,1,85,0,1
210374,-66.6666666666667,4,2,1,5,0,1
210476,-66.6666666666667,4,2,1,85,0,1
210578,-66.6666666666667,4,2,1,5,0,1
210680,-66.6666666666667,4,2,1,85,0,1
210782,-66.6666666666667,4,2,1,5,0,1
210884,-66.6666666666667,4,2,1,85,0,1
210986,-66.6666666666667,4,2,1,5,0,1
211088,-66.6666666666667,4,2,1,85,0,1
211190,-66.6666666666667,4,2,1,5,0,1
211292,-66.6666666666667,4,2,1,85,0,1
211394,-66.6666666666667,4,2,1,5,0,1
211496,-66.6666666666667,4,2,1,85,0,1
211598,-66.6666666666667,4,2,1,5,0,1
211700,-66.6666666666667,4,2,1,85,0,1
211802,-66.6666666666667,4,2,1,5,0,1
211904,-66.6666666666667,4,2,1,85,0,1
212006,-66.6666666666667,4,2,1,5,0,1
212108,-66.6666666666667,4,2,1,85,0,1
212210,-66.6666666666667,4,2,1,5,0,1
212312,-66.6666666666667,4,2,1,85,0,1
214863,-66.6666666666667,4,2,1,5,0,1
214965,-66.6666666666667,4,2,1,85,0,1
215680,-66.6666666666667,4,2,1,5,0,1
215782,-66.6666666666667,4,2,1,85,0,1
215884,-66.6666666666667,4,2,1,5,0,1
215986,-66.6666666666667,4,2,1,85,0,1
216088,-66.6666666666667,4,2,1,5,0,1
216190,-66.6666666666667,4,2,1,85,0,1
216292,-66.6666666666667,4,2,1,5,0,1
216394,-66.6666666666667,4,2,1,85,0,1
216496,-66.6666666666667,4,2,1,5,0,1
216598,-66.6666666666667,4,2,1,85,0,1
216700,-66.6666666666667,4,2,1,5,0,1
216802,-66.6666666666667,4,2,1,85,0,1
216904,-66.6666666666667,4,2,1,5,0,1
217006,-66.6666666666667,4,2,1,85,0,1
217108,-66.6666666666667,4,2,1,5,0,1
217210,-66.6666666666667,4,2,1,85,0,1
217312,-66.6666666666667,4,2,1,5,0,1
217414,-66.6666666666667,4,2,1,85,0,1
217516,-66.6666666666667,4,2,1,5,0,1
217619,-66.6666666666667,4,2,1,85,0,1
217721,-66.6666666666667,4,2,1,5,0,1
217823,-66.6666666666667,4,2,1,85,0,1
217925,-66.6666666666667,4,2,1,5,0,1
218027,-66.6666666666667,4,2,1,85,0,1
218639,-66.6666666666667,4,2,1,85,0,1
218843,-66.6666666666667,4,2,1,85,0,1
222619,-66.6666666666667,4,2,1,5,0,1
222721,-66.6666666666667,4,2,1,85,0,1
222823,-66.6666666666667,4,2,1,5,0,1
222925,-66.6666666666667,4,2,1,85,0,1
223027,-66.6666666666667,4,2,1,5,0,1
223129,-66.6666666666667,4,2,1,85,0,1
223231,-66.6666666666667,4,2,1,5,0,1
223333,-66.6666666666667,4,2,1,85,0,1
223435,-66.6666666666667,4,2,1,5,0,1
223537,-66.6666666666667,4,2,1,85,0,1
223639,-66.6666666666667,4,2,1,5,0,1
223741,-66.6666666666667,4,2,1,85,0,1
223843,-66.6666666666667,4,2,1,5,0,1
223945,-66.6666666666667,4,2,1,85,0,1
224047,-66.6666666666667,4,2,1,5,0,1
224149,-66.6666666666667,4,2,1,85,0,1
224251,-66.6666666666667,4,2,1,5,0,1
224353,-66.6666666666667,4,2,1,85,0,1
224455,-66.6666666666667,4,2,1,5,0,1
224557,-66.6666666666667,4,2,1,85,0,1
224659,-66.6666666666667,4,2,1,5,0,1
224761,-66.6666666666667,4,2,1,85,0,1
224863,-66.6666666666667,4,2,1,5,0,1
224965,-66.6666666666667,4,2,1,85,0,1
225067,-66.6666666666667,4,2,1,5,0,1
225170,-66.6666666666667,4,2,1,85,0,1
225272,-66.6666666666667,4,2,1,5,0,1
225374,-66.6666666666667,4,2,1,85,0,1
227925,-66.6666666666667,4,2,1,5,0,1
228027,-66.6666666666667,4,2,1,85,0,1
228741,-66.6666666666667,4,2,1,5,0,1
228843,-66.6666666666667,4,2,1,85,0,1
228945,-66.6666666666667,4,2,1,5,0,1
229047,-66.6666666666667,4,2,1,85,0,1
229149,-66.6666666666667,4,2,1,5,0,1
229251,-66.6666666666667,4,2,1,85,0,1
229353,-66.6666666666667,4,2,1,5,0,1
229455,-66.6666666666667,4,2,1,85,0,1
229557,-66.6666666666667,4,2,1,5,0,1
229659,-66.6666666666667,4,2,1,85,0,1
229761,-66.6666666666667,4,2,1,5,0,1
229863,-66.6666666666667,4,2,1,85,0,1
229965,-66.6666666666667,4,2,1,5,0,1
230067,-66.6666666666667,4,2,1,85,0,1
230170,-66.6666666666667,4,2,1,5,0,1
230272,-66.6666666666667,4,2,1,85,0,1
230374,-66.6666666666667,4,2,1,5,0,1
230476,-66.6666666666667,4,2,1,85,0,1
230578,-66.6666666666667,4,2,1,5,0,1
230680,-66.6666666666667,4,2,1,85,0,1
230782,-66.6666666666667,4,2,1,5,0,1
230884,-66.6666666666667,4,2,1,85,0,1
230986,-66.6666666666667,4,2,1,5,0,1
231088,-66.6666666666667,4,2,1,85,0,1
231190,-66.6666666666667,4,2,1,5,0,1
231292,-66.6666666666667,4,2,1,85,0,1
231394,-66.6666666666667,4,2,1,5,0,1
231496,-66.6666666666667,4,2,1,85,0,1
231598,-66.6666666666667,4,2,1,5,0,1
231700,-66.6666666666667,4,2,1,85,0,1
231802,-66.6666666666667,4,2,1,5,0,1
231904,-66.6666666666667,4,2,1,85,0,1
232823,-66.6666666666667,4,2,1,5,0,1
232925,-66.6666666666667,4,2,1,85,0,1
233027,-66.6666666666667,4,2,1,5,0,1
233129,-66.6666666666667,4,2,1,85,0,1
235170,-100,4,2,1,71,0,0
235782,-100,4,2,1,5,0,0
235986,-100,4,2,1,71,0,0
236598,-100,4,2,1,5,0,0
236802,-100,4,2,1,71,0,0
237414,-100,4,2,1,5,0,0
237619,-100,4,2,1,71,0,0
238435,-100,4,2,1,71,0,0
239047,-100,4,2,1,5,0,0
239251,-100,4,2,1,71,0,0
239863,-100,4,2,1,5,0,0
240067,-100,4,2,1,71,0,0
240680,-100,4,2,1,5,0,0
240884,-100,4,2,1,71,0,0
241700,-71.4285714285714,4,2,1,80,0,0
241904,-71.4285714285714,4,2,1,5,0,0
242108,-71.4285714285714,4,2,1,80,0,0
242312,-71.4285714285714,4,2,1,5,0,0
242516,-71.4285714285714,4,2,1,80,0,0
242721,-71.4285714285714,4,2,1,5,0,0
242925,-71.4285714285714,4,2,1,80,0,0
243027,-71.4285714285714,4,2,1,5,0,0
243129,-71.4285714285714,4,2,1,80,0,0
243333,-71.4285714285714,4,2,1,80,0,0
243537,-71.4285714285714,4,2,1,5,0,0
243741,-71.4285714285714,4,2,1,80,0,0
243945,-71.4285714285714,4,2,1,5,0,0
244149,-71.4285714285714,4,2,1,80,0,0
244353,-71.4285714285714,4,2,1,5,0,0
244455,-71.4285714285714,4,2,1,80,0,0
244557,-71.4285714285714,4,2,1,80,0,0
244965,-71.4285714285714,4,2,1,80,0,0
245170,-71.4285714285714,4,2,1,5,0,0
245374,-71.4285714285714,4,2,1,80,0,0
245578,-71.4285714285714,4,2,1,5,0,0
245782,-71.4285714285714,4,2,1,80,0,0
246598,-71.4285714285714,4,2,1,80,0,0
247006,-71.4285714285714,4,2,1,70,0,0
247414,-71.4285714285714,4,2,1,60,0,0
247823,-71.4285714285714,4,2,1,50,0,0
248231,-71.4285714285714,4,2,1,40,0,0
248639,-71.4285714285714,4,2,1,30,0,0
249047,-71.4285714285714,4,2,1,20,0,0
249455,-71.4285714285714,4,2,1,10,0,0
249862,-71.4285714285714,4,2,1,5,0,0

[Colours]
Combo1 : 90,90,90
Combo2 : 202,203,213

[HitObjects]
238,342,3129,5,0,0:3:0:0:
238,342,3231,1,0,0:3:0:0:
238,342,3333,6,0,L|330:334,1,85,0|0,3:3|3:3,0:3:0:0:
406,326,3741,1,0,1:3:0:0:
238,342,4353,5,0,3:3:0:0:
406,326,4557,1,0,1:3:0:0:
224,266,4965,6,0,L|316:258,1,85,0|0,3:3|3:3,0:3:0:0:
392,250,5373,1,0,1:3:0:0:
224,266,5986,5,0,3:3:0:0:
392,250,6190,1,0,1:3:0:0:
210,190,6598,6,0,L|302:182,1,85,0|0,3:3|3:3,0:3:0:0:
378,174,7006,1,0,1:3:0:0:
210,190,7619,5,0,3:3:0:0:
378,174,7822,1,0,1:3:0:0:
196,114,8231,6,0,L|288:106,1,85,0|0,3:3|3:3,0:3:0:0:
364,98,8639,1,0,1:3:0:0:
196,114,9251,5,0,3:3:0:0:
364,98,9455,1,0,1:3:0:0:
238,342,9863,6,0,B|268:323|300:331|303:346|331:360|362:346,1,127.5,2|0,3:2|0:2,0:2:0:0:
389,286,10272,1,2,1:2:0:0:
458,282,10476,1,2,0:2:0:0:
504,232,10680,2,0,L|513:134,1,85,2|0,0:2|3:2,0:2:0:0:
326,216,11088,5,2,1:2:0:0:
395,212,11292,1,2,0:2:0:0:
441,162,11496,2,0,L|450:64,1,85,2|0,3:2|3:2,0:2:0:0:
261,146,11904,5,2,1:2:0:0:
330,142,12108,1,2,0:2:0:0:
376,92,12312,2,0,L|385:-6,1,85,2|0,0:2|3:2,0:2:0:0:
261,146,12721,5,2,1:2:0:0:
330,142,12925,1,2,0:2:0:0:
393,178,13129,2,0,L|483:165,1,85,2|0,3:2|3:2,0:2:0:0:
383,247,13537,2,0,L|473:260,1,85,2|0,1:2|0:2,0:2:0:0:
365,324,13945,2,0,L|414:320,1,42.5,2|0,0:2|0:2,0:2:0:0:
275,367,14149,2,0,L|324:371,1,42.5,2|0,3:2|0:2,0:2:0:0:
181,325,14353,2,0,L|230:321,1,42.5,2|2,1:2|0:2,0:2:0:0:
133,375,14557,1,2,0:2:0:0:
17,197,14965,5,2,3:2:0:0:
233,227,15170,1,2,1:2:0:0:
283,173,15374,1,2,0:2:0:0:
48,135,15782,5,2,3:2:0:0:
177,277,15986,2,0,P|211:253|236:331,1,127.5,2|0,1:2|0:2,0:2:0:0:
238,342,16394,6,0,B|268:323|300:331|303:346|331:360|362:346,1,127.5,2|0,3:2|0:2,0:2:0:0:
389,286,16803,1,2,1:2:0:0:
458,282,17007,1,2,0:2:0:0:
504,232,17211,2,0,L|513:134,1,85,2|0,0:2|3:2,0:2:0:0:
326,216,17619,5,2,1:2:0:0:
395,212,17823,1,2,0:2:0:0:
441,162,18027,2,0,L|450:64,1,85,2|0,3:2|3:2,0:2:0:0:
261,146,18435,5,2,1:2:0:0:
330,142,18639,1,2,0:2:0:0:
376,92,18843,2,0,L|385:-6,1,85,2|0,0:2|3:2,0:2:0:0:
298,202,19251,5,2,1:2:0:0:
355,238,19455,2,0,L|455:229,1,85,2|0,0:2|3:2,0:2:0:0:
253,342,19863,5,2,3:2:0:0:
311,306,20067,2,0,L|412:314,1,85,2|0,1:2|0:2,0:2:0:0:
209,112,20476,5,2,0:2:0:0:
259,165,20680,2,0,L|360:173,1,85,2|0,3:2|1:2,0:2:0:0:
161,318,21088,5,2,0:2:0:0:
227,292,21292,2,0,L|313:306,1,85,2|0,3:2|3:2,0:2:0:0:
446,174,21700,5,0,1:2:0:0:
151,201,22925,6,0,P|121:202|94:208,1,53.125,4|0,3:1|0:3,0:3:0:0:
53,257,23129,2,0,P|23:256|-4:250,1,53.125,2|0,0:3|0:3,0:3:0:0:
286,324,23333,6,0,P|256:323|229:317,1,53.125,0|0,1:3|0:3,0:3:0:0:
188,268,23537,2,0,P|158:269|131:275,1,53.125,2|0,0:3|0:3,0:3:0:0:
397,170,23741,6,0,P|367:171|340:177,1,53.125,0|0,3:3|0:3,0:3:0:0:
299,226,23945,2,0,P|269:225|242:219,1,53.125,2|0,0:3|0:3,0:3:0:0:
511,381,24149,6,0,P|481:380|454:374,1,53.125,0|0,1:3|0:3,0:3:0:0:
413,325,24353,2,0,P|383:326|356:332,1,53.125,2|0,0:3|0:3,0:3:0:0:
151,201,24557,6,0,P|121:202|94:208,1,53.125,0|0,3:3|0:3,0:3:0:0:
53,257,24761,2,0,P|23:256|-4:250,1,53.125,2|0,0:3|0:3,0:3:0:0:
286,324,24965,6,0,P|256:323|229:317,1,53.125,0|0,1:3|0:3,0:3:0:0:
188,268,25170,2,0,P|158:269|131:275,1,53.125,2|0,0:3|0:3,0:3:0:0:
397,170,25374,6,0,P|367:171|340:177,1,53.125,0|0,3:3|0:3,0:3:0:0:
299,226,25578,2,0,P|269:225|242:219,1,53.125,2|0,0:3|0:3,0:3:0:0:
511,381,25782,6,0,P|481:380|454:374,1,53.125,0|0,1:3|0:3,0:3:0:0:
413,325,25986,2,0,P|383:326|356:332,1,53.125,2|0,0:3|0:3,0:3:0:0:
53,298,26190,6,0,B|47:244|47:244|42:298,1,106.25,0|2,3:3|0:3,0:3:0:0:
50,371,26496,1,2,0:3:0:0:
50,371,26598,2,0,L|46:242,1,106.25,0|2,1:3|0:3,0:3:0:0:
189,290,27006,6,0,B|187:236|187:236|178:290,1,106.25,0|2,3:3|0:3,0:3:0:0:
179,362,27312,1,2,0:3:0:0:
179,362,27414,2,0,L|186:233,1,106.25,2|2,1:3|0:3,0:3:0:0:
350,282,27823,6,0,B|344:228|344:228|339:282,1,106.25,0|2,3:3|0:3,0:3:0:0:
347,355,28129,1,2,0:3:0:0:
347,355,28231,2,0,L|343:226,1,106.25,2|2,1:3|0:3,0:3:0:0:
486,274,28639,6,0,B|484:220|484:220,1,53.125,0|0,3:3|0:3,0:3:0:0:
470,341,28843,1,2,1:3:0:0:
509,160,29047,1,0,1:3:0:0:
136,367,29251,1,0,1:3:0:0:
80,321,29353,1,0,1:3:0:0:
15,351,29455,6,0,P|6:312|7:277,1,53.125,4|0,3:1|0:3,0:3:0:0:
62,190,29659,2,0,P|60:216|53:242,1,53.125,2|0,0:3|0:3,0:3:0:0:
200,345,29863,6,0,P|209:306|208:271,1,53.125,0|0,1:3|0:3,0:3:0:0:
152,184,30067,2,0,P|154:210|161:235,1,53.125,2|0,0:3|0:3,0:3:0:0:
326,352,30272,6,0,P|317:313|318:278,1,53.125,0|0,3:3|0:3,0:3:0:0:
373,191,30476,2,0,P|370:217|363:242,1,53.125,2|0,0:3|0:3,0:3:0:0:
495,369,30680,6,0,P|504:330|503:295,1,53.125,0|0,1:3|0:3,0:3:0:0:
447,208,30884,2,0,P|449:234|456:259,1,53.125,2|0,0:3|0:3,0:3:0:0:
15,351,31088,6,0,P|6:312|7:277,1,53.125,0|0,3:1|0:3,0:3:0:0:
62,190,31292,2,0,P|60:216|53:242,1,53.125,2|0,0:3|0:3,0:3:0:0:
200,345,31496,6,0,P|209:306|208:271,1,53.125,0|0,1:3|0:3,0:3:0:0:
152,184,31700,2,0,P|154:210|161:235,1,53.125,2|0,0:3|0:3,0:3:0:0:
326,352,31905,6,0,P|317:313|318:278,1,53.125,0|0,3:3|0:3,0:3:0:0:
373,191,32109,2,0,P|370:217|363:242,1,53.125,2|0,0:3|0:3,0:3:0:0:
495,369,32313,6,0,P|504:330|503:295,1,53.125,0|0,1:3|0:3,0:3:0:0:
447,208,32517,2,0,P|449:234|456:259,1,53.125,2|0,0:3|0:3,0:3:0:0:
491,135,32721,6,0,L|375:147,1,106.25,0|2,3:3|0:3,0:3:0:0:
349,205,33027,1,2,0:3:0:0:
349,205,33129,2,0,L|237:194,1,106.25,2|2,1:3|0:3,0:3:0:0:
484,225,33537,2,0,L|427:232,1,53.125,0|0,3:3|0:3,0:3:0:0:
308,280,33741,2,0,L|251:271,1,53.125,2|0,3:3|0:3,0:3:0:0:
497,301,33945,1,0,1:3:0:0:
352,358,34149,1,0,1:3:0:0:
352,358,34251,1,0,1:3:0:0:
352,358,34353,5,0,1:3:0:0:
259,185,34557,1,2,0:3:0:0:
465,363,34761,1,0,1:3:0:0:
465,363,34863,1,0,1:3:0:0:
465,363,34965,1,0,1:3:0:0:
463,148,35170,5,2,3:3:0:0:
259,253,35374,1,0,3:3:0:0:
389,309,35578,1,0,1:3:0:0:
84,300,35986,6,0,P|32:288|-18:286,1,85,4|2,3:1|0:3,0:3:0:0:
222,209,36394,2,0,P|170:221|120:223,1,85,0|2,1:3|0:3,0:3:0:0:
338,335,36802,2,0,P|286:323|236:321,1,85,0|2,3:3|0:3,0:3:0:0:
480,164,37210,2,0,P|438:173|398:175,1,42.5,0|0,1:3|0:3,0:3:0:0:
377,138,37414,1,2,0:3:0:0:
83,299,37619,6,0,P|42:289|1:285,1,85,0|2,3:3|0:3,0:3:0:0:
221,209,38027,2,0,P|180:219|138:223,1,85,0|2,1:3|0:3,0:3:0:0:
337,334,38435,2,0,P|296:324|254:320,1,85,0|2,3:3|0:3,0:3:0:0:
480,163,38843,2,0,P|459:169|438:173,1,42.5,0|0,1:3|0:3,0:3:0:0:
377,138,39047,1,2,0:3:0:0:
47,315,39251,6,0,P|50:263|48:224,1,85,0|2,3:3|0:3,0:3:0:0:
179,321,39659,2,0,P|179:265|184:228,1,85,0|2,1:3|0:3,0:3:0:0:
324,321,40067,2,0,P|330:269|329:214,1,85,0|2,3:3|0:3,0:3:0:0:
466,305,40476,2,0,P|456:251|459:225,1,42.5,0|0,1:3|0:3,0:3:0:0:
472,199,40680,1,2,0:3:0:0:
47,314,40884,6,0,P|48:272|48:230,1,85,0|2,3:3|0:3,0:3:0:0:
178,320,41292,2,0,P|177:278|182:236,1,85,0|2,1:3|0:3,0:3:0:0:
324,320,41700,2,0,P|328:278|330:236,1,85,0|2,3:3|0:3,0:3:0:0:
465,304,42108,2,0,P|460:284|457:263,1,42.5,0|0,1:3|0:3,0:3:0:0:
179,234,42313,1,2,0:2:0:0:
147,255,42414,1,2,0:2:0:0:
113,270,42516,6,0,P|72:260|27:260,1,85,4|2,3:1|0:3,0:3:0:0:
260,319,42925,2,0,P|219:329|174:329,1,85,0|2,1:3|0:3,0:3:0:0:
377,217,43333,2,0,P|336:207|291:207,1,85,0|2,3:3|0:3,0:3:0:0:
509,371,43741,2,0,P|469:380|426:380,1,42.5,0|0,1:3|0:3,0:3:0:0:
403,361,43945,1,2,0:3:0:0:
29,259,44149,6,0,P|71:259|113:270,1,85,0|2,3:3|0:3,0:3:0:0:
176,329,44557,2,0,P|218:329|260:319,1,85,0|2,1:3|0:3,0:3:0:0:
293,206,44966,2,0,P|335:206|377:217,1,85,0|2,3:3|0:3,0:3:0:0:
403,361,45374,2,0,P|423:366|444:370,1,42.5,0|0,1:3|0:3,0:3:0:0:
509,370,45578,1,2,0:3:0:0:
44,311,45782,6,0,P|41:263|32:205,1,85,0|2,3:3|0:3,0:3:0:0:
175,330,46190,2,0,P|178:282|187:224,1,85,0|2,1:3|0:3,0:3:0:0:
352,303,46598,2,0,P|349:255|340:197,1,85,0|2,3:3|0:3,0:3:0:0:
483,322,47006,2,0,P|485:285|492:242,1,42.5,0|0,1:3|0:3,0:3:0:0:
506,216,47210,1,0,3:3:0:0:
501,207,47312,1,0,3:3:0:0:
433,181,47414,6,0,L|432:227,1,34,0|2,3:3|3:3,0:3:0:0:
429,185,47823,2,0,L|428:231,1,34,0|2,3:3|3:3,0:3:0:0:
425,189,48231,2,0,L|424:235,1,34,0|2,3:3|3:3,0:3:0:0:
244,329,48639,2,0,B|249:291|249:291|257:329,1,76.4999976654053,0|0,3:3|0:3,0:3:0:0:
327,384,49047,5,2,3:2:0:0:
327,384,49149,1,0,0:2:0:0:
327,384,49251,2,0,L|332:323,1,42.5,0|0,0:2|0:2,0:2:0:0:
339,277,49455,1,2,1:2:0:0:
339,277,49557,1,0,0:2:0:0:
339,277,49659,2,0,L|344:216,1,42.5,0|0,0:2|0:2,0:2:0:0:
181,381,49863,5,2,3:2:0:0:
181,381,49965,1,0,0:2:0:0:
181,381,50067,2,0,L|176:320,1,42.5,0|0,0:2|0:2,0:2:0:0:
171,273,50272,1,2,1:2:0:0:
171,273,50374,1,0,0:2:0:0:
171,273,50476,2,0,L|166:212,1,42.5,2|0,0:2|0:2,0:2:0:0:
352,170,50680,5,0,3:2:0:0:
352,170,50782,1,0,0:2:0:0:
352,170,50884,2,0,L|357:109,1,42.5,2|0,0:2|0:2,0:2:0:0:
365,64,51088,1,0,1:2:0:0:
365,64,51190,1,0,0:2:0:0:
365,64,51292,2,0,L|370:3,1,42.5,0|0,0:2|0:2,0:2:0:0:
161,165,51496,5,0,3:2:0:0:
161,165,51598,1,0,0:2:0:0:
161,165,51700,2,0,L|156:104,1,42.5,0|0,0:2|0:2,0:2:0:0:
150,58,51904,1,0,1:2:0:0:
150,58,52006,1,0,0:2:0:0:
150,58,52108,2,0,L|145:-3,1,42.5,0|0,0:2|0:2,0:2:0:0:
327,384,52312,5,2,3:2:0:0:
327,384,52414,1,0,0:2:0:0:
327,384,52516,2,0,L|332:323,1,42.5,0|0,0:2|0:2,0:2:0:0:
339,277,52720,1,2,1:2:0:0:
339,277,52822,1,0,0:2:0:0:
339,277,52924,2,0,L|344:216,1,42.5,0|0,0:2|0:2,0:2:0:0:
181,381,53128,5,2,3:2:0:0:
181,381,53230,1,0,0:2:0:0:
181,381,53332,2,0,L|176:320,1,42.5,0|0,0:2|0:2,0:2:0:0:
171,273,53537,1,2,1:2:0:0:
171,273,53639,1,0,0:2:0:0:
171,273,53741,2,0,L|166:212,1,42.5,2|0,0:2|0:2,0:2:0:0:
352,170,53945,5,0,3:2:0:0:
352,170,54047,1,0,0:2:0:0:
352,170,54149,2,0,L|357:109,1,42.5,2|0,0:2|0:2,0:2:0:0:
365,64,54353,1,0,1:2:0:0:
365,64,54455,1,0,0:2:0:0:
365,64,54557,2,0,L|370:3,1,42.5,2|0,0:2|0:2,0:2:0:0:
161,165,54761,5,2,3:2:0:0:
161,165,54863,1,0,0:2:0:0:
161,165,54965,2,0,L|156:104,1,42.5,2|0,0:2|0:2,0:2:0:0:
150,58,55169,1,2,1:2:0:0:
150,58,55271,1,0,0:2:0:0:
150,58,55373,2,0,L|145:-3,1,42.5,2|0,0:2|0:2,0:2:0:0:
330,140,55578,5,2,3:2:0:0:
330,140,55680,1,0,0:2:0:0:
330,140,55782,2,0,L|286:148,1,42.5,0|0,0:2|0:2,0:2:0:0:
181,171,55986,1,2,1:2:0:0:
181,171,56088,1,0,0:2:0:0:
181,171,56190,2,0,L|225:163,1,42.5,0|0,0:2|0:2,0:2:0:0:
297,91,56394,5,2,3:2:0:0:
297,91,56496,1,0,0:2:0:0:
297,91,56598,2,0,L|271:128,1,42.5,0|0,0:2|0:2,0:2:0:0:
213,219,56802,1,2,1:2:0:0:
213,219,56904,1,0,0:2:0:0:
213,219,57006,2,0,L|239:182,1,42.5,2|0,0:2|0:2,0:2:0:0:
240,81,57210,5,0,3:2:0:0:
240,81,57312,1,0,0:2:0:0:
240,81,57414,2,0,L|248:125,1,42.5,2|0,0:2|0:2,0:2:0:0:
271,230,57618,1,0,1:2:0:0:
271,230,57720,1,0,0:2:0:0:
271,230,57822,2,0,L|263:186,1,42.5,0|0,0:2|0:2,0:2:0:0:
191,113,58027,5,0,3:2:0:0:
191,113,58129,1,0,0:2:0:0:
191,113,58231,2,0,L|228:139,1,42.5,0|0,0:2|0:2,0:2:0:0:
319,197,58435,1,0,1:2:0:0:
319,197,58537,1,0,0:2:0:0:
319,197,58639,2,0,L|282:171,1,42.5,0|0,0:2|0:2,0:2:0:0:
181,171,58843,5,2,3:2:0:0:
181,171,58945,1,0,0:2:0:0:
181,171,59047,2,0,L|225:163,1,42.5,0|0,0:2|0:2,0:2:0:0:
330,140,59251,1,2,1:2:0:0:
330,140,59353,1,0,0:2:0:0:
330,140,59455,2,0,L|286:148,1,42.5,0|0,0:2|0:2,0:2:0:0:
213,219,59659,2,0,L|239:182,1,42.5,2|0,3:2|0:2,0:2:0:0:
297,91,59863,2,0,L|271:128,1,42.5,0|0,0:2|0:2,0:2:0:0:
271,230,60067,5,2,1:2:0:0:
240,81,60272,1,2,1:2:0:0:
239,80,60680,5,2,0:2:0:0:
255,155,60782,1,2,0:2:0:0:
270,229,60884,1,2,0:2:0:0:
191,113,61088,5,2,0:2:0:0:
319,197,61292,1,2,0:2:0:0:
181,171,61496,5,2,0:2:0:0:
181,171,61598,1,2,0:2:0:0:
181,171,61700,1,2,0:2:0:0:
330,139,61904,1,2,0:2:0:0:
455,228,62108,6,0,L|448:303,1,63.7500024318696,4|0,3:1|0:2,0:2:0:0:
456,322,62516,2,0,B|473:304|462:268|450:264|439:262|420:230|442:201,1,127.500004863739,2|0,3:2|3:2,0:2:0:0:
373,345,63333,5,2,3:2:0:0:
399,345,63537,2,0,P|355:326|394:360,1,127.500004863739,2|0,0:2|0:2,0:2:0:0:
477,365,64149,1,2,3:2:0:0:
508,305,64353,2,0,L|514:228,1,63.7500024318696,2|0,0:2|3:2,0:2:0:0:
485,177,64761,1,2,0:2:0:0:
512,317,65170,6,0,L|443:300,1,63.7500024318696,2|0,0:2|3:2,0:2:0:0:
416,368,65782,5,2,3:2:0:0:
416,368,65884,1,2,0:2:0:0:
416,368,65986,2,0,L|352:358,1,63.7500024318696,2|0,0:2|3:2,0:2:0:0:
485,302,66598,6,0,P|483:256|450:247,1,63.7500024318696,2|2,3:2|0:2,0:2:0:0:
282,289,67210,5,2,0:2:0:0:
321,347,67414,2,0,B|281:310|331:254|285:200,1,127.500004863739,2|0,3:2|3:2,0:2:0:0:
191,0,68231,5,2,3:2:0:0:
167,65,68435,1,2,0:2:0:0:
103,89,68639,6,0,L|23:81,1,76.4999976654053,0|0,3:2|0:2,0:2:0:0:
157,137,69047,1,2,3:2:0:0:
87,212,69251,2,0,L|64:36,1,152.999995330811,2|0,0:2|0:2,0:2:0:0:
157,137,69863,1,2,3:2:0:0:
174,68,70067,2,0,L|161:156,1,76.4999976654053,2|0,0:2|3:2,0:2:0:0:
0,9,70680,5,2,3:2:0:0:
49,53,70884,2,0,B|82:43|82:43|150:68|150:68|213:63,1,152.999995330811,2|0,0:2|0:2,0:2:0:0:
113,159,71496,1,2,3:2:0:0:
184,156,71700,2,0,L|208:-16,1,152.999995330811,2|0,0:2|0:2,0:2:0:0:
46,126,72312,1,2,3:2:0:0:
1,68,72516,2,0,L|96:51,1,76.4999976654053,2|0,0:2|3:2,0:2:0:0:
239,177,73129,5,2,1:2:0:0:
15,3,73333,1,2,1:2:0:0:
169,152,73741,5,2,3:2:0:0:
277,55,73945,1,0,1:2:0:0:
347,42,74047,1,0,1:2:0:0:
411,68,74149,1,2,1:2:0:0:
229,1,74557,5,2,1:2:0:0:
281,236,74761,1,2,1:2:0:0:
423,276,75170,5,4,3:1:0:0:
422,281,75374,1,2,3:2:0:0:
421,286,75578,1,2,2:2:0:0:
420,291,75782,1,2,2:2:0:0:
419,296,75986,1,2,2:2:0:0:
418,301,76394,5,2,2:2:0:0:
417,306,76598,1,2,2:2:0:0:
416,311,76802,1,2,2:2:0:0:
415,316,77210,5,2,2:2:0:0:
414,321,77414,1,2,2:2:0:0:
413,325,77619,1,2,2:2:0:0:
439,208,77823,5,2,1:2:0:0:
471,58,78027,1,2,1:2:0:0:
412,330,78231,1,0,1:2:0:0:
151,201,78435,6,0,P|121:202|94:208,1,53.125,4|0,3:1|0:3,0:3:0:0:
53,257,78639,2,0,P|23:256|-4:250,1,53.125,2|0,0:3|0:3,0:3:0:0:
286,324,78843,6,0,P|256:323|229:317,1,53.125,0|0,1:3|0:3,0:3:0:0:
188,268,79047,2,0,P|158:269|131:275,1,53.125,2|0,0:3|0:3,0:3:0:0:
397,170,79251,6,0,P|367:171|340:177,1,53.125,0|0,3:3|0:3,0:3:0:0:
299,226,79455,2,0,P|269:225|242:219,1,53.125,2|0,0:3|0:3,0:3:0:0:
511,381,79659,6,0,P|481:380|454:374,1,53.125,0|0,1:3|0:3,0:3:0:0:
413,325,79863,2,0,P|383:326|356:332,1,53.125,2|0,0:3|0:3,0:3:0:0:
151,201,80067,6,0,P|121:202|94:208,1,53.125,0|0,3:3|0:3,0:3:0:0:
53,257,80272,2,0,P|23:256|-4:250,1,53.125,2|0,0:3|0:3,0:3:0:0:
286,324,80476,6,0,P|256:323|229:317,1,53.125,0|0,1:3|0:3,0:3:0:0:
188,268,80679,2,0,P|158:269|131:275,1,53.125,2|0,0:3|0:3,0:3:0:0:
397,170,80883,6,0,P|367:171|340:177,1,53.125,0|0,3:3|0:3,0:3:0:0:
299,226,81087,2,0,P|269:225|242:219,1,53.125,2|0,0:3|0:3,0:3:0:0:
511,381,81291,6,0,P|481:380|454:374,1,53.125,0|0,1:3|0:3,0:3:0:0:
136,384,81496,1,2,1:3:0:0:
83,342,81598,1,0,1:3:0:0:
16,362,81700,6,0,P|7:323|8:288,1,53.125,4|0,3:1|0:3,0:3:0:0:
63,201,81904,2,0,P|61:227|54:253,1,53.125,2|0,0:3|0:3,0:3:0:0:
201,356,82108,6,0,P|210:317|209:282,1,53.125,0|0,1:3|0:3,0:3:0:0:
153,195,82312,2,0,P|155:221|162:246,1,53.125,2|0,0:3|0:3,0:3:0:0:
327,363,82517,6,0,P|318:324|319:289,1,53.125,0|0,3:3|0:3,0:3:0:0:
374,202,82721,2,0,P|371:228|364:253,1,53.125,2|0,0:3|0:3,0:3:0:0:
496,380,82925,6,0,P|505:341|504:306,1,53.125,0|0,1:3|0:3,0:3:0:0:
448,219,83129,2,0,P|450:245|457:270,1,53.125,2|0,0:3|0:3,0:3:0:0:
16,362,83333,6,0,P|7:323|8:288,1,53.125,0|0,3:1|0:3,0:3:0:0:
63,201,83537,2,0,P|61:227|54:253,1,53.125,2|0,0:3|0:3,0:3:0:0:
201,356,83741,6,0,P|210:317|209:282,1,53.125,0|0,1:3|0:3,0:3:0:0:
153,195,83945,2,0,P|155:221|162:246,1,53.125,2|0,0:3|0:3,0:3:0:0:
327,363,84150,6,0,P|318:324|319:289,1,53.125,0|0,3:3|0:3,0:3:0:0:
374,202,84354,2,0,P|371:228|364:253,1,53.125,2|0,0:3|0:3,0:3:0:0:
496,380,84558,6,0,P|505:341|504:306,1,53.125,0|0,1:3|0:3,0:3:0:0:
448,219,84762,2,0,P|450:245|457:270,1,53.125,2|0,0:3|0:3,0:3:0:0:
502,150,84965,6,0,L|362:131,1,106.25,0|2,3:3|0:3,0:3:0:0:
345,88,85272,1,2,0:3:0:0:
345,88,85374,2,0,L|232:112,1,106.25,2|2,1:3|0:3,0:3:0:0:
498,153,85782,1,0,3:3:0:0:
301,168,85986,2,0,L|264:272,1,106.25,2|0,0:3|1:3,0:3:0:0:
366,377,86394,1,2,1:3:0:0:
431,360,86496,1,0,1:3:0:0:
494,338,86598,1,0,1:3:0:0:
148,173,88231,6,0,P|104:180|59:211,1,57.3750002188683,4|0,3:1|0:3,0:3:0:0:
55,252,88435,2,0,P|11:245|-34:214,1,57.3750002188683,2|0,0:3|0:3,0:3:0:0:
273,324,88639,6,0,P|229:317|184:286,1,57.3750002188683,0|0,1:3|0:3,0:3:0:0:
180,245,88843,2,0,P|136:252|91:283,1,57.3750002188683,2|0,0:3|0:3,0:3:0:0:
390,146,89047,6,0,P|346:153|301:184,1,57.3750002188683,0|0,3:3|0:3,0:3:0:0:
297,225,89251,2,0,P|253:218|208:187,1,57.3750002188683,2|0,0:3|0:3,0:3:0:0:
512,377,89455,6,0,P|468:370|423:339,1,57.3750002188683,0|0,1:3|0:3,0:3:0:0:
419,298,89659,2,0,P|375:305|330:336,1,57.3750002188683,2|0,0:3|0:3,0:3:0:0:
0,239,89863,6,0,P|26:249|55:252,1,57.3750002188683,0|0,3:3|0:3,0:3:0:0:
92,185,90067,2,0,P|119:175|148:173,1,57.3750002188683,2|0,0:3|0:3,0:3:0:0:
124,257,90272,6,0,P|151:247|180:245,1,57.3750002188683,0|0,1:3|0:3,0:3:0:0:
217,311,90476,2,0,P|244:321|273:324,1,57.3750002188683,2|0,0:3|0:3,0:3:0:0:
241,212,90680,6,0,P|268:222|297:225,1,57.3750002188683,0|0,3:3|0:3,0:3:0:0:
334,158,90884,2,0,P|361:148|390:146,1,57.3750002188683,2|0,0:3|0:3,0:3:0:0:
363,310,91088,6,0,P|390:300|419:298,1,57.3750002188683,0|0,1:3|0:3,0:3:0:0:
456,364,91292,2,0,P|483:374|512:377,1,57.3750002188683,2|0,0:3|0:3,0:3:0:0:
41,307,91496,6,0,B|46:364|46:364|50:307,1,114.750000437737,0|2,3:3|0:3,0:3:0:0:
43,238,91802,1,2,0:3:0:0:
43,238,91904,2,0,L|42:110,1,114.750000437737,2|2,1:3|0:3,0:3:0:0:
205,315,92312,6,0,B|199:372|199:372|195:315,1,114.750000437737,0|2,3:3|0:3,0:3:0:0:
203,246,92618,1,2,0:3:0:0:
203,246,92721,2,0,L|204:118,1,114.750000437737,2|2,1:3|0:3,0:3:0:0:
353,314,93129,6,0,B|358:371|358:371|362:314,1,114.750000437737,0|2,3:3|0:3,0:3:0:0:
355,245,93435,1,2,0:3:0:0:
355,245,93537,2,0,L|354:117,1,114.750000437737,2|2,1:3|0:3,0:3:0:0:
457,310,93945,6,0,L|475:415,1,57.3750002188683,0|0,3:3|0:3,0:3:0:0:
496,201,94149,1,2,1:3:0:0:
404,373,94353,1,0,1:3:0:0:
154,354,94557,1,0,1:3:0:0:
94,313,94659,1,0,1:3:0:0:
32,356,94761,6,0,P|23:317|24:282,1,57.3750002188683,4|0,3:1|0:3,0:3:0:0:
63,178,94965,2,0,P|60:206|53:234,1,57.3750002188683,2|0,0:3|0:3,0:3:0:0:
222,365,95169,6,0,P|231:326|230:291,1,57.3750002188683,0|0,1:3|0:3,0:3:0:0:
158,178,95374,2,0,P|160:206|167:234,1,57.3750002188683,2|0,0:3|0:3,0:3:0:0:
323,360,95578,6,0,P|314:321|315:286,1,57.3750002188683,0|0,3:3|0:3,0:3:0:0:
367,171,95782,2,0,P|363:199|355:227,1,57.3750002188683,2|0,0:3|0:3,0:3:0:0:
503,370,95986,6,0,P|512:331|511:296,1,57.3750002188683,0|0,1:3|0:3,0:3:0:0:
448,173,96190,2,0,P|450:201|457:229,1,57.3750002188683,2|0,0:3|0:3,0:3:0:0:
32,356,96394,6,0,P|23:317|24:282,1,57.3750002188683,0|0,3:3|0:3,0:3:0:0:
63,178,96598,2,0,P|60:206|53:234,1,57.3750002188683,2|0,0:3|0:3,0:3:0:0:
222,365,96802,6,0,P|231:326|230:291,1,57.3750002188683,0|0,1:3|0:3,0:3:0:0:
158,178,97007,2,0,P|160:206|167:234,1,57.3750002188683,2|0,0:3|0:3,0:3:0:0:
300,34,97211,6,0,P|291:73|292:108,1,57.3750002188683,0|0,3:3|0:3,0:3:0:0:
344,223,97415,2,0,P|340:194|332:166,1,57.3750002188683,2|0,0:3|0:3,0:3:0:0:
503,370,97619,6,0,P|512:331|511:296,1,57.3750002188683,0|0,1:3|0:3,0:3:0:0:
448,173,97823,2,0,P|450:201|457:229,1,57.3750002188683,2|0,0:3|0:3,0:3:0:0:
486,84,98027,6,0,L|354:107,1,114.750000437737,0|2,3:3|0:3,0:3:0:0:
329,171,98333,1,2,0:3:0:0:
329,171,98435,2,0,L|198:146,1,114.750000437737,2|2,1:3|0:3,0:3:0:0:
477,158,98843,6,0,L|395:171,1,57.3750002188683,0|0,3:3|0:3,0:3:0:0:
284,237,99047,2,0,L|202:224,1,57.3750002188683,2|0,3:3|0:3,0:3:0:0:
463,235,99251,5,0,1:3:0:0:
307,316,99455,1,2,1:3:0:0:
241,300,99557,1,0,1:3:0:0:
180,282,99659,1,0,1:3:0:0:
307,171,99863,5,2,3:3:0:0:
437,374,100067,1,0,1:3:0:0:
449,305,100170,1,0,1:3:0:0:
463,235,100272,1,2,1:3:0:0:
481,74,100476,5,0,3:3:0:0:
247,142,100680,1,2,3:3:0:0:
338,240,100884,1,0,1:3:0:0:
83,299,101292,6,0,P|31:287|-19:285,1,85,4|2,3:1|0:3,0:3:0:0:
221,208,101700,2,0,P|169:220|119:222,1,85,0|2,1:3|0:3,0:3:0:0:
337,334,102108,2,0,P|285:322|235:320,1,85,0|2,3:3|0:3,0:3:0:0:
479,163,102516,2,0,P|437:172|397:174,1,42.5,0|0,1:3|0:3,0:3:0:0:
376,137,102720,1,2,0:3:0:0:
83,299,102925,6,0,P|31:287|-19:285,1,85,0|2,3:3|0:3,0:3:0:0:
221,208,103333,2,0,P|169:220|119:222,1,85,0|2,1:3|0:3,0:3:0:0:
337,334,103741,2,0,P|285:322|235:320,1,85,0|2,3:3|0:3,0:3:0:0:
479,163,104149,2,0,P|437:172|397:174,1,42.5,0|0,1:3|0:3,0:3:0:0:
376,137,104353,1,2,0:3:0:0:
46,314,104557,6,0,P|49:262|47:223,1,85,0|2,3:3|0:3,0:3:0:0:
178,320,104965,2,0,P|178:264|183:227,1,85,0|2,1:3|0:3,0:3:0:0:
323,320,105373,2,0,P|329:268|328:213,1,85,0|2,3:3|0:3,0:3:0:0:
465,304,105782,2,0,P|455:250|458:224,1,42.5,0|0,1:3|0:3,0:3:0:0:
471,198,105986,1,2,0:3:0:0:
46,313,106190,6,0,P|47:271|47:229,1,85,0|2,3:3|0:3,0:3:0:0:
177,319,106598,2,0,P|176:277|181:235,1,85,0|2,1:3|0:3,0:3:0:0:
323,319,107006,2,0,P|327:277|329:235,1,85,0|2,3:3|0:3,0:3:0:0:
464,303,107415,2,0,P|459:283|456:262,1,42.5,0|0,1:3|0:3,0:3:0:0:
246,369,107619,1,2,1:2:0:0:
256,305,107721,1,2,1:2:0:0:
251,240,107823,5,0,3:3:0:0:
251,240,108027,1,0,3:3:0:0:
251,240,108231,1,4,1:1:0:0:
379,196,108639,2,0,P|338:186|293:186,1,85,0|2,3:3|0:3,0:3:0:0:
512,309,109047,2,0,P|472:318|429:318,1,42.5,0|0,1:3|0:3,0:3:0:0:
406,299,109251,1,2,0:3:0:0:
112,269,109455,6,0,P|71:259|26:259,1,85,0|2,3:3|0:3,0:3:0:0:
259,318,109864,2,0,P|218:328|173:328,1,85,0|2,1:3|0:3,0:3:0:0:
376,216,110272,2,0,P|335:206|290:206,1,85,0|2,3:3|0:3,0:3:0:0:
512,309,110680,2,0,P|472:318|429:318,1,42.5,0|0,1:3|0:3,0:3:0:0:
406,299,110884,1,2,0:3:0:0:
46,314,111088,6,0,P|49:262|47:223,1,85,0|2,3:3|0:3,0:3:0:0:
178,320,111496,2,0,P|178:264|183:227,1,85,0|2,1:3|0:3,0:3:0:0:
323,320,111904,2,0,P|329:268|328:213,1,85,0|2,3:3|0:3,0:3:0:0:
450,313,112313,2,0,P|440:259|443:233,1,42.5,0|0,1:3|0:3,0:3:0:0:
456,207,112517,1,2,3:3:0:0:
424,145,112619,1,0,3:3:0:0:
470,93,112721,1,0,3:3:0:0:
62,242,112925,5,2,3:3:0:0:
61,174,113027,1,0,3:3:0:0:
60,106,113129,1,0,3:3:0:0:
450,208,113333,6,0,L|447:186,1,21.25,2|0,3:3|3:3,3:3:0:0:
447,178,113435,2,0,L|450:156,1,21.25,0|0,3:3|3:3,3:3:0:0:
451,139,113537,1,0,3:3:0:0:
262,167,113741,5,2,3:3:0:0:
277,304,113945,2,0,B|268:240|268:240|259:304,1,127.5,0|0,3:3|0:3,0:3:0:0:
327,353,114353,6,0,L|393:346,2,63.7500024318696,6|2|2,3:2|3:2|3:2,0:2:0:0:
277,304,114965,2,0,L|268:235,1,63.7500024318696,2|2,3:2|3:2,0:2:0:0:
324,147,115374,1,0,0:2:0:0:
386,123,115578,1,0,0:2:0:0:
451,149,115782,1,0,0:2:0:0:
480,212,115986,1,0,3:2:0:0:
470,280,116190,1,0,3:2:0:0:
485,211,116394,5,0,3:2:0:0:
475,279,116598,1,2,3:2:0:0:
412,323,116802,1,2,0:2:0:0:
341,309,117006,1,2,0:2:0:0:
284,382,117210,1,2,1:2:0:0:
269,289,117414,1,2,0:2:0:0:
162,211,117619,6,0,P|103:218|49:231,1,114.749996498108,4|0,3:1|0:2,0:2:0:0:
6,284,118027,1,2,1:2:0:0:
6,284,118435,5,2,3:2:0:0:
49,230,118639,1,2,0:2:0:0:
65,160,118843,1,2,1:2:0:0:
52,91,119047,1,0,3:2:0:0:
52,91,119149,1,0,3:2:0:0:
52,91,119251,2,0,L|62:6,1,76.4999976654053,2|0,3:2|0:2,0:2:0:0:
0,180,119659,1,2,1:2:0:0:
129,93,119863,2,0,L|153:263,1,152.999995330811,2|0,0:2|3:2,0:2:0:0:
200,369,120476,2,0,L|210:278,1,76.4999976654053,0|0,1:2|3:2,0:2:0:0:
455,183,120884,5,2,3:2:0:0:
499,246,121088,1,2,0:2:0:0:
439,290,121292,1,2,1:2:0:0:
371,263,121496,1,2,0:2:0:0:
310,297,121700,2,0,L|304:386,1,76.4999976654053,2|0,3:2|0:2,0:2:0:0:
374,260,122108,1,0,1:2:0:0:
435,223,122312,1,0,3:2:0:0:
435,223,122414,1,0,3:2:0:0:
435,223,122516,2,0,L|441:134,1,76.4999976654053,0|0,3:2|3:2,0:2:0:0:
488,85,122925,1,0,1:2:0:0:
455,25,123129,5,2,3:2:0:0:
383,22,123333,1,2,3:2:0:0:
331,70,123537,1,2,3:2:0:0:
334,141,123741,1,2,1:2:0:0:
295,209,123945,1,2,3:2:0:0:
339,267,124149,6,0,B|391:264|390:336|428:331,1,114.749996498108,2|0,3:2|0:2,0:2:0:0:
486,300,124557,2,0,L|497:211,1,76.4999976654053,2|0,1:2|0:2,0:2:0:0:
341,278,124965,1,2,3:2:0:0:
273,307,125170,1,2,0:2:0:0:
344,290,125374,1,2,1:2:0:0:
393,157,125578,1,2,1:2:0:0:
493,236,125986,5,2,1:2:0:0:
493,236,126088,1,0,1:2:0:0:
493,236,126190,1,0,1:2:0:0:
395,162,126394,1,2,3:2:0:0:
304,334,126598,1,0,1:2:0:0:
179,189,126802,1,0,1:2:0:0:
101,267,127006,1,2,3:2:0:0:
54,219,127210,1,2,3:2:0:0:
11,358,127414,6,0,P|46:348|84:344,1,63.7500024318696,4|0,3:1|0:2,0:2:0:0:
132,374,127823,2,0,B|156:376|182:266|162:250,1,127.500004863739,2|0,3:2|3:2,0:2:0:0:
354,340,128639,5,2,3:2:0:0:
415,368,128843,2,0,L|487:356,1,63.7500024318696,2|0,0:2|3:2,0:2:0:0:
310,286,129455,5,2,3:2:0:0:
243,307,129659,2,0,B|216:277|233:214|215:180,1,127.500004863739,2|2,0:2|0:2,0:2:0:0:
136,38,130476,1,0,1:2:0:0:
136,38,130680,1,2,1:2:0:0:
136,38,130884,1,0,3:2:0:0:
310,286,131088,5,2,3:2:0:0:
243,307,131292,2,0,B|216:277|233:214|215:180,1,127.500004863739,2|2,0:2|0:2,0:2:0:0:
255,116,131904,1,0,1:2:0:0:
255,116,132312,1,0,3:2:0:0:
243,307,132516,5,2,3:2:0:0:
243,307,132925,2,0,B|216:277|233:214|215:180,1,127.500004863739,2|2,0:2|0:2,0:2:0:0:
99,120,133537,5,2,1:2:0:0:
23,153,133673,5,0,1:2:0:0:
89,201,133809,5,2,1:2:0:0:
103,118,133945,5,4,1:1:0:0:
108,114,134149,1,0,1:2:0:0:
155,165,134353,2,0,B|178:186|274:145|266:104,1,127.500004863739,2|0,3:2|3:2,0:2:0:0:
401,174,135170,5,2,3:2:0:0:
348,126,135374,2,0,L|338:41,1,63.7500024318696,2|0,0:2|3:2,0:2:0:0:
446,217,135986,5,2,3:2:0:0:
391,261,136190,2,0,B|361:276|327:276|316:253|304:232|271:225|246:245,1,127.500004863739,2|2,0:2|0:2,0:2:0:0:
133,315,137006,1,0,1:2:0:0:
133,315,137210,1,0,1:2:0:0:
133,315,137414,1,0,3:2:0:0:
446,217,137619,5,2,3:2:0:0:
391,261,137823,2,0,B|361:276|327:276|316:253|304:232|271:225|246:245,1,127.500004863739,2|2,0:2|0:2,0:2:0:0:
193,203,138435,1,0,1:2:0:0:
193,203,138843,1,0,3:2:0:0:
391,261,139047,5,2,3:2:0:0:
391,261,139455,2,0,B|361:276|327:276|316:253|304:232|271:225|246:245,1,127.500004863739,2|2,0:2|0:2,0:2:0:0:
44,338,140067,1,2,1:2:0:0:
174,363,140272,1,2,0:2:0:0:
174,363,140374,1,2,0:2:0:0:
174,363,140476,6,0,L|162:270,1,85,4|0,3:1|0:2,0:2:0:0:
310,336,140884,1,2,1:2:0:0:
262,287,141088,2,0,L|273:106,1,170,2|0,0:2|0:2,0:2:0:0:
134,208,141700,1,2,1:2:0:0:
178,152,141904,2,0,L|145:54,1,85,2|0,0:2|3:2,0:2:0:0:
103,291,142516,5,2,1:2:0:0:
155,339,142721,2,0,L|258:319,1,85,2|0,0:2|3:2,0:2:0:0:
309,217,143129,2,0,L|412:237,1,85,2|0,0:2|1:2,0:2:0:0:
463,136,143537,1,2,0:2:0:0:
463,136,143639,1,0,0:2:0:0:
463,136,143741,1,0,3:2:0:0:
309,217,144149,5,2,1:2:0:0:
309,217,144251,1,2,0:2:0:0:
309,217,144353,2,0,L|412:237,1,85,2|0,0:2|3:2,0:2:0:0:
103,291,144965,5,2,1:2:0:0:
155,339,145170,2,0,L|258:319,1,85,2|0,0:2|3:2,0:2:0:0:
134,208,145578,1,2,0:2:0:0:
178,152,145782,2,0,L|145:54,1,85,2|0,1:2|0:2,0:2:0:0:
118,11,146190,1,0,3:2:0:0:
118,11,146598,1,0,1:2:0:0:
232,81,146802,5,2,0:2:0:0:
232,81,146904,1,2,0:2:0:0:
232,81,147006,2,0,L|137:70,1,85,2|0,3:2|0:2,0:2:0:0:
186,207,147414,5,2,1:2:0:0:
125,166,147619,2,0,L|23:171,1,85,2|0,0:2|3:2,0:2:0:0:
302,53,148231,5,2,1:2:0:0:
241,94,148435,2,0,L|139:89,1,85,2|0,0:2|3:2,0:2:0:0:
346,254,149047,5,2,1:2:0:0:
285,213,149252,2,0,L|183:218,1,85,2|0,0:2|3:2,0:2:0:0:
429,0,149863,5,2,1:2:0:0:
368,41,150067,2,0,L|266:36,1,85,2|0,0:2|3:2,0:2:0:0:
489,303,150680,5,2,1:2:0:0:
428,262,150884,2,0,L|326:267,1,85,2|0,0:2|3:2,0:2:0:0:
510,27,151496,5,2,1:2:0:0:
489,303,151700,1,2,1:2:0:0:
182,247,152108,5,2,3:2:0:0:
258,372,152312,1,0,1:2:0:0:
289,313,152414,1,0,1:2:0:0:
284,244,152516,1,2,1:2:0:0:
492,303,152721,5,0,3:2:0:0:
260,135,152925,1,2,3:3:0:0:
162,338,153129,1,2,3:3:0:0:
67,256,153333,1,2,3:3:0:0:
497,298,153537,6,0,P|453:305|408:336,1,57.3750002188683,4|0,3:1|0:3,0:3:0:0:
404,377,153741,2,0,P|360:370|315:339,1,57.3750002188683,2|0,0:3|0:3,0:3:0:0:
469,221,153945,6,0,P|425:228|380:259,1,57.3750002188683,0|0,1:3|0:3,0:3:0:0:
376,300,154149,2,0,P|332:293|287:262,1,57.3750002188683,2|0,0:3|0:3,0:3:0:0:
440,144,154353,6,0,P|396:151|351:182,1,57.3750002188683,0|0,3:3|0:3,0:3:0:0:
347,223,154557,2,0,P|303:216|258:185,1,57.3750002188683,2|0,0:3|0:3,0:3:0:0:
409,69,154761,6,0,P|365:76|320:107,1,57.3750002188683,0|0,1:3|0:3,0:3:0:0:
316,148,154965,2,0,P|272:141|227:110,1,57.3750002188683,2|0,0:3|0:3,0:3:0:0:
497,298,155170,6,0,P|453:305|408:336,1,57.3750002188683,0|0,3:3|0:3,0:3:0:0:
404,377,155374,2,0,P|360:370|315:339,1,57.3750002188683,2|0,0:3|0:3,0:3:0:0:
469,221,155578,6,0,P|425:228|380:259,1,57.3750002188683,0|0,1:3|0:3,0:3:0:0:
376,300,155782,2,0,P|332:293|287:262,1,57.3750002188683,2|0,0:3|0:3,0:3:0:0:
440,144,155986,6,0,P|396:151|351:182,1,57.3750002188683,0|0,3:3|0:3,0:3:0:0:
347,223,156190,2,0,P|303:216|258:185,1,57.3750002188683,2|0,0:3|0:3,0:3:0:0:
409,69,156394,6,0,P|365:76|320:107,1,57.3750002188683,0|0,1:3|0:3,0:3:0:0:
316,148,156598,2,0,P|272:141|227:110,1,57.3750002188683,2|0,0:3|0:3,0:3:0:0:
35,310,156802,6,0,B|40:367|40:367|44:310,1,114.750000437737,0|2,3:3|0:3,0:3:0:0:
37,241,157108,1,2,0:3:0:0:
37,241,157210,2,0,L|36:113,1,114.750000437737,2|2,1:3|0:3,0:3:0:0:
199,174,157619,6,0,B|194:117|194:117|190:174,1,114.750000437737,0|2,3:3|0:3,0:3:0:0:
197,243,157925,1,2,0:3:0:0:
197,243,158027,2,0,L|198:371,1,114.750000437737,2|2,1:3|0:3,0:3:0:0:
361,317,158435,6,0,B|356:374|356:374|352:317,1,114.750000437737,0|2,3:3|0:3,0:3:0:0:
359,248,158741,1,2,0:3:0:0:
359,248,158843,2,0,L|360:120,1,114.750000437737,2|2,1:3|0:3,0:3:0:0:
466,301,159251,6,0,L|471:229,1,57.3750002188683,0|0,3:3|0:3,0:3:0:0:
512,356,159455,1,2,1:3:0:0:
364,251,159659,1,0,1:3:0:0:
162,338,159863,1,2,1:3:0:0:
93,318,159965,1,0,1:3:0:0:
33,361,160067,6,0,P|24:322|25:287,1,57.3750002188683,4|0,3:1|0:3,0:3:0:0:
64,183,160272,2,0,P|61:211|54:239,1,57.3750002188683,2|0,0:3|0:3,0:3:0:0:
30,358,160476,6,0,P|21:319|22:284,1,57.3750002188683,0|0,1:3|0:3,0:3:0:0:
61,180,160680,2,0,P|58:208|51:236,1,57.3750002188683,2|0,0:3|0:3,0:3:0:0:
27,355,160884,6,0,P|18:316|19:281,1,57.3750002188683,0|0,3:3|0:3,0:3:0:0:
58,177,161088,2,0,P|55:205|48:233,1,57.3750002188683,2|0,0:3|0:3,0:3:0:0:
24,352,161292,6,0,P|15:313|16:278,1,57.3750002188683,0|0,1:3|0:3,0:3:0:0:
55,174,161496,2,0,P|52:202|45:230,1,57.3750002188683,2|0,0:3|0:3,0:3:0:0:
21,349,161700,6,0,P|12:310|13:275,1,57.3750002188683,0|0,3:3|0:3,0:3:0:0:
52,171,161904,2,0,P|49:199|42:227,1,57.3750002188683,2|0,0:3|0:3,0:3:0:0:
179,336,162108,6,0,P|188:297|187:262,1,57.3750002188683,0|0,1:3|0:3,0:3:0:0:
148,158,162312,2,0,P|151:186|158:214,1,57.3750002188683,2|0,0:3|0:3,0:3:0:0:
286,370,162516,6,0,P|277:331|278:296,1,57.3750002188683,0|0,3:3|0:3,0:3:0:0:
317,192,162720,2,0,P|314:220|307:248,1,57.3750002188683,2|0,0:3|0:3,0:3:0:0:
453,334,162925,6,0,P|462:295|461:260,1,57.3750002188683,0|0,1:3|0:3,0:3:0:0:
422,156,163129,2,0,P|425:184|432:212,1,57.3750002188683,2|0,0:3|0:3,0:3:0:0:
512,373,163333,6,0,L|383:364,1,114.750000437737,0|2,3:3|0:3,0:3:0:0:
338,318,163639,1,2,0:3:0:0:
338,318,163741,2,0,L|209:327,1,114.750000437737,2|2,1:3|0:3,0:3:0:0:
0,110,164149,6,0,L|82:123,1,57.3750002188683,0|0,3:3|0:3,0:3:0:0:
193,189,164353,2,0,L|275:176,1,57.3750002188683,2|0,3:3|0:3,0:3:0:0:
120,75,164557,1,0,1:3:0:0:
320,252,164761,5,2,1:3:0:0:
387,237,164863,1,0,1:3:0:0:
452,221,164965,1,0,1:3:0:0:
271,116,165170,1,2,3:3:0:0:
224,321,165374,5,0,1:3:0:0:
209,254,165476,1,0,1:3:0:0:
193,189,165578,1,2,1:3:0:0:
356,317,165782,5,0,3:3:0:0:
77,194,165986,1,2,1:3:0:0:
267,113,166190,1,0,3:3:0:0:
261,353,166598,5,0,3:3:0:0:
261,353,166802,1,0,3:3:0:0:
435,269,167006,2,0,P|393:262|326:269,1,93.5000028533936,4|2,1:1|0:3,0:3:0:0:
437,188,167414,2,0,P|395:181|328:188,1,93.5000028533936,0|2,3:3|0:3,0:3:0:0:
439,107,167823,2,0,P|397:100|330:107,1,93.5000028533936,0|2,1:3|0:3,0:3:0:0:
433,350,168231,6,0,P|391:343|324:350,1,93.5000028533936,0|2,3:3|0:3,0:3:0:0:
435,269,168639,2,0,P|393:262|326:269,1,93.5000028533936,0|2,1:3|0:3,0:3:0:0:
437,188,169048,2,0,P|395:181|328:188,1,93.5000028533936,0|2,3:3|0:3,0:3:0:0:
439,107,169455,2,0,P|405:101|351:107,1,46.7500014266968,0|0,1:3|0:3,0:3:0:0:
322,110,169659,1,2,0:3:0:0:
56,359,169863,5,0,3:3:0:0:
56,359,170067,1,2,0:3:0:0:
97,218,170272,2,0,B|102:201|102:201|125:285,1,93.5000028533936,0|2,1:3|0:3,0:3:0:0:
456,359,170680,5,0,3:3:0:0:
456,359,170884,1,2,0:3:0:0:
415,218,171089,2,0,B|410:201|410:201|387:285,1,93.5000028533936,0|2,1:3|0:3,0:3:0:0:
56,359,171496,5,0,3:3:0:0:
56,359,171700,1,2,0:3:0:0:
97,218,171905,2,0,B|102:201|102:201|125:285,1,93.5000028533936,0|2,1:3|0:3,0:3:0:0:
456,359,172313,5,0,3:3:0:0:
456,359,172516,1,2,3:3:0:0:
415,218,172721,1,0,1:3:0:0:
378,288,172925,1,2,3:3:0:0:
35,305,173129,5,0,3:3:0:0:
42,257,173231,1,0,3:3:0:0:
49,305,173333,1,0,3:3:0:0:
225,210,173537,2,0,P|173:222|123:224,1,93.5000028533936,4|2,3:1|0:3,0:3:0:0:
360,342,173945,2,0,P|308:330|258:328,1,93.5000028533936,0|2,3:3|0:3,0:3:0:0:
509,166,174353,2,0,P|467:175|427:177,1,46.7500014266968,0|0,1:3|0:3,0:3:0:0:
396,140,174557,1,2,0:3:0:0:
94,305,174761,6,0,P|42:293|-8:291,1,93.5000028533936,0|2,3:3|0:3,0:3:0:0:
225,210,175169,2,0,P|173:222|123:224,1,93.5000028533936,0|2,1:3|0:3,0:3:0:0:
360,342,175577,2,0,P|308:330|258:328,1,93.5000028533936,0|2,3:3|0:3,0:3:0:0:
509,166,175985,2,0,P|467:175|427:177,1,46.7500014266968,0|0,1:3|0:3,0:3:0:0:
396,140,176190,1,2,0:3:0:0:
17,198,176394,5,0,3:3:0:0:
17,198,176598,1,2,0:3:0:0:
152,129,176802,2,0,B|162:120|162:120|82:101,1,93.5000028533936,0|2,1:3|0:3,0:3:0:0:
493,222,177210,1,0,3:3:0:0:
493,222,177414,1,2,0:3:0:0:
276,329,177619,1,0,1:0:0:0:
334,134,177823,5,2,1:3:0:0:
380,115,177925,1,0,1:3:0:0:
426,94,178027,1,0,1:3:0:0:
139,151,178231,5,2,3:3:0:0:
103,137,178333,1,0,3:3:0:0:
68,121,178435,1,0,3:3:0:0:
251,270,178639,5,2,3:3:0:0:
250,250,178741,1,0,3:3:0:0:
250,231,178843,1,0,3:3:0:0:
312,98,179047,5,2,3:3:0:0:
462,206,179251,1,0,1:3:0:0:
435,272,179455,1,0,3:3:0:0:
482,332,179659,6,0,L|418:346,1,63.7500024318696,4|0,3:1|3:1,0:1:0:0:
359,305,180067,1,2,3:2:0:0:
359,305,180272,1,2,3:2:0:0:
362,308,180884,5,2,0:2:0:0:
362,308,181089,1,2,0:2:0:0:
306,357,181292,2,0,L|223:348,1,63.7500024318696,0|0,3:2|3:2,3:2:0:0:
197,292,181700,1,2,3:2:0:0:
197,292,181904,1,2,3:2:0:0:
197,292,182516,5,2,1:2:0:0:
224,225,182721,1,2,3:2:0:0:
130,337,182925,2,0,P|87:331|48:332,1,76.4999976654053,0|0,3:2|3:2,0:2:0:0:
224,225,183333,5,2,1:2:0:0:
286,270,183537,2,0,P|323:264|362:264,1,76.4999976654053,2|0,0:2|3:2,0:2:0:0:
213,152,184149,5,2,1:2:0:0:
151,197,184353,2,0,P|113:191|74:191,1,76.4999976654053,2|0,3:2|3:2,0:2:0:0:
252,87,184965,5,2,1:2:0:0:
314,132,185169,2,0,L|396:127,1,76.4999976654053,2|0,0:2|3:2,0:2:0:0:
226,19,185578,1,2,0:2:0:0:
153,16,185782,1,2,1:2:0:0:
142,88,185986,1,2,3:2:0:0:
16,171,186190,6,0,P|28:222|32:263,1,76.4999976654053,4|0,3:1|0:2,0:2:0:0:
17,318,186598,1,2,1:2:0:0:
86,289,186802,2,0,L|169:303,1,76.4999976654053,2|0,3:2|3:2,0:2:0:0:
16,171,187414,5,2,1:2:0:0:
85,142,187619,2,0,L|168:156,1,76.4999976654053,2|0,3:2|3:2,0:2:0:0:
381,316,188231,5,2,1:2:0:0:
312,287,188435,2,0,L|229:301,1,76.4999976654053,2|0,3:2|3:2,0:2:0:0:
382,169,189047,5,2,1:2:0:0:
313,140,189251,2,0,L|230:154,1,76.4999976654053,2|4,3:2|1:1,0:2:0:0:
17,318,189863,5,2,1:2:0:0:
86,289,190067,2,0,L|169:303,1,76.4999976654053,2|0,3:2|3:2,0:2:0:0:
16,171,190679,5,2,1:2:0:0:
85,142,190883,2,0,L|168:156,1,76.4999976654053,2|0,3:2|3:2,0:2:0:0:
381,316,191496,5,2,1:2:0:0:
312,287,191700,2,0,L|229:301,1,76.4999976654053,2|0,3:2|3:2,0:2:0:0:
85,142,192108,5,2,1:2:0:0:
382,169,192312,1,2,1:2:0:0:
105,358,192721,5,4,3:1:0:0:
81,137,192925,1,0,3:3:0:0:
105,358,193129,1,0,1:3:0:0:
172,361,193537,5,0,3:3:0:0:
148,140,193741,1,0,3:3:0:0:
172,361,193945,1,0,1:3:0:0:
239,364,194353,5,0,3:3:0:0:
215,143,194557,1,0,3:3:0:0:
239,364,194761,1,0,1:3:0:0:
306,367,195170,5,0,3:3:0:0:
282,146,195374,1,0,3:3:0:0:
306,367,195578,1,0,1:3:0:0:
461,350,195986,5,4,3:1:0:0:
485,129,196190,1,0,3:3:0:0:
461,350,196394,1,0,1:3:0:0:
394,353,196802,5,0,3:3:0:0:
418,132,197006,1,0,3:3:0:0:
394,353,197210,1,0,1:3:0:0:
327,356,197618,5,0,3:3:0:0:
351,135,197822,1,0,3:3:0:0:
327,356,198026,1,0,1:3:0:0:
260,359,198435,5,0,3:3:0:0:
284,138,198639,1,0,3:3:0:0:
145,375,198843,5,0,1:3:0:0:
121,154,199047,1,0,3:3:0:0:
208,278,199251,5,4,1:1:0:0:
203,180,199455,1,0,1:3:0:0:
299,177,199659,1,0,1:3:0:0:
302,273,199863,1,0,1:3:0:0:
324,273,200067,5,0,1:3:0:0:
299,155,200271,1,0,1:3:0:0:
181,180,200475,1,0,1:3:0:0:
208,299,200679,1,0,1:3:0:0:
212,326,200884,5,0,1:3:0:0:
155,185,201088,1,0,1:3:0:0:
294,127,201292,1,0,1:3:0:0:
350,268,201496,1,0,1:3:0:0:
383,257,201700,5,0,1:3:0:0:
282,96,201904,1,0,1:3:0:0:
123,196,202108,1,0,1:3:0:0:
224,357,202312,1,0,1:3:0:0:
255,73,202516,5,4,3:1:0:0:
430,290,202721,1,0,3:3:0:0:
409,278,202823,1,0,3:3:0:0:
375,288,202925,1,0,3:3:0:0:
345,274,203027,1,0,3:3:0:0:
320,294,203129,1,0,3:3:0:0:
287,267,203231,1,0,3:3:0:0:
224,286,203333,1,0,1:3:0:0:
19,208,203537,1,0,1:3:0:0:
147,365,203741,1,0,1:3:0:0:
243,152,203945,5,4,3:1:0:0:
292,206,204353,5,0,3:3:0:0:
236,252,204557,1,0,1:3:0:0:
236,252,204659,1,0,1:3:0:0:
236,252,204761,1,0,1:3:0:0:
181,104,205170,5,0,1:3:0:0:
321,317,205374,1,0,1:3:0:0:
151,164,209047,6,0,P|107:171|62:202,1,63.7500024318696,4|0,3:1|0:3,0:3:0:0:
56,252,209251,2,0,P|12:245|-33:214,1,63.7500024318696,2|0,0:3|0:3,0:3:0:0:
278,350,209455,6,0,P|234:343|189:312,1,63.7500024318696,0|0,1:3|0:3,0:3:0:0:
183,262,209659,2,0,P|139:269|94:300,1,63.7500024318696,2|0,0:3|0:3,0:3:0:0:
392,134,209863,6,0,P|348:141|303:172,1,63.7500024318696,0|0,3:3|0:3,0:3:0:0:
297,222,210067,2,0,P|253:215|208:184,1,63.7500024318696,2|0,0:3|0:3,0:3:0:0:
512,384,210272,6,0,P|468:377|423:346,1,63.7500024318696,0|0,1:3|0:3,0:3:0:0:
417,296,210476,2,0,P|373:303|328:334,1,63.7500024318696,2|0,0:3|0:3,0:3:0:0:
0,236,210680,6,0,P|24:248|56:252,1,63.7500024318696,0|0,3:3|0:3,0:3:0:0:
89,179,210884,2,0,P|119:167|151:164,1,63.7500024318696,2|0,0:3|0:3,0:3:0:0:
122,278,211088,6,0,P|152:266|184:263,1,63.7500024318696,0|0,1:3|0:3,0:3:0:0:
217,335,211292,2,0,P|247:347|279:351,1,63.7500024318696,2|0,0:3|0:3,0:3:0:0:
235,206,211496,6,0,P|265:218|297:222,1,63.7500024318696,0|0,3:3|0:3,0:3:0:0:
330,149,211700,2,0,P|360:137|392:134,1,63.7500024318696,2|0,0:3|0:3,0:3:0:0:
355,311,211904,6,0,P|385:299|417:296,1,63.7500024318696,0|0,1:3|0:3,0:3:0:0:
450,368,212108,2,0,P|480:380|512:384,1,63.7500024318696,2|0,0:3|0:3,0:3:0:0:
36,314,212312,6,0,B|42:376|42:376|50:314,1,127.500004863739,0|2,3:3|0:3,0:3:0:0:
41,237,212619,1,2,0:3:0:0:
41,237,212721,2,0,L|47:103,1,127.500004863739,2|2,1:3|0:3,0:3:0:0:
189,322,213129,6,0,B|182:384|182:384|174:322,1,127.500004863739,0|2,3:3|0:3,0:3:0:0:
184,245,213436,1,2,0:3:0:0:
184,245,213538,2,0,L|178:111,1,127.500004863739,2|2,1:3|0:3,0:3:0:0:
323,322,213945,6,0,B|329:384|329:384|337:322,1,127.500004863739,0|2,3:3|0:3,0:3:0:0:
328,245,214252,1,2,0:3:0:0:
328,245,214353,2,0,L|334:111,1,127.500004863739,2|2,1:3|0:3,0:3:0:0:
433,304,214761,6,0,L|443:378,1,63.7500024318696,0|0,3:3|0:3,0:3:0:0:
482,252,214965,1,0,1:3:0:0:
146,226,215170,1,0,1:3:0:0:
180,284,215272,1,0,1:3:0:0:
156,348,215374,1,0,1:3:0:0:
95,382,215476,1,0,1:3:0:0:
28,378,215578,6,4,P|17:332|19:291,1,63.7500024318696,4|4,3:1|3:3,3:3:0:0:
54,182,215782,2,0,P|50:214|42:247,1,63.7500024318696,2|0,0:3|0:3,0:3:0:0:
164,166,215986,6,0,P|167:198|175:231,1,63.7500024318696,0|0,1:3|0:3,0:3:0:0:
190,363,216190,2,0,P|200:317|199:276,1,63.7500024318696,2|0,0:3|0:3,0:3:0:0:
306,361,216394,6,0,P|295:315|296:274,1,63.7500024318696,0|0,3:3|0:3,0:3:0:0:
331,164,216598,2,0,P|327:196|319:229,1,63.7500024318696,2|0,0:3|0:3,0:3:0:0:
475,372,216802,6,0,P|485:326|484:285,1,63.7500024318696,0|0,1:3|0:3,0:3:0:0:
449,175,217006,2,0,P|452:207|460:240,1,63.7500024318696,2|0,0:3|0:3,0:3:0:0:
28,378,217210,6,0,P|17:332|19:291,1,63.7500024318696,0|0,3:3|0:3,0:3:0:0:
54,182,217414,2,0,P|50:214|42:247,1,63.7500024318696,2|0,0:3|0:3,0:3:0:0:
190,363,217619,6,0,P|200:317|199:276,1,63.7500024318696,0|0,1:3|0:3,0:3:0:0:
164,166,217823,2,0,P|167:198|175:231,1,63.7500024318696,2|0,0:3|0:3,0:3:0:0:
369,254,218027,6,0,B|372:192|372:192|382:255,1,127.500004863739,0|2,3:3|0:3,0:3:0:0:
480,378,218333,1,2,0:3:0:0:
480,378,218435,6,0,P|490:332|489:291,1,63.7500024318696,2|0,1:3|0:3,0:3:0:0:
452,181,218638,2,0,P|455:213|463:246,1,63.7500024318696,2|0,3:3|0:3,0:3:0:0:
502,132,218843,5,0,3:3:0:0:
287,235,219047,1,0,3:3:0:0:
420,336,219251,1,0,1:3:0:0:
416,13,219659,5,0,3:3:0:0:
112,188,219863,1,0,3:3:0:0:
323,327,220067,1,0,1:3:0:0:
249,164,220272,5,2,1:3:0:0:
219,226,220374,1,0,1:3:0:0:
189,288,220476,1,0,1:3:0:0:
123,47,220680,1,2,3:3:0:0:
279,276,220884,5,0,1:3:0:0:
214,29,221088,1,2,3:3:0:0:
366,254,221292,5,0,1:3:0:0:
301,7,221496,1,2,3:3:0:0:
251,97,221700,1,0,3:3:0:0:
251,97,221904,1,2,3:3:0:0:
255,251,222108,6,0,B|268:267|268:267|276:144,1,127.500004863739,0|0,3:3|0:3,0:3:0:0:
279,349,222516,6,0,P|235:342|190:311,1,63.7500024318696,4|0,1:1|0:3,0:3:0:0:
184,261,222721,2,0,P|140:268|95:299,1,63.7500024318696,2|0,0:3|0:3,0:3:0:0:
392,134,222925,6,0,P|348:141|303:172,1,63.7500024318696,0|0,3:3|0:3,0:3:0:0:
297,222,223129,2,0,P|253:215|208:184,1,63.7500024318696,2|0,0:3|0:3,0:3:0:0:
512,384,223333,6,0,P|468:377|423:346,1,63.7500024318696,0|0,1:3|0:3,0:3:0:0:
417,296,223537,2,0,P|373:303|328:334,1,63.7500024318696,2|0,0:3|0:3,0:3:0:0:
510,378,223741,6,0,P|466:371|421:340,1,63.7500024318696,0|0,3:3|0:3,0:3:0:0:
415,290,223945,2,0,P|371:297|326:328,1,63.7500024318696,2|0,0:3|0:3,0:3:0:0:
151,164,224149,6,0,P|107:171|62:202,1,63.7500024318696,0|0,1:3|0:3,0:3:0:0:
56,252,224353,2,0,P|12:245|-33:214,1,63.7500024318696,2|0,0:3|0:3,0:3:0:0:
279,349,224557,6,0,P|235:342|190:311,1,63.7500024318696,0|0,3:3|0:3,0:3:0:0:
184,261,224761,2,0,P|140:268|95:299,1,63.7500024318696,2|0,0:3|0:3,0:3:0:0:
392,134,224965,6,0,P|348:141|303:172,1,63.7500024318696,0|0,1:3|0:3,0:3:0:0:
297,222,225170,2,0,P|253:215|208:184,1,63.7500024318696,2|0,0:3|0:3,0:3:0:0:
32,320,225374,2,0,B|41:382|41:382|47:318,1,127.500004863739,0|2,3:3|0:3,0:3:0:0:
37,244,225680,1,2,0:3:0:0:
37,244,225782,2,0,L|41:111,1,127.500004863739,2|2,1:3|0:3,0:3:0:0:
177,310,226190,6,0,B|186:372|186:372|192:308,1,127.500004863739,0|2,3:3|0:3,0:3:0:0:
177,310,226496,1,2,0:3:0:0:
177,310,226598,2,0,B|186:372|186:372|192:308,1,127.500004863739,2|2,1:3|0:3,0:3:0:0:
356,318,227006,6,0,B|346:380|346:380|340:316,1,127.500004863739,0|2,3:3|0:3,0:3:0:0:
351,242,227312,1,2,0:3:0:0:
351,242,227414,2,0,L|347:109,1,127.500004863739,2|2,1:3|0:3,0:3:0:0:
436,304,227823,6,0,L|446:378,1,63.7500024318696,0|0,3:3|0:3,0:3:0:0:
485,252,228027,1,2,1:3:0:0:
218,361,228231,1,2,1:3:0:0:
20,96,228435,1,2,1:3:0:0:
78,144,228537,1,0,1:3:0:0:
64,220,228639,6,0,P|108:230|147:229,1,63.7500024318696,4|0,1:1|0:3,0:3:0:0:
250,183,228843,2,0,P|218:186|186:194,1,63.7500024318696,2|0,0:3|0:3,0:3:0:0:
287,375,229047,6,0,P|297:330|296:291,1,63.7500024318696,0|0,1:3|0:3,0:3:0:0:
250,189,229251,2,0,P|253:220|261:252,1,63.7500024318696,2|0,0:3|0:3,0:3:0:0:
442,152,229455,6,0,P|397:141|358:142,1,63.7500024318696,0|0,3:3|0:3,0:3:0:0:
256,189,229659,2,0,P|287:185|319:177,1,63.7500024318696,2|0,0:3|0:3,0:3:0:0:
219,0,229863,6,0,P|208:44|209:83,1,63.7500024318696,0|0,1:3|0:3,0:3:0:0:
256,186,230067,2,0,P|252:154|244:122,1,63.7500024318696,2|0,0:3|0:3,0:3:0:0:
64,220,230272,6,0,P|108:230|147:229,1,63.7500024318696,0|0,3:3|0:3,0:3:0:0:
250,183,230476,2,0,P|218:186|186:194,1,63.7500024318696,2|0,0:3|0:3,0:3:0:0:
287,375,230680,6,0,P|297:330|296:291,1,63.7500024318696,0|0,1:3|0:3,0:3:0:0:
250,189,230884,2,0,P|253:220|261:252,1,63.7500024318696,2|0,0:3|0:3,0:3:0:0:
442,152,231088,6,0,P|397:141|358:142,1,63.7500024318696,0|0,3:3|0:3,0:3:0:0:
256,189,231292,2,0,P|287:185|319:177,1,63.7500024318696,2|0,0:3|0:3,0:3:0:0:
219,0,231496,6,0,P|208:44|209:83,1,63.7500024318696,0|0,1:3|0:3,0:3:0:0:
256,186,231700,2,0,P|252:154|244:122,1,63.7500024318696,2|0,0:3|0:3,0:3:0:0:
194,328,231904,6,0,L|329:308,1,127.500004863739,0|2,3:3|0:3,0:3:0:0:
360,254,232210,1,2,0:3:0:0:
360,254,232312,2,0,L|499:270,1,127.500004863739,2|2,1:3|0:3,0:3:0:0:
206,246,232721,6,0,L|287:235,1,63.7500024318696,0|0,3:3|0:3,0:3:0:0:
404,182,232925,2,0,L|485:193,1,63.7500024318696,2|0,3:3|0:3,0:3:0:0:
227,173,233129,5,0,1:3:0:0:
442,118,233333,1,2,1:3:0:0:
442,118,233435,1,0,1:3:0:0:
442,118,233537,1,0,1:3:0:0:
241,12,233741,1,2,3:3:0:0:
357,240,233945,5,0,1:3:0:0:
429,249,234047,1,0,1:3:0:0:
499,253,234149,1,0,1:3:0:0:
442,118,234353,5,0,1:3:0:0:
266,290,234557,1,0,3:3:0:0:
422,330,234761,1,0,1:3:0:0:
422,330,234965,1,2,0:3:0:0:
233,218,235170,6,0,B|91:191|119:299|0:288,1,255,4|0,3:2|0:2,0:2:0:0:
475,234,235986,6,0,B|456:358|456:358|436:207,1,255,4|0,3:2|0:2,0:2:0:0:
297,375,236802,2,0,L|301:99,1,255,4|0,3:2|0:2,0:2:0:0:
369,311,237619,2,0,L|371:214,1,85,4|0,3:2|1:2,0:2:0:0:
375,154,237925,1,0,1:2:0:0:
375,154,238027,1,0,1:2:0:0:
365,382,238231,1,0,1:2:0:0:
196,384,238435,6,0,B|185:263|293:291|267:151,1,255,4|0,3:2|0:2,0:2:0:0:
22,384,239251,6,0,B|11:263|119:291|93:151,1,255,4|0,3:2|0:2,0:2:0:0:
233,384,240067,2,0,L|253:117,1,255,4|0,3:2|0:2,0:2:0:0:
233,384,240884,1,4,3:2:0:0:
253,129,241088,1,0,1:2:0:0:
233,384,241292,1,0,1:2:0:0:
470,243,241496,1,2,3:2:0:0:
470,243,241598,1,2,0:2:0:0:
470,243,241700,6,0,B|386:257|386:257|410:287,1,118.999996368408,6|0,3:2|0:2,0:2:0:0:
22,254,242108,6,0,P|54:241|20:252,1,118.999996368408,6|0,3:2|0:2,0:2:0:0:
277,384,242516,6,0,B|299:323|234:306|257:251,1,118.999996368408,6|0,3:2|0:2,0:2:0:0:
361,119,242925,6,0,P|317:126|272:157,1,59.4999981842042,6|0,3:2|0:2,0:2:0:0:
268,198,243129,2,0,P|224:191|179:160,1,59.4999981842042,0|0,1:2|0:2,0:2:0:0:
245,0,243333,6,0,L|234:118,1,118.999996368408,4|2,3:2|0:2,0:2:0:0:
290,384,243741,2,0,L|279:265,1,118.999996368408,4|2,3:2|0:2,0:2:0:0:
315,12,244149,2,0,L|304:139,1,118.999996368408,6|2,3:2|0:2,0:2:0:0:
350,195,244455,1,0,1:2:0:0:
350,195,244557,1,6,1:2:0:0:
245,51,244761,1,2,1:2:0:0:
110,155,244965,6,0,P|47:151|-1:179,1,118.999996368408,6|0,3:2|0:2,0:2:0:0:
251,294,245374,6,0,P|188:297|139:269,1,118.999996368408,6|0,3:2|0:2,0:2:0:0:
371,102,245782,5,6,1:2:0:0:
213,197,245986,1,0,3:2:0:0:
464,305,246190,5,2,3:2:0:0:
401,255,246394,1,6,1:2:0:0:
256,192,246496,12,0,249863,0:2:0:0:
