osu file format v14

[General]
AudioFilename: audio.mp3
AudioLeadIn: 0
PreviewTime: 65474
Countdown: 0
SampleSet: Normal
StackLeniency: 0.7
Mode: 3
LetterboxInBreaks: 0
SpecialStyle: 0
WidescreenStoryboard: 1

[Editor]
DistanceSpacing: 0.8
BeatDivisor: 5
GridSize: 16
TimelineZoom: 2.2

[Metadata]
Title:Lagtrain (HowToPlayLN's 5/4 Swing Rearrangement) (Short Ver.)
TitleUnicode:ラグトレイン (HowToPlayLN's 5/4 Swing Rearrangement) (Short Ver.)
Artist:inabakumori
ArtistUnicode:稲葉曇
Creator:HowToPlayLN
Version:hard
Source:
Tags:htpln h2pln lolinote indekkusu jazz instrumental piano consistency technical full keysound ぬくぬくにぎりめし nukunukunigirimeshi ウェザーステーション weather station arrangement remix
BeatmapID:3501213
BeatmapSetID:1701849

[Difficulty]
HPDrainRate:7.5
CircleSize:4
OverallDifficulty:8
ApproachRate:5
SliderMultiplier:1.4
SliderTickRate:1

[Events]
//Background and Video events
0,0,"gaming.png",0,0
//Break Periods
//Storyboard Layer 0 (Background)
//Storyboard Layer 1 (Fail)
//Storyboard Layer 2 (Pass)
//Storyboard Layer 3 (Foreground)
//Storyboard Layer 4 (Overlay)
//Storyboard Sound Samples

[TimingPoints]
20,272.727272727273,5,1,1,40,1,0
65474,-100,5,1,1,40,0,1
87292,-100,5,1,1,40,0,0

[HitObjects]
320,192,20,5,0,0:0:0:62:0_C2_220_1367.wav
448,192,20,1,0,0:0:0:0:
64,192,456,1,0,0:0:0:0:
192,192,838,1,0,0:0:0:62:0_B1_220_911.wav
320,192,838,1,0,0:0:0:0:
448,192,1110,1,0,0:0:0:0:
64,192,1383,1,0,0:0:0:62:0_E2_220_1367.wav
192,192,1383,1,0,0:0:0:0:
320,192,1820,1,0,0:0:0:0:
192,192,2201,1,0,0:0:0:62:0_F#2_220_911.wav
448,192,2201,1,0,0:0:0:0:
64,192,2365,1,0,0:0:0:0:
320,192,2474,1,0,0:0:0:0:
192,192,2638,1,0,0:0:0:0:
64,192,2747,1,0,0:0:0:62:0_C2_220_1367.wav
448,192,2747,1,0,0:0:0:0:
320,192,3183,1,0,0:0:0:0:
64,192,3565,1,0,0:0:0:62:0_B1_220_911.wav
192,192,3565,1,0,0:0:0:0:
320,192,3838,1,0,0:0:0:0:
64,192,4110,1,0,0:0:0:62:0_E2_220_1367.wav
448,192,4110,1,0,0:0:0:0:
320,192,4792,128,0,4929:0:0:0:0:
64,192,4929,1,0,0:0:0:62:0_F#2_220_911.wav
448,192,4929,1,0,0:0:0:0:
192,192,5201,1,0,0:0:0:0:
320,192,5474,1,0,0:0:0:62:0_C2_220_1367.wav
448,192,5474,1,0,0:0:0:0:
64,192,5610,128,0,5747:0:0:0:0:
320,192,5747,1,0,0:0:0:0:
192,192,5910,1,0,0:0:0:0:
448,192,6020,1,0,0:0:0:0:
64,192,6183,1,0,0:0:0:0:
192,192,6292,1,0,0:0:0:62:0_B1_220_911.wav
320,192,6292,1,0,0:0:0:0:
64,192,6456,1,0,0:0:0:0:
320,192,6565,1,0,0:0:0:0:
192,192,6729,1,0,0:0:0:0:
320,192,6838,1,0,0:0:0:62:0_E2_220_1367.wav
448,192,6838,1,0,0:0:0:0:
64,192,7001,1,0,0:0:0:0:
192,192,7110,1,0,0:0:0:0:
448,192,7274,1,0,0:0:0:0:
320,192,7383,1,0,0:0:0:0:
192,192,7547,1,0,0:0:0:0:
64,192,7656,1,0,0:0:0:62:0_F#2_220_911.wav
448,192,7656,1,0,0:0:0:0:
192,192,7820,1,0,0:0:0:0:
320,192,7929,1,0,0:0:0:0:
448,192,8092,1,0,0:0:0:0:
64,192,8201,128,0,8474:0:0:0:62:0_C2_220_1367.wav
192,192,8201,1,0,0:0:0:0:
320,192,8474,1,0,0:0:0:0:
192,192,8638,1,0,0:0:0:0:
448,192,8747,1,0,0:0:0:0:
64,192,8910,1,0,0:0:0:0:
320,192,9020,1,0,0:0:0:62:0_B1_220_911.wav
448,192,9020,1,0,0:0:0:0:
192,192,9183,1,0,0:0:0:0:
64,192,9292,1,0,0:0:0:0:
320,192,9456,1,0,0:0:0:0:
192,192,9565,1,0,0:0:0:62:0_E2_220_1367.wav
448,192,9565,1,0,0:0:0:0:
64,192,10383,1,0,0:0:0:62:0_F#2_220_911.wav
320,192,10383,1,0,0:0:0:0:
192,192,10929,1,0,0:0:0:62:0_C2_220_1367.wav
448,192,10929,1,0,0:0:0:0:
320,192,11201,1,0,0:0:0:0:
64,192,11474,1,0,0:0:0:0:
192,192,11638,1,0,0:0:0:0:
320,192,11747,1,0,0:0:0:62:0_B1_220_911.wav
448,192,11747,1,0,0:0:0:0:
64,192,12020,1,0,0:0:0:0:
192,192,12183,1,0,0:0:0:0:
320,192,12292,1,0,0:0:0:62:0_E2_220_1367.wav
448,192,12292,1,0,0:0:0:0:
64,192,12838,1,0,0:0:0:0:
320,192,13001,1,0,0:0:0:0:
192,192,13110,1,0,0:0:0:62:0_F#2_220_911.wav
448,192,13110,1,0,0:0:0:0:
448,192,13383,1,0,0:0:0:0:
320,192,13547,1,0,0:0:0:0:
64,192,13656,1,0,0:0:0:62:0_C2_220_1367.wav
192,192,13656,1,0,0:0:0:0:
448,192,14092,1,0,0:0:0:0:
192,192,14201,1,0,0:0:0:0:
448,192,14365,1,0,0:0:0:0:
64,192,14474,1,0,0:0:0:62:0_B1_220_911.wav
192,192,14474,1,0,0:0:0:0:
320,192,14747,1,0,0:0:0:0:
64,192,15020,1,0,0:0:0:62:0_E2_220_1367.wav
448,192,15020,1,0,0:0:0:0:
192,192,15183,1,0,0:0:0:0:
320,192,15292,1,0,0:0:0:0:
64,192,15456,1,0,0:0:0:0:
448,192,15565,1,0,0:0:0:0:
320,192,15729,1,0,0:0:0:0:
64,192,15838,1,0,0:0:0:62:0_F#2_220_911.wav
192,192,15838,1,0,0:0:0:0:
448,192,16001,1,0,0:0:0:0:
320,192,16110,1,0,0:0:0:0:
192,192,16274,1,0,0:0:0:0:
64,192,16383,1,0,0:0:0:62:0_C2_220_1367.wav
448,192,16383,1,0,0:0:0:0:
320,192,16656,1,0,0:0:0:0:
192,192,16929,1,0,0:0:0:0:
320,192,17092,1,0,0:0:0:0:
64,192,17201,1,0,0:0:0:62:0_B1_220_911.wav
448,192,17201,1,0,0:0:0:0:
192,192,17474,1,0,0:0:0:0:
320,192,17638,1,0,0:0:0:0:
64,192,17747,1,0,0:0:0:62:0_E2_220_1367.wav
448,192,17747,1,0,0:0:0:0:
320,192,18292,1,0,0:0:0:0:
64,192,18456,1,0,0:0:0:0:
192,192,18565,1,0,0:0:0:62:0_F#2_220_911.wav
320,192,18565,1,0,0:0:0:0:
448,192,18838,1,0,0:0:0:0:
320,192,19001,1,0,0:0:0:0:
64,192,19110,1,0,0:0:0:62:0_C2_220_1367.wav
192,192,19110,1,0,0:0:0:0:
320,192,19547,1,0,0:0:0:0:
192,192,19656,1,0,0:0:0:0:
320,192,19820,1,0,0:0:0:0:
64,192,19929,1,0,0:0:0:62:0_B1_220_911.wav
192,192,19929,1,0,0:0:0:0:
448,192,20092,1,0,0:0:0:0:
64,192,20201,1,0,0:0:0:0:
192,192,20365,1,0,0:0:0:0:
320,192,20474,1,0,0:0:0:62:0_E2_220_1367.wav
448,192,20474,1,0,0:0:0:0:
64,192,20610,128,0,20747:0:0:0:0:
320,192,20747,1,0,0:0:0:0:
192,192,20910,1,0,0:0:0:0:
448,192,21020,1,0,0:0:0:0:
320,192,21183,1,0,0:0:0:0:
64,192,21292,1,0,0:0:0:62:0_F#2_220_911.wav
192,192,21292,1,0,0:0:0:0:
320,192,21456,1,0,0:0:0:0:
64,192,21565,1,0,0:0:0:0:
192,192,21701,128,0,21838:0:0:0:0:
320,192,21838,1,0,0:0:0:62:0_C2_220_1367.wav
448,192,21838,1,0,0:0:0:0:
64,192,22110,1,0,0:0:0:0:
448,192,22383,1,0,0:0:0:0:
320,192,22547,1,0,0:0:0:0:
64,192,22656,1,0,0:0:0:62:0_B1_220_911.wav
192,192,22656,1,0,0:0:0:0:
448,192,22792,128,0,22929:0:0:0:0:
64,192,22929,1,0,0:0:0:0:
192,192,23092,1,0,0:0:0:0:
320,192,23201,1,0,0:0:0:62:0_E2_220_1367.wav
448,192,23201,1,0,0:0:0:0:
64,192,23365,1,0,0:0:0:0:
320,192,23474,1,0,0:0:0:0:
192,192,23638,1,0,0:0:0:0:
448,192,23747,1,0,0:0:0:0:
320,192,23910,1,0,0:0:0:0:
64,192,24020,1,0,0:0:0:62:0_F#2_220_911.wav
192,192,24020,1,0,0:0:0:0:
448,192,24129,1,0,0:0:0:0:
64,192,24238,1,0,0:0:0:0:
192,192,24347,1,0,0:0:0:0:
320,192,24456,1,0,0:0:0:0:
64,192,24565,1,0,0:0:0:62:0_C2_220_1367.wav
448,192,24565,1,0,0:0:0:0:
192,192,24838,1,0,0:0:0:0:
448,192,25110,1,0,0:0:0:0:
320,192,25201,1,0,0:0:0:0:
192,192,25292,1,0,0:0:0:0:
64,192,25383,1,0,0:0:0:62:0_B1_220_911.wav
448,192,25383,1,0,0:0:0:0:
320,192,25520,128,0,25656:0:0:0:0:
192,192,25656,1,0,0:0:0:0:
448,192,25820,1,0,0:0:0:0:
64,192,25929,1,0,0:0:0:62:0_E2_220_1367.wav
320,192,25929,1,0,0:0:0:0:
192,192,26038,1,0,0:0:0:0:
448,192,26147,1,0,0:0:0:0:
320,192,26256,1,0,0:0:0:0:
64,192,26365,1,0,0:0:0:0:
192,192,26474,1,0,0:0:0:0:
448,192,26591,1,0,0:0:0:0:
320,192,26708,1,0,0:0:0:0:
64,192,26747,1,0,0:0:0:62:0_F#2_220_911.wav
192,192,26825,1,0,0:0:0:0:
320,192,26942,1,0,0:0:0:0:
64,192,27058,1,0,0:0:0:0:
448,192,27175,1,0,0:0:0:0:
192,192,27292,1,0,0:0:0:62:0_C2_220_1367.wav
320,192,27292,1,0,0:0:0:0:
64,192,27565,1,0,0:0:0:0:
320,192,27729,1,0,0:0:0:0:
192,192,27838,1,0,0:0:0:0:
448,192,28001,1,0,0:0:0:0:
64,192,28110,1,0,0:0:0:62:0_B1_220_911.wav
320,192,28110,1,0,0:0:0:0:
192,192,28383,1,0,0:0:0:0:
320,192,28547,1,0,0:0:0:0:
64,192,28656,1,0,0:0:0:62:0_E2_220_1367.wav
192,192,28656,1,0,0:0:0:0:
448,192,28792,128,0,28929:0:0:0:0:
320,192,28929,1,0,0:0:0:0:
192,192,29092,1,0,0:0:0:0:
64,192,29201,1,0,0:0:0:0:
320,192,29365,1,0,0:0:0:0:
192,192,29474,1,0,0:0:0:62:0_F#2_220_911.wav
448,192,29474,1,0,0:0:0:0:
64,192,29638,1,0,0:0:0:0:
320,192,29747,1,0,0:0:0:0:
192,192,29910,1,0,0:0:0:0:
64,192,30020,1,0,0:0:0:62:0_C2_220_1367.wav
448,192,30020,1,0,0:0:0:0:
320,192,30183,1,0,0:0:0:0:
192,192,30292,1,0,0:0:0:0:
448,192,30456,1,0,0:0:0:0:
320,192,30565,1,0,0:0:0:0:
64,192,30729,1,0,0:0:0:0:
192,192,30838,1,0,0:0:0:62:0_B1_220_911.wav
448,192,30838,1,0,0:0:0:0:
320,192,31001,1,0,0:0:0:0:
64,192,31110,1,0,0:0:0:0:
192,192,31274,1,0,0:0:0:0:
320,192,31383,1,0,0:0:0:62:0_E2_220_1367.wav
448,192,31383,1,0,0:0:0:0:
64,192,32201,1,0,0:0:0:62:0_F#2_220_911.wav
320,192,32201,1,0,0:0:0:0:
192,192,32365,1,0,0:0:0:0:
320,192,32474,1,0,0:0:0:0:
64,192,32638,1,0,0:0:0:0:
192,192,32747,1,0,0:0:0:62:0_C2_220_1367.wav
448,192,32747,1,0,0:0:0:0:
320,192,33183,1,0,0:0:0:0:
192,192,33565,1,0,0:0:0:62:0_B1_220_911.wav
448,192,33565,1,0,0:0:0:0:
64,192,33838,1,0,0:0:0:0:
320,192,34110,1,0,0:0:0:62:0_E2_220_1367.wav
448,192,34110,1,0,0:0:0:0:
192,192,34547,1,0,0:0:0:0:
64,192,34929,1,0,0:0:0:62:0_F#2_220_911.wav
320,192,34929,1,0,0:0:0:0:
448,192,35092,1,0,0:0:0:0:
192,192,35201,1,0,0:0:0:0:
320,192,35365,1,0,0:0:0:0:
64,192,35474,1,0,0:0:0:62:0_C2_220_1367.wav
192,192,35474,1,0,0:0:0:0:
320,192,35910,1,0,0:0:0:0:
64,192,36292,1,0,0:0:0:62:0_B1_220_911.wav
448,192,36292,1,0,0:0:0:0:
192,192,36565,1,0,0:0:0:0:
320,192,36838,1,0,0:0:0:62:0_E2_220_1367.wav
448,192,36838,1,0,0:0:0:0:
64,192,37520,128,0,37656:0:0:0:0:
192,192,37656,1,0,0:0:0:62:0_F#2_220_911.wav
448,192,37656,1,0,0:0:0:0:
320,192,37765,1,0,0:0:0:0:
64,192,37874,1,0,0:0:0:0:
192,192,37983,1,0,0:0:0:0:
448,192,38092,1,0,0:0:0:0:
64,192,38201,1,0,0:0:0:62:0_C2_220_1367.wav
320,192,38201,1,0,0:0:0:0:
192,192,38638,1,0,0:0:0:0:
64,192,39020,1,0,0:0:0:62:0_B1_220_911.wav
448,192,39020,1,0,0:0:0:0:
320,192,39292,1,0,0:0:0:0:
64,192,39565,1,0,0:0:0:62:0_E2_220_1367.wav
192,192,39565,1,0,0:0:0:0:
448,192,40001,1,0,0:0:0:0:
64,192,40383,1,0,0:0:0:62:0_F#2_220_911.wav
320,192,40383,1,0,0:0:0:0:
448,192,40547,1,0,0:0:0:0:
192,192,40656,1,0,0:0:0:0:
320,192,40820,1,0,0:0:0:0:
64,192,40929,1,0,0:0:0:62:0_C2_220_1367.wav
448,192,40929,1,0,0:0:0:0:
192,192,41365,1,0,0:0:0:0:
64,192,41747,1,0,0:0:0:62:0_B1_220_911.wav
320,192,41747,1,0,0:0:0:0:
448,192,42020,1,0,0:0:0:0:
64,192,42292,1,0,0:0:0:62:0_E2_220_1367.wav
192,192,42292,1,0,0:0:0:0:
320,192,43656,1,0,0:0:0:62:0_C2_220_1367.wav
448,192,43656,1,0,0:0:0:0:
192,192,44092,1,0,0:0:0:0:
320,192,44201,1,0,0:0:0:0:
64,192,44365,1,0,0:0:0:0:
192,192,44474,1,0,0:0:0:62:0_D2_220_911.wav
448,192,44474,1,0,0:0:0:0:
64,192,45020,1,0,0:0:0:62:0_F#2_220_1367.wav
320,192,45020,1,0,0:0:0:0:
448,192,45565,1,0,0:0:0:0:
192,192,45729,1,0,0:0:0:0:
64,192,45838,1,0,0:0:0:62:0_G2_220_455.wav
320,192,45838,1,0,0:0:0:0:
448,192,46001,1,0,0:0:0:0:
64,192,46110,1,0,0:0:0:62:0_D2_220_455.wav
192,192,46110,1,0,0:0:0:0:
320,192,46274,1,0,0:0:0:0:
192,192,46383,1,0,0:0:0:62:0_C2_220_1367.wav
448,192,46383,1,0,0:0:0:0:
64,192,46820,1,0,0:0:0:0:
320,192,47201,1,0,0:0:0:62:0_F#2_220_911.wav
448,192,47201,1,0,0:0:0:0:
192,192,47365,1,0,0:0:0:0:
320,192,47474,1,0,0:0:0:0:
64,192,47638,1,0,0:0:0:0:
192,192,47747,1,0,0:0:0:62:0_B1_220_1367.wav
448,192,47747,1,0,0:0:0:0:
320,192,47910,1,0,0:0:0:0:
64,192,48183,1,0,0:0:0:0:
192,192,48456,1,0,0:0:0:0:
320,192,48565,1,0,0:0:0:62:0_E2_220_911.wav
448,192,48565,1,0,0:0:0:0:
64,192,49110,1,0,0:0:0:62:0_C2_220_1367.wav
320,192,49110,1,0,0:0:0:0:
192,192,49547,1,0,0:0:0:0:
448,192,49656,1,0,0:0:0:0:
320,192,49820,1,0,0:0:0:0:
64,192,49929,1,0,0:0:0:62:0_D2_220_911.wav
192,192,49929,1,0,0:0:0:0:
192,192,50474,1,0,0:0:0:62:0_F#2_220_1367.wav
448,192,50474,1,0,0:0:0:0:
320,192,51020,1,0,0:0:0:0:
64,192,51183,1,0,0:0:0:0:
192,192,51292,1,0,0:0:0:62:0_G2_220_455.wav
320,192,51292,1,0,0:0:0:0:
448,192,51456,1,0,0:0:0:0:
64,192,51565,1,0,0:0:0:62:0_D2_220_455.wav
192,192,51565,1,0,0:0:0:0:
320,192,51729,1,0,0:0:0:0:
64,192,51838,1,0,0:0:0:62:0_C2_220_683.wav
448,192,51838,1,0,0:0:0:0:
192,192,52001,1,0,0:0:0:0:
320,192,52110,1,0,0:0:0:0:
64,192,52247,1,0,0:0:0:62:0_F#2_220_683.wav
448,192,52247,1,0,0:0:0:0:
192,192,52383,1,0,0:0:0:0:
320,192,52547,1,0,0:0:0:0:
64,192,52656,1,0,0:0:0:62:0_B1_220_911.wav
192,192,52656,1,0,0:0:0:0:
448,192,52820,1,0,0:0:0:0:
320,192,52929,1,0,0:0:0:0:
192,192,53092,1,0,0:0:0:0:
64,192,53201,1,0,0:0:0:62:0_E2_220_1367.wav
448,192,53201,1,0,0:0:0:0:
320,192,53474,1,0,0:0:0:0:
64,192,53910,1,0,0:0:0:0:
192,192,54020,1,0,0:0:0:62:0_F#2_220_911.wav
320,192,54020,1,0,0:0:0:0:
448,192,54183,1,0,0:0:0:0:
64,192,54292,1,0,0:0:0:0:
192,192,54456,1,0,0:0:0:0:
320,192,54565,1,0,0:0:0:62:0_C2_220_911.wav
448,192,54565,1,0,0:0:0:0:
192,192,55001,1,0,0:0:0:0:
192,192,55383,1,0,0:0:0:0:
64,192,55656,1,0,0:0:0:0:
192,192,55929,1,0,0:0:0:62:0_F#2_220_911.wav
320,192,55929,1,0,0:0:0:0:
448,192,56365,1,0,0:0:0:0:
448,192,56747,1,0,0:0:0:0:
192,192,57020,1,0,0:0:0:0:
64,192,57292,1,0,0:0:0:62:0_B1_220_911.wav
448,192,57292,1,0,0:0:0:0:
192,192,57565,1,0,0:0:0:0:
320,192,57729,1,0,0:0:0:0:
448,192,57838,1,0,0:0:0:0:
192,192,58001,1,0,0:0:0:0:
320,192,58110,1,0,0:0:0:0:
64,192,58383,1,0,0:0:0:0:
192,192,58656,1,0,0:0:0:62:0_E2_220_911.wav
448,192,58656,1,0,0:0:0:0:
320,192,58820,1,0,0:0:0:0:
64,192,58929,1,0,0:0:0:0:
320,192,59747,1,0,0:0:0:0:
64,192,60020,1,0,0:0:0:62:0_C2_220_911.wav
192,192,60020,1,0,0:0:0:0:
320,192,60456,1,0,0:0:0:0:
320,192,60838,1,0,0:0:0:0:
192,192,61110,1,0,0:0:0:0:
64,192,61383,1,0,0:0:0:62:0_F#2_220_911.wav
448,192,61383,1,0,0:0:0:0:
320,192,61820,1,0,0:0:0:0:
320,192,62201,1,0,0:0:0:0:
192,192,62474,1,0,0:0:0:0:
64,192,62747,1,0,0:0:0:62:0_C#2_220_911.wav
448,192,62747,1,0,0:0:0:0:
320,192,62910,1,0,0:0:0:0:
192,192,63020,1,0,0:0:0:0:
448,192,63183,1,0,0:0:0:0:
64,192,63292,1,0,0:0:0:0:
192,192,63456,1,0,0:0:0:0:
320,192,63565,1,0,0:0:0:0:
448,192,63729,1,0,0:0:0:0:
64,192,63838,1,0,0:0:0:0:
320,192,64001,1,0,0:0:0:0:
64,192,64110,1,0,0:0:0:62:0_D2_220_911.wav
192,192,64110,1,0,0:0:0:0:
320,192,65474,1,0,0:0:0:62:0_C2_220_1367.wav
448,192,65474,1,0,0:0:0:0:
64,192,65747,1,0,0:0:0:0:
192,192,66020,1,0,0:0:0:0:
320,192,66183,1,0,0:0:0:0:
64,192,66292,1,0,0:0:0:62:0_B1_220_911.wav
448,192,66292,1,0,0:0:0:0:
192,192,66565,1,0,0:0:0:0:
320,192,66729,1,0,0:0:0:0:
64,192,66838,1,0,0:0:0:62:0_E2_220_1367.wav
448,192,66838,1,0,0:0:0:0:
192,192,67383,1,0,0:0:0:0:
448,192,67547,1,0,0:0:0:0:
64,192,67656,1,0,0:0:0:62:0_F#2_220_911.wav
320,192,67656,1,0,0:0:0:0:
192,192,67929,1,0,0:0:0:0:
448,192,68092,1,0,0:0:0:0:
64,192,68201,1,0,0:0:0:62:0_C2_220_1367.wav
320,192,68201,1,0,0:0:0:0:
192,192,68474,1,0,0:0:0:0:
320,192,68583,1,0,0:0:0:0:
448,192,68692,1,0,0:0:0:0:
64,192,68801,1,0,0:0:0:0:
192,192,68910,1,0,0:0:0:0:
320,192,69020,1,0,0:0:0:62:0_B1_220_911.wav
448,192,69020,1,0,0:0:0:0:
64,192,69183,1,0,0:0:0:0:
320,192,69292,1,0,0:0:0:0:
192,192,69456,1,0,0:0:0:0:
64,192,69565,1,0,0:0:0:62:0_E2_220_1367.wav
448,192,69565,1,0,0:0:0:0:
320,192,69729,1,0,0:0:0:0:
192,192,69838,1,0,0:0:0:0:
448,192,69974,1,0,0:0:0:0:
64,192,70065,1,0,0:0:0:0:
320,192,70156,1,0,0:0:0:0:
192,192,70247,1,0,0:0:0:0:
64,192,70383,1,0,0:0:0:62:0_F#2_220_911.wav
448,192,70383,1,0,0:0:0:0:
320,192,70547,1,0,0:0:0:0:
192,192,70656,1,0,0:0:0:0:
448,192,70820,1,0,0:0:0:0:
192,192,70929,1,0,0:0:0:62:0_C2_220_1367.wav
320,192,70929,1,0,0:0:0:0:
64,192,71092,1,0,0:0:0:0:
320,192,71201,1,0,0:0:0:0:
64,192,71292,1,0,0:0:0:0:
192,192,71383,1,0,0:0:0:0:
448,192,71474,1,0,0:0:0:0:
320,192,71638,1,0,0:0:0:0:
64,192,71747,1,0,0:0:0:62:0_B1_220_911.wav
192,192,71747,1,0,0:0:0:0:
448,192,71910,1,0,0:0:0:0:
320,192,72020,128,0,72292:0:0:0:0:
64,192,72292,1,0,0:0:0:62:0_E2_220_1367.wav
192,192,72292,1,0,0:0:0:0:
448,192,72401,1,0,0:0:0:0:
64,192,72510,1,0,0:0:0:0:
320,192,72620,1,0,0:0:0:0:
192,192,72729,1,0,0:0:0:0:
448,192,72838,1,0,0:0:0:0:
64,192,73001,1,0,0:0:0:0:
192,192,73110,1,0,0:0:0:62:0_F#2_220_911.wav
320,192,73110,1,0,0:0:0:0:
448,192,73274,1,0,0:0:0:0:
192,192,73383,1,0,0:0:0:0:
320,192,73547,1,0,0:0:0:0:
64,192,73656,1,0,0:0:0:62:0_C2_220_1367.wav
192,192,73656,1,0,0:0:0:0:
448,192,73820,1,0,0:0:0:0:
64,192,73929,1,0,0:0:0:0:
320,192,73929,1,0,0:0:0:0:
192,192,74092,1,0,0:0:0:0:
320,192,74201,1,0,0:0:0:0:
64,192,74365,1,0,0:0:0:0:
192,192,74474,1,0,0:0:0:62:0_B1_220_911.wav
448,192,74474,1,0,0:0:0:0:
320,192,74638,1,0,0:0:0:0:
64,192,74747,1,0,0:0:0:0:
448,192,74910,1,0,0:0:0:0:
192,192,75020,1,0,0:0:0:62:0_E2_220_1367.wav
320,192,75020,1,0,0:0:0:0:
64,192,75292,1,0,0:0:0:0:
192,192,75292,1,0,0:0:0:0:
320,192,75565,1,0,0:0:0:0:
448,192,75565,1,0,0:0:0:0:
192,192,75656,1,0,0:0:0:0:
320,192,75747,1,0,0:0:0:0:
64,192,75838,1,0,0:0:0:62:0_F#2_220_911.wav
448,192,75838,1,0,0:0:0:0:
192,192,76001,1,0,0:0:0:0:
320,192,76110,1,0,0:0:0:0:
448,192,76110,1,0,0:0:0:0:
192,192,76274,1,0,0:0:0:0:
64,192,76383,1,0,0:0:0:62:0_C2_220_1367.wav
448,192,76383,1,0,0:0:0:0:
320,192,76474,1,0,0:0:0:0:
192,192,76565,1,0,0:0:0:0:
64,192,76656,1,0,0:0:0:0:
448,192,76656,1,0,0:0:0:0:
320,192,76765,1,0,0:0:0:0:
192,192,76874,1,0,0:0:0:0:
448,192,76983,1,0,0:0:0:0:
320,192,77092,1,0,0:0:0:0:
64,192,77201,1,0,0:0:0:62:0_B1_220_911.wav
192,192,77201,1,0,0:0:0:0:
448,192,77365,1,0,0:0:0:0:
64,192,77474,1,0,0:0:0:0:
320,192,77474,1,0,0:0:0:0:
192,192,77638,1,0,0:0:0:0:
320,192,77747,1,0,0:0:0:62:0_E2_220_1367.wav
448,192,77747,128,0,78082:0:0:0:0:
64,192,78082,1,0,0:0:0:0:
192,192,78250,128,0,78586:0:0:0:0:
320,192,78418,1,0,0:0:0:0:
64,192,78586,1,0,0:0:0:62:0_F#2_220_911.wav
448,192,78586,128,0,78837:0:0:0:0:
192,192,78837,1,0,0:0:0:0:
320,192,78929,1,0,0:0:0:0:
64,192,79020,1,0,0:0:0:0:
192,192,79110,1,0,0:0:0:62:0_C2_220_1367.wav
448,192,79110,1,0,0:0:0:0:
320,192,79274,1,0,0:0:0:0:
64,192,79383,1,0,0:0:0:0:
448,192,79474,1,0,0:0:0:0:
320,192,79565,1,0,0:0:0:0:
192,192,79656,1,0,0:0:0:0:
64,192,79773,1,0,0:0:0:0:
192,192,79929,1,0,0:0:0:62:0_B1_220_911.wav
320,192,79929,1,0,0:0:0:0:
448,192,80045,1,0,0:0:0:0:
64,192,80123,1,0,0:0:0:0:
320,192,80240,1,0,0:0:0:0:
192,192,80357,1,0,0:0:0:0:
320,192,80474,1,0,0:0:0:62:0_E2_220_1367.wav
448,192,80474,1,0,0:0:0:0:
64,192,80638,1,0,0:0:0:0:
192,192,80747,1,0,0:0:0:0:
320,192,80883,1,0,0:0:0:0:
448,192,80974,1,0,0:0:0:0:
192,192,81065,1,0,0:0:0:0:
320,192,81156,1,0,0:0:0:0:
64,192,81292,1,0,0:0:0:62:0_F#2_220_911.wav
448,192,81292,1,0,0:0:0:0:
192,192,81456,1,0,0:0:0:0:
320,192,81565,1,0,0:0:0:0:
64,192,81729,1,0,0:0:0:0:
192,192,81838,1,0,0:0:0:62:0_C2_220_1367.wav
448,192,81838,1,0,0:0:0:0:
320,192,82110,1,0,0:0:0:0:
64,192,82383,1,0,0:0:0:0:
192,192,82547,1,0,0:0:0:0:
320,192,82656,1,0,0:0:0:62:0_B1_220_911.wav
448,192,82656,1,0,0:0:0:0:
64,192,82929,1,0,0:0:0:0:
192,192,83020,1,0,0:0:0:0:
320,192,83110,1,0,0:0:0:0:
64,192,83201,1,0,0:0:0:62:0_E2_220_1367.wav
448,192,83201,1,0,0:0:0:0:
192,192,83292,1,0,0:0:0:0:
320,192,83383,1,0,0:0:0:0:
64,192,83474,1,0,0:0:0:0:
448,192,83565,1,0,0:0:0:0:
320,192,83656,1,0,0:0:0:0:
192,192,83747,1,0,0:0:0:0:
64,192,83838,1,0,0:0:0:0:
320,192,83929,1,0,0:0:0:0:
192,192,84020,1,0,0:0:0:62:0_F#2_220_911.wav
448,192,84020,1,0,0:0:0:0:
64,192,84183,1,0,0:0:0:0:
320,192,84292,1,0,0:0:0:0:
192,192,84456,1,0,0:0:0:0:
320,192,84565,1,0,0:0:0:62:0_C2_220_1367.wav
448,192,84565,1,0,0:0:0:0:
64,192,84682,1,0,0:0:0:0:
192,192,84799,1,0,0:0:0:0:
448,192,84916,1,0,0:0:0:0:
320,192,85032,1,0,0:0:0:0:
192,192,85149,1,0,0:0:0:0:
64,192,85266,1,0,0:0:0:0:
320,192,85383,1,0,0:0:0:62:0_B1_220_911.wav
448,192,85383,1,0,0:0:0:0:
192,192,85547,1,0,0:0:0:0:
448,192,85656,1,0,0:0:0:0:
64,192,85820,1,0,0:0:0:0:
192,192,85929,1,0,0:0:0:62:0_E2_220_1367.wav
320,192,85929,1,0,0:0:0:0:
320,192,86201,1,0,0:0:0:0:
320,192,86638,1,0,0:0:0:0:
64,192,86747,1,0,0:0:0:0:
192,192,86747,1,0,0:0:0:0:
320,192,86910,1,0,0:0:0:0:
448,192,87020,1,0,0:0:0:0:
192,192,87183,1,0,0:0:0:0:
64,192,87292,1,0,0:0:0:62:0_C2_220_1367.wav
448,192,87292,1,0,0:0:0:0:
320,192,87729,1,0,0:0:0:0:
64,192,88110,1,0,0:0:0:62:0_B1_220_911.wav
192,192,88110,1,0,0:0:0:0:
320,192,88383,1,0,0:0:0:0:
192,192,88656,1,0,0:0:0:62:0_E2_220_1367.wav
448,192,88656,1,0,0:0:0:0:
64,192,89092,1,0,0:0:0:0:
320,192,89474,1,0,0:0:0:62:0_F#2_220_911.wav
448,192,89474,1,0,0:0:0:0:
192,192,89638,1,0,0:0:0:0:
320,192,89747,1,0,0:0:0:0:
64,192,89910,1,0,0:0:0:0:
192,192,90020,1,0,0:0:0:62:0_C2_220_1367.wav
448,192,90020,1,0,0:0:0:0:
64,192,90456,1,0,0:0:0:0:
320,192,90838,1,0,0:0:0:62:0_B1_220_911.wav
448,192,90838,1,0,0:0:0:0:
192,192,91110,1,0,0:0:0:0:
64,192,91383,1,0,0:0:0:62:0_E2_220_1367.wav
448,192,91383,1,0,0:0:0:0:
192,192,92065,128,0,92201:0:0:0:0:
320,192,92201,1,0,0:0:0:62:0_F#2_220_911.wav
448,192,92201,1,0,0:0:0:0:
192,192,92474,1,0,0:0:0:0:
64,192,92747,1,0,0:0:0:62:0_C2_220_1367.wav
448,192,92747,1,0,0:0:0:0:
320,192,93183,1,0,0:0:0:0:
64,192,93565,1,0,0:0:0:62:0_B1_220_911.wav
192,192,93565,1,0,0:0:0:0:
448,192,93838,1,0,0:0:0:0:
192,192,94110,1,0,0:0:0:62:0_E2_220_1367.wav
320,192,94110,1,0,0:0:0:0:
64,192,94547,1,0,0:0:0:0:
192,192,94929,1,0,0:0:0:62:0_F#2_220_911.wav
448,192,94929,1,0,0:0:0:0:
320,192,95092,1,0,0:0:0:0:
64,192,95201,1,0,0:0:0:0:
192,192,95365,1,0,0:0:0:0:
320,192,95474,1,0,0:0:0:62:0_C2_220_1367.wav
448,192,95474,1,0,0:0:0:0:
64,192,95910,1,0,0:0:0:0:
192,192,96292,1,0,0:0:0:62:0_B1_220_911.wav
320,192,96292,1,0,0:0:0:0:
448,192,96565,1,0,0:0:0:0:
64,192,96838,1,0,0:0:0:62:0_E2_220_1823.wav
192,192,96838,1,0,0:0:0:0:
