osu file format v14

[General]
AudioFilename: audio.mp3
AudioLeadIn: 0
PreviewTime: 75067
Countdown: 0
SampleSet: Normal
StackLeniency: 0.7
Mode: 1
LetterboxInBreaks: 0
WidescreenStoryboard: 1

[Editor]
DistanceSpacing: 1
BeatDivisor: 4
GridSize: 8
TimelineZoom: 1

[Metadata]
Title:Lagtrain
TitleUnicode:ラグトレイン
Artist:inabakumori
ArtistUnicode:稲葉曇
Creator:Horiiizon
Version:Kantan
Source:
Tags:japanese rock j-rock jrock kaai yuki 歌愛ユキ nukunuku nigirimeshi ぬくぬくにぎりめし vocaloid cumori genjuro
BeatmapID:2920463
BeatmapSetID:1406580

[Difficulty]
HPDrainRate:7
CircleSize:5
OverallDifficulty:3.5
ApproachRate:5
SliderMultiplier:1.4
SliderTickRate:1

[Events]
//Background and Video events
0,0,"bg4.png",0,10
//Break Periods
2,205781,207847
//Storyboard Layer 0 (Background)
//Storyboard Layer 1 (Fail)
//Storyboard Layer 2 (Pass)
//Storyboard Layer 3 (Foreground)
//Storyboard Layer 4 (Overlay)
//Storyboard Sound Samples

[TimingPoints]
68,408.163265306122,8,1,0,30,1,8
3078,-100,4,1,0,70,0,0
3333,408.163265306122,4,1,0,70,1,0
22057,-100,4,1,0,30,0,0
22874,-100,4,1,0,90,0,0
22924,-100,4,1,0,90,0,1
35935,-100,4,1,0,60,0,1
35986,-100,4,1,0,60,0,0
47567,-100,4,1,0,40,0,0
48996,-100,4,1,0,60,0,0
73282,-100,4,1,0,70,0,0
75119,-100,4,1,0,80,0,0
78384,-100,4,1,0,90,0,0
78435,-100,4,1,0,90,0,1
86598,-100,4,1,0,90,0,0
87363,-100,4,1,0,50,0,0
88180,-100,4,1,0,90,0,0
88230,-100,4,1,0,90,0,1
101241,-100,4,1,0,60,0,1
101292,-100,4,1,0,60,0,0
151445,-100,4,1,0,70,0,0
152874,-100,4,1,0,80,0,0
153486,-100,4,1,0,90,0,0
153537,-100,4,1,0,90,0,1
166547,-100,4,1,0,60,0,1
166598,-100,4,1,0,60,0,0
199200,-100,4,1,0,70,0,0
202465,-100,4,1,0,80,0,0
205731,-100,4,1,0,30,0,0
208180,-100,4,1,0,50,0,0
208996,-100,4,1,0,90,0,0
209047,-100,4,1,0,90,0,1
222108,-100,4,1,0,90,0,0
222516,-100,4,1,0,90,0,1
235119,-100,4,1,0,60,0,1
235169,-100,4,1,0,60,0,0

[HitObjects]
211,194,3333,5,8,0:0:0:0:
211,194,4149,1,0,0:0:0:0:
224,170,4761,1,0,0:0:0:0:
224,170,5170,1,8,0:0:0:0:
211,194,6598,1,8,0:0:0:0:
211,194,7414,1,0,0:0:0:0:
224,170,8026,1,0,0:0:0:0:
169,147,9863,1,0,0:0:0:0:
172,159,10272,1,8,0:0:0:0:
182,160,11088,1,8,0:0:0:0:
191,143,11904,1,0,0:0:0:0:
195,161,12721,1,8,0:0:0:0:
194,154,13537,1,8,0:0:0:0:
171,147,14353,1,0,0:0:0:0:
210,127,15170,1,8,0:0:0:0:
169,147,16394,1,0,0:0:0:0:
172,159,16803,1,8,0:0:0:0:
182,160,17619,1,8,0:0:0:0:
191,143,18435,1,0,0:0:0:0:
195,161,19252,1,8,0:0:0:0:
194,154,20068,1,8,0:0:0:0:
171,147,20884,1,0,0:0:0:0:
211,156,22925,5,8,0:0:0:0:
199,148,23333,1,8,0:0:0:0:
214,121,23741,1,0,0:0:0:0:
196,134,24557,1,0,0:0:0:0:
192,150,24965,1,0,0:0:0:0:
196,134,25374,1,8,0:0:0:0:
192,150,26190,1,8,0:0:0:0:
200,117,27619,1,8,0:0:0:0:
199,225,28435,1,8,0:0:0:0:
193,172,29047,1,0,0:0:0:0:
211,156,29455,5,8,0:0:0:0:
199,148,29863,1,8,0:0:0:0:
214,121,30271,1,0,0:0:0:0:
196,134,31087,1,0,0:0:0:0:
196,134,31904,1,8,0:0:0:0:
188,114,33129,1,0,0:0:0:0:
198,152,33537,1,8,0:0:0:0:
205,172,34353,1,8,0:0:0:0:
206,107,34761,1,8,0:0:0:0:
201,116,35170,1,0,0:0:0:0:
205,172,35578,5,0,0:0:0:0:
211,194,35986,1,8,0:0:0:0:
211,194,36802,1,0,0:0:0:0:
224,170,37414,1,0,0:0:0:0:
224,170,37823,1,8,0:0:0:0:
211,194,39251,5,8,0:0:0:0:
211,194,40067,1,0,0:0:0:0:
224,170,40679,1,0,0:0:0:0:
211,194,42516,1,8,0:0:0:0:
211,194,43332,1,0,0:0:0:0:
224,170,43944,1,0,0:0:0:0:
224,170,44353,1,8,0:0:0:0:
211,194,45781,5,8,0:0:0:0:
211,194,46597,1,0,0:0:0:0:
224,170,47209,1,0,0:0:0:0:
178,123,49047,5,8,0:0:0:0:
184,116,49863,1,0,0:0:0:0:
200,186,50476,1,0,0:0:0:0:
181,221,50884,1,0,0:0:0:0:
186,138,52312,1,8,0:0:0:0:
202,152,53129,1,8,0:0:0:0:
202,152,53741,1,0,0:0:0:0:
202,152,54149,1,0,0:0:0:0:
178,123,55578,5,8,0:0:0:0:
184,116,56394,1,0,0:0:0:0:
200,186,57007,1,0,0:0:0:0:
181,221,57415,1,0,0:0:0:0:
186,138,58843,5,8,0:0:0:0:
202,152,59660,1,8,0:0:0:0:
202,152,60272,1,0,0:0:0:0:
171,191,62108,5,0,0:0:0:0:
206,147,62516,1,8,0:0:0:0:
206,147,63333,1,8,0:0:0:0:
186,215,64149,1,0,0:0:0:0:
180,155,65170,1,8,0:0:0:0:
174,102,65782,1,8,0:0:0:0:
175,114,66598,1,0,0:0:0:0:
190,108,68231,1,8,0:0:0:0:
154,118,68639,1,8,0:0:0:0:
161,101,69047,1,0,0:0:0:0:
160,118,69863,1,8,0:0:0:0:
180,122,70680,1,0,0:0:0:0:
176,95,71496,1,0,0:0:0:0:
197,93,72312,1,8,0:0:0:0:
177,178,73333,1,8,0:0:0:0:
177,178,73741,1,8,0:0:0:0:
188,130,74149,1,0,0:0:0:0:
193,133,74557,1,0,0:0:0:0:
168,165,75170,1,8,0:0:0:0:
174,163,78026,1,0,0:0:0:0:
152,154,78435,1,8,0:0:0:0:
159,151,78843,1,8,0:0:0:0:
156,148,79251,1,0,0:0:0:0:
198,183,79863,1,8,0:0:0:0:
172,144,80680,1,0,0:0:0:0:
172,144,81292,1,8,0:0:0:0:
161,99,81700,1,0,0:0:0:0:
196,132,82108,1,0,0:0:0:0:
201,110,82517,1,8,0:0:0:0:
191,117,83333,1,0,0:0:0:0:
211,137,84149,1,8,0:0:0:0:
188,114,85374,1,0,0:0:0:0:
198,152,85782,1,8,0:0:0:0:
205,172,86598,1,8,0:0:0:0:
211,194,88231,1,8,0:0:0:0:
199,148,88639,1,8,0:0:0:0:
214,121,89047,1,0,0:0:0:0:
196,134,89863,1,0,0:0:0:0:
192,150,90271,1,0,0:0:0:0:
196,134,90680,1,8,0:0:0:0:
192,150,91496,1,8,0:0:0:0:
200,117,92925,1,8,0:0:0:0:
199,225,93741,1,8,0:0:0:0:
193,172,94353,1,0,0:0:0:0:
211,156,94761,5,8,0:0:0:0:
199,148,95169,1,8,0:0:0:0:
214,121,95577,1,0,0:0:0:0:
196,134,96393,1,0,0:0:0:0:
196,134,97210,1,8,0:0:0:0:
188,114,98435,1,0,0:0:0:0:
198,152,98843,1,8,0:0:0:0:
205,172,99659,1,8,0:0:0:0:
206,107,100067,1,8,0:0:0:0:
201,116,100476,1,0,0:0:0:0:
205,172,100884,5,0,0:0:0:0:
211,194,101292,1,8,0:0:0:0:
211,194,102108,1,0,0:0:0:0:
224,170,102720,1,0,0:0:0:0:
224,170,103129,1,8,0:0:0:0:
211,194,104557,5,8,0:0:0:0:
211,194,105373,1,0,0:0:0:0:
224,170,105985,1,0,0:0:0:0:
211,194,107822,5,8,0:0:0:0:
211,194,108638,1,0,0:0:0:0:
224,170,109250,1,0,0:0:0:0:
224,170,109659,1,8,0:0:0:0:
211,194,111087,5,8,0:0:0:0:
211,194,111903,1,0,0:0:0:0:
224,170,112515,1,0,0:0:0:0:
192,162,114353,5,0,0:0:0:0:
206,171,115170,1,8,0:0:0:0:
193,198,116802,1,8,0:0:0:0:
241,199,117619,1,0,0:0:0:0:
187,149,118435,1,8,0:0:0:0:
187,149,119251,1,8,0:0:0:0:
187,149,119863,1,0,0:0:0:0:
211,162,120884,1,0,0:0:0:0:
189,171,121700,1,8,0:0:0:0:
207,162,123333,1,8,0:0:0:0:
164,167,124149,1,0,0:0:0:0:
164,167,124965,1,8,0:0:0:0:
202,102,125578,1,0,0:0:0:0:
200,130,125986,1,0,0:0:0:0:
201,127,126394,1,8,0:0:0:0:
186,132,127006,1,8,0:0:0:0:
184,168,127823,1,0,0:0:0:0:
188,174,128639,1,8,0:0:0:0:
217,144,129455,1,0,0:0:0:0:
185,159,130476,1,8,0:0:0:0:
188,119,133537,1,0,0:0:0:0:
187,126,134353,1,8,0:0:0:0:
187,126,135170,1,8,0:0:0:0:
176,133,135986,1,8,0:0:0:0:
176,68,136598,1,0,0:0:0:0:
241,174,140067,1,0,0:0:0:0:
241,174,140884,1,8,0:0:0:0:
169,85,141700,1,8,0:0:0:0:
208,88,142516,1,0,0:0:0:0:
182,120,143537,1,8,0:0:0:0:
221,177,144149,1,8,0:0:0:0:
221,177,144965,1,0,0:0:0:0:
136,187,145578,1,8,0:0:0:0:
174,98,147414,1,0,0:0:0:0:
191,142,148231,1,8,0:0:0:0:
178,122,149047,1,0,0:0:0:0:
218,159,149863,1,8,0:0:0:0:
203,151,150680,1,8,0:0:0:0:
177,178,151700,1,8,0:0:0:0:
177,178,152108,1,8,0:0:0:0:
188,130,152516,1,0,0:0:0:0:
193,133,152924,1,0,0:0:0:0:
211,194,153537,1,8,0:0:0:0:
199,148,153945,1,8,0:0:0:0:
214,121,154353,1,0,0:0:0:0:
196,134,155169,1,0,0:0:0:0:
192,150,155577,1,0,0:0:0:0:
196,134,155986,1,8,0:0:0:0:
192,150,156802,1,8,0:0:0:0:
200,117,158231,1,8,0:0:0:0:
199,225,159047,1,8,0:0:0:0:
193,172,159659,1,0,0:0:0:0:
211,156,160067,5,8,0:0:0:0:
199,148,160475,1,8,0:0:0:0:
214,121,160883,1,0,0:0:0:0:
196,134,161699,1,0,0:0:0:0:
196,134,162516,1,8,0:0:0:0:
188,114,163741,1,0,0:0:0:0:
198,152,164149,1,8,0:0:0:0:
205,172,164965,1,8,0:0:0:0:
206,107,165373,1,8,0:0:0:0:
201,116,165782,1,0,0:0:0:0:
205,172,166190,5,0,0:0:0:0:
211,194,166598,1,8,0:0:0:0:
185,166,167414,1,0,0:0:0:0:
193,162,168231,1,8,0:0:0:0:
200,184,168639,1,8,0:0:0:0:
200,184,169047,1,0,0:0:0:0:
185,133,170272,1,8,0:0:0:0:
242,196,170680,1,0,0:0:0:0:
198,179,171292,1,8,0:0:0:0:
174,54,172108,1,8,0:0:0:0:
184,64,172721,1,0,0:0:0:0:
211,194,173129,1,8,0:0:0:0:
185,166,173945,1,0,0:0:0:0:
193,162,174762,1,8,0:0:0:0:
200,184,175170,1,8,0:0:0:0:
200,184,175578,1,0,0:0:0:0:
198,156,176802,1,8,0:0:0:0:
242,196,177211,1,0,0:0:0:0:
185,159,177823,1,0,0:0:0:0:
185,159,178639,1,0,0:0:0:0:
146,139,179251,1,8,0:0:0:0:
194,183,180067,1,8,0:0:0:0:
193,163,180884,1,0,0:0:0:0:
195,102,182516,1,8,0:0:0:0:
239,250,183333,1,8,0:0:0:0:
185,126,184149,1,0,0:0:0:0:
196,127,184965,1,8,0:0:0:0:
179,147,185782,1,0,0:0:0:0:
186,147,187414,1,0,0:0:0:0:
161,100,188231,1,0,0:0:0:0:
208,109,189047,1,8,0:0:0:0:
170,92,189863,1,8,0:0:0:0:
168,129,190680,1,8,0:0:0:0:
204,143,192312,1,8,0:0:0:0:
138,109,193129,1,8,0:0:0:0:
167,148,193945,1,0,0:0:0:0:
216,169,194761,1,0,0:0:0:0:
169,154,195578,1,8,0:0:0:0:
189,152,196394,1,0,0:0:0:0:
197,213,197210,1,8,0:0:0:0:
196,102,198027,1,8,0:0:0:0:
199,264,199251,1,0,0:0:0:0:
190,163,199659,1,0,0:0:0:0:
207,141,200067,1,0,0:0:0:0:
207,141,200884,1,8,0:0:0:0:
207,141,201292,1,8,0:0:0:0:
207,141,201700,1,8,0:0:0:0:
207,141,202516,1,0,0:0:0:0:
207,141,202925,1,0,0:0:0:0:
194,113,203333,1,0,0:0:0:0:
198,97,203945,1,8,0:0:0:0:
215,125,204353,1,8,0:0:0:0:
215,125,204761,1,8,0:0:0:0:
215,125,205170,1,8,0:0:0:0:
211,156,209047,5,8,0:0:0:0:
199,148,209455,1,8,0:0:0:0:
214,121,209863,1,0,0:0:0:0:
196,134,210679,1,0,0:0:0:0:
192,150,211087,1,0,0:0:0:0:
196,134,211496,1,8,0:0:0:0:
192,150,212312,1,8,0:0:0:0:
200,117,213741,1,8,0:0:0:0:
199,225,214557,1,8,0:0:0:0:
193,172,215169,1,0,0:0:0:0:
211,156,215577,5,8,0:0:0:0:
199,148,215985,1,8,0:0:0:0:
214,121,216393,1,0,0:0:0:0:
196,134,217209,1,0,0:0:0:0:
196,134,218026,1,8,0:0:0:0:
188,114,219251,1,0,0:0:0:0:
198,152,219659,1,8,0:0:0:0:
205,172,220475,1,8,0:0:0:0:
166,131,220884,1,8,0:0:0:0:
201,116,221292,1,0,0:0:0:0:
205,172,221700,5,0,0:0:0:0:
199,148,222516,1,8,0:0:0:0:
214,121,222924,1,0,0:0:0:0:
196,134,223740,1,0,0:0:0:0:
192,150,224148,1,0,0:0:0:0:
196,134,224557,1,8,0:0:0:0:
192,150,225373,1,8,0:0:0:0:
200,117,226802,1,8,0:0:0:0:
199,225,227618,1,8,0:0:0:0:
193,172,228230,1,0,0:0:0:0:
211,156,228638,5,8,0:0:0:0:
199,148,229046,1,8,0:0:0:0:
214,121,229454,1,0,0:0:0:0:
196,134,230270,1,0,0:0:0:0:
196,134,231087,1,8,0:0:0:0:
188,114,232312,1,0,0:0:0:0:
198,152,232720,1,8,0:0:0:0:
205,172,233536,1,8,0:0:0:0:
206,107,233944,1,8,0:0:0:0:
201,116,234353,1,0,0:0:0:0:
205,172,234761,5,0,0:0:0:0:
211,194,235169,1,8,0:0:0:0:
175,134,235986,1,0,0:0:0:0:
196,115,236802,1,8,0:0:0:0:
137,171,238435,1,8,0:0:0:0:
184,190,239251,1,0,0:0:0:0:
184,190,240067,1,8,0:0:0:0:
211,194,241700,5,8,0:0:0:0:
211,194,242516,1,0,0:0:0:0:
224,170,243128,1,0,0:0:0:0:
224,170,243537,1,8,0:0:0:0:
211,194,244965,1,8,0:0:0:0:
211,194,245781,1,0,0:0:0:0:
224,170,246394,1,4,0:0:0:0:
