osu file format v14

[General]
AudioFilename: audio.mp3
AudioLeadIn: 0
PreviewTime: 75067
Countdown: 0
SampleSet: Normal
StackLeniency: 0.7
Mode: 1
LetterboxInBreaks: 0
WidescreenStoryboard: 1

[Editor]
DistanceSpacing: 1
BeatDivisor: 4
GridSize: 8
TimelineZoom: 1

[Metadata]
Title:Lagtrain
TitleUnicode:ラグトレイン
Artist:inabakumori
ArtistUnicode:稲葉曇
Creator:Horiiizon
Version:Futsuu
Source:
Tags:japanese rock j-rock jrock kaai yuki 歌愛ユキ nukunuku nigirimeshi ぬくぬくにぎりめし vocaloid cumori genjuro
BeatmapID:2920461
BeatmapSetID:1406580

[Difficulty]
HPDrainRate:6
CircleSize:5
OverallDifficulty:4
ApproachRate:5
SliderMultiplier:1.4
SliderTickRate:1

[Events]
//Background and Video events
0,0,"bg3.png",0,10
//Break Periods
2,205781,207847
//Storyboard Layer 0 (Background)
//Storyboard Layer 1 (Fail)
//Storyboard Layer 2 (Pass)
//Storyboard Layer 3 (Foreground)
//Storyboard Layer 4 (Overlay)
//Storyboard Sound Samples

[TimingPoints]
68,408.163265306122,8,1,0,30,1,8
3078,-100,4,1,0,70,0,0
3333,408.163265306122,4,1,0,70,1,0
22057,-100,4,1,0,30,0,0
22874,-100,4,1,0,90,0,0
22924,-100,4,1,0,90,0,1
35935,-100,4,1,0,60,0,1
35986,-100,4,1,0,60,0,0
47567,-100,4,1,0,40,0,0
48996,-100,4,1,0,60,0,0
73282,-100,4,1,0,70,0,0
75119,-100,4,1,0,80,0,0
78384,-100,4,1,0,90,0,0
78435,-100,4,1,0,90,0,1
86598,-100,4,1,0,90,0,0
87363,-100,4,1,0,50,0,0
88180,-100,4,1,0,90,0,0
88230,-100,4,1,0,90,0,1
101241,-100,4,1,0,60,0,1
101292,-100,4,1,0,60,0,0
151445,-100,4,1,0,70,0,0
152874,-100,4,1,0,80,0,0
153486,-100,4,1,0,90,0,0
153537,-100,4,1,0,90,0,1
166547,-100,4,1,0,60,0,1
166598,-100,4,1,0,60,0,0
199200,-100,4,1,0,70,0,0
202465,-100,4,1,0,80,0,0
205731,-100,4,1,0,30,0,0
208180,-100,4,1,0,50,0,0
208996,-100,4,1,0,90,0,0
209047,-100,4,1,0,90,0,1
222108,-100,4,1,0,90,0,0
222516,-100,4,1,0,90,0,1
235119,-100,4,1,0,60,0,1
235169,-100,4,1,0,60,0,0

[HitObjects]
241,205,3129,5,0,0:0:0:0:
211,194,3333,1,8,0:0:0:0:
211,194,3741,1,0,0:0:0:0:
211,194,4149,1,0,0:0:0:0:
224,170,4557,1,8,0:0:0:0:
224,170,4761,1,0,0:0:0:0:
224,170,5170,1,8,0:0:0:0:
189,185,6598,1,8,0:0:0:0:
189,185,7006,1,0,0:0:0:0:
261,208,7414,1,0,0:0:0:0:
205,139,7823,1,0,0:0:0:0:
261,208,8027,1,0,0:0:0:0:
169,147,9863,1,0,0:0:0:0:
172,159,10272,1,8,0:0:0:0:
182,160,10884,1,0,0:0:0:0:
182,160,11088,1,8,0:0:0:0:
188,127,11496,1,0,0:0:0:0:
191,143,11904,1,0,0:0:0:0:
209,147,12721,1,0,0:0:0:0:
191,153,13129,1,0,0:0:0:0:
194,154,13537,1,8,0:0:0:0:
198,136,14149,1,0,0:0:0:0:
198,136,14353,1,8,0:0:0:0:
191,123,14761,1,0,0:0:0:0:
196,101,15170,1,0,0:0:0:0:
196,101,15986,1,0,0:0:0:0:
169,147,16394,1,0,0:0:0:0:
172,159,16803,1,8,0:0:0:0:
182,160,17415,1,0,0:0:0:0:
182,160,17619,1,8,0:0:0:0:
188,127,18027,1,0,0:0:0:0:
191,143,18435,1,0,0:0:0:0:
209,147,19252,1,0,0:0:0:0:
191,153,19660,1,0,0:0:0:0:
194,154,20068,1,8,0:0:0:0:
198,136,20680,1,0,0:0:0:0:
198,136,20884,1,8,0:0:0:0:
191,123,21292,1,0,0:0:0:0:
211,156,22925,1,4,0:0:0:0:
199,148,23333,1,8,0:0:0:0:
199,148,23537,1,8,0:0:0:0:
214,121,23741,1,0,0:0:0:0:
196,134,24149,1,8,0:0:0:0:
196,134,24557,1,0,0:0:0:0:
196,134,24965,1,0,0:0:0:0:
196,134,25374,1,8,0:0:0:0:
192,150,25782,1,0,0:0:0:0:
192,150,25986,1,0,0:0:0:0:
192,150,26190,1,8,0:0:0:0:
195,175,26598,1,0,0:0:0:0:
196,157,27414,1,0,0:0:0:0:
210,141,27619,1,8,0:0:0:0:
216,181,28027,1,8,0:0:0:0:
199,225,28435,1,8,0:0:0:0:
193,172,28843,1,8,0:0:0:0:
193,172,29047,1,0,0:0:0:0:
211,156,29455,1,4,0:0:0:0:
196,132,29863,1,0,0:0:0:0:
196,132,30067,1,0,0:0:0:0:
201,110,30272,1,8,0:0:0:0:
208,174,30680,1,0,0:0:0:0:
191,117,31088,1,0,0:0:0:0:
210,132,31496,1,8,0:0:0:0:
211,137,31904,1,8,0:0:0:0:
188,114,32312,1,0,0:0:0:0:
188,114,33129,1,0,0:0:0:0:
198,152,33537,1,8,0:0:0:0:
198,152,33741,1,8,0:0:0:0:
165,147,34149,1,0,0:0:0:0:
205,172,34353,1,8,0:0:0:0:
197,126,34557,1,8,0:0:0:0:
204,90,34965,1,0,0:0:0:0:
224,111,35170,1,8,0:0:0:0:
205,172,35578,5,0,0:0:0:0:
147,123,35986,1,12,0:0:0:0:
151,124,36394,5,0,0:0:0:0:
162,115,36802,1,0,0:0:0:0:
151,124,37210,1,8,0:0:0:0:
151,124,37414,1,0,0:0:0:0:
161,105,37823,1,8,0:0:0:0:
147,123,39251,1,8,0:0:0:0:
151,124,39659,1,0,0:0:0:0:
147,123,40067,1,0,0:0:0:0:
151,124,40475,1,8,0:0:0:0:
151,124,40679,1,0,0:0:0:0:
147,123,42516,1,12,0:0:0:0:
151,124,42924,1,0,0:0:0:0:
147,123,43332,1,0,0:0:0:0:
151,124,43740,1,8,0:0:0:0:
151,124,43944,1,0,0:0:0:0:
189,84,44353,1,8,0:0:0:0:
182,163,45782,1,8,0:0:0:0:
182,163,46190,1,0,0:0:0:0:
182,163,46598,1,0,0:0:0:0:
198,147,47006,1,0,0:0:0:0:
198,147,47210,1,0,0:0:0:0:
178,123,49047,1,4,0:0:0:0:
184,116,49863,1,0,0:0:0:0:
198,100,50272,1,8,0:0:0:0:
203,192,50476,1,0,0:0:0:0:
203,192,50884,1,0,0:0:0:0:
186,138,52312,1,8,0:0:0:0:
195,142,53129,1,8,0:0:0:0:
219,121,53537,1,0,0:0:0:0:
199,161,53741,1,0,0:0:0:0:
219,121,54149,1,0,0:0:0:0:
179,117,55578,1,0,0:0:0:0:
177,138,56394,1,0,0:0:0:0:
177,138,56802,1,8,0:0:0:0:
177,138,57006,1,0,0:0:0:0:
177,138,57414,1,0,0:0:0:0:
186,138,58843,1,8,0:0:0:0:
195,142,59660,1,8,0:0:0:0:
219,121,60068,1,0,0:0:0:0:
199,161,60272,1,0,0:0:0:0:
171,191,62108,1,12,0:0:0:0:
206,147,62516,1,0,0:0:0:0:
195,98,63333,1,0,0:0:0:0:
195,98,63537,1,8,0:0:0:0:
186,215,64149,1,0,0:0:0:0:
180,155,65170,1,8,0:0:0:0:
174,102,65782,1,8,0:0:0:0:
185,123,65986,1,8,0:0:0:0:
175,114,66598,1,0,0:0:0:0:
177,129,67210,1,8,0:0:0:0:
196,103,67414,1,0,0:0:0:0:
177,129,68231,1,0,0:0:0:0:
246,226,68639,1,12,0:0:0:0:
161,101,69047,1,0,0:0:0:0:
190,108,69251,1,8,0:0:0:0:
174,124,70067,1,8,0:0:0:0:
170,142,70680,1,8,0:0:0:0:
183,93,70884,1,0,0:0:0:0:
188,102,71700,1,8,0:0:0:0:
198,129,72312,1,0,0:0:0:0:
198,129,72516,1,0,0:0:0:0:
204,157,73129,1,8,0:0:0:0:
158,122,73333,1,8,0:0:0:0:
204,157,73741,1,0,0:0:0:0:
204,157,74149,1,0,0:0:0:0:
204,157,74557,1,8,0:0:0:0:
204,157,74761,1,0,0:0:0:0:
167,104,75170,1,12,0:0:0:0:
203,232,78027,1,0,0:0:0:0:
154,73,78435,1,12,0:0:0:0:
151,120,78843,1,8,0:0:0:0:
164,136,79251,1,0,0:0:0:0:
215,190,79659,1,0,0:0:0:0:
174,139,79863,1,8,0:0:0:0:
192,159,80476,1,0,0:0:0:0:
172,144,80680,1,0,0:0:0:0:
172,144,81088,1,0,0:0:0:0:
172,144,81292,1,8,0:0:0:0:
211,156,81700,1,12,0:0:0:0:
196,132,82108,1,0,0:0:0:0:
196,132,82312,1,0,0:0:0:0:
201,110,82517,1,8,0:0:0:0:
208,174,82925,1,0,0:0:0:0:
191,117,83333,1,0,0:0:0:0:
210,132,83741,1,8,0:0:0:0:
211,137,84149,1,8,0:0:0:0:
188,114,84557,1,0,0:0:0:0:
188,114,85374,1,0,0:0:0:0:
173,127,85782,1,0,0:0:0:0:
173,127,85986,1,0,0:0:0:0:
173,127,86394,1,8,0:0:0:0:
205,172,86598,1,8,0:0:0:0:
211,156,88231,1,12,0:0:0:0:
199,148,88639,1,8,0:0:0:0:
199,148,88843,1,8,0:0:0:0:
214,121,89047,1,0,0:0:0:0:
196,134,89455,1,8,0:0:0:0:
196,134,89863,1,0,0:0:0:0:
196,134,90271,1,0,0:0:0:0:
196,134,90680,1,8,0:0:0:0:
192,150,91088,1,0,0:0:0:0:
192,150,91292,1,0,0:0:0:0:
192,150,91496,1,8,0:0:0:0:
195,175,91904,1,0,0:0:0:0:
196,157,92720,1,0,0:0:0:0:
210,141,92925,1,8,0:0:0:0:
216,181,93333,1,8,0:0:0:0:
199,225,93741,1,8,0:0:0:0:
193,172,94149,1,8,0:0:0:0:
193,172,94353,1,0,0:0:0:0:
211,156,94761,1,4,0:0:0:0:
196,132,95169,1,0,0:0:0:0:
196,132,95373,1,0,0:0:0:0:
201,110,95578,1,8,0:0:0:0:
208,174,95986,1,0,0:0:0:0:
191,117,96394,1,0,0:0:0:0:
210,132,96802,1,8,0:0:0:0:
211,137,97210,1,8,0:0:0:0:
188,114,97618,1,0,0:0:0:0:
188,114,98435,1,0,0:0:0:0:
198,152,98843,1,8,0:0:0:0:
198,152,99047,1,8,0:0:0:0:
165,147,99455,1,0,0:0:0:0:
205,172,99659,1,8,0:0:0:0:
197,126,99863,1,8,0:0:0:0:
204,90,100271,1,0,0:0:0:0:
224,111,100476,1,8,0:0:0:0:
205,172,100884,5,0,0:0:0:0:
147,123,101292,1,12,0:0:0:0:
151,124,101700,5,0,0:0:0:0:
162,115,102108,1,0,0:0:0:0:
151,124,102516,1,8,0:0:0:0:
151,124,102720,1,0,0:0:0:0:
161,105,103129,1,8,0:0:0:0:
147,123,104557,1,8,0:0:0:0:
151,124,104965,1,0,0:0:0:0:
147,123,105373,1,0,0:0:0:0:
151,124,105781,1,8,0:0:0:0:
151,124,105985,1,0,0:0:0:0:
193,202,107618,1,0,0:0:0:0:
113,173,107822,1,0,0:0:0:0:
254,198,108231,1,12,0:0:0:0:
147,123,108638,1,0,0:0:0:0:
151,124,109046,1,8,0:0:0:0:
151,124,109250,1,0,0:0:0:0:
189,84,109659,1,8,0:0:0:0:
182,163,111088,1,8,0:0:0:0:
182,163,111496,1,0,0:0:0:0:
182,163,111904,1,0,0:0:0:0:
198,147,112312,1,0,0:0:0:0:
198,147,112516,1,0,0:0:0:0:
192,162,114353,1,12,0:0:0:0:
177,164,114965,1,8,0:0:0:0:
188,174,115170,1,0,0:0:0:0:
193,198,116598,1,8,0:0:0:0:
193,198,116802,1,8,0:0:0:0:
193,198,117210,1,0,0:0:0:0:
241,199,117619,1,12,0:0:0:0:
253,156,118027,1,0,0:0:0:0:
179,177,118435,1,8,0:0:0:0:
189,131,119047,1,0,0:0:0:0:
171,112,119251,1,8,0:0:0:0:
175,115,119863,1,0,0:0:0:0:
211,162,120884,1,12,0:0:0:0:
189,171,121496,1,8,0:0:0:0:
189,171,121700,1,8,0:0:0:0:
207,162,123129,1,8,0:0:0:0:
207,162,123333,1,8,0:0:0:0:
195,139,123741,1,0,0:0:0:0:
195,139,124149,1,8,0:0:0:0:
195,139,124557,1,8,0:0:0:0:
195,139,124965,1,0,0:0:0:0:
190,176,125374,1,0,0:0:0:0:
200,141,125578,1,12,0:0:0:0:
200,130,125986,1,0,0:0:0:0:
201,127,126394,1,8,0:0:0:0:
177,153,127006,1,0,0:0:0:0:
272,187,127414,1,12,0:0:0:0:
184,168,127823,1,0,0:0:0:0:
188,174,128639,1,8,0:0:0:0:
211,199,128843,1,8,0:0:0:0:
209,151,129455,1,8,0:0:0:0:
211,199,129659,1,0,0:0:0:0:
204,157,130067,1,0,0:0:0:0:
204,157,130476,1,8,0:0:0:0:
201,169,131904,1,8,0:0:0:0:
188,119,133537,1,0,0:0:0:0:
186,161,133945,1,12,0:0:0:0:
187,126,134353,1,8,0:0:0:0:
187,126,135170,1,8,0:0:0:0:
188,111,135374,1,8,0:0:0:0:
198,100,135986,1,8,0:0:0:0:
193,129,136190,1,0,0:0:0:0:
176,68,136598,1,0,0:0:0:0:
176,68,137006,1,8,0:0:0:0:
191,121,138435,1,8,0:0:0:0:
241,174,140067,1,0,0:0:0:0:
241,174,140476,1,4,0:0:0:0:
241,174,140884,1,8,0:0:0:0:
193,106,141088,1,0,0:0:0:0:
169,85,141700,1,8,0:0:0:0:
196,109,141904,1,8,0:0:0:0:
208,88,142516,1,0,0:0:0:0:
208,88,142721,1,0,0:0:0:0:
182,120,143129,1,0,0:0:0:0:
182,120,143537,1,8,0:0:0:0:
221,177,144149,1,8,0:0:0:0:
221,177,144353,1,8,0:0:0:0:
221,177,144965,1,0,0:0:0:0:
190,112,145578,1,8,0:0:0:0:
190,112,145782,1,0,0:0:0:0:
197,130,146598,1,0,0:0:0:0:
198,131,147006,1,12,0:0:0:0:
174,98,147414,1,0,0:0:0:0:
179,186,147619,1,0,0:0:0:0:
191,142,148231,1,8,0:0:0:0:
174,98,148435,1,0,0:0:0:0:
191,142,149047,1,8,0:0:0:0:
181,125,149251,1,8,0:0:0:0:
172,102,149863,1,0,0:0:0:0:
172,103,150067,1,8,0:0:0:0:
199,128,150680,1,8,0:0:0:0:
199,128,150884,1,0,0:0:0:0:
204,157,151496,1,8,0:0:0:0:
158,122,151700,1,8,0:0:0:0:
204,157,152108,1,0,0:0:0:0:
204,157,152516,1,0,0:0:0:0:
204,157,152924,1,8,0:0:0:0:
204,157,153128,1,0,0:0:0:0:
211,156,153537,1,4,0:0:0:0:
199,148,153945,1,8,0:0:0:0:
199,148,154149,1,8,0:0:0:0:
214,121,154353,1,0,0:0:0:0:
196,134,154761,1,8,0:0:0:0:
196,134,155169,1,0,0:0:0:0:
196,134,155577,1,0,0:0:0:0:
196,134,155986,1,8,0:0:0:0:
192,150,156394,1,0,0:0:0:0:
192,150,156598,1,0,0:0:0:0:
192,150,156802,1,8,0:0:0:0:
195,175,157210,1,0,0:0:0:0:
196,157,158026,1,0,0:0:0:0:
210,141,158231,1,8,0:0:0:0:
216,181,158639,1,8,0:0:0:0:
199,225,159047,1,8,0:0:0:0:
193,172,159455,1,8,0:0:0:0:
193,172,159659,1,0,0:0:0:0:
211,156,160067,1,4,0:0:0:0:
196,132,160475,1,0,0:0:0:0:
196,132,160679,1,0,0:0:0:0:
201,110,160884,1,8,0:0:0:0:
208,174,161292,1,0,0:0:0:0:
191,117,161700,1,0,0:0:0:0:
210,132,162108,1,8,0:0:0:0:
211,137,162516,1,8,0:0:0:0:
188,114,162924,1,0,0:0:0:0:
188,114,163741,1,0,0:0:0:0:
198,152,164149,1,8,0:0:0:0:
198,152,164353,1,8,0:0:0:0:
165,147,164761,1,0,0:0:0:0:
205,172,164965,1,8,0:0:0:0:
197,126,165169,1,8,0:0:0:0:
204,90,165577,1,0,0:0:0:0:
224,111,165782,1,8,0:0:0:0:
205,172,166190,5,0,0:0:0:0:
147,123,166598,1,8,0:0:0:0:
198,196,167006,1,12,0:0:0:0:
185,166,167414,1,0,0:0:0:0:
200,184,167823,1,0,0:0:0:0:
193,162,168231,1,8,0:0:0:0:
200,184,168639,1,8,0:0:0:0:
200,184,169047,1,0,0:0:0:0:
185,133,170067,1,8,0:0:0:0:
185,133,170272,1,8,0:0:0:0:
242,196,170680,1,0,0:0:0:0:
198,179,171088,1,0,0:0:0:0:
198,179,171292,1,8,0:0:0:0:
179,130,171700,1,8,0:0:0:0:
174,54,172108,1,8,0:0:0:0:
181,61,172516,1,8,0:0:0:0:
184,64,172721,1,0,0:0:0:0:
147,123,173129,1,8,0:0:0:0:
198,196,173537,1,12,0:0:0:0:
185,166,173945,1,0,0:0:0:0:
200,184,174354,1,0,0:0:0:0:
193,162,174762,1,8,0:0:0:0:
200,184,175170,1,8,0:0:0:0:
200,184,175578,1,0,0:0:0:0:
185,133,176598,1,8,0:0:0:0:
185,133,176803,1,8,0:0:0:0:
242,196,177211,1,0,0:0:0:0:
198,179,177619,1,0,0:0:0:0:
171,137,177823,1,0,0:0:0:0:
181,180,178231,1,0,0:0:0:0:
174,54,178639,1,8,0:0:0:0:
181,61,179047,1,8,0:0:0:0:
140,158,179251,1,8,0:0:0:0:
192,198,179659,1,12,0:0:0:0:
196,152,180067,1,0,0:0:0:0:
167,153,180884,1,8,0:0:0:0:
167,153,181088,1,8,0:0:0:0:
193,169,181700,1,0,0:0:0:0:
184,138,182516,1,0,0:0:0:0:
200,160,182925,1,12,0:0:0:0:
239,250,183333,1,8,0:0:0:0:
185,126,183537,1,0,0:0:0:0:
185,126,184149,1,0,0:0:0:0:
196,127,184353,1,8,0:0:0:0:
196,127,184965,1,8,0:0:0:0:
196,127,185170,1,8,0:0:0:0:
209,133,185578,1,0,0:0:0:0:
179,147,185782,1,0,0:0:0:0:
179,147,186190,1,12,0:0:0:0:
192,160,186598,1,0,0:0:0:0:
170,69,187414,1,0,0:0:0:0:
174,88,187619,1,8,0:0:0:0:
161,100,188231,1,0,0:0:0:0:
161,100,188435,1,0,0:0:0:0:
247,190,189047,1,0,0:0:0:0:
198,119,189455,1,12,0:0:0:0:
170,92,189863,1,8,0:0:0:0:
170,92,190067,1,8,0:0:0:0:
151,132,190680,1,8,0:0:0:0:
177,129,191496,1,0,0:0:0:0:
177,129,191700,1,0,0:0:0:0:
204,143,192108,1,0,0:0:0:0:
204,143,192312,1,8,0:0:0:0:
246,160,192721,1,4,0:0:0:0:
186,142,193129,1,0,0:0:0:0:
204,190,193333,1,8,0:0:0:0:
190,178,193945,1,8,0:0:0:0:
207,127,194149,1,0,0:0:0:0:
216,169,194761,1,0,0:0:0:0:
181,158,194965,1,0,0:0:0:0:
198,153,195578,1,8,0:0:0:0:
183,159,195782,1,8,0:0:0:0:
189,152,196394,1,0,0:0:0:0:
189,152,196598,1,0,0:0:0:0:
200,162,197210,1,0,0:0:0:0:
196,155,197414,1,8,0:0:0:0:
196,102,198027,1,8,0:0:0:0:
183,151,198231,1,8,0:0:0:0:
199,264,199251,1,0,0:0:0:0:
226,191,199659,1,0,0:0:0:0:
207,141,200067,1,0,0:0:0:0:
207,141,200476,1,0,0:0:0:0:
207,141,200884,1,8,0:0:0:0:
207,141,201292,1,8,0:0:0:0:
207,141,201700,1,8,0:0:0:0:
207,141,202108,1,8,0:0:0:0:
207,141,202516,1,4,0:0:0:0:
207,141,202925,1,0,0:0:0:0:
194,113,203129,1,0,0:0:0:0:
194,113,203333,1,0,0:0:0:0:
194,113,203741,1,0,0:0:0:0:
198,97,203945,1,8,0:0:0:0:
215,125,204353,1,8,0:0:0:0:
215,125,204761,1,8,0:0:0:0:
215,125,205170,1,8,0:0:0:0:
215,125,205374,1,0,0:0:0:0:
211,156,209047,5,12,0:0:0:0:
199,148,209455,1,8,0:0:0:0:
199,148,209659,1,8,0:0:0:0:
214,121,209863,1,0,0:0:0:0:
196,134,210271,1,8,0:0:0:0:
196,134,210679,1,0,0:0:0:0:
196,134,211087,1,0,0:0:0:0:
196,134,211496,1,8,0:0:0:0:
192,150,211904,1,0,0:0:0:0:
192,150,212108,1,0,0:0:0:0:
192,150,212312,1,8,0:0:0:0:
195,175,212720,1,0,0:0:0:0:
196,157,213536,1,0,0:0:0:0:
210,141,213741,1,8,0:0:0:0:
216,181,214149,1,8,0:0:0:0:
199,225,214557,1,8,0:0:0:0:
193,172,214965,1,8,0:0:0:0:
193,172,215169,1,0,0:0:0:0:
211,156,215577,1,4,0:0:0:0:
196,132,215985,1,0,0:0:0:0:
196,132,216189,1,0,0:0:0:0:
201,110,216394,1,8,0:0:0:0:
208,174,216802,1,0,0:0:0:0:
191,117,217210,1,0,0:0:0:0:
210,132,217618,1,8,0:0:0:0:
211,137,218026,1,8,0:0:0:0:
188,114,218434,1,0,0:0:0:0:
186,189,219251,1,8,0:0:0:0:
165,114,219659,1,0,0:0:0:0:
178,111,219863,1,0,0:0:0:0:
165,147,220271,1,0,0:0:0:0:
205,172,220475,1,8,0:0:0:0:
173,151,220884,1,8,0:0:0:0:
173,170,221292,1,8,0:0:0:0:
173,170,221496,1,8,0:0:0:0:
205,172,221700,5,0,0:0:0:0:
199,148,222516,1,8,0:0:0:0:
199,148,222720,1,8,0:0:0:0:
214,121,222924,1,0,0:0:0:0:
196,134,223332,1,8,0:0:0:0:
196,134,223740,1,0,0:0:0:0:
196,134,224148,1,0,0:0:0:0:
196,134,224557,1,8,0:0:0:0:
192,150,224965,1,0,0:0:0:0:
192,150,225169,1,0,0:0:0:0:
192,150,225373,1,8,0:0:0:0:
195,175,225781,1,0,0:0:0:0:
196,157,226597,1,0,0:0:0:0:
210,141,226802,1,8,0:0:0:0:
216,181,227210,1,8,0:0:0:0:
199,225,227618,1,8,0:0:0:0:
193,172,228026,1,8,0:0:0:0:
193,172,228230,1,0,0:0:0:0:
211,156,228638,1,4,0:0:0:0:
196,132,229046,1,0,0:0:0:0:
196,132,229250,1,0,0:0:0:0:
201,110,229455,1,8,0:0:0:0:
208,174,229863,1,0,0:0:0:0:
191,117,230271,1,0,0:0:0:0:
210,132,230679,1,8,0:0:0:0:
211,137,231087,1,8,0:0:0:0:
188,114,231495,1,0,0:0:0:0:
188,114,232312,1,0,0:0:0:0:
198,152,232720,1,8,0:0:0:0:
198,152,232924,1,8,0:0:0:0:
165,147,233332,1,0,0:0:0:0:
205,172,233536,1,8,0:0:0:0:
197,126,233740,1,8,0:0:0:0:
204,90,234148,1,0,0:0:0:0:
224,111,234353,1,8,0:0:0:0:
205,172,234761,5,0,0:0:0:0:
185,208,235170,1,4,0:0:0:0:
230,157,235986,1,12,0:0:0:0:
236,190,236802,1,4,0:0:0:0:
230,143,237619,1,12,0:0:0:0:
325,135,238435,1,4,0:0:0:0:
184,104,239251,1,12,0:0:0:0:
196,122,240067,1,4,0:0:0:0:
193,114,240884,1,12,0:0:0:0:
220,217,241496,5,8,0:0:0:0:
147,123,241700,1,8,0:0:0:0:
151,124,242108,5,0,0:0:0:0:
162,115,242516,1,0,0:0:0:0:
151,124,242924,1,8,0:0:0:0:
151,124,243128,1,0,0:0:0:0:
161,105,243537,1,8,0:0:0:0:
147,123,244965,1,8,0:0:0:0:
151,124,245373,1,0,0:0:0:0:
147,123,245781,1,0,0:0:0:0:
151,124,246189,1,8,0:0:0:0:
151,124,246394,1,4,0:0:0:0:
