osu file format v14

[General]
AudioFilename: audio.ogg
AudioLeadIn: 0
PreviewTime: 205680
Countdown: 0
SampleSet: Soft
StackLeniency: 0.7
Mode: 3
LetterboxInBreaks: 0
SpecialStyle: 0
WidescreenStoryboard: 1

[Editor]
DistanceSpacing: 1
BeatDivisor: 4
GridSize: 8
TimelineZoom: 2.3

[Metadata]
Title:Lagtrain
TitleUnicode:ラグトレイン
Artist:inabakumori
ArtistUnicode:稲葉曇
Creator:Akasha-
Version:Easy
Source:
Tags:Kaai Yuki 歌愛ユキ vocaloid rock jrock j-rock japanese WEATHER STATION 2nd album ウェザーステーション Critical_Star AchsanLovers Sherly Kuo Kyoka K_a_t_a_g_i_r_i Katagiri
BeatmapID:3516636
BeatmapSetID:1720379

[Difficulty]
HPDrainRate:7
CircleSize:4
OverallDifficulty:6.5
ApproachRate:5
SliderMultiplier:1.4
SliderTickRate:1

[Events]
//Background and Video events
0,0,"BG.jpg",0,0
Video,30,"video.mp4"
//Break Periods
//Storyboard Layer 0 (Background)
//Storyboard Layer 1 (Fail)
//Storyboard Layer 2 (Pass)
//Storyboard Layer 3 (Foreground)
//Storyboard Layer 4 (Overlay)
//Storyboard Sound Samples
Sample,34353,0,"Hat Open.wav",70
Sample,47414,0,"Hat Open.wav",100
Sample,68639,0,"Hat Open.wav",100
Sample,73741,0,"Hat Open2.wav",50
Sample,112721,0,"soft-hitfinish.wav",25
Sample,125374,0,"Hat Open2.wav",30
Sample,126598,0,"Hat Open2.wav",30
Sample,127414,0,"ride02.wav",70
Sample,130680,0,"Hat Open.wav",70
Sample,137210,0,"Hat Open2.wav",50
Sample,152108,0,"Hat Open2.wav",60
Sample,164965,0,"Hat Open.wav",100
Sample,166190,0,"Hat Open.wav",100
Sample,178435,0,"tom2.wav",30
Sample,178843,0,"tom3.wav",30
Sample,192108,0,"Hat Open2.wav",60
Sample,204353,0,"Hat Open2.wav",30
Sample,204761,0,"Hat Open2.wav",30
Sample,233741,0,"Hat Open2.wav",30

[TimingPoints]
68,408.163265306122,4,2,1,60,1,0
78435,-100,4,2,1,60,0,1
86598,-100,4,2,1,60,0,0
88231,-100,4,2,1,60,0,1
101292,-100,4,2,1,60,0,0
153537,-100,4,2,1,60,0,1
159659,-100,4,2,1,60,0,0
160067,-100,4,2,1,60,0,1
166598,-100,4,2,1,60,0,0
205782,-100,4,2,1,20,0,0
209047,-100,4,2,1,60,0,1
215170,-100,4,2,1,60,0,0
215578,-100,4,2,1,60,0,1
220476,-100,4,2,1,60,0,0
222516,-100,4,2,1,60,0,1
228231,-100,4,2,1,60,0,0
228639,-100,4,2,1,60,0,1
235170,-100,4,2,1,60,0,0

[HitObjects]
320,192,3129,5,0,0:0:0:0:
64,192,3333,1,2,0:0:0:0:
192,192,3741,1,8,0:0:0:70:
320,192,4149,1,0,0:0:0:0:
448,192,4557,1,8,0:0:0:70:
192,192,4761,1,0,0:0:0:0:
320,192,5170,1,2,0:0:0:0:
448,192,6598,1,2,0:0:0:0:
320,192,7006,1,8,0:0:0:70:
192,192,7414,1,0,0:0:0:0:
64,192,7823,1,8,0:0:0:70:
320,192,8027,1,0,0:0:0:0:
320,192,9863,1,2,0:0:0:0:
64,192,10067,1,2,0:0:0:0:
320,192,10272,1,8,0:0:0:70:
64,192,10884,1,2,0:0:0:0:
320,192,11088,1,8,0:0:0:70:
192,192,11496,1,2,0:0:0:0:
448,192,11700,1,2,0:0:0:0:
192,192,11904,1,8,0:0:0:70:
448,192,12516,1,2,0:0:0:0:
192,192,12721,1,8,0:0:0:70:
448,192,13129,1,2,0:0:0:0:
64,192,13333,1,2,0:0:0:0:
448,192,13537,1,8,0:0:0:70:
64,192,14149,1,2,0:0:0:0:
448,192,14353,1,8,0:0:0:70:
64,192,14761,1,2,0:0:0:0:
448,192,14965,1,2,0:0:0:0:
64,192,15170,1,8,0:0:0:70:
448,192,15782,1,2,0:0:0:0:
64,192,15986,1,8,0:0:0:70:
320,192,16394,1,2,0:0:0:0:
64,192,16598,1,2,0:0:0:0:
320,192,16802,1,8,0:0:0:70:
64,192,17414,1,2,0:0:0:0:
320,192,17619,1,8,0:0:0:70:
192,192,18027,1,2,0:0:0:0:
448,192,18231,1,2,0:0:0:0:
192,192,18435,1,8,0:0:0:70:
448,192,19047,1,2,0:0:0:0:
192,192,19251,1,8,0:0:0:70:
448,192,19659,1,2,0:0:0:0:
64,192,19863,1,2,0:0:0:0:
448,192,20067,1,8,0:0:0:70:
64,192,20680,1,2,0:0:0:0:
448,192,20884,1,8,0:0:0:70:
64,192,21292,1,2,0:0:0:0:
64,192,21496,1,2,0:0:0:0:
64,192,22925,1,2,0:0:0:0:
192,192,22925,1,4,0:0:0:0:
192,192,23333,1,8,0:0:0:70:
320,192,23741,1,2,0:0:0:0:
448,192,24149,1,8,0:0:0:70:
64,192,24557,1,2,0:0:0:0:
192,192,24965,1,8,0:0:0:70:
320,192,25374,1,2,0:0:0:0:
448,192,25782,1,8,0:0:0:70:
192,192,26190,1,2,0:0:0:0:
64,192,26598,1,8,0:0:0:70:
320,192,27006,1,2,0:0:0:0:
192,192,27414,1,8,0:0:0:70:
448,192,27823,1,2,0:0:0:0:
320,192,28231,1,8,0:0:0:70:
64,192,28639,1,2,0:0:0:0:
448,192,29047,1,8,0:0:0:70:
64,192,29455,1,2,0:0:0:0:
192,192,29455,1,4,0:0:0:0:
192,192,29863,1,8,0:0:0:0:
320,192,30272,1,2,0:0:0:0:
448,192,30680,1,8,0:0:0:0:
64,192,31088,1,2,0:0:0:0:
192,192,31496,1,8,0:0:0:0:
320,192,31904,1,2,0:0:0:0:
448,192,32312,1,8,0:0:0:0:
64,192,32721,1,2,0:0:0:0:
320,192,33129,1,8,0:0:0:0:
192,192,33537,1,2,0:0:0:0:
448,192,33945,1,8,0:0:0:0:
320,192,34353,1,2,0:0:0:0:
192,192,34557,1,2,0:0:0:0:
64,192,34761,1,8,0:0:0:0:
320,192,35170,1,2,0:0:0:0:
320,192,35578,1,8,0:0:0:0:
448,192,35578,1,4,0:0:0:0:
64,192,35986,1,4,0:0:0:0:
192,192,35986,1,2,0:0:0:0:
192,192,36394,1,8,0:0:0:0:
448,192,36394,1,0,0:0:0:0:
320,192,36802,1,2,0:0:0:0:
320,192,37210,1,8,0:0:0:0:
448,192,37210,1,0,0:0:0:0:
64,192,37619,1,2,0:0:0:0:
192,192,38027,1,8,0:0:0:0:
448,192,38027,1,0,0:0:0:0:
320,192,38435,1,2,0:0:0:0:
320,192,38843,1,8,0:0:0:0:
448,192,38843,1,0,0:0:0:0:
64,192,39251,1,2,0:0:0:0:
64,192,39659,1,8,0:0:0:0:
192,192,39659,1,0,0:0:0:0:
320,192,40067,1,2,0:0:0:0:
320,192,40476,1,8,0:0:0:0:
448,192,40476,1,0,0:0:0:0:
64,192,40884,1,2,0:0:0:0:
64,192,41292,1,8,0:0:0:0:
192,192,41292,1,0,0:0:0:0:
320,192,41700,1,2,0:0:0:0:
320,192,42108,1,8,0:0:0:0:
448,192,42108,1,0,0:0:0:0:
64,192,42516,1,2,0:0:0:0:
192,192,42516,1,4,0:0:0:0:
64,192,42925,1,8,0:0:0:0:
448,192,42925,1,0,0:0:0:0:
192,192,43333,1,2,0:0:0:0:
64,192,43741,1,8,0:0:0:0:
192,192,43741,1,0,0:0:0:0:
320,192,44149,1,2,0:0:0:0:
192,192,44557,1,8,0:0:0:0:
320,192,44557,1,0,0:0:0:0:
448,192,44965,1,2,0:0:0:0:
320,192,45374,1,8,0:0:0:0:
448,192,45374,1,0,0:0:0:0:
64,192,45782,1,2,0:0:0:0:
64,192,46190,1,8,0:0:0:0:
192,192,46190,1,0,0:0:0:0:
320,192,46598,1,2,0:0:0:0:
320,192,47006,1,8,0:0:0:0:
448,192,47006,1,0,0:0:0:0:
64,192,47414,1,2,0:0:0:0:
192,192,47823,1,2,0:0:0:0:
320,192,48231,1,2,0:0:0:0:
64,192,48639,1,2,0:0:0:0:
448,192,48639,1,0,0:0:0:0:
320,192,49047,1,2,0:0:0:0:
448,192,49047,1,4,0:0:0:0:
64,192,49455,1,8,0:0:0:0:
192,192,49455,1,0,0:0:0:0:
320,192,49863,1,2,0:0:0:0:
64,192,50272,1,8,0:0:0:0:
192,192,50272,1,0,0:0:0:0:
320,192,50680,1,2,0:0:0:0:
64,192,51088,1,8,0:0:0:0:
192,192,51088,1,0,0:0:0:0:
320,192,51496,1,2,0:0:0:0:
64,192,51904,1,8,0:0:0:0:
192,192,51904,1,0,0:0:0:0:
192,192,52312,1,2,0:0:0:0:
320,192,52721,1,8,0:0:0:0:
448,192,52721,1,0,0:0:0:0:
192,192,53129,1,2,0:0:0:0:
320,192,53537,1,8,0:0:0:0:
448,192,53537,1,0,0:0:0:0:
192,192,53945,1,2,0:0:0:0:
320,192,54353,1,8,0:0:0:0:
448,192,54353,1,0,0:0:0:0:
192,192,54761,1,2,0:0:0:0:
320,192,55170,1,8,0:0:0:0:
448,192,55170,1,0,0:0:0:0:
192,192,55578,1,2,0:0:0:0:
64,192,55986,1,8,0:0:0:0:
320,192,55986,1,0,0:0:0:0:
192,192,56394,1,2,0:0:0:0:
64,192,56802,1,8,0:0:0:0:
320,192,56802,1,0,0:0:0:0:
192,192,57210,1,2,0:0:0:0:
64,192,57619,1,8,0:0:0:0:
320,192,57619,1,0,0:0:0:0:
192,192,58027,1,2,0:0:0:0:
64,192,58435,1,8,0:0:0:0:
320,192,58435,1,0,0:0:0:0:
320,192,58843,1,2,0:0:0:0:
192,192,59251,1,8,0:0:0:0:
448,192,59251,1,0,0:0:0:0:
320,192,59659,1,2,0:0:0:0:
448,192,60067,1,8,0:0:0:0:
64,192,60272,1,8,0:0:0:0:
192,192,60272,1,0,0:0:0:55:Hat Open2.wav
192,192,60680,1,0,0:0:0:0:
320,192,60884,1,0,0:0:0:0:
448,192,61088,1,0,0:0:0:0:
64,192,61292,1,0,0:0:0:0:
192,192,61700,1,0,0:0:0:0:
320,192,62108,1,2,0:0:0:0:
448,192,62108,1,4,0:0:0:0:
448,192,62516,1,2,0:0:0:0:
320,192,62925,1,2,0:0:0:0:
320,192,63333,1,2,0:0:0:0:
192,192,63741,1,2,0:0:0:0:
192,192,64149,1,2,0:0:0:0:
64,192,64557,1,2,0:0:0:0:
64,192,64965,1,2,0:0:0:0:
320,192,65374,1,2,0:0:0:0:
320,192,65782,1,2,0:0:0:0:
448,192,66190,1,2,0:0:0:0:
448,192,66598,1,2,0:0:0:0:
192,192,67006,1,2,0:0:0:0:
192,192,67414,1,2,0:0:0:0:
320,192,67823,1,2,0:0:0:0:
320,192,68231,1,2,0:0:0:0:
64,192,68639,1,2,0:0:0:0:
64,192,69047,1,2,0:0:0:0:
192,192,69455,1,2,0:0:0:0:
192,192,69863,1,2,0:0:0:0:
448,192,70272,1,2,0:0:0:0:
448,192,70680,1,2,0:0:0:0:
320,192,71088,1,2,0:0:0:0:
320,192,71496,1,2,0:0:0:0:
192,192,71904,1,2,0:0:0:0:
192,192,72312,1,2,0:0:0:0:
64,192,72721,1,2,0:0:0:0:
64,192,73129,1,10,0:0:0:0:
320,192,73333,1,10,0:0:0:0:
448,192,73333,1,0,0:0:0:50:Hat Open2.wav
192,192,73741,1,10,0:0:0:0:
320,192,73945,1,8,0:0:0:0:
64,192,74149,1,10,0:0:0:0:
448,192,74149,1,0,0:0:0:50:Hat Open2.wav
448,192,74557,1,10,0:0:0:0:
64,192,74761,1,2,0:0:0:0:
192,192,74761,1,8,0:0:0:0:
192,192,75170,1,10,0:0:0:0:
320,192,75170,1,4,0:0:0:0:
64,192,77823,1,10,0:0:0:0:
192,192,78027,1,10,0:0:0:0:
320,192,78231,1,10,0:0:0:0:
64,192,78435,1,6,0:0:0:0:
448,192,78435,1,8,0:0:0:0:
192,192,78843,1,8,0:0:0:0:
320,192,79251,1,2,0:0:0:0:
448,192,79659,1,8,0:0:0:0:
64,192,80067,1,2,0:0:0:0:
192,192,80476,1,8,0:0:0:0:
320,192,80884,1,2,0:0:0:0:
448,192,81292,1,8,0:0:0:0:
64,192,81700,1,2,0:0:0:0:
192,192,81700,1,4,0:0:0:0:
64,192,82108,1,8,0:0:0:0:
192,192,82516,1,2,0:0:0:0:
192,192,82925,1,8,0:0:0:0:
320,192,83333,1,2,0:0:0:0:
320,192,83741,1,8,0:0:0:0:
448,192,84149,1,2,0:0:0:0:
448,192,84557,1,8,0:0:0:0:
64,192,84965,1,2,0:0:0:0:
448,192,85374,1,8,0:0:0:0:
192,192,85782,1,2,0:0:0:0:
320,192,86190,1,8,0:0:0:0:
64,192,86598,1,2,0:0:0:0:
448,192,86598,1,0,0:0:0:70:Hat Open.wav
64,192,88231,1,2,0:0:0:0:
192,192,88231,1,4,0:0:0:0:
64,192,88639,1,8,0:0:0:0:
192,192,89047,1,2,0:0:0:0:
192,192,89455,1,8,0:0:0:0:
320,192,89863,1,2,0:0:0:0:
320,192,90272,1,8,0:0:0:0:
448,192,90680,1,2,0:0:0:0:
448,192,91088,1,8,0:0:0:0:
192,192,91496,1,2,0:0:0:0:
64,192,91904,1,8,0:0:0:0:
320,192,92312,1,2,0:0:0:0:
192,192,92721,1,8,0:0:0:0:
448,192,93129,1,2,0:0:0:0:
320,192,93537,1,8,0:0:0:0:
64,192,93945,1,2,0:0:0:0:
448,192,94353,1,8,0:0:0:0:
64,192,94761,1,2,0:0:0:0:
192,192,94761,1,4,0:0:0:0:
192,192,95170,1,8,0:0:0:0:
320,192,95578,1,2,0:0:0:0:
448,192,95986,1,8,0:0:0:0:
64,192,96394,1,2,0:0:0:0:
192,192,96802,1,8,0:0:0:0:
448,192,97210,1,2,0:0:0:0:
320,192,97619,1,8,0:0:0:0:
64,192,98027,1,2,0:0:0:0:
320,192,98435,1,8,0:0:0:0:
192,192,98843,1,2,0:0:0:0:
448,192,99251,1,8,0:0:0:0:
320,192,99659,1,6,0:0:0:0:
192,192,99863,1,2,0:0:0:0:
64,192,100067,1,8,0:0:0:0:
320,192,100476,1,2,0:0:0:0:
320,192,100884,1,8,0:0:0:0:
448,192,100884,1,0,0:0:0:0:
64,192,101292,1,2,0:0:0:0:
192,192,101292,1,4,0:0:0:0:
64,192,101700,1,8,0:0:0:70:
448,192,101700,1,0,0:0:0:0:
192,192,102108,1,2,0:0:0:0:
192,192,102516,1,8,0:0:0:70:
448,192,102516,1,0,0:0:0:0:
320,192,102925,1,2,0:0:0:0:
64,192,103333,1,8,0:0:0:70:
320,192,103333,1,0,0:0:0:0:
448,192,103741,1,2,0:0:0:0:
192,192,104149,1,8,0:0:0:70:
448,192,104149,1,0,0:0:0:0:
64,192,104557,1,2,0:0:0:0:
64,192,104965,1,8,0:0:0:70:
448,192,104965,1,0,0:0:0:0:
192,192,105374,1,2,0:0:0:0:
64,192,105782,1,8,0:0:0:70:
192,192,105782,1,0,0:0:0:0:
320,192,106190,1,2,0:0:0:0:
192,192,106598,1,8,0:0:0:70:
320,192,106598,1,0,0:0:0:0:
448,192,107006,1,2,0:0:0:0:
320,192,107414,1,8,0:0:0:70:
448,192,107414,1,0,0:0:0:0:
320,192,107823,1,2,0:0:0:0:
192,192,108027,1,2,0:0:0:0:
64,192,108231,1,8,0:0:0:0:
448,192,108231,1,4,0:0:0:0:
192,192,108639,1,2,0:0:0:0:
64,192,109047,1,8,0:0:0:0:
192,192,109047,1,0,0:0:0:0:
320,192,109455,1,2,0:0:0:0:
192,192,109863,1,8,0:0:0:0:
320,192,109863,1,0,0:0:0:0:
448,192,110272,1,2,0:0:0:0:
320,192,110680,1,8,0:0:0:0:
448,192,110680,1,0,0:0:0:0:
64,192,111088,1,2,0:0:0:0:
64,192,111496,1,8,0:0:0:0:
192,192,111496,1,0,0:0:0:0:
320,192,111904,1,2,0:0:0:0:
320,192,112312,1,8,0:0:0:0:
448,192,112312,1,0,0:0:0:0:
192,192,112516,1,2,0:0:0:0:
64,192,112721,1,2,0:0:0:0:
64,192,113129,1,0,0:0:0:0:
64,192,113537,1,0,0:0:0:0:
448,192,113945,1,0,0:0:0:50:tom3.wav
192,192,114353,1,2,0:0:0:0:
320,192,114353,1,4,0:0:0:0:
448,192,117210,1,8,0:0:0:0:
320,192,117414,1,2,0:0:0:0:
64,192,117619,1,2,0:0:0:0:
192,192,117619,1,4,0:0:0:0:
192,192,118027,1,8,0:0:0:0:
448,192,118027,1,0,0:0:0:0:
64,192,118435,1,2,0:0:0:0:
64,192,118843,1,8,0:0:0:0:
448,192,118843,1,0,0:0:0:0:
192,192,119251,1,2,0:0:0:0:
192,192,119659,1,8,0:0:0:0:
448,192,119659,1,0,0:0:0:0:
64,192,120067,1,2,0:0:0:0:
64,192,120476,1,8,0:0:0:0:
448,192,120476,1,0,0:0:0:0:
320,192,120884,1,6,0:0:0:0:
192,192,121292,1,8,0:0:0:0:
320,192,121292,1,0,0:0:0:0:
448,192,121700,1,2,0:0:0:0:
192,192,122108,1,8,0:0:0:0:
448,192,122108,1,0,0:0:0:0:
320,192,122516,1,2,0:0:0:0:
192,192,122925,1,8,0:0:0:0:
320,192,122925,1,0,0:0:0:0:
448,192,123333,1,2,0:0:0:0:
192,192,123741,1,8,0:0:0:0:
448,192,123741,1,0,0:0:0:0:
320,192,124149,1,2,0:0:0:0:
192,192,124557,1,8,0:0:0:0:
320,192,124557,1,0,0:0:0:0:
448,192,124965,1,2,0:0:0:0:
448,192,125374,1,8,0:0:0:0:
64,192,125578,1,8,0:0:0:0:
192,192,125578,1,0,0:0:0:30:Hat Open2.wav
192,192,125986,1,0,0:0:0:30:Hat Open2.wav
320,192,126190,1,8,0:0:0:0:
448,192,126394,1,2,0:0:0:0:
64,192,126598,1,8,0:0:0:0:
192,192,127006,1,2,0:0:0:0:
320,192,127414,1,2,0:0:0:0:
448,192,127414,1,0,0:0:0:40:Hat Open2.wav
320,192,127823,1,2,0:0:0:0:
320,192,128231,1,2,0:0:0:0:
64,192,128639,1,2,0:0:0:0:
320,192,128639,1,8,0:0:0:0:
192,192,129047,1,2,0:0:0:0:
192,192,129455,1,2,0:0:0:0:
192,192,129863,1,2,0:0:0:0:
192,192,130272,1,2,0:0:0:0:
64,192,130476,1,8,0:0:0:0:
448,192,130476,1,0,0:0:0:50:Hat Open2.wav
320,192,130680,1,2,0:0:0:0:
320,192,131088,1,2,0:0:0:0:
320,192,131496,1,2,0:0:0:0:
320,192,131904,1,2,0:0:0:0:
448,192,131904,1,8,0:0:0:0:
192,192,132312,1,2,0:0:0:0:
192,192,132721,1,2,0:0:0:0:
192,192,133129,1,2,0:0:0:0:
64,192,133537,1,2,0:0:0:0:
192,192,133537,1,8,0:0:0:0:
320,192,133945,1,2,0:0:0:0:
448,192,133945,1,0,0:0:0:70:Hat Open.wav
448,192,134353,1,2,0:0:0:0:
448,192,134761,1,2,0:0:0:0:
192,192,135170,1,2,0:0:0:0:
448,192,135170,1,8,0:0:0:0:
64,192,135578,1,2,0:0:0:0:
64,192,135986,1,2,0:0:0:0:
64,192,136394,1,2,0:0:0:0:
64,192,136802,1,2,0:0:0:0:
192,192,137006,1,8,0:0:0:0:
320,192,137006,1,0,0:0:0:0:
448,192,137210,1,2,0:0:0:0:
448,192,137619,1,2,0:0:0:0:
448,192,138027,1,2,0:0:0:0:
192,192,138435,1,2,0:0:0:0:
448,192,138435,1,8,0:0:0:0:
64,192,138843,1,2,0:0:0:0:
64,192,139251,1,2,0:0:0:0:
64,192,139659,1,2,0:0:0:0:
192,192,139863,1,2,0:0:0:0:
64,192,140067,1,8,0:0:0:0:
320,192,140067,1,2,0:0:0:0:
320,192,140476,1,2,0:0:0:0:
448,192,140476,1,4,0:0:0:0:
64,192,140884,1,8,0:0:0:0:
192,192,140884,1,0,0:0:0:0:
320,192,141292,1,2,0:0:0:0:
64,192,141700,1,8,0:0:0:0:
192,192,141700,1,0,0:0:0:0:
320,192,142108,1,2,0:0:0:0:
64,192,142516,1,8,0:0:0:0:
192,192,142516,1,0,0:0:0:0:
320,192,142925,1,2,0:0:0:0:
64,192,143333,1,8,0:0:0:0:
192,192,143333,1,0,0:0:0:0:
64,192,143741,1,2,0:0:0:0:
320,192,144149,1,8,0:0:0:0:
448,192,144149,1,0,0:0:0:0:
64,192,144557,1,2,0:0:0:0:
320,192,144965,1,8,0:0:0:0:
448,192,144965,1,0,0:0:0:0:
64,192,145374,1,2,0:0:0:0:
320,192,145782,1,8,0:0:0:0:
448,192,145782,1,0,0:0:0:0:
64,192,146190,1,2,0:0:0:0:
320,192,146598,1,8,0:0:0:0:
448,192,146598,1,0,0:0:0:0:
64,192,147006,1,2,0:0:0:0:
448,192,147006,1,4,0:0:0:0:
64,192,147414,1,8,0:0:0:0:
192,192,147414,1,0,0:0:0:0:
448,192,147823,1,2,0:0:0:0:
64,192,148231,1,8,0:0:0:0:
192,192,148231,1,0,0:0:0:0:
448,192,148639,1,2,0:0:0:0:
64,192,149047,1,8,0:0:0:0:
192,192,149047,1,0,0:0:0:0:
448,192,149455,1,2,0:0:0:0:
64,192,149863,1,8,0:0:0:0:
192,192,149863,1,0,0:0:0:0:
192,192,150272,1,2,0:0:0:0:
320,192,150680,1,8,0:0:0:0:
448,192,150680,1,0,0:0:0:0:
192,192,151088,1,2,0:0:0:0:
448,192,151496,1,10,0:0:0:0:
64,192,151700,1,2,0:0:0:0:
192,192,151700,1,0,0:0:0:50:Hat Open2.wav
192,192,152108,1,2,0:0:0:0:
320,192,152312,1,8,0:0:0:0:
64,192,152516,1,2,0:0:0:0:
448,192,152516,1,0,0:0:0:70:Hat Open2.wav
448,192,152925,1,8,0:0:0:0:
320,192,153129,1,8,0:0:0:0:
192,192,153333,1,8,0:0:0:0:
64,192,153537,1,2,0:0:0:0:
448,192,153537,1,4,0:0:0:0:
320,192,153945,1,8,0:0:0:0:
448,192,154353,1,2,0:0:0:0:
320,192,154761,1,8,0:0:0:0:
448,192,155170,1,2,0:0:0:0:
320,192,155578,1,8,0:0:0:0:
448,192,155986,1,2,0:0:0:0:
320,192,156394,1,8,0:0:0:0:
192,192,156802,1,2,0:0:0:0:
64,192,157210,1,8,0:0:0:0:
320,192,157619,1,2,0:0:0:0:
192,192,158027,1,8,0:0:0:0:
448,192,158435,1,2,0:0:0:0:
320,192,158843,1,8,0:0:0:0:
64,192,159251,1,2,0:0:0:0:
448,192,159659,1,8,0:0:0:0:
64,192,160067,1,2,0:0:0:0:
192,192,160067,1,4,0:0:0:0:
64,192,160476,1,8,0:0:0:0:
64,192,160884,1,2,0:0:0:0:
64,192,161292,1,8,0:0:0:0:
64,192,161700,1,2,0:0:0:0:
192,192,162108,1,8,0:0:0:0:
320,192,162516,1,2,0:0:0:0:
448,192,162925,1,8,0:0:0:0:
192,192,163333,1,2,0:0:0:0:
320,192,163741,1,8,0:0:0:0:
192,192,164149,1,2,0:0:0:0:
320,192,164557,1,8,0:0:0:0:
64,192,164965,1,2,0:0:0:0:
448,192,165170,1,2,0:0:0:0:
192,192,165374,1,8,0:0:0:0:
320,192,165782,1,2,0:0:0:0:
448,192,166190,1,2,0:0:0:0:
192,192,166598,1,2,0:0:0:0:
320,192,166802,1,2,0:0:0:0:
64,192,167006,1,12,0:0:0:0:
448,192,167006,1,2,0:0:0:0:
320,192,167414,1,2,0:0:0:0:
64,192,167823,1,8,0:0:0:0:
448,192,167823,1,0,0:0:0:0:
320,192,168231,1,2,0:0:0:0:
192,192,168639,1,8,0:0:0:0:
448,192,168639,1,0,0:0:0:0:
320,192,169047,1,2,0:0:0:0:
192,192,169455,1,8,0:0:0:0:
448,192,169455,1,0,0:0:0:0:
320,192,169863,1,2,0:0:0:0:
64,192,170272,1,8,0:0:0:0:
192,192,170272,1,0,0:0:0:0:
192,192,170680,1,2,0:0:0:0:
320,192,171088,1,8,0:0:0:0:
448,192,171088,1,0,0:0:0:0:
320,192,171496,1,2,0:0:0:0:
64,192,171904,1,8,0:0:0:0:
192,192,171904,1,0,0:0:0:0:
192,192,172312,1,2,0:0:0:0:
320,192,172721,1,8,0:0:0:0:
448,192,172721,1,0,0:0:0:0:
192,192,173129,1,2,0:0:0:0:
320,192,173333,1,2,0:0:0:40:tom3.wav
64,192,173537,1,8,0:0:0:0:
448,192,173537,1,4,0:0:0:0:
192,192,173945,1,2,0:0:0:0:
64,192,174353,1,8,0:0:0:0:
192,192,174353,1,0,0:0:0:0:
320,192,174761,1,2,0:0:0:0:
192,192,175170,1,8,0:0:0:0:
320,192,175170,1,0,0:0:0:0:
448,192,175578,1,2,0:0:0:0:
320,192,175986,1,8,0:0:0:0:
448,192,175986,1,0,0:0:0:0:
192,192,176394,1,2,0:0:0:0:
64,192,176802,1,8,0:0:0:0:
192,192,176802,1,0,0:0:0:0:
320,192,177210,1,2,0:0:0:0:
320,192,177619,1,8,0:0:0:0:
448,192,177619,1,0,0:0:0:0:
192,192,178027,1,6,0:0:0:0:
192,192,178435,1,2,0:0:0:0:
320,192,178843,1,2,0:0:0:0:
64,192,179047,1,10,0:0:0:0:
320,192,179251,1,2,0:0:0:0:
448,192,179251,1,8,0:0:0:0:
64,192,179659,1,2,0:0:0:0:
192,192,179659,1,4,0:0:0:0:
192,192,182516,1,8,0:0:0:0:
320,192,182721,1,2,0:0:0:0:
64,192,182925,1,2,0:0:0:0:
448,192,182925,1,4,0:0:0:0:
64,192,183333,1,8,0:0:0:0:
192,192,183333,1,0,0:0:0:0:
320,192,183741,1,2,0:0:0:0:
320,192,184149,1,8,0:0:0:0:
448,192,184149,1,0,0:0:0:0:
64,192,184557,1,2,0:0:0:0:
64,192,184965,1,8,0:0:0:0:
192,192,184965,1,0,0:0:0:0:
320,192,185374,1,2,0:0:0:0:
320,192,185782,1,8,0:0:0:0:
448,192,185782,1,0,0:0:0:0:
192,192,186190,1,2,0:0:0:0:
320,192,186190,1,4,0:0:0:0:
64,192,186598,1,8,0:0:0:0:
192,192,186598,1,0,0:0:0:0:
448,192,187006,1,2,0:0:0:0:
320,192,187414,1,8,0:0:0:0:
448,192,187414,1,0,0:0:0:0:
192,192,187823,1,2,0:0:0:0:
64,192,188231,1,8,0:0:0:0:
192,192,188231,1,0,0:0:0:0:
448,192,188639,1,2,0:0:0:0:
320,192,189047,1,8,0:0:0:0:
448,192,189047,1,0,0:0:0:0:
192,192,189455,1,2,0:0:0:0:
320,192,189455,1,4,0:0:0:0:
64,192,189863,1,8,0:0:0:0:
192,192,189863,1,0,0:0:0:0:
320,192,190272,1,2,0:0:0:0:
320,192,190680,1,8,0:0:0:0:
448,192,190680,1,0,0:0:0:0:
192,192,191088,1,2,0:0:0:0:
64,192,191496,1,8,0:0:0:0:
192,192,191496,1,0,0:0:0:0:
320,192,191904,1,2,0:0:0:0:
192,192,192108,1,8,0:0:0:0:
64,192,192312,1,8,0:0:0:0:
448,192,192312,1,0,0:0:0:60:Hat Open2.wav
64,192,192721,1,2,0:0:0:0:
192,192,192721,1,4,0:0:0:0:
448,192,192925,1,2,0:0:0:0:
192,192,193129,1,8,0:0:0:0:
320,192,193537,1,2,0:0:0:0:
64,192,193741,1,2,0:0:0:0:
320,192,193945,1,8,0:0:0:0:
192,192,194353,1,2,0:0:0:0:
448,192,194557,1,2,0:0:0:0:
192,192,194761,1,8,0:0:0:0:
320,192,195170,1,2,0:0:0:0:
64,192,195374,1,2,0:0:0:0:
320,192,195578,1,8,0:0:0:0:
64,192,195986,1,2,0:0:0:0:
192,192,195986,1,4,0:0:0:0:
320,192,196190,1,2,0:0:0:0:
64,192,196394,1,8,0:0:0:0:
448,192,196802,1,2,0:0:0:0:
192,192,197006,1,2,0:0:0:0:
448,192,197210,1,8,0:0:0:0:
64,192,197619,1,2,0:0:0:0:
320,192,197823,1,2,0:0:0:0:
64,192,198027,1,8,0:0:0:0:
448,192,198435,1,2,0:0:0:0:
192,192,198639,1,2,0:0:0:0:
448,192,198843,1,8,0:0:0:0:
320,192,199047,1,2,0:0:0:0:
64,192,199251,1,2,0:0:0:0:
192,192,199251,1,4,0:0:0:0:
64,192,199659,1,2,0:0:0:0:
192,192,200067,1,2,0:0:0:0:
192,192,200476,1,2,0:0:0:0:
320,192,200884,1,2,0:0:0:0:
320,192,201292,1,2,0:0:0:0:
448,192,201700,1,2,0:0:0:0:
448,192,202108,1,2,0:0:0:0:
64,192,202516,1,2,0:0:0:0:
192,192,202516,1,4,0:0:0:0:
320,192,202721,1,2,0:0:0:0:
192,192,202925,1,2,0:0:0:0:
320,192,203333,1,2,0:0:0:0:
192,192,203537,1,2,0:0:0:0:
320,192,203741,1,2,0:0:0:0:
64,192,203945,1,6,0:0:0:0:
448,192,203945,1,8,0:0:0:0:
64,192,204353,1,2,0:0:0:0:
448,192,204557,1,8,0:0:0:0:
192,192,204761,1,2,0:0:0:0:
192,192,205170,1,10,0:0:0:0:
448,192,205374,1,10,0:0:0:0:
64,192,209047,1,2,0:0:0:0:
448,192,209047,1,4,0:0:0:0:
64,192,209455,1,8,0:0:0:0:
192,192,209863,1,2,0:0:0:0:
192,192,210272,1,8,0:0:0:0:
320,192,210680,1,2,0:0:0:0:
320,192,211088,1,8,0:0:0:0:
448,192,211496,1,2,0:0:0:0:
448,192,211904,1,8,0:0:0:0:
192,192,212312,1,2,0:0:0:0:
64,192,212721,1,8,0:0:0:0:
320,192,213129,1,2,0:0:0:0:
192,192,213537,1,8,0:0:0:0:
448,192,213945,1,2,0:0:0:0:
320,192,214353,1,8,0:0:0:0:
64,192,214761,1,2,0:0:0:0:
448,192,215170,1,8,0:0:0:0:
64,192,215578,1,2,0:0:0:0:
192,192,215578,1,4,0:0:0:0:
192,192,215986,1,8,0:0:0:0:
320,192,216394,1,2,0:0:0:0:
448,192,216802,1,8,0:0:0:0:
64,192,217210,1,2,0:0:0:0:
192,192,217619,1,8,0:0:0:0:
320,192,218027,1,2,0:0:0:0:
448,192,218435,1,8,0:0:0:0:
192,192,218843,1,2,0:0:0:0:
192,192,219251,1,8,0:0:0:0:
320,192,219659,1,2,0:0:0:0:
320,192,220067,1,8,0:0:0:0:
64,192,220476,1,6,0:0:0:0:
448,192,220680,1,8,0:0:0:0:
192,192,220884,1,6,0:0:0:0:
320,192,221292,1,6,0:0:0:0:
64,192,221496,1,8,0:0:0:0:
448,192,221700,1,6,0:0:0:0:
64,192,222108,1,2,0:0:0:0:
64,192,222516,1,8,0:0:0:0:
448,192,222516,1,4,0:0:0:0:
192,192,222925,1,2,0:0:0:0:
192,192,223333,1,8,0:0:0:0:
320,192,223741,1,2,0:0:0:0:
320,192,224149,1,8,0:0:0:0:
448,192,224557,1,2,0:0:0:0:
448,192,224965,1,8,0:0:0:0:
64,192,225374,1,2,0:0:0:0:
192,192,225782,1,8,0:0:0:0:
320,192,226190,1,2,0:0:0:0:
64,192,226598,1,8,0:0:0:0:
448,192,227006,1,2,0:0:0:0:
320,192,227414,1,8,0:0:0:0:
192,192,227823,1,2,0:0:0:0:
448,192,228231,1,8,0:0:0:0:
64,192,228639,1,2,0:0:0:0:
192,192,228639,1,4,0:0:0:0:
192,192,229047,1,8,0:0:0:0:
320,192,229455,1,2,0:0:0:0:
448,192,229863,1,8,0:0:0:0:
64,192,230272,1,2,0:0:0:0:
192,192,230680,1,8,0:0:0:0:
320,192,231088,1,2,0:0:0:0:
448,192,231496,1,8,0:0:0:0:
192,192,231904,1,2,0:0:0:0:
192,192,232312,1,8,0:0:0:0:
320,192,232721,1,2,0:0:0:0:
320,192,233129,1,8,0:0:0:0:
64,192,233537,1,6,0:0:0:0:
448,192,233741,1,2,0:0:0:0:
192,192,233945,1,8,0:0:0:0:
320,192,234353,1,2,0:0:0:0:
320,192,234761,1,10,0:0:0:0:
448,192,234761,1,0,0:0:0:100:Hat Open.wav
64,192,235170,1,2,0:0:0:0:
192,192,235170,1,4,0:0:0:0:
64,192,235578,1,0,0:0:0:0:
320,192,235986,1,2,0:0:0:0:
448,192,235986,1,4,0:0:0:0:
448,192,236394,1,0,0:0:0:0:
64,192,236802,1,2,0:0:0:0:
192,192,236802,1,4,0:0:0:0:
320,192,237619,1,2,0:0:0:0:
448,192,237619,1,4,0:0:0:0:
448,192,238027,1,2,0:0:0:0:
320,192,238231,1,8,0:0:0:0:
64,192,238435,1,2,0:0:0:0:
192,192,238435,1,4,0:0:0:0:
64,192,238843,1,0,0:0:0:0:
320,192,239251,1,2,0:0:0:0:
448,192,239251,1,4,0:0:0:0:
448,192,239659,1,0,0:0:0:0:
64,192,240067,1,2,0:0:0:0:
192,192,240067,1,4,0:0:0:0:
320,192,240884,1,2,0:0:0:0:
448,192,240884,1,4,0:0:0:0:
64,192,241088,1,8,0:0:0:0:
448,192,241292,1,8,0:0:0:0:
64,192,241700,1,2,0:0:0:0:
192,192,241700,1,0,0:0:0:40:soft-hitfinish.wav
64,192,242108,1,2,0:0:0:0:
192,192,242108,1,0,0:0:0:40:soft-hitfinish.wav
64,192,242516,1,2,0:0:0:0:
192,192,242516,1,0,0:0:0:40:soft-hitfinish.wav
64,192,242925,1,2,0:0:0:0:
192,192,242925,1,0,0:0:0:40:soft-hitfinish.wav
320,192,243333,1,2,0:0:0:0:
448,192,243333,1,0,0:0:0:40:soft-hitfinish.wav
320,192,243741,1,2,0:0:0:0:
448,192,243741,1,0,0:0:0:40:soft-hitfinish.wav
320,192,244149,1,2,0:0:0:0:
448,192,244149,1,0,0:0:0:40:soft-hitfinish.wav
320,192,244557,1,2,0:0:0:0:
448,192,244557,1,0,0:0:0:40:soft-hitfinish.wav
64,192,244965,1,2,0:0:0:0:
192,192,244965,1,0,0:0:0:40:soft-hitfinish.wav
64,192,245374,1,2,0:0:0:0:
192,192,245374,1,0,0:0:0:40:soft-hitfinish.wav
192,192,245782,1,8,0:0:0:0:
448,192,245782,1,0,0:0:0:40:soft-hitfinish.wav
448,192,246190,1,2,0:0:0:0:
64,192,246394,1,8,0:0:0:0:
192,192,246394,1,0,0:0:0:60:Hat Open2.wav
