osu file format v14

[General]
AudioFilename: audio.ogg
AudioLeadIn: 0
PreviewTime: 205680
Countdown: 0
SampleSet: Soft
StackLeniency: 0.7
Mode: 3
LetterboxInBreaks: 0
SpecialStyle: 0
WidescreenStoryboard: 1

[Editor]
DistanceSpacing: 1
BeatDivisor: 4
GridSize: 8
TimelineZoom: 2.100001

[Metadata]
Title:Lagtrain
TitleUnicode:ラグトレイン
Artist:inabakumori
ArtistUnicode:稲葉曇
Creator:Akasha-
Version:CS' Insane
Source:
Tags:Kaai Yuki 歌愛ユキ vocaloid rock jrock j-rock japanese WEATHER STATION 2nd album ウェザーステーション Critical_Star AchsanLovers Sherly Kuo Kyoka K_a_t_a_g_i_r_i Katagiri
BeatmapID:3517946
BeatmapSetID:1720379

[Difficulty]
HPDrainRate:8.5
CircleSize:4
OverallDifficulty:7.5
ApproachRate:5
SliderMultiplier:1.4
SliderTickRate:1

[Events]
//Background and Video events
0,0,"BG.jpg",0,0
Video,30,"video.mp4"
//Break Periods
//Storyboard Layer 0 (Background)
//Storyboard Layer 1 (Fail)
//Storyboard Layer 2 (Pass)
//Storyboard Layer 3 (Foreground)
//Storyboard Layer 4 (Overlay)
//Storyboard Sound Samples
Sample,130680,0,"Hat Open.wav",70
Sample,137210,0,"Hat Open2.wav",50

[TimingPoints]
68,408.163265306122,4,2,1,60,1,0
78435,-100.0,4,2,1,60,0,1
86598,-100.0,4,2,1,60,0,0
88231,-100.0,4,2,1,60,0,1
101292,-100.0,4,2,1,60,0,0
153537,-100.0,4,2,1,60,0,1
159659,-100.0,4,2,1,60,0,0
160067,-100.0,4,2,1,60,0,1
166598,-100.0,4,2,1,60,0,0
205782,-100.0,4,2,1,20,0,0
209047,-100.0,4,2,1,60,0,1
215170,-100.0,4,2,1,60,0,0
215578,-100.0,4,2,1,60,0,1
220476,-100.0,4,2,1,60,0,0
222516,-100.0,4,2,1,60,0,1
228231,-100.0,4,2,1,60,0,0
228639,-100.0,4,2,1,60,0,1
235170,-100.0,4,2,1,60,0,0

[HitObjects]
192,192,3129,1,0,0:0:0:0:
320,192,3231,1,0,0:0:0:0:
64,192,3333,1,2,0:0:0:0:
448,192,3333,128,0,3435:0:0:0:0:
64,192,3537,1,2,0:0:0:0:
448,192,3537,1,0,0:0:0:0:
64,192,3741,1,8,0:0:0:70:
192,192,3741,128,0,3843:0:0:0:0:
448,192,3741,1,0,0:0:0:0:
64,192,4149,1,0,0:0:0:0:
320,192,4149,128,0,4251:0:0:0:0:
192,192,4353,1,2,0:0:0:0:
448,192,4353,1,0,0:0:0:0:
64,192,4557,1,8,0:0:0:70:
192,192,4557,128,0,4659:0:0:0:0:
448,192,4557,1,0,0:0:0:0:
320,192,4761,128,0,4863:0:0:0:0:
64,192,4965,1,2,0:0:0:0:
448,192,4965,1,0,0:0:0:0:
64,192,5170,1,2,0:0:0:0:
448,192,5170,128,0,5272:0:0:0:0:
64,192,5374,1,8,0:0:0:70:
192,192,5374,1,0,0:0:0:0:
448,192,5374,1,0,0:0:0:0:
320,192,5578,128,0,5680:0:0:0:0:
64,192,5986,1,2,0:0:0:0:
192,192,5986,1,0,0:0:0:0:
64,192,6190,1,8,0:0:0:70:
320,192,6190,1,0,0:0:0:0:
448,192,6190,1,0,0:0:0:0:
64,192,6598,1,2,0:0:0:0:
320,192,6598,128,0,6700:0:0:0:0:
64,192,6802,1,2,0:0:0:0:
320,192,6802,1,0,0:0:0:0:
192,192,7006,128,8,7108:0:0:0:70:
320,192,7006,1,0,0:0:0:0:
448,192,7006,1,0,0:0:0:0:
64,192,7414,128,0,7516:0:0:0:0:
192,192,7619,1,2,0:0:0:0:
448,192,7619,1,0,0:0:0:0:
64,192,7823,1,8,0:0:0:70:
320,192,7823,1,0,0:0:0:0:
448,192,7823,128,0,7925:0:0:0:0:
192,192,8027,128,0,8129:0:0:0:0:
192,192,8231,1,2,0:0:0:0:
448,192,8231,1,0,0:0:0:0:
192,192,8435,128,2,8537:0:0:0:0:
448,192,8435,1,0,0:0:0:0:
64,192,8639,1,8,0:0:0:70:
320,192,8639,1,0,0:0:0:0:
448,192,8639,1,0,0:0:0:0:
192,192,8843,128,0,8945:0:0:0:0:
64,192,9251,1,2,0:0:0:0:
192,192,9251,1,0,0:0:0:0:
192,192,9455,1,8,0:0:0:70:
320,192,9455,1,0,0:0:0:0:
448,192,9455,1,0,0:0:0:0:
192,192,9863,128,2,10067:0:0:0:0:
448,192,9863,1,0,0:0:0:0:
448,192,10067,1,2,0:0:0:0:
64,192,10272,1,8,0:0:0:70:
192,192,10272,128,0,10374:0:0:0:0:
448,192,10272,1,0,0:0:0:0:
320,192,10476,1,0,0:0:0:0:
448,192,10476,128,0,10578:0:0:0:0:
64,192,10680,128,0,10782:0:0:0:0:
320,192,10884,1,2,0:0:0:0:
448,192,10884,1,0,0:0:0:0:
64,192,11088,1,8,0:0:0:70:
320,192,11088,128,0,11190:0:0:0:0:
448,192,11088,1,0,0:0:0:0:
64,192,11292,128,0,11394:0:0:0:0:
192,192,11496,1,2,0:0:0:0:
448,192,11496,128,0,11598:0:0:0:0:
192,192,11700,1,2,0:0:0:0:
448,192,11700,1,0,0:0:0:0:
64,192,11904,1,8,0:0:0:70:
320,192,11904,128,0,12006:0:0:0:0:
448,192,11904,1,0,0:0:0:0:
448,192,12108,128,0,12210:0:0:0:0:
192,192,12312,128,0,12414:0:0:0:0:
64,192,12516,1,2,0:0:0:0:
192,192,12516,1,0,0:0:0:0:
192,192,12721,1,8,0:0:0:70:
320,192,12721,128,0,12823:0:0:0:0:
448,192,12721,1,0,0:0:0:0:
192,192,12925,128,0,13027:0:0:0:0:
64,192,13129,1,2,0:0:0:0:
448,192,13129,128,0,13231:0:0:0:0:
64,192,13333,1,2,0:0:0:0:
64,192,13537,1,8,0:0:0:70:
320,192,13537,128,0,13639:0:0:0:0:
448,192,13537,1,0,0:0:0:0:
192,192,13741,1,0,0:0:0:0:
320,192,13945,128,0,14149:0:0:0:0:
64,192,14149,1,2,0:0:0:0:
448,192,14149,1,0,0:0:0:0:
320,192,14251,1,0,0:0:0:0:
64,192,14353,1,8,0:0:0:70:
192,192,14353,128,0,14455:0:0:0:0:
448,192,14557,128,0,14659:0:0:0:0:
64,192,14761,1,2,0:0:0:0:
320,192,14761,1,0,0:0:0:0:
64,192,14965,1,2,0:0:0:0:
320,192,14965,128,0,15067:0:0:0:0:
64,192,15170,1,8,0:0:0:70:
192,192,15170,128,0,15272:0:0:0:0:
448,192,15170,1,0,0:0:0:0:
448,192,15374,128,0,15476:0:0:0:0:
64,192,15782,1,2,0:0:0:0:
192,192,15782,128,0,15884:0:0:0:0:
64,192,15986,1,8,0:0:0:70:
320,192,15986,1,0,0:0:0:0:
448,192,15986,128,0,16190:0:0:0:0:
64,192,16394,1,2,0:0:0:0:
320,192,16394,128,0,16598:0:0:0:0:
64,192,16598,1,2,0:0:0:0:
64,192,16802,1,8,0:0:0:70:
320,192,16802,128,0,16904:0:0:0:0:
448,192,16802,1,0,0:0:0:0:
64,192,17006,128,0,17108:0:0:0:0:
192,192,17006,1,0,0:0:0:0:
448,192,17210,128,0,17312:0:0:0:0:
64,192,17414,1,2,0:0:0:0:
192,192,17414,1,0,0:0:0:0:
64,192,17619,1,8,0:0:0:70:
192,192,17619,128,0,17721:0:0:0:0:
448,192,17619,1,0,0:0:0:0:
448,192,17823,128,0,17925:0:0:0:0:
64,192,18027,128,2,18129:0:0:0:0:
320,192,18027,1,0,0:0:0:0:
64,192,18231,1,2,0:0:0:0:
320,192,18231,128,0,18333:0:0:0:0:
64,192,18435,1,8,0:0:0:70:
192,192,18435,128,0,18537:0:0:0:0:
448,192,18435,1,0,0:0:0:0:
64,192,18639,128,0,18741:0:0:0:0:
320,192,18843,128,0,18945:0:0:0:0:
320,192,19047,1,2,0:0:0:0:
448,192,19047,1,0,0:0:0:0:
64,192,19251,1,8,0:0:0:70:
192,192,19251,128,0,19353:0:0:0:0:
320,192,19251,1,0,0:0:0:0:
320,192,19455,128,0,19557:0:0:0:0:
64,192,19659,1,2,0:0:0:0:
448,192,19659,1,0,0:0:0:0:
320,192,19863,128,2,19965:0:0:0:0:
448,192,19863,1,0,0:0:0:0:
64,192,20067,1,8,0:0:0:70:
192,192,20067,128,0,20170:0:0:0:0:
448,192,20067,1,0,0:0:0:0:
320,192,20272,1,0,0:0:0:0:
192,192,20476,128,0,20578:0:0:0:0:
64,192,20680,128,2,20782:0:0:0:0:
448,192,20680,1,0,0:0:0:0:
192,192,20884,1,8,0:0:0:70:
320,192,20884,1,0,0:0:0:0:
448,192,20884,1,0,0:0:0:0:
320,192,21088,128,0,21190:0:0:0:0:
192,192,21292,1,2,0:0:0:0:
448,192,21292,128,0,21394:0:0:0:0:
192,192,21496,1,2,0:0:0:0:
448,192,21496,1,0,0:0:0:0:
320,192,21700,128,0,21802:0:0:0:0:
448,192,21700,1,0,0:0:0:0:
64,192,21904,1,0,0:0:0:0:
192,192,22108,128,0,22210:0:0:0:0:
320,192,22312,128,0,22414:0:0:0:0:
64,192,22516,128,0,22721:0:0:0:0:
64,192,22925,128,2,23027:0:0:0:0:
192,192,22925,128,4,23231:0:0:0:0:
448,192,22925,1,0,0:0:0:0:
64,192,23129,128,0,23231:0:0:0:30:Hat Open2.wav
192,192,23333,128,8,23435:0:0:0:70:
320,192,23333,128,0,23639:0:0:0:0:
448,192,23333,1,0,0:0:0:0:
192,192,23537,128,0,23639:0:0:0:30:Hat Open2.wav
320,192,23741,128,2,23843:0:0:0:0:
448,192,23741,128,0,24047:0:0:0:0:
320,192,23945,128,0,24047:0:0:0:30:Hat Open2.wav
64,192,24149,1,8,0:0:0:70:
192,192,24149,1,0,0:0:0:0:
320,192,24149,128,0,24455:0:0:0:0:
448,192,24353,128,0,24455:0:0:0:30:Hat Open2.wav
64,192,24557,128,2,24659:0:0:0:0:
192,192,24557,128,0,24863:0:0:0:0:
64,192,24761,128,0,24863:0:0:0:30:Hat Open2.wav
192,192,24965,128,8,25067:0:0:0:70:
320,192,24965,128,0,25272:0:0:0:0:
448,192,24965,1,0,0:0:0:0:
192,192,25170,128,0,25272:0:0:0:30:Hat Open2.wav
320,192,25374,128,2,25476:0:0:0:0:
448,192,25374,128,0,25680:0:0:0:0:
320,192,25578,128,0,25680:0:0:0:30:Hat Open2.wav
64,192,25782,1,8,0:0:0:70:
320,192,25782,1,0,0:0:0:0:
448,192,25782,128,0,26088:0:0:0:0:
192,192,25986,128,0,26088:0:0:0:30:Hat Open2.wav
64,192,26190,128,2,26496:0:0:0:0:
320,192,26190,128,0,26292:0:0:0:0:
448,192,26190,1,0,0:0:0:0:
192,192,26394,128,0,26496:0:0:0:30:Hat Open2.wav
192,192,26598,128,8,26904:0:0:0:70:
320,192,26598,128,0,26700:0:0:0:0:
448,192,26598,1,0,0:0:0:0:
64,192,26802,128,0,26904:0:0:0:30:Hat Open2.wav
320,192,27006,128,2,27312:0:0:0:0:
448,192,27006,128,0,27108:0:0:0:0:
192,192,27210,128,0,27312:0:0:0:30:Hat Open2.wav
64,192,27414,128,8,27721:0:0:0:70:
320,192,27414,1,0,0:0:0:0:
448,192,27414,1,0,0:0:0:0:
192,192,27619,128,0,27721:0:0:0:30:Hat Open2.wav
64,192,27823,1,2,0:0:0:0:
448,192,27823,1,0,0:0:0:0:
320,192,28027,128,0,28231:0:0:0:30:Hat Open2.wav
64,192,28231,1,8,0:0:0:70:
192,192,28231,128,0,28435:0:0:0:0:
448,192,28231,1,0,0:0:0:0:
320,192,28435,128,0,28639:0:0:0:30:Hat Open2.wav
64,192,28639,1,2,0:0:0:0:
192,192,28639,1,0,0:0:0:0:
64,192,28843,1,8,0:0:0:70:
320,192,28843,1,0,0:0:0:30:Hat Open2.wav
448,192,28843,128,0,28945:0:0:0:0:
64,192,29047,1,8,0:0:0:70:
320,192,29047,1,0,0:0:0:0:
448,192,29047,128,0,29149:0:0:0:0:
64,192,29251,1,8,0:0:0:0:
192,192,29251,1,0,0:0:0:0:
320,192,29353,1,8,0:0:0:0:
64,192,29455,128,2,29761:0:0:0:0:
192,192,29455,128,4,29557:0:0:0:0:
448,192,29455,1,0,0:0:0:0:
192,192,29659,128,0,29761:0:0:0:30:Hat Open2.wav
192,192,29863,128,8,30170:0:0:0:0:
320,192,29863,128,0,29965:0:0:0:0:
448,192,29863,1,0,0:0:0:0:
320,192,30067,128,0,30170:0:0:0:30:Hat Open2.wav
64,192,30272,128,2,30374:0:0:0:0:
320,192,30272,128,0,30578:0:0:0:0:
64,192,30476,128,0,30578:0:0:0:30:Hat Open2.wav
64,192,30680,1,8,0:0:0:0:
192,192,30680,128,0,30782:0:0:0:0:
448,192,30680,128,0,30986:0:0:0:0:
192,192,30884,128,0,30986:0:0:0:30:Hat Open2.wav
64,192,31088,128,2,31394:0:0:0:0:
448,192,31088,1,0,0:0:0:0:
192,192,31292,128,0,31394:0:0:0:30:Hat Open2.wav
64,192,31496,1,8,0:0:0:0:
192,192,31496,128,0,31802:0:0:0:0:
448,192,31496,1,0,0:0:0:0:
320,192,31700,128,0,31802:0:0:0:30:Hat Open2.wav
64,192,31904,1,2,0:0:0:0:
320,192,31904,128,0,32210:0:0:0:0:
192,192,32108,128,0,32210:0:0:0:30:Hat Open2.wav
64,192,32312,1,8,0:0:0:0:
192,192,32312,1,0,0:0:0:0:
448,192,32312,128,0,32619:0:0:0:0:
320,192,32516,128,0,32619:0:0:0:30:Hat Open2.wav
64,192,32721,1,2,0:0:0:0:
448,192,32721,1,0,0:0:0:0:
320,192,32925,128,0,33027:0:0:0:30:Hat Open2.wav
64,192,33129,1,8,0:0:0:0:
192,192,33129,1,0,0:0:0:0:
448,192,33129,128,0,33231:0:0:0:0:
320,192,33333,1,0,0:0:0:30:Hat Open2.wav
64,192,33537,1,2,0:0:0:0:
448,192,33537,128,0,33639:0:0:0:0:
320,192,33741,128,0,33843:0:0:0:30:Hat Open2.wav
64,192,33945,1,8,0:0:0:0:
192,192,33945,1,0,0:0:0:0:
448,192,33945,1,0,0:0:0:0:
64,192,34149,1,2,0:0:0:0:
192,192,34149,1,0,0:0:0:30:Hat Open2.wav
320,192,34251,1,2,0:0:0:0:
64,192,34353,1,2,0:0:0:0:
192,192,34353,1,0,0:0:0:70:Hat Open.wav
448,192,34353,128,0,34659:0:0:0:0:
64,192,34557,128,2,34761:0:0:0:0:
192,192,34557,1,0,0:0:0:0:
320,192,34761,1,8,0:0:0:0:
448,192,34761,1,0,0:0:0:0:
192,192,34863,1,8,0:0:0:0:
64,192,34965,128,2,35272:0:0:0:0:
320,192,34965,1,0,0:0:0:70:Hat Open.wav
448,192,34965,1,0,0:0:0:0:
320,192,35170,1,2,0:0:0:0:
448,192,35170,128,0,35374:0:0:0:0:
64,192,35374,1,2,0:0:0:0:
192,192,35374,1,0,0:0:0:0:
64,192,35578,128,8,35884:0:0:0:0:
320,192,35578,128,4,35884:0:0:0:0:
448,192,35578,128,0,35884:0:0:0:0:
64,192,35986,128,4,36190:0:0:0:0:
192,192,35986,1,2,0:0:0:0:
448,192,35986,1,0,0:0:0:0:
320,192,36190,1,0,0:0:0:30:Hat Open2.wav
64,192,36394,1,8,0:0:0:0:
192,192,36394,128,0,36598:0:0:0:0:
448,192,36394,1,0,0:0:0:0:
320,192,36598,1,0,0:0:0:30:Hat Open2.wav
64,192,36802,1,2,0:0:0:0:
320,192,36802,128,0,37006:0:0:0:0:
448,192,37006,1,0,0:0:0:30:Hat Open2.wav
64,192,37210,1,8,0:0:0:0:
320,192,37210,1,0,0:0:0:0:
448,192,37210,128,0,37414:0:0:0:0:
192,192,37414,128,0,37619:0:0:0:30:Hat Open2.wav
64,192,37619,1,2,0:0:0:0:
448,192,37619,1,0,0:0:0:0:
64,192,37823,128,0,38027:0:0:0:30:Hat Open2.wav
320,192,37823,1,0,0:0:0:0:
192,192,38027,1,8,0:0:0:0:
320,192,38027,1,0,0:0:0:0:
448,192,38027,1,0,0:0:0:0:
192,192,38231,128,0,38333:0:0:0:30:Hat Open2.wav
448,192,38231,1,0,0:0:0:0:
64,192,38435,1,2,0:0:0:0:
320,192,38435,128,0,38537:0:0:0:0:
192,192,38639,128,0,38741:0:0:0:30:Hat Open2.wav
64,192,38843,1,8,0:0:0:0:
320,192,38843,1,0,0:0:0:0:
448,192,38843,128,0,38945:0:0:0:0:
320,192,39047,128,0,39149:0:0:0:30:Hat Open2.wav
64,192,39251,128,2,39455:0:0:0:0:
448,192,39251,1,0,0:0:0:0:
192,192,39455,1,0,0:0:0:30:Hat Open2.wav
64,192,39659,1,8,0:0:0:0:
192,192,39659,128,0,39863:0:0:0:0:
320,192,39659,1,0,0:0:0:0:
448,192,39863,1,0,0:0:0:30:Hat Open2.wav
64,192,40067,1,2,0:0:0:0:
320,192,40067,128,0,40272:0:0:0:0:
192,192,40272,1,0,0:0:0:30:Hat Open2.wav
64,192,40476,1,8,0:0:0:0:
192,192,40476,1,0,0:0:0:0:
448,192,40476,128,0,40680:0:0:0:0:
320,192,40680,128,0,40884:0:0:0:30:Hat Open2.wav
192,192,40884,1,2,0:0:0:0:
448,192,40884,1,0,0:0:0:0:
64,192,41088,128,0,41292:0:0:0:30:Hat Open2.wav
320,192,41088,1,0,0:0:0:0:
192,192,41292,128,8,41394:0:0:0:0:
320,192,41292,128,0,41598:0:0:0:0:
448,192,41292,1,0,0:0:0:0:
192,192,41496,128,0,41598:0:0:0:30:Hat Open2.wav
192,192,41700,128,2,42006:0:0:0:0:
320,192,41700,128,0,41802:0:0:0:0:
320,192,41904,128,0,42006:0:0:0:30:Hat Open2.wav
64,192,42108,1,8,0:0:0:0:
320,192,42108,128,0,42414:0:0:0:0:
448,192,42108,128,0,42210:0:0:0:0:
64,192,42312,1,2,0:0:0:0:
448,192,42312,128,0,42414:0:0:0:30:Hat Open2.wav
192,192,42414,1,0,0:0:0:0:
64,192,42516,128,2,42823:0:0:0:0:
320,192,42516,1,4,0:0:0:0:
448,192,42516,1,0,0:0:0:0:
192,192,42721,128,0,42823:0:0:0:30:Hat Open2.wav
64,192,42925,1,8,0:0:0:0:
192,192,42925,128,0,43231:0:0:0:0:
448,192,42925,1,0,0:0:0:0:
320,192,43129,128,0,43231:0:0:0:30:Hat Open2.wav
320,192,43333,128,2,43639:0:0:0:0:
448,192,43333,1,0,0:0:0:0:
192,192,43537,128,0,43639:0:0:0:30:Hat Open2.wav
64,192,43741,1,8,0:0:0:0:
192,192,43741,1,0,0:0:0:0:
448,192,43741,128,0,44047:0:0:0:0:
320,192,43945,128,0,44047:0:0:0:30:Hat Open2.wav
64,192,44149,1,2,0:0:0:0:
448,192,44149,1,0,0:0:0:0:
192,192,44353,128,0,44557:0:0:0:30:Hat Open2.wav
320,192,44353,1,0,0:0:0:0:
64,192,44557,1,8,0:0:0:0:
320,192,44557,1,0,0:0:0:0:
448,192,44557,1,0,0:0:0:0:
64,192,44761,128,0,44965:0:0:0:30:Hat Open2.wav
448,192,44761,1,0,0:0:0:0:
192,192,44965,128,2,45272:0:0:0:0:
448,192,44965,128,0,45067:0:0:0:0:
320,192,45170,128,0,45272:0:0:0:30:Hat Open2.wav
64,192,45374,1,8,0:0:0:0:
192,192,45374,128,0,45476:0:0:0:0:
448,192,45374,128,0,45680:0:0:0:0:
320,192,45578,128,0,45680:0:0:0:30:Hat Open2.wav
64,192,45782,128,2,45986:0:0:0:0:
448,192,45782,1,0,0:0:0:0:
320,192,45986,1,0,0:0:0:30:Hat Open2.wav
64,192,46190,1,8,0:0:0:0:
192,192,46190,128,0,46394:0:0:0:0:
448,192,46190,1,0,0:0:0:0:
320,192,46394,1,0,0:0:0:30:Hat Open2.wav
64,192,46598,1,2,0:0:0:0:
320,192,46598,128,0,46802:0:0:0:0:
192,192,46802,1,0,0:0:0:30:Hat Open2.wav
64,192,47006,1,8,0:0:0:0:
320,192,47006,1,0,0:0:0:0:
448,192,47006,128,0,47210:0:0:0:0:
64,192,47210,1,8,0:0:0:0:
192,192,47210,1,0,0:0:0:0:
320,192,47312,1,8,0:0:0:0:
448,192,47312,1,0,0:0:0:0:
64,192,47414,1,2,0:0:0:0:
192,192,47414,1,0,0:0:0:100:Hat Open.wav
320,192,47619,128,0,47823:0:0:0:70:ride02.wav
64,192,47823,1,2,0:0:0:0:
320,192,48027,128,0,48231:0:0:0:70:ride02.wav
64,192,48231,1,2,0:0:0:0:
320,192,48435,128,0,48639:0:0:0:70:ride02.wav
64,192,48639,128,2,48945:0:0:0:0:
448,192,48639,1,0,0:0:0:0:
64,192,49047,128,2,49149:0:0:0:0:
192,192,49047,1,4,0:0:0:0:
448,192,49047,1,0,0:0:0:0:
320,192,49149,1,0,0:0:0:0:
448,192,49251,1,0,0:0:0:0:
64,192,49353,1,0,0:0:0:0:
192,192,49455,128,8,49557:0:0:0:0:
448,192,49455,1,0,0:0:0:0:
320,192,49557,1,0,0:0:0:0:
64,192,49659,1,0,0:0:0:0:
192,192,49761,1,0,0:0:0:0:
320,192,49863,128,2,49965:0:0:0:0:
448,192,49863,1,0,0:0:0:0:
64,192,49965,1,0,0:0:0:0:
320,192,50067,1,0,0:0:0:0:
192,192,50170,1,0,0:0:0:0:
64,192,50272,1,8,0:0:0:0:
448,192,50272,128,0,50374:0:0:0:0:
320,192,50374,1,0,0:0:0:0:
64,192,50476,128,0,50578:0:0:0:0:
192,192,50476,1,0,0:0:0:0:
320,192,50578,1,0,0:0:0:0:
64,192,50680,1,2,0:0:0:0:
448,192,50680,1,0,0:0:0:0:
192,192,50782,1,0,0:0:0:0:
320,192,50884,128,0,50986:0:0:0:0:
448,192,50884,1,0,0:0:0:0:
192,192,50986,1,0,0:0:0:0:
64,192,51088,1,8,0:0:0:0:
448,192,51088,1,0,0:0:0:0:
320,192,51190,1,0,0:0:0:0:
448,192,51292,1,0,0:0:0:0:
192,192,51394,1,0,0:0:0:0:
64,192,51496,1,2,0:0:0:0:
320,192,51496,1,0,0:0:0:0:
448,192,51598,1,0,0:0:0:0:
192,192,51700,1,0,0:0:0:0:
64,192,51802,1,0,0:0:0:0:
320,192,51904,1,8,0:0:0:0:
448,192,51904,1,0,0:0:0:0:
64,192,52006,1,0,0:0:0:0:
320,192,52108,1,0,0:0:0:0:
192,192,52210,1,0,0:0:0:0:
64,192,52312,128,2,52414:0:0:0:0:
448,192,52312,1,0,0:0:0:0:
320,192,52414,1,0,0:0:0:0:
192,192,52516,1,0,0:0:0:0:
448,192,52619,1,0,0:0:0:0:
64,192,52721,1,8,0:0:0:0:
320,192,52721,128,0,52823:0:0:0:0:
448,192,52823,1,0,0:0:0:0:
192,192,52925,1,0,0:0:0:0:
64,192,53027,1,0,0:0:0:0:
192,192,53129,128,2,53231:0:0:0:0:
448,192,53129,1,0,0:0:0:0:
320,192,53231,1,0,0:0:0:0:
64,192,53333,1,0,0:0:0:0:
192,192,53435,1,0,0:0:0:0:
320,192,53537,1,8,0:0:0:0:
448,192,53537,128,0,53639:0:0:0:0:
192,192,53639,1,0,0:0:0:0:
64,192,53741,128,0,53843:0:0:0:0:
448,192,53741,1,0,0:0:0:0:
320,192,53843,1,0,0:0:0:0:
64,192,53945,1,2,0:0:0:0:
192,192,53945,1,0,0:0:0:0:
320,192,54047,1,0,0:0:0:0:
64,192,54149,1,0,0:0:0:0:
448,192,54149,128,0,54251:0:0:0:0:
192,192,54251,1,0,0:0:0:0:
320,192,54353,1,8,0:0:0:0:
448,192,54353,1,0,0:0:0:0:
64,192,54455,1,0,0:0:0:0:
320,192,54557,128,0,54659:0:0:0:0:
448,192,54557,1,0,0:0:0:0:
192,192,54659,1,0,0:0:0:0:
64,192,54761,128,2,54863:0:0:0:0:
320,192,54761,1,0,0:0:0:0:
192,192,54863,1,0,0:0:0:0:
320,192,54965,128,0,55067:0:0:0:30:Hat Open2.wav
448,192,54965,1,0,0:0:0:0:
64,192,55067,1,0,0:0:0:0:
192,192,55170,128,8,55272:0:0:0:0:
448,192,55170,1,0,0:0:0:0:
320,192,55272,1,0,0:0:0:0:
64,192,55374,128,0,55476:0:0:0:30:Hat Open2.wav
192,192,55374,1,0,0:0:0:0:
320,192,55476,1,0,0:0:0:0:
64,192,55578,1,2,0:0:0:0:
448,192,55578,128,0,55680:0:0:0:0:
192,192,55680,1,0,0:0:0:0:
320,192,55782,1,0,0:0:0:0:
64,192,55884,1,0,0:0:0:0:
320,192,55986,128,8,56088:0:0:0:0:
448,192,55986,1,0,0:0:0:0:
192,192,56088,1,0,0:0:0:0:
64,192,56190,1,0,0:0:0:0:
320,192,56292,1,0,0:0:0:0:
192,192,56394,128,2,56496:0:0:0:0:
448,192,56394,1,0,0:0:0:0:
64,192,56496,1,0,0:0:0:0:
192,192,56598,1,0,0:0:0:0:
448,192,56700,1,0,0:0:0:0:
64,192,56802,128,8,56904:0:0:0:0:
320,192,56802,1,0,0:0:0:0:
192,192,56904,1,0,0:0:0:0:
64,192,57006,1,0,0:0:0:0:
320,192,57006,128,0,57108:0:0:0:0:
192,192,57108,1,0,0:0:0:0:
320,192,57210,1,2,0:0:0:0:
448,192,57210,1,0,0:0:0:0:
64,192,57312,1,0,0:0:0:0:
192,192,57414,128,0,57516:0:0:0:0:
448,192,57414,1,0,0:0:0:0:
320,192,57516,1,0,0:0:0:0:
64,192,57619,1,8,0:0:0:0:
448,192,57619,1,0,0:0:0:0:
192,192,57721,1,0,0:0:0:0:
320,192,57823,1,0,0:0:0:0:
192,192,57925,1,0,0:0:0:0:
64,192,58027,1,2,0:0:0:0:
448,192,58027,1,0,0:0:0:0:
320,192,58129,1,0,0:0:0:0:
64,192,58231,1,0,0:0:0:0:
448,192,58333,1,0,0:0:0:0:
64,192,58435,1,8,0:0:0:0:
192,192,58435,1,0,0:0:0:0:
320,192,58537,1,0,0:0:0:0:
64,192,58639,1,0,0:0:0:0:
192,192,58741,1,0,0:0:0:0:
320,192,58843,128,2,58945:0:0:0:0:
448,192,58843,1,0,0:0:0:0:
64,192,58945,1,0,0:0:0:0:
192,192,59047,1,0,0:0:0:0:
448,192,59149,1,0,0:0:0:0:
192,192,59251,128,8,59353:0:0:0:0:
320,192,59251,1,0,0:0:0:0:
64,192,59353,1,0,0:0:0:0:
320,192,59455,1,0,0:0:0:0:
192,192,59557,1,0,0:0:0:0:
64,192,59659,128,2,59761:0:0:0:0:
448,192,59659,1,0,0:0:0:0:
320,192,59761,1,0,0:0:0:0:
64,192,59863,1,0,0:0:0:0:
192,192,59965,1,0,0:0:0:0:
64,192,60067,1,8,0:0:0:0:
320,192,60067,1,0,0:0:0:0:
448,192,60067,128,0,60170:0:0:0:0:
64,192,60272,128,8,60476:0:0:0:0:
192,192,60272,1,0,0:0:0:55:Hat Open2.wav
448,192,60272,128,0,60476:0:0:0:0:
448,192,60680,1,0,0:0:0:0:
192,192,60782,1,0,0:0:0:0:
448,192,60884,1,0,0:0:0:0:
320,192,61088,1,0,0:0:0:0:
448,192,61292,1,0,0:0:0:0:
448,192,61496,1,0,0:0:0:0:
320,192,61598,1,0,0:0:0:0:
192,192,61700,1,0,0:0:0:0:
192,192,61904,1,0,0:0:0:0:
64,192,62108,1,2,0:0:0:0:
320,192,62108,1,4,0:0:0:0:
448,192,62108,1,0,0:0:0:0:
192,192,62312,1,0,0:0:0:30:Hat Open2.wav
64,192,62516,1,2,0:0:0:0:
320,192,62516,128,0,62619:0:0:0:0:
448,192,62721,128,0,62823:0:0:0:30:Hat Open2.wav
64,192,62925,1,2,0:0:0:0:
320,192,63129,1,0,0:0:0:30:Hat Open2.wav
64,192,63333,1,2,0:0:0:0:
448,192,63333,128,0,63435:0:0:0:0:
320,192,63537,128,0,63639:0:0:0:30:Hat Open2.wav
64,192,63741,1,2,0:0:0:0:
192,192,63945,1,0,0:0:0:30:Hat Open2.wav
64,192,64149,1,2,0:0:0:0:
320,192,64149,128,0,64353:0:0:0:0:
448,192,64353,128,0,64557:0:0:0:30:Hat Open2.wav
64,192,64557,1,2,0:0:0:0:
192,192,64761,1,0,0:0:0:30:Hat Open2.wav
448,192,64761,128,0,64863:0:0:0:0:
320,192,64863,1,0,0:0:0:30:Hat Open2.wav
64,192,64965,1,2,0:0:0:0:
192,192,65170,128,0,65272:0:0:0:30:Hat Open2.wav
64,192,65374,1,2,0:0:0:0:
192,192,65578,1,0,0:0:0:30:Hat Open2.wav
64,192,65782,1,2,0:0:0:0:
320,192,65782,128,0,65884:0:0:0:0:
448,192,65884,128,0,65986:0:0:0:0:
192,192,65986,128,0,66088:0:0:0:30:Hat Open2.wav
64,192,66190,1,2,0:0:0:0:
192,192,66394,1,0,0:0:0:30:Hat Open2.wav
64,192,66598,1,2,0:0:0:0:
448,192,66598,128,0,66700:0:0:0:0:
320,192,66802,128,0,66904:0:0:0:30:Hat Open2.wav
64,192,67006,1,2,0:0:0:0:
320,192,67210,128,0,67312:0:0:0:30:Hat Open2.wav
64,192,67414,1,2,0:0:0:0:
448,192,67414,128,0,67516:0:0:0:0:
320,192,67619,1,0,0:0:0:30:Hat Open2.wav
64,192,67823,1,2,0:0:0:0:
320,192,68027,1,0,0:0:0:30:Hat Open2.wav
192,192,68129,1,0,0:0:0:0:
64,192,68231,1,2,0:0:0:0:
448,192,68231,128,0,68333:0:0:0:0:
320,192,68435,128,0,68537:0:0:0:30:Hat Open2.wav
64,192,68639,1,2,0:0:0:0:
448,192,68639,1,0,0:0:0:100:Hat Open.wav
320,192,68843,1,0,0:0:0:30:Hat Open2.wav
192,192,69047,128,2,69149:0:0:0:0:
448,192,69047,1,0,0:0:0:0:
64,192,69251,128,0,69353:0:0:0:30:Hat Open2.wav
448,192,69455,1,2,0:0:0:0:
192,192,69659,1,0,0:0:0:30:Hat Open2.wav
64,192,69863,128,2,69965:0:0:0:0:
448,192,69863,1,0,0:0:0:0:
192,192,70067,128,0,70272:0:0:0:30:Hat Open2.wav
448,192,70272,1,2,0:0:0:0:
320,192,70476,1,0,0:0:0:30:Hat Open2.wav
192,192,70680,128,2,70782:0:0:0:0:
448,192,70680,1,0,0:0:0:0:
64,192,70884,128,0,71088:0:0:0:30:Hat Open2.wav
448,192,71088,1,2,0:0:0:0:
192,192,71292,1,0,0:0:0:30:Hat Open2.wav
320,192,71394,1,0,0:0:0:0:
64,192,71496,128,2,71598:0:0:0:0:
448,192,71496,1,0,0:0:0:0:
320,192,71700,128,0,71904:0:0:0:30:Hat Open2.wav
448,192,71904,1,2,0:0:0:0:
320,192,72108,1,0,0:0:0:30:Hat Open2.wav
192,192,72312,128,2,72414:0:0:0:0:
448,192,72312,1,0,0:0:0:0:
64,192,72516,128,0,72721:0:0:0:30:Hat Open2.wav
448,192,72721,1,2,0:0:0:0:
320,192,72925,1,0,0:0:0:30:Hat Open2.wav
64,192,73129,128,2,73231:0:0:0:0:
192,192,73129,1,8,0:0:0:0:
448,192,73129,1,0,0:0:0:0:
64,192,73333,1,2,0:0:0:0:
192,192,73333,128,8,73537:0:0:0:0:
320,192,73333,1,0,0:0:0:50:Hat Open2.wav
64,192,73741,1,2,0:0:0:0:
192,192,73741,128,8,73945:0:0:0:0:
320,192,73741,1,0,0:0:0:50:Hat Open2.wav
448,192,73945,1,8,0:0:0:0:
320,192,74047,1,8,0:0:0:0:
64,192,74149,1,8,0:0:0:0:
192,192,74149,128,2,74353:0:0:0:0:
448,192,74149,1,0,0:0:0:50:Hat Open2.wav
192,192,74557,1,2,0:0:0:0:
320,192,74557,1,8,0:0:0:0:
448,192,74557,128,0,74965:0:0:0:0:
64,192,74761,128,2,74965:0:0:0:0:
192,192,74761,1,8,0:0:0:0:
320,192,74761,1,0,0:0:0:0:
64,192,75170,1,2,0:0:0:0:
192,192,75170,128,8,75272:0:0:0:0:
448,192,75170,1,4,0:0:0:0:
64,192,75374,1,8,0:0:0:0:
320,192,75374,128,2,75476:0:0:0:0:
448,192,75374,1,4,0:0:0:0:
448,192,75578,128,0,75680:0:0:0:0:
192,192,75782,128,0,75884:0:0:0:0:
448,192,75986,128,0,76088:0:0:0:0:
192,192,76190,128,0,76292:0:0:0:0:
320,192,76394,128,0,76496:0:0:0:0:
192,192,76598,128,0,76700:0:0:0:0:
64,192,76802,128,0,76904:0:0:0:0:
320,192,77006,128,0,77108:0:0:0:0:
64,192,77210,128,0,77312:0:0:0:0:
192,192,77414,128,0,77516:0:0:0:0:
320,192,77619,128,0,77721:0:0:0:0:
64,192,77823,1,2,0:0:0:0:
192,192,77823,1,8,0:0:0:0:
448,192,77823,1,0,0:0:0:0:
64,192,78027,1,8,0:0:0:0:
192,192,78027,1,2,0:0:0:0:
448,192,78027,1,0,0:0:0:0:
64,192,78231,1,2,0:0:0:0:
448,192,78231,1,8,0:0:0:0:
320,192,78333,1,0,0:0:0:0:
64,192,78435,128,2,78741:0:0:0:0:
192,192,78435,128,4,78537:0:0:0:0:
448,192,78435,1,8,0:0:0:0:
320,192,78639,1,0,0:0:0:30:Hat Open2.wav
64,192,78843,1,8,0:0:0:0:
192,192,78843,128,0,79149:0:0:0:0:
320,192,78843,128,0,78945:0:0:0:0:
448,192,79047,1,0,0:0:0:30:Hat Open2.wav
320,192,79251,128,2,79455:0:0:0:0:
448,192,79251,1,0,0:0:0:0:
192,192,79455,1,0,0:0:0:30:Hat Open2.wav
320,192,79557,1,0,0:0:0:0:
64,192,79659,1,8,0:0:0:0:
192,192,79659,1,0,0:0:0:0:
448,192,79659,128,0,79965:0:0:0:0:
320,192,79863,128,0,79965:0:0:0:30:Hat Open2.wav
192,192,80067,1,2,0:0:0:0:
448,192,80067,1,0,0:0:0:0:
64,192,80272,128,0,80476:0:0:0:30:Hat Open2.wav
320,192,80272,128,0,80374:0:0:0:0:
192,192,80476,128,8,80680:0:0:0:0:
320,192,80476,1,0,0:0:0:0:
448,192,80476,1,0,0:0:0:0:
64,192,80680,128,0,80782:0:0:0:30:Hat Open2.wav
320,192,80680,128,0,80884:0:0:0:0:
64,192,80884,1,2,0:0:0:0:
448,192,80884,1,0,0:0:0:0:
64,192,81088,1,8,0:0:0:0:
320,192,81088,1,0,0:0:0:30:Hat Open2.wav
448,192,81088,128,0,81190:0:0:0:0:
192,192,81292,1,8,0:0:0:0:
320,192,81292,1,0,0:0:0:0:
448,192,81292,128,0,81496:0:0:0:0:
64,192,81496,1,8,0:0:0:0:
192,192,81496,1,0,0:0:0:0:
320,192,81598,1,8,0:0:0:0:
64,192,81700,128,2,82006:0:0:0:0:
192,192,81700,128,4,81802:0:0:0:0:
448,192,81700,1,0,0:0:0:0:
320,192,81904,128,0,82006:0:0:0:30:Hat Open2.wav
64,192,82108,1,8,0:0:0:0:
192,192,82108,128,0,82414:0:0:0:0:
448,192,82108,128,0,82210:0:0:0:0:
64,192,82312,128,0,82414:0:0:0:30:Hat Open2.wav
192,192,82516,128,2,82619:0:0:0:0:
320,192,82516,128,0,82823:0:0:0:0:
192,192,82721,128,0,82823:0:0:0:30:Hat Open2.wav
64,192,82925,1,8,0:0:0:0:
320,192,82925,128,0,83027:0:0:0:0:
448,192,82925,128,0,83231:0:0:0:0:
320,192,83129,128,0,83231:0:0:0:30:Hat Open2.wav
64,192,83333,128,2,83537:0:0:0:0:
448,192,83333,1,0,0:0:0:0:
320,192,83537,1,0,0:0:0:30:Hat Open2.wav
64,192,83741,1,8,0:0:0:0:
192,192,83741,128,0,83945:0:0:0:0:
448,192,83741,1,0,0:0:0:0:
320,192,83945,1,0,0:0:0:30:Hat Open2.wav
64,192,84149,1,2,0:0:0:0:
320,192,84149,128,0,84353:0:0:0:0:
192,192,84353,1,0,0:0:0:30:Hat Open2.wav
64,192,84557,1,8,0:0:0:0:
320,192,84557,1,0,0:0:0:0:
448,192,84557,128,0,84863:0:0:0:0:
192,192,84761,128,0,84863:0:0:0:30:Hat Open2.wav
64,192,84965,1,2,0:0:0:0:
448,192,84965,1,0,0:0:0:0:
192,192,85170,1,0,0:0:0:30:Hat Open2.wav
320,192,85170,128,0,85272:0:0:0:0:
64,192,85374,1,8,0:0:0:0:
320,192,85374,1,0,0:0:0:0:
448,192,85374,128,0,85476:0:0:0:0:
192,192,85578,1,0,0:0:0:30:Hat Open2.wav
320,192,85782,1,2,0:0:0:0:
448,192,85782,128,0,85884:0:0:0:0:
64,192,85986,1,0,0:0:0:30:Hat Open2.wav
320,192,85986,128,0,86088:0:0:0:0:
64,192,86190,1,8,0:0:0:0:
192,192,86190,1,0,0:0:0:0:
448,192,86190,1,0,0:0:0:0:
320,192,86394,1,2,0:0:0:0:
448,192,86394,1,0,0:0:0:0:
192,192,86496,1,2,0:0:0:0:
64,192,86598,128,2,86700:0:0:0:0:
320,192,86598,1,0,0:0:0:70:Hat Open.wav
448,192,86598,1,0,0:0:0:0:
192,192,86802,1,0,0:0:0:0:
320,192,87006,128,0,87108:0:0:0:0:
448,192,87210,1,0,0:0:0:0:
320,192,87414,128,0,87516:0:0:0:0:
192,192,87619,128,0,87721:0:0:0:0:
448,192,87619,1,0,0:0:0:0:
448,192,87823,128,0,88129:0:0:0:0:
320,192,88027,128,0,88129:0:0:0:0:
64,192,88231,128,2,88537:0:0:0:0:
192,192,88231,128,4,88333:0:0:0:0:
448,192,88231,1,0,0:0:0:0:
320,192,88435,128,0,88537:0:0:0:30:Hat Open2.wav
64,192,88639,128,8,88741:0:0:0:0:
192,192,88639,128,0,88945:0:0:0:0:
448,192,88639,1,0,0:0:0:0:
320,192,88843,128,0,88945:0:0:0:30:Hat Open2.wav
192,192,89047,128,2,89149:0:0:0:0:
320,192,89047,128,0,89353:0:0:0:0:
64,192,89251,128,0,89353:0:0:0:30:Hat Open2.wav
64,192,89455,1,8,0:0:0:0:
320,192,89455,128,0,89557:0:0:0:0:
448,192,89455,128,0,89761:0:0:0:0:
192,192,89659,128,0,89761:0:0:0:30:Hat Open2.wav
64,192,89863,128,2,90170:0:0:0:0:
448,192,89863,128,0,89965:0:0:0:0:
192,192,90067,128,0,90170:0:0:0:30:Hat Open2.wav
192,192,90272,128,8,90578:0:0:0:0:
320,192,90272,1,0,0:0:0:0:
448,192,90272,128,0,90374:0:0:0:0:
64,192,90476,128,0,90578:0:0:0:30:Hat Open2.wav
192,192,90680,128,2,90782:0:0:0:0:
320,192,90680,128,0,90986:0:0:0:0:
448,192,90884,128,0,90986:0:0:0:30:Hat Open2.wav
64,192,91088,1,8,0:0:0:0:
192,192,91088,128,0,91190:0:0:0:0:
448,192,91088,128,0,91394:0:0:0:0:
320,192,91292,128,0,91394:0:0:0:30:Hat Open2.wav
64,192,91496,128,2,91700:0:0:0:0:
192,192,91496,1,0,0:0:0:0:
320,192,91700,1,0,0:0:0:30:Hat Open2.wav
64,192,91904,128,8,92210:0:0:0:0:
192,192,91904,128,0,92006:0:0:0:0:
448,192,91904,1,0,0:0:0:0:
320,192,92108,128,0,92210:0:0:0:30:Hat Open2.wav
64,192,92312,1,2,0:0:0:0:
192,192,92312,128,0,92516:0:0:0:0:
320,192,92516,1,0,0:0:0:30:Hat Open2.wav
64,192,92721,1,8,0:0:0:0:
192,192,92721,128,0,92823:0:0:0:0:
320,192,92721,128,0,93027:0:0:0:0:
192,192,92925,128,0,93027:0:0:0:30:Hat Open2.wav
192,192,93129,1,2,0:0:0:0:
448,192,93129,1,0,0:0:0:0:
320,192,93333,128,0,93435:0:0:0:30:Hat Open2.wav
64,192,93537,1,8,0:0:0:0:
192,192,93537,1,0,0:0:0:0:
448,192,93537,128,0,93639:0:0:0:0:
320,192,93741,128,0,93843:0:0:0:30:Hat Open2.wav
64,192,93945,1,2,0:0:0:0:
448,192,93945,1,0,0:0:0:0:
192,192,94149,1,8,0:0:0:0:
320,192,94149,1,0,0:0:0:30:Hat Open2.wav
448,192,94149,128,0,94251:0:0:0:0:
192,192,94353,1,8,0:0:0:0:
320,192,94353,1,0,0:0:0:0:
448,192,94353,128,0,94557:0:0:0:0:
64,192,94557,1,8,0:0:0:0:
320,192,94557,1,0,0:0:0:0:
448,192,94659,1,8,0:0:0:0:
64,192,94761,128,2,95067:0:0:0:0:
192,192,94761,128,4,94863:0:0:0:0:
320,192,94761,1,0,0:0:0:0:
320,192,94965,128,0,95067:0:0:0:30:Hat Open2.wav
64,192,95170,128,8,95272:0:0:0:0:
192,192,95170,128,0,95476:0:0:0:0:
448,192,95170,1,0,0:0:0:0:
448,192,95374,128,0,95476:0:0:0:30:Hat Open2.wav
192,192,95578,128,2,95680:0:0:0:0:
320,192,95578,128,0,95884:0:0:0:0:
64,192,95782,128,0,95884:0:0:0:30:Hat Open2.wav
64,192,95986,1,8,0:0:0:0:
320,192,95986,128,0,96088:0:0:0:0:
448,192,95986,128,0,96292:0:0:0:0:
192,192,96190,128,0,96292:0:0:0:30:Hat Open2.wav
64,192,96394,128,2,96700:0:0:0:0:
448,192,96394,128,0,96496:0:0:0:0:
192,192,96598,128,0,96700:0:0:0:30:Hat Open2.wav
192,192,96802,128,8,97108:0:0:0:0:
320,192,96802,128,0,96904:0:0:0:0:
448,192,96802,1,0,0:0:0:0:
64,192,97006,128,0,97108:0:0:0:30:Hat Open2.wav
192,192,97210,128,2,97312:0:0:0:0:
320,192,97210,128,0,97516:0:0:0:0:
448,192,97414,128,0,97516:0:0:0:30:Hat Open2.wav
64,192,97619,1,8,0:0:0:0:
192,192,97619,128,0,97721:0:0:0:0:
448,192,97619,128,0,97925:0:0:0:0:
320,192,97823,128,0,97925:0:0:0:30:Hat Open2.wav
64,192,98027,1,2,0:0:0:0:
448,192,98027,1,0,0:0:0:0:
192,192,98231,1,0,0:0:0:30:Hat Open2.wav
448,192,98231,128,0,98333:0:0:0:0:
64,192,98435,1,8,0:0:0:0:
320,192,98435,128,0,98537:0:0:0:0:
448,192,98435,1,0,0:0:0:0:
192,192,98639,1,0,0:0:0:30:Hat Open2.wav
64,192,98843,1,2,0:0:0:0:
320,192,98843,128,0,98945:0:0:0:0:
192,192,99047,1,0,0:0:0:30:Hat Open2.wav
448,192,99047,128,0,99149:0:0:0:0:
64,192,99251,1,8,0:0:0:0:
192,192,99251,1,0,0:0:0:0:
448,192,99251,1,0,0:0:0:0:
320,192,99455,1,2,0:0:0:0:
448,192,99455,1,0,0:0:0:30:Hat Open2.wav
192,192,99557,1,2,0:0:0:0:
64,192,99659,128,2,99965:0:0:0:0:
320,192,99659,1,4,0:0:0:0:
448,192,99659,1,0,0:0:0:0:
320,192,99863,1,2,0:0:0:0:
448,192,99863,128,0,100067:0:0:0:0:
64,192,100067,1,8,0:0:0:0:
192,192,100067,1,0,0:0:0:0:
320,192,100170,1,8,0:0:0:0:
64,192,100272,1,2,0:0:0:0:
192,192,100272,1,0,0:0:0:0:
448,192,100272,128,0,100578:0:0:0:0:
64,192,100476,128,2,100680:0:0:0:0:
192,192,100476,1,0,0:0:0:0:
320,192,100680,1,2,0:0:0:0:
448,192,100680,1,0,0:0:0:0:
64,192,100884,128,8,101190:0:0:0:0:
192,192,100884,128,0,101190:0:0:0:0:
448,192,100884,128,0,101190:0:0:0:0:
64,192,101292,128,2,101496:0:0:0:0:
320,192,101292,1,4,0:0:0:0:
448,192,101292,1,0,0:0:0:0:
192,192,101496,1,0,0:0:0:30:Hat Open2.wav
64,192,101700,1,8,0:0:0:70:
192,192,101700,128,0,101904:0:0:0:0:
448,192,101700,1,0,0:0:0:0:
320,192,101904,1,0,0:0:0:30:Hat Open2.wav
64,192,102108,1,2,0:0:0:0:
320,192,102108,128,0,102312:0:0:0:0:
192,192,102312,1,0,0:0:0:30:Hat Open2.wav
64,192,102516,1,8,0:0:0:70:
320,192,102516,1,0,0:0:0:0:
448,192,102516,128,0,102823:0:0:0:0:
320,192,102721,128,0,102823:0:0:0:30:Hat Open2.wav
192,192,102925,1,2,0:0:0:0:
448,192,102925,1,0,0:0:0:0:
64,192,103129,128,0,103333:0:0:0:30:Hat Open2.wav
320,192,103129,1,0,0:0:0:0:
192,192,103333,1,8,0:0:0:70:
320,192,103333,1,0,0:0:0:0:
448,192,103333,1,0,0:0:0:0:
192,192,103537,128,0,103741:0:0:0:30:Hat Open2.wav
320,192,103537,1,0,0:0:0:0:
64,192,103741,128,2,103843:0:0:0:0:
320,192,103741,128,0,104047:0:0:0:0:
448,192,103741,1,0,0:0:0:0:
64,192,103945,128,0,104047:0:0:0:30:Hat Open2.wav
64,192,104149,1,8,0:0:0:70:
192,192,104149,128,0,104251:0:0:0:0:
448,192,104149,128,0,104455:0:0:0:0:
192,192,104353,128,0,104455:0:0:0:30:Hat Open2.wav
64,192,104557,128,2,104761:0:0:0:0:
448,192,104557,1,0,0:0:0:0:
320,192,104761,1,0,0:0:0:30:Hat Open2.wav
64,192,104965,1,8,0:0:0:70:
192,192,104965,128,0,105170:0:0:0:0:
448,192,104965,1,0,0:0:0:0:
320,192,105170,1,0,0:0:0:30:Hat Open2.wav
64,192,105374,1,2,0:0:0:0:
320,192,105374,128,0,105578:0:0:0:0:
192,192,105578,1,0,0:0:0:30:Hat Open2.wav
64,192,105782,1,8,0:0:0:70:
320,192,105782,1,0,0:0:0:0:
448,192,105782,128,0,106088:0:0:0:0:
192,192,105986,128,0,106088:0:0:0:30:Hat Open2.wav
64,192,106190,1,2,0:0:0:0:
448,192,106190,1,0,0:0:0:0:
320,192,106394,128,0,106598:0:0:0:30:Hat Open2.wav
64,192,106598,128,8,106904:0:0:0:70:
192,192,106598,128,0,106700:0:0:0:0:
448,192,106598,1,0,0:0:0:0:
192,192,106802,128,0,106904:0:0:0:30:Hat Open2.wav
320,192,107006,128,2,107108:0:0:0:0:
448,192,107006,128,0,107312:0:0:0:0:
320,192,107210,128,0,107312:0:0:0:30:Hat Open2.wav
64,192,107414,1,8,0:0:0:70:
192,192,107414,1,0,0:0:0:0:
448,192,107414,1,0,0:0:0:0:
320,192,107619,1,8,0:0:0:0:
448,192,107619,1,0,0:0:0:0:
192,192,107721,1,8,0:0:0:0:
64,192,107823,1,2,0:0:0:0:
320,192,107823,1,0,0:0:0:0:
448,192,107823,1,0,0:0:0:0:
192,192,108027,1,2,0:0:0:0:
320,192,108027,1,0,0:0:0:0:
64,192,108231,1,8,0:0:0:0:
192,192,108231,128,4,108537:0:0:0:0:
448,192,108231,1,0,0:0:0:0:
64,192,108435,128,0,108537:0:0:0:30:Hat Open2.wav
320,192,108639,128,2,108945:0:0:0:0:
448,192,108639,1,0,0:0:0:0:
192,192,108843,128,0,108945:0:0:0:30:Hat Open2.wav
64,192,109047,1,8,0:0:0:0:
192,192,109047,1,0,0:0:0:0:
448,192,109047,128,0,109353:0:0:0:0:
320,192,109251,128,0,109353:0:0:0:30:Hat Open2.wav
64,192,109455,1,2,0:0:0:0:
448,192,109455,1,0,0:0:0:0:
192,192,109659,128,0,109863:0:0:0:30:Hat Open2.wav
320,192,109659,1,0,0:0:0:0:
64,192,109863,1,8,0:0:0:0:
320,192,109863,1,0,0:0:0:0:
448,192,109863,1,0,0:0:0:0:
192,192,110067,128,0,110272:0:0:0:30:Hat Open2.wav
64,192,110272,128,2,110374:0:0:0:0:
320,192,110272,128,0,110578:0:0:0:0:
192,192,110476,128,0,110578:0:0:0:30:Hat Open2.wav
64,192,110680,1,8,0:0:0:0:
192,192,110680,128,0,110782:0:0:0:0:
448,192,110680,128,0,110986:0:0:0:0:
320,192,110884,128,0,110986:0:0:0:30:Hat Open2.wav
64,192,111088,128,2,111292:0:0:0:0:
448,192,111088,1,0,0:0:0:0:
320,192,111292,1,0,0:0:0:30:Hat Open2.wav
64,192,111496,1,8,0:0:0:0:
192,192,111496,128,0,111700:0:0:0:0:
448,192,111496,1,0,0:0:0:0:
320,192,111700,1,0,0:0:0:30:Hat Open2.wav
64,192,111904,1,2,0:0:0:0:
320,192,111904,128,0,112108:0:0:0:0:
192,192,112108,1,0,0:0:0:30:Hat Open2.wav
64,192,112312,1,8,0:0:0:0:
320,192,112312,1,0,0:0:0:0:
448,192,112312,128,0,112516:0:0:0:0:
64,192,112516,1,2,0:0:0:0:
192,192,112516,1,0,0:0:0:0:
320,192,112619,1,2,0:0:0:0:
64,192,112721,1,2,0:0:0:0:
192,192,112721,1,0,0:0:0:25:soft-hitfinish.wav
448,192,112721,1,0,0:0:0:0:
192,192,112925,1,0,0:0:0:0:
64,192,113027,1,0,0:0:0:0:
192,192,113129,1,0,0:0:0:0:
320,192,113333,1,0,0:0:0:0:
448,192,113435,1,0,0:0:0:0:
320,192,113537,1,0,0:0:0:0:
192,192,113741,1,0,0:0:0:0:
192,192,113945,1,0,0:0:0:50:tom3.wav
448,192,113945,1,0,0:0:0:0:
64,192,114353,1,2,0:0:0:0:
192,192,114353,1,4,0:0:0:0:
448,192,114353,1,0,0:0:0:0:
320,192,114557,1,0,0:0:0:0:
448,192,114761,1,0,0:0:0:0:
192,192,114965,1,0,0:0:0:0:
448,192,115170,1,0,0:0:0:0:
320,192,115374,1,0,0:0:0:0:
192,192,115578,1,0,0:0:0:0:
320,192,115782,1,0,0:0:0:0:
448,192,115986,1,0,0:0:0:0:
192,192,116190,1,0,0:0:0:0:
448,192,116394,1,0,0:0:0:0:
320,192,116598,1,0,0:0:0:0:
192,192,116802,1,0,0:0:0:0:
448,192,117006,1,0,0:0:0:0:
64,192,117210,1,8,0:0:0:0:
192,192,117210,1,0,0:0:0:0:
320,192,117414,1,2,0:0:0:0:
64,192,117619,1,2,0:0:0:0:
192,192,117619,128,4,117823:0:0:0:0:
448,192,117619,1,0,0:0:0:0:
320,192,117823,1,0,0:0:0:0:
64,192,118027,128,8,118231:0:0:0:0:
448,192,118027,1,0,0:0:0:0:
320,192,118231,1,0,0:0:0:0:
64,192,118435,128,2,118537:0:0:0:0:
448,192,118435,1,0,0:0:0:0:
192,192,118639,128,0,118741:0:0:0:0:
320,192,118639,1,0,0:0:0:0:
64,192,118843,1,8,0:0:0:0:
448,192,118843,1,0,0:0:0:0:
192,192,119047,128,0,119149:0:0:0:50:tom4.wav
448,192,119047,1,0,0:0:0:0:
320,192,119149,1,0,0:0:0:50:tom4.wav
64,192,119251,128,2,119353:0:0:0:0:
448,192,119251,1,0,0:0:0:0:
192,192,119455,128,0,119557:0:0:0:50:tom4.wav
320,192,119455,1,0,0:0:0:0:
64,192,119659,1,8,0:0:0:0:
448,192,119659,1,0,0:0:0:0:
192,192,119863,1,0,0:0:0:50:tom3.wav
320,192,119863,128,0,119965:0:0:0:0:
192,192,120067,128,2,120170:0:0:0:0:
448,192,120067,1,0,0:0:0:0:
64,192,120272,128,0,120374:0:0:0:50:tom3.wav
320,192,120272,1,0,0:0:0:0:
64,192,120476,1,8,0:0:0:0:
448,192,120476,1,0,0:0:0:0:
320,192,120680,1,0,0:0:0:50:tom3.wav
64,192,120884,1,2,0:0:0:0:
320,192,120884,1,4,0:0:0:0:
448,192,120884,128,0,120986:0:0:0:0:
192,192,121088,1,0,0:0:0:0:
320,192,121088,128,0,121190:0:0:0:0:
64,192,121292,1,8,0:0:0:0:
192,192,121292,128,0,121394:0:0:0:0:
192,192,121496,1,0,0:0:0:0:
320,192,121496,128,0,121598:0:0:0:0:
64,192,121700,1,2,0:0:0:0:
448,192,121700,128,0,121802:0:0:0:0:
320,192,121904,1,0,0:0:0:0:
64,192,122108,1,8,0:0:0:0:
448,192,122108,1,0,0:0:0:0:
192,192,122312,1,0,0:0:0:50:tom4.wav
320,192,122414,1,0,0:0:0:50:tom4.wav
64,192,122516,1,2,0:0:0:0:
192,192,122516,1,0,0:0:0:0:
448,192,122721,1,0,0:0:0:50:tom4.wav
64,192,122925,1,8,0:0:0:0:
320,192,122925,1,0,0:0:0:0:
192,192,123129,128,0,123231:0:0:0:50:tom3.wav
448,192,123129,1,0,0:0:0:0:
64,192,123333,1,2,0:0:0:0:
320,192,123333,128,0,123435:0:0:0:0:
192,192,123537,1,0,0:0:0:50:tom3.wav
448,192,123537,128,0,123639:0:0:0:0:
64,192,123741,1,8,0:0:0:0:
320,192,123741,128,0,123843:0:0:0:0:
192,192,123945,128,0,124047:0:0:0:50:tom3.wav
448,192,123945,1,0,0:0:0:0:
64,192,124149,1,2,0:0:0:0:
448,192,124149,128,0,124353:0:0:0:0:
192,192,124353,1,0,0:0:0:0:
64,192,124557,1,8,0:0:0:0:
320,192,124557,128,0,124761:0:0:0:0:
448,192,124761,1,0,0:0:0:0:
64,192,124965,1,2,0:0:0:0:
320,192,124965,128,0,125067:0:0:0:0:
192,192,125170,1,0,0:0:0:0:
448,192,125170,128,0,125272:0:0:0:0:
64,192,125374,1,8,0:0:0:0:
320,192,125374,128,0,125476:0:0:0:30:Hat Open2.wav
448,192,125374,1,0,0:0:0:0:
64,192,125578,1,8,0:0:0:0:
320,192,125578,128,0,125782:0:0:0:30:Hat Open2.wav
448,192,125578,1,0,0:0:0:0:
192,192,125986,1,0,0:0:0:30:Hat Open2.wav
448,192,125986,1,0,0:0:0:0:
320,192,126088,1,8,0:0:0:0:
64,192,126190,1,8,0:0:0:0:
192,192,126190,1,0,0:0:0:0:
448,192,126190,1,0,0:0:0:0:
192,192,126394,1,2,0:0:0:0:
320,192,126394,1,0,0:0:0:0:
64,192,126598,1,8,0:0:0:0:
320,192,126598,1,0,0:0:0:30:Hat Open2.wav
448,192,126598,1,0,0:0:0:0:
64,192,126802,1,8,0:0:0:0:
320,192,126802,1,0,0:0:0:30:Hat Open2.wav
448,192,126802,1,0,0:0:0:0:
320,192,127006,128,2,127108:0:0:0:0:
448,192,127006,1,0,0:0:0:0:
192,192,127210,128,2,127312:0:0:0:0:
320,192,127210,1,0,0:0:0:0:
64,192,127414,1,2,0:0:0:0:
192,192,127414,1,0,0:0:0:40:Hat Open2.wav
448,192,127414,1,0,0:0:0:70:ride02.wav
320,192,127619,1,0,0:0:0:0:
192,192,127823,128,2,127925:0:0:0:0:
448,192,127823,1,0,0:0:0:0:
64,192,128027,1,0,0:0:0:0:
320,192,128027,128,0,128129:0:0:0:0:
448,192,128231,1,2,0:0:0:0:
192,192,128435,1,0,0:0:0:0:
320,192,128639,128,2,128741:0:0:0:0:
448,192,128639,1,8,0:0:0:0:
64,192,128843,1,0,0:0:0:0:
192,192,128843,128,0,128945:0:0:0:0:
320,192,128945,1,0,0:0:0:0:
448,192,129047,1,2,0:0:0:0:
320,192,129251,1,0,0:0:0:0:
192,192,129455,128,2,129557:0:0:0:0:
448,192,129455,1,0,0:0:0:0:
192,192,129659,128,0,129863:0:0:0:0:
320,192,129659,1,0,0:0:0:0:
448,192,129863,1,2,0:0:0:0:
64,192,130067,128,0,130272:0:0:0:0:
320,192,130067,1,0,0:0:0:0:
448,192,130272,1,2,0:0:0:0:
192,192,130476,1,8,0:0:0:0:
320,192,130476,128,0,130578:0:0:0:50:Hat Open2.wav
448,192,130680,1,2,0:0:0:0:
320,192,130884,1,0,0:0:0:0:
448,192,131088,1,2,0:0:0:0:
192,192,131292,1,0,0:0:0:0:
448,192,131496,1,2,0:0:0:0:
320,192,131700,1,0,0:0:0:0:
64,192,131904,1,2,0:0:0:0:
448,192,131904,1,8,0:0:0:0:
320,192,132108,1,0,0:0:0:0:
64,192,132210,1,0,0:0:0:0:
448,192,132312,1,2,0:0:0:0:
320,192,132516,1,0,0:0:0:0:
448,192,132721,1,2,0:0:0:0:
192,192,132925,1,0,0:0:0:0:
448,192,133129,1,2,0:0:0:0:
320,192,133333,1,0,0:0:0:50:Hat Open2.wav
64,192,133537,128,2,133639:0:0:0:0:
448,192,133537,1,8,0:0:0:0:
192,192,133741,128,0,133843:0:0:0:0:
320,192,133741,1,0,0:0:0:0:
64,192,133945,1,2,0:0:0:0:
448,192,133945,1,0,0:0:0:70:Hat Open.wav
192,192,134149,1,2,0:0:0:0:
64,192,134353,1,2,0:0:0:0:
320,192,134353,128,0,134455:0:0:0:0:
192,192,134557,128,0,134659:0:0:0:0:
448,192,134557,1,0,0:0:0:0:
64,192,134761,1,2,0:0:0:0:
320,192,134965,1,0,0:0:0:0:
64,192,135170,1,2,0:0:0:0:
192,192,135170,128,8,135272:0:0:0:0:
320,192,135374,128,0,135578:0:0:0:0:
448,192,135374,1,0,0:0:0:0:
64,192,135578,1,2,0:0:0:0:
192,192,135782,1,0,0:0:0:0:
64,192,135986,1,2,0:0:0:0:
320,192,135986,128,0,136088:0:0:0:0:
192,192,136190,1,0,0:0:0:0:
448,192,136190,128,0,136394:0:0:0:0:
64,192,136394,1,2,0:0:0:0:
320,192,136598,128,0,136700:0:0:0:0:
64,192,136802,1,2,0:0:0:0:
448,192,136802,128,0,136904:0:0:0:0:
192,192,137006,128,8,137210:0:0:0:0:
320,192,137006,1,0,0:0:0:0:
64,192,137210,1,2,0:0:0:0:
192,192,137414,1,0,0:0:0:0:
64,192,137619,1,2,0:0:0:0:
320,192,137823,1,0,0:0:0:0:
64,192,138027,1,2,0:0:0:0:
192,192,138231,1,0,0:0:0:0:
64,192,138435,1,2,0:0:0:0:
448,192,138435,1,8,0:0:0:0:
320,192,138639,1,0,0:0:0:0:
64,192,138843,1,2,0:0:0:0:
192,192,139047,128,0,139251:0:0:0:30:Hat Open2.wav
64,192,139251,1,2,0:0:0:0:
320,192,139455,128,0,139659:0:0:0:30:Hat Open2.wav
64,192,139659,1,2,0:0:0:0:
192,192,139659,1,0,0:0:0:0:
192,192,139863,1,2,0:0:0:0:
320,192,139863,1,0,0:0:0:0:
64,192,140067,1,8,0:0:0:0:
448,192,140067,128,2,140272:0:0:0:0:
192,192,140272,1,0,0:0:0:0:
320,192,140374,1,0,0:0:0:0:
64,192,140476,128,2,140680:0:0:0:0:
192,192,140476,1,4,0:0:0:0:
448,192,140476,1,0,0:0:0:0:
320,192,140680,1,0,0:0:0:30:Hat Open2.wav
64,192,140884,1,8,0:0:0:0:
320,192,140884,128,0,141088:0:0:0:0:
448,192,140884,1,0,0:0:0:0:
64,192,141088,128,0,141292:0:0:0:30:Hat Open2.wav
192,192,141088,1,0,0:0:0:0:
320,192,141292,1,2,0:0:0:0:
448,192,141292,128,0,141394:0:0:0:0:
192,192,141496,1,0,0:0:0:30:Hat Open2.wav
64,192,141700,1,8,0:0:0:0:
192,192,141700,128,0,141904:0:0:0:0:
448,192,141700,1,0,0:0:0:0:
320,192,141904,1,0,0:0:0:30:Hat Open2.wav
448,192,141904,128,0,142108:0:0:0:0:
64,192,142108,1,2,0:0:0:0:
192,192,142108,1,0,0:0:0:0:
320,192,142312,1,0,0:0:0:30:Hat Open2.wav
64,192,142516,1,8,0:0:0:0:
192,192,142516,128,0,142721:0:0:0:0:
448,192,142516,1,0,0:0:0:0:
64,192,142721,128,0,142925:0:0:0:30:Hat Open2.wav
320,192,142721,1,0,0:0:0:0:
192,192,142925,1,2,0:0:0:0:
448,192,142925,1,0,0:0:0:0:
64,192,143129,1,0,0:0:0:30:Hat Open2.wav
320,192,143129,128,0,143333:0:0:0:0:
64,192,143333,1,8,0:0:0:0:
192,192,143333,1,0,0:0:0:0:
448,192,143333,1,0,0:0:0:0:
320,192,143537,1,0,0:0:0:30:Hat Open2.wav
448,192,143537,128,0,143639:0:0:0:0:
192,192,143639,1,0,0:0:0:0:
64,192,143741,128,2,143945:0:0:0:0:
448,192,143741,1,0,0:0:0:0:
192,192,143945,1,0,0:0:0:30:Hat Open2.wav
64,192,144149,1,8,0:0:0:0:
320,192,144149,128,0,144353:0:0:0:0:
448,192,144149,1,0,0:0:0:0:
192,192,144251,1,0,0:0:0:0:
64,192,144353,1,0,0:0:0:30:Hat Open2.wav
192,192,144557,1,2,0:0:0:0:
448,192,144557,128,0,144761:0:0:0:0:
320,192,144761,1,0,0:0:0:30:Hat Open2.wav
64,192,144965,1,8,0:0:0:0:
320,192,144965,128,0,145170:0:0:0:0:
448,192,144965,1,0,0:0:0:0:
64,192,145170,128,0,145374:0:0:0:30:Hat Open2.wav
192,192,145170,1,0,0:0:0:0:
320,192,145374,1,2,0:0:0:0:
448,192,145374,1,0,0:0:0:0:
64,192,145578,1,0,0:0:0:30:Hat Open2.wav
192,192,145578,128,0,145782:0:0:0:0:
64,192,145782,1,8,0:0:0:0:
320,192,145782,128,0,145986:0:0:0:0:
448,192,145782,1,0,0:0:0:0:
192,192,145986,1,0,0:0:0:30:Hat Open2.wav
320,192,146190,1,2,0:0:0:0:
448,192,146190,1,0,0:0:0:0:
192,192,146394,1,0,0:0:0:30:Hat Open2.wav
448,192,146394,1,0,0:0:0:0:
64,192,146496,1,0,0:0:0:0:
192,192,146598,1,8,0:0:0:0:
320,192,146598,1,0,0:0:0:0:
448,192,146598,1,0,0:0:0:0:
192,192,146802,1,0,0:0:0:30:Hat Open2.wav
320,192,146904,1,0,0:0:0:0:
64,192,147006,1,2,0:0:0:0:
192,192,147006,1,4,0:0:0:0:
448,192,147006,1,0,0:0:0:0:
320,192,147210,128,0,147414:0:0:0:30:Hat Open2.wav
64,192,147414,128,8,147516:0:0:0:0:
192,192,147414,1,0,0:0:0:0:
448,192,147414,128,0,147619:0:0:0:0:
64,192,147619,128,0,147823:0:0:0:30:Hat Open2.wav
320,192,147619,128,0,147721:0:0:0:0:
192,192,147823,1,2,0:0:0:0:
448,192,147823,1,0,0:0:0:0:
64,192,148027,1,0,0:0:0:30:Hat Open2.wav
192,192,148231,128,8,148435:0:0:0:0:
320,192,148231,128,0,148333:0:0:0:0:
448,192,148231,1,0,0:0:0:0:
64,192,148435,128,0,148537:0:0:0:30:Hat Open2.wav
448,192,148435,128,0,148639:0:0:0:0:
64,192,148639,1,2,0:0:0:0:
192,192,148639,1,0,0:0:0:0:
448,192,148843,1,0,0:0:0:30:Hat Open2.wav
64,192,149047,1,8,0:0:0:0:
192,192,149047,128,0,149149:0:0:0:0:
320,192,149047,128,0,149251:0:0:0:0:
64,192,149251,128,0,149455:0:0:0:30:Hat Open2.wav
448,192,149251,128,0,149353:0:0:0:0:
192,192,149455,1,2,0:0:0:0:
448,192,149455,1,0,0:0:0:0:
320,192,149659,1,0,0:0:0:30:Hat Open2.wav
64,192,149863,128,8,150067:0:0:0:0:
320,192,149863,128,0,149965:0:0:0:0:
448,192,149863,1,0,0:0:0:0:
192,192,150067,128,0,150170:0:0:0:30:Hat Open2.wav
448,192,150067,128,0,150272:0:0:0:0:
320,192,150170,1,0,0:0:0:0:
64,192,150272,1,2,0:0:0:0:
192,192,150272,1,0,0:0:0:0:
448,192,150476,1,0,0:0:0:30:Hat Open2.wav
64,192,150680,128,8,150782:0:0:0:0:
320,192,150680,128,0,150884:0:0:0:0:
448,192,150680,1,0,0:0:0:0:
192,192,150884,128,0,150986:0:0:0:30:Hat Open2.wav
448,192,150884,128,0,151088:0:0:0:0:
64,192,151088,1,2,0:0:0:0:
320,192,151088,1,0,0:0:0:0:
192,192,151292,1,0,0:0:0:30:Hat Open2.wav
192,192,151496,128,8,151700:0:0:0:0:
448,192,151496,128,2,151598:0:0:0:0:
64,192,151700,1,2,0:0:0:0:
320,192,151700,128,0,151904:0:0:0:50:Hat Open2.wav
448,192,151700,1,0,0:0:0:0:
192,192,152108,1,2,0:0:0:0:
320,192,152108,128,0,152312:0:0:0:60:Hat Open2.wav
448,192,152108,1,0,0:0:0:0:
64,192,152312,1,8,0:0:0:0:
192,192,152312,1,0,0:0:0:0:
448,192,152414,1,8,0:0:0:0:
64,192,152516,1,2,0:0:0:0:
192,192,152516,1,0,0:0:0:70:Hat Open2.wav
320,192,152516,128,0,152721:0:0:0:0:
448,192,152721,1,2,0:0:0:0:
64,192,152925,1,8,0:0:0:0:
320,192,152925,1,0,0:0:0:0:
448,192,152925,1,0,0:0:0:0:
64,192,153129,1,8,0:0:0:0:
192,192,153129,1,0,0:0:0:0:
320,192,153129,1,0,0:0:0:0:
192,192,153333,1,8,0:0:0:0:
320,192,153333,1,0,0:0:0:0:
448,192,153333,1,0,0:0:0:0:
64,192,153537,1,2,0:0:0:0:
192,192,153537,128,4,153843:0:0:0:0:
448,192,153537,128,0,153639:0:0:0:0:
320,192,153741,128,0,153843:0:0:0:30:Hat Open2.wav
192,192,153945,128,8,154047:0:0:0:0:
320,192,153945,128,0,154251:0:0:0:0:
448,192,153945,1,0,0:0:0:0:
448,192,154149,128,0,154251:0:0:0:30:Hat Open2.wav
320,192,154353,128,2,154659:0:0:0:0:
448,192,154353,128,0,154455:0:0:0:0:
192,192,154557,128,0,154659:0:0:0:30:Hat Open2.wav
192,192,154761,128,8,155067:0:0:0:0:
320,192,154761,128,0,154863:0:0:0:0:
448,192,154761,1,0,0:0:0:0:
64,192,154965,128,0,155067:0:0:0:30:Hat Open2.wav
448,192,154965,128,0,155067:0:0:0:0:
64,192,155170,1,2,0:0:0:0:
320,192,155170,128,0,155272:0:0:0:0:
192,192,155374,128,0,155476:0:0:0:30:Hat Open2.wav
320,192,155374,128,0,155578:0:0:0:0:
64,192,155578,1,8,0:0:0:0:
448,192,155578,128,0,155680:0:0:0:0:
192,192,155782,128,0,155986:0:0:0:30:Hat Open2.wav
320,192,155782,128,0,155884:0:0:0:0:
64,192,155986,1,2,0:0:0:0:
448,192,155986,128,0,156190:0:0:0:0:
192,192,156190,128,0,156394:0:0:0:30:Hat Open2.wav
64,192,156394,1,8,0:0:0:0:
320,192,156394,128,0,156496:0:0:0:0:
448,192,156394,1,0,0:0:0:0:
448,192,156598,128,0,156700:0:0:0:30:Hat Open2.wav
64,192,156802,128,2,157006:0:0:0:0:
192,192,156802,128,0,156904:0:0:0:0:
320,192,157006,128,0,157108:0:0:0:30:Hat Open2.wav
64,192,157210,128,8,157721:0:0:0:0:
192,192,157210,1,0,0:0:0:0:
448,192,157210,128,0,157312:0:0:0:0:
320,192,157414,128,0,157516:0:0:0:30:Hat Open2.wav
192,192,157619,128,2,157721:0:0:0:0:
448,192,157619,128,0,157721:0:0:0:0:
320,192,157823,1,0,0:0:0:30:Hat Open2.wav
64,192,158027,1,8,0:0:0:0:
192,192,158027,128,0,158333:0:0:0:0:
448,192,158027,128,0,158129:0:0:0:0:
320,192,158231,128,0,158333:0:0:0:30:Hat Open2.wav
448,192,158231,128,0,158333:0:0:0:0:
64,192,158435,1,2,0:0:0:0:
192,192,158435,1,0,0:0:0:0:
192,192,158639,128,0,158741:0:0:0:30:Hat Open2.wav
320,192,158639,128,0,158843:0:0:0:0:
64,192,158843,128,8,159149:0:0:0:0:
192,192,158843,1,0,0:0:0:0:
448,192,158843,128,0,158945:0:0:0:0:
192,192,159047,128,0,159149:0:0:0:30:Hat Open2.wav
448,192,159047,128,0,159149:0:0:0:0:
64,192,159251,1,2,0:0:0:0:
320,192,159251,1,0,0:0:0:0:
192,192,159455,128,8,159761:0:0:0:0:
320,192,159455,128,0,159557:0:0:0:30:Hat Open2.wav
448,192,159455,128,0,159557:0:0:0:0:
64,192,159659,128,8,159761:0:0:0:0:
448,192,159659,128,0,159761:0:0:0:0:
320,192,159863,1,8,0:0:0:0:
448,192,159863,1,0,0:0:0:0:
192,192,159965,1,8,0:0:0:0:
64,192,160067,128,2,160374:0:0:0:0:
320,192,160067,128,4,160170:0:0:0:0:
448,192,160067,1,0,0:0:0:0:
192,192,160272,128,0,160374:0:0:0:30:Hat Open2.wav
192,192,160476,128,8,160782:0:0:0:0:
320,192,160476,128,0,160578:0:0:0:0:
448,192,160476,1,0,0:0:0:0:
64,192,160680,128,0,160782:0:0:0:30:Hat Open2.wav
64,192,160884,128,2,161190:0:0:0:0:
192,192,160884,128,0,160986:0:0:0:0:
320,192,161088,128,0,161190:0:0:0:30:Hat Open2.wav
64,192,161292,128,8,161394:0:0:0:0:
192,192,161292,128,0,161598:0:0:0:0:
448,192,161292,1,0,0:0:0:0:
320,192,161496,128,0,161598:0:0:0:30:Hat Open2.wav
64,192,161700,128,2,162006:0:0:0:0:
192,192,161700,128,0,161802:0:0:0:0:
320,192,161904,128,0,162006:0:0:0:30:Hat Open2.wav
64,192,162108,128,8,162210:0:0:0:0:
192,192,162108,128,0,162414:0:0:0:0:
448,192,162108,1,0,0:0:0:0:
320,192,162312,128,0,162414:0:0:0:30:Hat Open2.wav
192,192,162516,128,2,162619:0:0:0:0:
320,192,162516,128,0,162823:0:0:0:0:
64,192,162721,128,0,162823:0:0:0:30:Hat Open2.wav
64,192,162925,1,8,0:0:0:0:
192,192,162925,128,0,163027:0:0:0:0:
448,192,162925,128,0,163231:0:0:0:0:
320,192,163129,128,0,163231:0:0:0:30:Hat Open2.wav
192,192,163333,1,2,0:0:0:0:
448,192,163333,1,0,0:0:0:0:
64,192,163537,128,0,163639:0:0:0:30:Hat Open2.wav
320,192,163537,1,0,0:0:0:0:
64,192,163741,1,8,0:0:0:0:
192,192,163741,1,0,0:0:0:0:
448,192,163741,128,0,163843:0:0:0:0:
320,192,163945,1,0,0:0:0:30:Hat Open2.wav
192,192,164149,1,2,0:0:0:0:
448,192,164149,128,0,164251:0:0:0:0:
64,192,164353,128,0,164455:0:0:0:30:Hat Open2.wav
320,192,164353,1,0,0:0:0:0:
64,192,164557,1,8,0:0:0:0:
192,192,164557,1,0,0:0:0:0:
448,192,164557,1,0,0:0:0:0:
320,192,164761,1,2,0:0:0:0:
448,192,164761,1,0,0:0:0:30:Hat Open2.wav
64,192,164863,1,2,0:0:0:0:
192,192,164965,1,2,0:0:0:0:
320,192,164965,1,0,0:0:0:100:Hat Open.wav
448,192,164965,128,0,165170:0:0:0:0:
64,192,165170,128,2,165374:0:0:0:0:
192,192,165170,1,0,0:0:0:0:
320,192,165170,1,0,0:0:0:0:
320,192,165374,1,8,0:0:0:0:
448,192,165374,1,0,0:0:0:0:
192,192,165476,1,8,0:0:0:40:soft-hitclap.wav
64,192,165578,128,2,165782:0:0:0:0:
320,192,165578,1,0,0:0:0:0:
448,192,165578,1,0,0:0:0:0:
192,192,165782,1,2,0:0:0:0:
320,192,165782,1,0,0:0:0:0:
448,192,165782,128,0,165986:0:0:0:0:
64,192,165986,1,8,0:0:0:0:
192,192,165986,1,0,0:0:0:0:
320,192,166190,1,2,0:0:0:0:
448,192,166190,1,0,0:0:0:100:Hat Open.wav
192,192,166394,1,2,0:0:0:0:
320,192,166394,1,0,0:0:0:0:
64,192,166598,1,2,0:0:0:0:
192,192,166598,128,0,166700:0:0:0:0:
448,192,166598,1,0,0:0:0:0:
64,192,166802,128,2,166904:0:0:0:0:
448,192,166802,1,0,0:0:0:0:
64,192,167006,1,4,0:0:0:0:
320,192,167006,128,8,167108:0:0:0:0:
448,192,167006,1,2,0:0:0:0:
192,192,167210,1,0,0:0:0:30:Hat Open2.wav
448,192,167210,128,0,167312:0:0:0:0:
192,192,167414,128,2,167516:0:0:0:0:
448,192,167414,1,0,0:0:0:0:
320,192,167619,1,0,0:0:0:30:Hat Open2.wav
64,192,167823,1,8,0:0:0:0:
320,192,167823,128,0,167925:0:0:0:0:
448,192,167823,1,0,0:0:0:0:
192,192,168027,1,0,0:0:0:30:Hat Open2.wav
448,192,168027,128,0,168129:0:0:0:0:
192,192,168231,128,2,168333:0:0:0:0:
448,192,168231,1,0,0:0:0:0:
320,192,168435,1,0,0:0:0:30:Hat Open2.wav
64,192,168639,1,8,0:0:0:0:
192,192,168639,1,0,0:0:0:0:
320,192,168639,128,0,168741:0:0:0:0:
320,192,168843,1,0,0:0:0:30:Hat Open2.wav
448,192,168843,128,0,168945:0:0:0:0:
64,192,169047,1,2,0:0:0:0:
320,192,169047,128,0,169149:0:0:0:0:
192,192,169251,1,0,0:0:0:30:Hat Open2.wav
64,192,169455,1,8,0:0:0:0:
320,192,169455,128,0,169557:0:0:0:0:
448,192,169455,1,0,0:0:0:0:
448,192,169659,128,0,169761:0:0:0:30:Hat Open2.wav
64,192,169863,1,2,0:0:0:0:
448,192,169863,1,0,0:0:0:0:
192,192,170067,128,0,170170:0:0:0:30:Hat Open2.wav
320,192,170067,1,0,0:0:0:0:
192,192,170272,128,8,170578:0:0:0:0:
320,192,170272,1,0,0:0:0:0:
448,192,170272,1,0,0:0:0:0:
64,192,170476,128,0,170578:0:0:0:30:Hat Open2.wav
64,192,170680,128,2,170884:0:0:0:0:
448,192,170680,1,0,0:0:0:0:
320,192,170884,1,0,0:0:0:30:Hat Open2.wav
64,192,171088,1,8,0:0:0:0:
192,192,171088,1,0,0:0:0:0:
448,192,171088,128,0,171394:0:0:0:0:
320,192,171292,128,0,171394:0:0:0:30:Hat Open2.wav
192,192,171496,1,2,0:0:0:0:
448,192,171496,1,0,0:0:0:0:
64,192,171700,128,0,171904:0:0:0:30:Hat Open2.wav
320,192,171700,1,0,0:0:0:0:
192,192,171904,128,8,172210:0:0:0:0:
320,192,171904,1,0,0:0:0:0:
448,192,171904,1,0,0:0:0:0:
64,192,172108,128,0,172210:0:0:0:30:Hat Open2.wav
64,192,172312,1,2,0:0:0:0:
192,192,172312,1,0,0:0:0:0:
64,192,172516,1,8,0:0:0:0:
320,192,172516,1,0,0:0:0:30:Hat Open2.wav
448,192,172516,128,0,172619:0:0:0:0:
64,192,172721,1,8,0:0:0:0:
320,192,172721,1,0,0:0:0:0:
448,192,172721,128,0,173027:0:0:0:0:
64,192,172925,1,2,0:0:0:0:
192,192,172925,1,0,0:0:0:0:
64,192,173129,1,2,0:0:0:0:
448,192,173129,1,0,0:0:0:0:
320,192,173231,1,2,0:0:0:40:tom3.wav
64,192,173333,1,2,0:0:0:40:tom3.wav
448,192,173333,1,0,0:0:0:0:
192,192,173537,128,8,173843:0:0:0:0:
320,192,173537,128,4,173639:0:0:0:0:
448,192,173537,1,0,0:0:0:0:
64,192,173741,128,0,173843:0:0:0:30:Hat Open2.wav
192,192,173945,128,2,174047:0:0:0:0:
320,192,173945,128,0,174251:0:0:0:0:
448,192,173945,1,0,0:0:0:0:
64,192,174149,128,0,174251:0:0:0:30:Hat Open2.wav
64,192,174353,1,8,0:0:0:0:
320,192,174353,128,0,174455:0:0:0:0:
448,192,174353,128,0,174659:0:0:0:0:
192,192,174557,128,0,174659:0:0:0:30:Hat Open2.wav
64,192,174761,128,2,174863:0:0:0:0:
448,192,174761,128,0,174863:0:0:0:0:
320,192,174965,1,0,0:0:0:30:Hat Open2.wav
64,192,175170,128,8,175272:0:0:0:0:
192,192,175170,128,0,175476:0:0:0:0:
448,192,175170,1,0,0:0:0:0:
320,192,175374,128,0,175476:0:0:0:30:Hat Open2.wav
192,192,175578,128,2,175680:0:0:0:0:
320,192,175578,128,0,175884:0:0:0:0:
64,192,175782,128,0,175884:0:0:0:30:Hat Open2.wav
64,192,175986,1,8,0:0:0:0:
320,192,175986,128,0,176088:0:0:0:0:
448,192,175986,128,0,176292:0:0:0:0:
192,192,176190,128,0,176292:0:0:0:30:Hat Open2.wav
64,192,176394,1,2,0:0:0:0:
448,192,176394,1,0,0:0:0:0:
192,192,176598,128,0,176700:0:0:0:30:Hat Open2.wav
320,192,176598,1,0,0:0:0:0:
64,192,176802,1,8,0:0:0:0:
192,192,176802,128,0,177108:0:0:0:0:
448,192,176802,1,0,0:0:0:0:
64,192,177006,128,0,177108:0:0:0:30:Hat Open2.wav
64,192,177210,128,2,177312:0:0:0:0:
192,192,177210,1,0,0:0:0:0:
320,192,177414,1,0,0:0:0:30:Hat Open2.wav
64,192,177619,1,8,0:0:0:0:
320,192,177619,128,0,177721:0:0:0:0:
448,192,177619,1,0,0:0:0:0:
64,192,177823,1,8,0:0:0:0:
192,192,177823,1,0,0:0:0:0:
448,192,177823,128,0,177925:0:0:0:0:
320,192,177925,1,8,0:0:0:0:
64,192,178027,1,2,0:0:0:0:
192,192,178027,1,4,0:0:0:0:
448,192,178027,1,0,0:0:0:0:
192,192,178231,128,0,178333:0:0:0:30:tom2.wav
448,192,178231,1,0,0:0:0:0:
320,192,178333,1,0,0:0:0:30:tom2.wav
64,192,178435,128,2,178537:0:0:0:0:
448,192,178435,1,0,0:0:0:30:tom2.wav
192,192,178639,128,0,178741:0:0:0:30:tom3.wav
448,192,178639,1,0,0:0:0:0:
320,192,178741,1,0,0:0:0:30:tom3.wav
64,192,178843,1,2,0:0:0:0:
192,192,178843,1,0,0:0:0:30:tom3.wav
64,192,179047,1,2,0:0:0:0:
320,192,179047,1,8,0:0:0:0:
448,192,179047,128,0,179149:0:0:0:0:
64,192,179251,1,2,0:0:0:0:
320,192,179251,1,8,0:0:0:0:
448,192,179251,128,0,179557:0:0:0:0:
64,192,179455,1,0,0:0:0:30:tom4.wav
192,192,179455,1,0,0:0:0:0:
64,192,179659,1,2,0:0:0:0:
320,192,179659,1,4,0:0:0:0:
448,192,179659,1,0,0:0:0:0:
320,192,179863,1,0,0:0:0:0:
320,192,180067,128,0,180170:0:0:0:0:
192,192,180272,128,0,180476:0:0:0:0:
192,192,180884,128,0,180986:0:0:0:0:
448,192,181088,128,0,181292:0:0:0:0:
64,192,181292,1,0,0:0:0:0:
64,192,181496,1,0,0:0:0:0:
320,192,181700,128,0,181802:0:0:0:0:
64,192,181904,128,0,182108:0:0:0:0:
192,192,182516,128,8,182619:0:0:0:0:
448,192,182516,1,0,0:0:0:0:
192,192,182721,1,2,0:0:0:0:
448,192,182721,128,0,182823:0:0:0:0:
64,192,182925,1,2,0:0:0:0:
320,192,182925,128,4,183027:0:0:0:0:
448,192,182925,1,0,0:0:0:0:
192,192,183129,128,0,183231:0:0:0:0:
64,192,183333,128,8,183435:0:0:0:0:
320,192,183333,1,0,0:0:0:0:
448,192,183333,128,0,183537:0:0:0:0:
192,192,183537,128,0,183741:0:0:0:0:
320,192,183537,128,0,183639:0:0:0:0:
64,192,183741,1,2,0:0:0:0:
448,192,183741,128,0,183843:0:0:0:0:
192,192,183945,128,0,184047:0:0:0:0:
64,192,184149,128,8,184353:0:0:0:0:
320,192,184149,128,0,184251:0:0:0:0:
448,192,184149,1,0,0:0:0:0:
192,192,184353,128,2,184455:0:0:0:0:
448,192,184353,128,0,184557:0:0:0:0:
64,192,184557,128,2,184659:0:0:0:0:
320,192,184557,1,0,0:0:0:0:
64,192,184761,128,2,184863:0:0:0:0:
192,192,184965,1,8,0:0:0:0:
320,192,184965,128,0,185170:0:0:0:0:
448,192,184965,1,0,0:0:0:0:
64,192,185170,128,0,185374:0:0:0:0:
192,192,185374,1,2,0:0:0:0:
448,192,185374,1,0,0:0:0:0:
320,192,185578,128,0,185680:0:0:0:55:tom2.wav
64,192,185782,1,8,0:0:0:0:
192,192,185782,128,0,185884:0:0:0:0:
448,192,185782,1,0,0:0:0:0:
320,192,185986,128,0,186088:0:0:0:55:tom2.wav
64,192,186190,1,2,0:0:0:0:
192,192,186190,1,4,0:0:0:0:
448,192,186190,128,0,186292:0:0:0:0:
448,192,186394,128,0,186496:0:0:0:0:
64,192,186598,128,8,186700:0:0:0:0:
320,192,186598,128,0,186802:0:0:0:0:
448,192,186598,1,0,0:0:0:0:
192,192,186802,128,0,186904:0:0:0:0:
448,192,186802,128,0,187006:0:0:0:0:
64,192,187006,1,2,0:0:0:0:
320,192,187006,128,0,187108:0:0:0:0:
64,192,187210,128,0,187312:0:0:0:0:
64,192,187414,1,8,0:0:0:0:
192,192,187414,128,0,187516:0:0:0:0:
448,192,187414,128,0,187516:0:0:0:0:
64,192,187619,128,0,187721:0:0:0:25:tom3.wav
320,192,187619,128,0,187721:0:0:0:0:
192,192,187721,1,0,0:0:0:25:tom3.wav
320,192,187823,1,2,0:0:0:0:
448,192,187823,128,0,187925:0:0:0:0:
448,192,188027,128,0,188129:0:0:0:40:tom2.wav
64,192,188231,1,8,0:0:0:0:
192,192,188231,128,0,188435:0:0:0:0:
320,192,188231,128,0,188333:0:0:0:0:
64,192,188435,128,0,188537:0:0:0:0:
448,192,188435,128,0,188639:0:0:0:0:
64,192,188639,1,2,0:0:0:0:
320,192,188639,128,0,188741:0:0:0:0:
192,192,188843,128,0,188945:0:0:0:25:tom3.wav
64,192,189047,128,8,189149:0:0:0:0:
192,192,189047,128,0,189149:0:0:0:0:
448,192,189047,1,0,0:0:0:0:
320,192,189251,128,0,189353:0:0:0:25:tom3.wav
448,192,189251,128,0,189353:0:0:0:0:
64,192,189455,1,2,0:0:0:0:
192,192,189455,128,4,189557:0:0:0:0:
320,192,189455,1,0,0:0:0:0:
192,192,189659,128,0,189761:0:0:0:0:
64,192,189863,128,8,190067:0:0:0:0:
320,192,189863,1,0,0:0:0:0:
448,192,189863,128,0,189965:0:0:0:0:
192,192,190067,128,0,190170:0:0:0:20:tom3.wav
448,192,190067,128,0,190272:0:0:0:0:
64,192,190272,128,2,190374:0:0:0:0:
320,192,190272,1,0,0:0:0:0:
192,192,190476,128,0,190578:0:0:0:20:tom3.wav
64,192,190680,1,8,0:0:0:0:
320,192,190680,128,0,190782:0:0:0:0:
448,192,190680,128,0,190782:0:0:0:0:
64,192,190884,128,0,190986:0:0:0:20:tom3.wav
192,192,190884,128,0,190986:0:0:0:0:
320,192,191088,1,2,0:0:0:0:
448,192,191088,128,0,191190:0:0:0:0:
448,192,191292,128,0,191394:0:0:0:35:tom2.wav
64,192,191496,1,8,0:0:0:0:
192,192,191496,128,0,191700:0:0:0:0:
320,192,191496,128,0,191598:0:0:0:0:
64,192,191700,128,0,191802:0:0:0:20:tom3.wav
448,192,191700,128,0,191904:0:0:0:0:
192,192,191904,128,2,192006:0:0:0:0:
320,192,191904,1,0,0:0:0:0:
64,192,192108,1,8,0:0:0:0:
320,192,192108,128,0,192210:0:0:0:60:Hat Open2.wav
448,192,192108,1,0,0:0:0:0:
64,192,192312,128,8,192516:0:0:0:0:
192,192,192312,1,0,0:0:0:60:Hat Open2.wav
448,192,192312,1,0,0:0:0:0:
64,192,192721,128,2,192823:0:0:0:0:
192,192,192721,1,4,0:0:0:0:
448,192,192721,128,0,193027:0:0:0:0:
64,192,192925,128,2,193027:0:0:0:0:
192,192,192925,1,0,0:0:0:0:
192,192,193129,128,8,193435:0:0:0:0:
320,192,193129,1,0,0:0:0:0:
448,192,193129,1,0,0:0:0:0:
64,192,193333,128,0,193435:0:0:0:0:
64,192,193537,128,2,193843:0:0:0:0:
320,192,193537,1,0,0:0:0:0:
448,192,193537,128,0,193639:0:0:0:0:
320,192,193741,1,2,0:0:0:0:
448,192,193741,128,0,193843:0:0:0:0:
64,192,193945,1,8,0:0:0:0:
192,192,193945,1,0,0:0:0:0:
320,192,193945,128,0,194251:0:0:0:0:
448,192,194149,128,0,194251:0:0:0:0:
64,192,194353,1,2,0:0:0:0:
192,192,194353,128,0,194455:0:0:0:0:
448,192,194353,128,0,194659:0:0:0:0:
64,192,194557,1,2,0:0:0:0:
192,192,194557,128,0,194659:0:0:0:0:
64,192,194761,128,8,195067:0:0:0:0:
320,192,194761,1,0,0:0:0:0:
448,192,194761,1,0,0:0:0:0:
192,192,194965,128,0,195067:0:0:0:0:
64,192,195170,128,2,195476:0:0:0:0:
320,192,195170,128,0,195272:0:0:0:0:
448,192,195170,1,0,0:0:0:0:
320,192,195374,128,2,195476:0:0:0:0:
448,192,195374,1,0,0:0:0:0:
64,192,195578,1,8,0:0:0:0:
192,192,195578,1,0,0:0:0:0:
448,192,195578,128,0,195884:0:0:0:0:
320,192,195782,128,0,195884:0:0:0:0:
64,192,195986,128,2,196088:0:0:0:0:
192,192,195986,1,4,0:0:0:0:
448,192,195986,128,0,196292:0:0:0:0:
64,192,196190,128,2,196292:0:0:0:0:
192,192,196190,1,0,0:0:0:0:
192,192,196394,1,8,0:0:0:0:
320,192,196394,128,0,196700:0:0:0:0:
448,192,196394,1,0,0:0:0:0:
64,192,196598,128,0,196700:0:0:0:0:
64,192,196802,128,2,197108:0:0:0:0:
320,192,196802,1,0,0:0:0:0:
448,192,196802,128,0,196904:0:0:0:0:
320,192,197006,1,2,0:0:0:0:
448,192,197006,128,0,197108:0:0:0:0:
64,192,197210,1,8,0:0:0:0:
192,192,197210,128,0,197516:0:0:0:0:
320,192,197210,1,0,0:0:0:0:
448,192,197414,128,0,197516:0:0:0:0:
64,192,197619,128,2,197721:0:0:0:0:
320,192,197619,1,0,0:0:0:0:
448,192,197619,128,0,197925:0:0:0:0:
64,192,197823,128,2,197925:0:0:0:0:
320,192,197823,1,0,0:0:0:0:
192,192,198027,1,8,0:0:0:0:
320,192,198027,128,0,198333:0:0:0:0:
448,192,198027,1,0,0:0:0:0:
64,192,198231,128,0,198333:0:0:0:0:
64,192,198435,128,2,198741:0:0:0:0:
192,192,198435,1,0,0:0:0:0:
448,192,198435,128,0,198537:0:0:0:0:
192,192,198639,1,2,0:0:0:0:
448,192,198639,128,0,198741:0:0:0:0:
64,192,198843,1,8,0:0:0:0:
192,192,198843,1,0,0:0:0:0:
320,192,198843,128,0,199149:0:0:0:0:
64,192,199047,1,2,0:0:0:0:
448,192,199047,128,0,199149:0:0:0:0:
64,192,199251,128,2,199353:0:0:0:0:
320,192,199251,1,4,0:0:0:0:
448,192,199251,1,0,0:0:0:0:
64,192,199455,128,2,199557:0:0:0:0:
320,192,199455,1,0,0:0:0:0:
192,192,199659,128,2,199761:0:0:0:0:
448,192,199659,1,0,0:0:0:0:
192,192,199863,128,2,199965:0:0:0:0:
448,192,199863,1,0,0:0:0:0:
64,192,200067,1,2,0:0:0:0:
320,192,200067,128,0,200170:0:0:0:0:
64,192,200272,1,2,0:0:0:0:
320,192,200272,128,0,200374:0:0:0:0:
192,192,200476,1,2,0:0:0:0:
448,192,200476,128,0,200578:0:0:0:0:
192,192,200680,1,2,0:0:0:0:
448,192,200680,128,0,200782:0:0:0:0:
64,192,200884,128,2,200986:0:0:0:0:
320,192,200884,128,0,200986:0:0:0:0:
64,192,201088,128,2,201190:0:0:0:0:
320,192,201088,128,0,201190:0:0:0:0:
192,192,201292,128,2,201394:0:0:0:0:
448,192,201292,128,0,201394:0:0:0:0:
192,192,201496,128,2,201598:0:0:0:0:
448,192,201496,128,0,201598:0:0:0:0:
64,192,201700,128,2,201802:0:0:0:0:
320,192,201700,128,0,201802:0:0:0:0:
64,192,201904,128,2,202006:0:0:0:0:
320,192,201904,128,0,202006:0:0:0:0:
192,192,202108,128,2,202210:0:0:0:0:
448,192,202108,128,0,202210:0:0:0:0:
192,192,202312,128,2,202414:0:0:0:0:
448,192,202312,128,0,202414:0:0:0:0:
64,192,202516,1,2,0:0:0:0:
320,192,202516,1,4,0:0:0:0:
448,192,202516,1,0,0:0:0:0:
192,192,202721,1,2,0:0:0:0:
448,192,202721,1,0,0:0:0:0:
320,192,202823,1,0,0:0:0:0:
64,192,202925,1,2,0:0:0:0:
192,192,202925,1,0,0:0:0:0:
320,192,203027,1,8,0:0:0:0:
64,192,203129,1,2,0:0:0:0:
448,192,203129,1,0,0:0:0:0:
192,192,203231,1,8,0:0:0:0:
320,192,203333,1,2,0:0:0:0:
448,192,203333,1,0,0:0:0:0:
64,192,203537,1,2,0:0:0:0:
320,192,203537,1,0,0:0:0:0:
192,192,203741,128,2,203843:0:0:0:0:
448,192,203741,128,0,203843:0:0:0:0:
64,192,203945,128,2,204149:0:0:0:0:
320,192,203945,128,4,204149:0:0:0:0:
448,192,203945,128,8,204149:0:0:0:0:
64,192,204353,128,2,204557:0:0:0:0:
192,192,204353,128,0,204557:0:0:0:30:Hat Open2.wav
448,192,204353,1,0,0:0:0:0:
320,192,204557,1,8,0:0:0:0:
448,192,204557,1,0,0:0:0:0:
192,192,204659,1,8,0:0:0:0:
64,192,204761,1,2,0:0:0:0:
320,192,204761,128,0,204965:0:0:0:30:Hat Open2.wav
448,192,204761,128,0,204965:0:0:0:0:
64,192,205170,128,2,205272:0:0:0:0:
192,192,205170,128,8,205272:0:0:0:0:
448,192,205170,128,0,205476:0:0:0:0:
64,192,205374,128,2,205476:0:0:0:0:
192,192,205374,128,8,205476:0:0:0:0:
320,192,205374,128,0,205476:0:0:0:0:
64,192,205782,1,0,0:0:0:0:
192,192,205986,1,0,0:0:0:0:
320,192,206190,1,0,0:0:0:0:
192,192,206394,1,0,0:0:0:0:
448,192,206598,1,0,0:0:0:0:
448,192,207006,1,0,0:0:0:0:
192,192,207210,1,0,0:0:0:0:
64,192,207414,1,0,0:0:0:0:
192,192,207823,1,0,0:0:0:0:
320,192,208027,1,0,0:0:0:0:
448,192,208231,128,0,208843:0:0:0:0:
64,192,209047,128,2,209353:0:0:0:0:
192,192,209047,128,4,209149:0:0:0:0:
448,192,209047,1,0,0:0:0:0:
320,192,209251,128,0,209353:0:0:0:30:Hat Open2.wav
64,192,209455,128,8,209557:0:0:0:0:
192,192,209455,128,0,209761:0:0:0:0:
448,192,209455,1,0,0:0:0:0:
320,192,209659,128,0,209761:0:0:0:30:Hat Open2.wav
192,192,209863,128,2,209965:0:0:0:0:
320,192,209863,128,0,210170:0:0:0:0:
64,192,210067,128,0,210170:0:0:0:30:Hat Open2.wav
64,192,210272,1,8,0:0:0:0:
320,192,210272,128,0,210374:0:0:0:0:
448,192,210272,128,0,210578:0:0:0:0:
192,192,210476,128,0,210578:0:0:0:30:Hat Open2.wav
64,192,210680,128,2,210986:0:0:0:0:
320,192,210680,128,0,210782:0:0:0:0:
192,192,210884,128,0,210986:0:0:0:30:Hat Open2.wav
64,192,211088,1,8,0:0:0:0:
192,192,211088,128,0,211394:0:0:0:0:
320,192,211088,128,0,211190:0:0:0:0:
64,192,211292,128,0,211394:0:0:0:30:Hat Open2.wav
64,192,211496,1,2,0:0:0:0:
192,192,211496,128,0,211598:0:0:0:0:
320,192,211496,128,0,211802:0:0:0:0:
448,192,211700,128,0,211802:0:0:0:30:Hat Open2.wav
64,192,211904,1,8,0:0:0:0:
192,192,211904,128,0,212006:0:0:0:0:
448,192,211904,128,0,212210:0:0:0:0:
320,192,212108,128,0,212210:0:0:0:30:Hat Open2.wav
64,192,212312,128,2,212619:0:0:0:0:
192,192,212312,128,0,212414:0:0:0:0:
448,192,212312,1,0,0:0:0:0:
320,192,212516,128,0,212619:0:0:0:30:Hat Open2.wav
64,192,212721,128,8,212823:0:0:0:0:
192,192,212721,128,0,213027:0:0:0:0:
448,192,212721,1,0,0:0:0:0:
320,192,212925,128,0,213027:0:0:0:30:Hat Open2.wav
64,192,213129,1,2,0:0:0:0:
192,192,213129,128,0,213333:0:0:0:0:
320,192,213333,1,0,0:0:0:30:Hat Open2.wav
448,192,213435,1,0,0:0:0:0:
64,192,213537,1,8,0:0:0:0:
192,192,213537,128,0,213639:0:0:0:0:
320,192,213537,128,0,213843:0:0:0:0:
64,192,213741,128,0,213843:0:0:0:30:Hat Open2.wav
192,192,213945,1,2,0:0:0:0:
448,192,213945,1,0,0:0:0:0:
64,192,214149,1,0,0:0:0:30:Hat Open2.wav
320,192,214149,128,0,214251:0:0:0:0:
64,192,214353,1,8,0:0:0:0:
192,192,214353,1,0,0:0:0:0:
448,192,214353,128,0,214455:0:0:0:0:
192,192,214557,1,0,0:0:0:30:Hat Open2.wav
320,192,214557,128,0,214659:0:0:0:0:
64,192,214761,1,2,0:0:0:0:
448,192,214761,1,0,0:0:0:0:
192,192,214965,1,8,0:0:0:0:
320,192,214965,1,0,0:0:0:30:Hat Open2.wav
448,192,214965,128,0,215067:0:0:0:0:
192,192,215170,1,8,0:0:0:0:
320,192,215170,1,0,0:0:0:0:
448,192,215170,128,0,215374:0:0:0:0:
64,192,215374,1,8,0:0:0:0:
320,192,215374,1,0,0:0:0:0:
448,192,215476,1,8,0:0:0:0:
64,192,215578,128,2,215884:0:0:0:0:
192,192,215578,128,4,215680:0:0:0:0:
320,192,215578,1,0,0:0:0:0:
320,192,215782,128,0,215884:0:0:0:30:Hat Open2.wav
64,192,215986,128,8,216088:0:0:0:0:
192,192,215986,128,0,216292:0:0:0:0:
448,192,215986,1,0,0:0:0:0:
320,192,216190,128,0,216292:0:0:0:30:Hat Open2.wav
320,192,216394,128,2,216700:0:0:0:0:
448,192,216394,128,0,216496:0:0:0:0:
192,192,216598,128,0,216700:0:0:0:30:Hat Open2.wav
64,192,216802,1,8,0:0:0:0:
320,192,216802,128,0,216904:0:0:0:0:
448,192,216802,128,0,217108:0:0:0:0:
192,192,217006,128,0,217108:0:0:0:30:Hat Open2.wav
64,192,217210,128,2,217516:0:0:0:0:
320,192,217210,128,0,217312:0:0:0:0:
192,192,217414,128,0,217516:0:0:0:30:Hat Open2.wav
192,192,217619,128,8,217925:0:0:0:0:
320,192,217619,128,0,217721:0:0:0:0:
448,192,217619,1,0,0:0:0:0:
64,192,217823,128,0,217925:0:0:0:30:Hat Open2.wav
192,192,218027,128,2,218129:0:0:0:0:
320,192,218027,128,0,218333:0:0:0:0:
448,192,218231,128,0,218333:0:0:0:30:Hat Open2.wav
64,192,218435,1,8,0:0:0:0:
192,192,218435,128,0,218537:0:0:0:0:
448,192,218435,128,0,218741:0:0:0:0:
320,192,218639,128,0,218741:0:0:0:30:Hat Open2.wav
64,192,218843,1,2,0:0:0:0:
448,192,218843,1,0,0:0:0:0:
192,192,219047,1,0,0:0:0:30:Hat Open2.wav
448,192,219047,128,0,219149:0:0:0:0:
64,192,219251,1,8,0:0:0:0:
320,192,219251,128,0,219353:0:0:0:0:
448,192,219251,1,0,0:0:0:0:
192,192,219455,1,0,0:0:0:30:Hat Open2.wav
64,192,219659,1,2,0:0:0:0:
320,192,219659,128,0,219761:0:0:0:0:
192,192,219863,1,0,0:0:0:30:Hat Open2.wav
448,192,219863,128,0,219965:0:0:0:0:
64,192,220067,1,8,0:0:0:0:
192,192,220067,1,0,0:0:0:0:
448,192,220067,1,0,0:0:0:0:
320,192,220272,1,2,0:0:0:0:
448,192,220272,1,0,0:0:0:30:Hat Open2.wav
192,192,220374,1,2,0:0:0:0:
64,192,220476,128,2,220680:0:0:0:0:
320,192,220476,1,4,0:0:0:0:
448,192,220476,1,0,0:0:0:0:
192,192,220680,1,8,0:0:0:0:
448,192,220680,1,0,0:0:0:0:
64,192,220884,1,2,0:0:0:0:
320,192,220884,1,4,0:0:0:0:
448,192,220884,128,0,221088:0:0:0:0:
64,192,221088,1,8,0:0:0:0:
320,192,221088,1,0,0:0:0:0:
448,192,221190,1,0,0:0:0:0:
64,192,221292,128,2,221598:0:0:0:0:
192,192,221292,1,4,0:0:0:0:
320,192,221292,128,0,221394:0:0:0:0:
320,192,221496,1,8,0:0:0:0:
448,192,221496,128,0,222006:0:0:0:0:
64,192,221700,1,2,0:0:0:0:
192,192,221700,128,4,221802:0:0:0:0:
192,192,221904,1,2,0:0:0:0:
320,192,221904,128,0,222006:0:0:0:0:
64,192,222108,1,2,0:0:0:0:
192,192,222108,1,0,0:0:0:0:
448,192,222108,128,0,222414:0:0:0:0:
320,192,222312,128,0,222414:0:0:0:0:
64,192,222516,128,8,222823:0:0:0:0:
192,192,222516,1,4,0:0:0:0:
320,192,222516,128,0,222619:0:0:0:0:
448,192,222721,128,0,222823:0:0:0:30:Hat Open2.wav
192,192,222925,128,2,223231:0:0:0:0:
320,192,222925,128,0,223027:0:0:0:0:
64,192,223129,128,0,223231:0:0:0:30:Hat Open2.wav
64,192,223333,1,8,0:0:0:0:
192,192,223333,128,0,223435:0:0:0:0:
320,192,223333,128,0,223639:0:0:0:0:
64,192,223537,128,0,223639:0:0:0:30:Hat Open2.wav
320,192,223741,128,2,223843:0:0:0:0:
448,192,223741,128,0,224047:0:0:0:0:
192,192,223945,128,0,224047:0:0:0:30:Hat Open2.wav
64,192,224149,128,8,224455:0:0:0:0:
320,192,224149,128,0,224251:0:0:0:0:
448,192,224149,1,0,0:0:0:0:
192,192,224353,128,0,224455:0:0:0:30:Hat Open2.wav
192,192,224557,128,2,224863:0:0:0:0:
448,192,224557,128,0,224659:0:0:0:0:
64,192,224761,128,0,224863:0:0:0:30:Hat Open2.wav
64,192,224965,1,8,0:0:0:0:
192,192,224965,128,0,225067:0:0:0:0:
320,192,224965,128,0,225272:0:0:0:0:
448,192,225170,128,0,225272:0:0:0:30:Hat Open2.wav
64,192,225374,1,2,0:0:0:0:
192,192,225374,128,0,225476:0:0:0:0:
448,192,225374,128,0,225578:0:0:0:0:
192,192,225578,1,0,0:0:0:30:Hat Open2.wav
64,192,225782,128,8,226088:0:0:0:0:
192,192,225782,128,0,225884:0:0:0:0:
448,192,225782,1,0,0:0:0:0:
320,192,225986,128,0,226088:0:0:0:30:Hat Open2.wav
192,192,226190,128,2,226394:0:0:0:0:
448,192,226190,128,0,226292:0:0:0:0:
320,192,226394,1,0,0:0:0:30:Hat Open2.wav
64,192,226598,128,8,226700:0:0:0:0:
192,192,226598,128,0,226904:0:0:0:0:
448,192,226598,1,0,0:0:0:0:
320,192,226802,128,0,226904:0:0:0:30:Hat Open2.wav
64,192,227006,1,2,0:0:0:0:
320,192,227006,1,0,0:0:0:0:
192,192,227210,1,0,0:0:0:30:Hat Open2.wav
448,192,227210,128,0,227312:0:0:0:0:
64,192,227414,1,8,0:0:0:0:
320,192,227414,128,0,227721:0:0:0:0:
448,192,227414,1,0,0:0:0:0:
448,192,227619,128,0,227721:0:0:0:30:Hat Open2.wav
320,192,227823,1,2,0:0:0:0:
448,192,227823,1,0,0:0:0:0:
64,192,228027,128,8,228129:0:0:0:0:
192,192,228027,1,0,0:0:0:0:
448,192,228027,128,0,228129:0:0:0:0:
64,192,228231,128,8,228435:0:0:0:0:
192,192,228231,1,0,0:0:0:0:
448,192,228231,128,0,228435:0:0:0:0:
192,192,228435,1,8,0:0:0:0:
320,192,228435,1,0,0:0:0:0:
448,192,228537,1,8,0:0:0:0:
64,192,228639,128,2,228945:0:0:0:0:
192,192,228639,1,4,0:0:0:0:
320,192,228639,128,0,228741:0:0:0:0:
192,192,228843,128,0,228945:0:0:0:30:Hat Open2.wav
64,192,229047,1,8,0:0:0:0:
192,192,229047,128,0,229353:0:0:0:0:
320,192,229047,128,0,229149:0:0:0:0:
64,192,229251,128,0,229353:0:0:0:30:Hat Open2.wav
448,192,229251,1,0,0:0:0:0:
64,192,229455,128,2,229557:0:0:0:0:
320,192,229455,128,0,229761:0:0:0:0:
192,192,229659,128,0,229761:0:0:0:30:Hat Open2.wav
64,192,229863,128,8,229965:0:0:0:0:
320,192,229863,1,0,0:0:0:0:
448,192,229863,128,0,230170:0:0:0:0:
192,192,230067,128,0,230170:0:0:0:30:Hat Open2.wav
64,192,230272,128,2,230578:0:0:0:0:
320,192,230272,128,0,230374:0:0:0:0:
192,192,230476,128,0,230578:0:0:0:30:Hat Open2.wav
64,192,230680,1,8,0:0:0:0:
192,192,230680,128,0,230986:0:0:0:0:
448,192,230680,128,0,230782:0:0:0:0:
64,192,230884,128,0,230986:0:0:0:30:Hat Open2.wav
192,192,231088,128,2,231190:0:0:0:0:
320,192,231088,128,0,231394:0:0:0:0:
448,192,231292,128,0,231394:0:0:0:30:Hat Open2.wav
64,192,231496,1,8,0:0:0:0:
192,192,231496,128,0,231598:0:0:0:0:
320,192,231496,128,0,231802:0:0:0:0:
64,192,231700,128,0,231802:0:0:0:30:Hat Open2.wav
192,192,231904,1,2,0:0:0:0:
448,192,231904,1,0,0:0:0:0:
64,192,232108,1,0,0:0:0:30:Hat Open2.wav
320,192,232108,128,0,232210:0:0:0:0:
64,192,232312,1,8,0:0:0:0:
192,192,232312,1,0,0:0:0:0:
448,192,232312,128,0,232414:0:0:0:0:
320,192,232516,1,0,0:0:0:30:Hat Open2.wav
64,192,232721,1,2,0:0:0:0:
448,192,232721,128,0,232823:0:0:0:0:
192,192,232925,1,0,0:0:0:30:Hat Open2.wav
320,192,232925,128,0,233027:0:0:0:0:
64,192,233129,1,8,0:0:0:0:
192,192,233129,1,0,0:0:0:0:
448,192,233129,1,0,0:0:0:0:
320,192,233333,128,2,233435:0:0:0:0:
448,192,233333,1,0,0:0:0:0:
64,192,233537,1,2,0:0:0:0:
192,192,233537,128,4,233639:0:0:0:0:
448,192,233537,1,0,0:0:0:0:
64,192,233741,128,2,233843:0:0:0:0:
192,192,233741,1,0,0:0:0:30:Hat Open2.wav
192,192,233945,128,8,234047:0:0:0:0:
320,192,233945,1,0,0:0:0:0:
64,192,234047,1,0,0:0:0:0:
192,192,234149,1,2,0:0:0:0:
320,192,234149,128,0,234251:0:0:0:30:Hat Open2.wav
448,192,234149,1,0,0:0:0:0:
64,192,234353,1,2,0:0:0:0:
192,192,234353,1,0,0:0:0:0:
448,192,234353,128,0,234455:0:0:0:0:
320,192,234557,1,0,0:0:0:30:tom3.wav
192,192,234761,128,8,234863:0:0:0:0:
320,192,234761,128,2,235067:0:0:0:0:
448,192,234761,128,0,234863:0:0:0:100:Hat Open.wav
64,192,234965,128,0,235067:0:0:0:0:
448,192,234965,128,0,235067:0:0:0:0:
64,192,235170,128,2,235884:0:0:0:0:
192,192,235170,128,4,235374:0:0:0:0:
448,192,235170,1,0,0:0:0:0:
320,192,235578,128,0,235782:0:0:0:0:
64,192,235986,1,2,0:0:0:0:
192,192,235986,128,4,236190:0:0:0:0:
448,192,235986,128,0,236700:0:0:0:0:
320,192,236394,128,0,236496:0:0:0:0:
64,192,236598,128,0,236700:0:0:0:0:
64,192,236802,1,2,0:0:0:0:
192,192,236802,128,4,237516:0:0:0:0:
448,192,236802,1,0,0:0:0:0:
320,192,237006,128,0,237210:0:0:0:0:
448,192,237414,128,0,237516:0:0:0:0:
64,192,237619,128,2,237721:0:0:0:0:
320,192,237619,128,4,238333:0:0:0:0:
448,192,237619,1,0,0:0:0:0:
192,192,237823,128,0,237925:0:0:0:0:
64,192,237925,1,8,0:0:0:0:
192,192,238027,1,2,0:0:0:0:
448,192,238027,128,0,238129:0:0:0:0:
64,192,238231,128,8,238333:0:0:0:0:
192,192,238231,1,0,0:0:0:0:
64,192,238435,128,2,239149:0:0:0:0:
192,192,238435,1,4,0:0:0:0:
448,192,238435,128,0,238639:0:0:0:0:
320,192,238843,128,0,239047:0:0:0:0:
64,192,239251,1,2,0:0:0:0:
192,192,239251,128,4,239455:0:0:0:0:
448,192,239251,128,0,239965:0:0:0:0:
64,192,239659,128,0,239761:0:0:0:0:
320,192,239863,128,0,239965:0:0:0:0:
64,192,240067,128,2,240782:0:0:0:0:
192,192,240067,1,4,0:0:0:0:
448,192,240067,1,0,0:0:0:0:
320,192,240272,128,0,240476:0:0:0:0:
192,192,240680,128,0,240782:0:0:0:0:
64,192,240884,1,2,0:0:0:0:
320,192,240884,128,4,240986:0:0:0:0:
448,192,240884,128,0,241496:0:0:0:0:
64,192,241088,128,8,241190:0:0:0:0:
192,192,241088,1,0,0:0:0:0:
64,192,241292,1,8,0:0:0:0:
320,192,241292,128,0,241394:0:0:0:0:
64,192,241496,1,8,0:0:0:0:
192,192,241496,1,0,0:0:0:0:
320,192,241598,1,0,0:0:0:0:
64,192,241700,1,2,0:0:0:0:
192,192,241700,128,0,242006:0:0:0:40:soft-hitfinish.wav
448,192,241700,1,0,0:0:0:0:
64,192,242108,1,2,0:0:0:0:
192,192,242108,128,0,242414:0:0:0:40:soft-hitfinish.wav
448,192,242108,128,0,242312:0:0:0:0:
64,192,242516,128,2,242721:0:0:0:0:
320,192,242516,128,0,242823:0:0:0:40:soft-hitfinish.wav
448,192,242516,1,0,0:0:0:0:
64,192,242925,1,2,0:0:0:0:
192,192,242925,128,0,243027:0:0:0:40:soft-hitfinish.wav
320,192,242925,128,0,243231:0:0:0:0:
64,192,243129,128,8,243231:0:0:0:0:
448,192,243129,1,0,0:0:0:0:
64,192,243333,128,2,243639:0:0:0:0:
192,192,243333,1,0,0:0:0:40:soft-hitfinish.wav
448,192,243333,1,0,0:0:0:0:
320,192,243537,128,0,243639:0:0:0:0:
64,192,243741,128,2,244047:0:0:0:0:
320,192,243741,1,0,0:0:0:40:soft-hitfinish.wav
448,192,243741,1,0,0:0:0:0:
192,192,243945,128,0,244047:0:0:0:0:
64,192,244149,128,2,244251:0:0:0:0:
192,192,244149,1,0,0:0:0:40:soft-hitfinish.wav
448,192,244149,128,0,244455:0:0:0:0:
192,192,244353,128,0,244455:0:0:0:0:
320,192,244455,1,8,0:0:0:0:
64,192,244557,128,2,244659:0:0:0:0:
192,192,244557,1,0,0:0:0:40:soft-hitfinish.wav
448,192,244557,128,0,244863:0:0:0:0:
192,192,244761,1,8,0:0:0:0:
320,192,244761,128,0,244863:0:0:0:0:
64,192,244965,128,2,245272:0:0:0:0:
192,192,244965,1,0,0:0:0:40:soft-hitfinish.wav
448,192,244965,128,0,245272:0:0:0:0:
64,192,245374,1,2,0:0:0:0:
320,192,245374,128,0,245680:0:0:0:40:soft-hitfinish.wav
448,192,245374,128,0,245680:0:0:0:0:
64,192,245782,128,8,246088:0:0:0:0:
192,192,245782,128,0,246088:0:0:0:40:soft-hitfinish.wav
320,192,245782,1,0,0:0:0:0:
448,192,245986,1,2,0:0:0:0:
192,192,246190,128,2,246598:0:0:0:0:
320,192,246190,128,0,246598:0:0:0:0:
64,192,246394,128,8,246598:0:0:0:0:
448,192,246394,128,0,246598:0:0:0:60:Hat Open2.wav
