osu file format v14

[General]
AudioFilename: audio.ogg
AudioLeadIn: 0
PreviewTime: 205680
Countdown: 0
SampleSet: Soft
StackLeniency: 0.7
Mode: 3
LetterboxInBreaks: 0
SpecialStyle: 0
WidescreenStoryboard: 1

[Editor]
DistanceSpacing: 1
BeatDivisor: 4
GridSize: 8
TimelineZoom: 1.9

[Metadata]
Title:Lagtrain
TitleUnicode:ラグトレイン
Artist:inabakumori
ArtistUnicode:稲葉曇
Creator:Akasha-
Version:Achsan's Hard
Source:
Tags:Kaai Yuki 歌愛ユキ vocaloid rock jrock j-rock japanese WEATHER STATION 2nd album ウェザーステーション Critical_Star AchsanLovers Sherly Kuo Kyoka K_a_t_a_g_i_r_i Katagiri
BeatmapID:3580954
BeatmapSetID:1720379

[Difficulty]
HPDrainRate:8
CircleSize:4
OverallDifficulty:7.5
ApproachRate:5
SliderMultiplier:1.4
SliderTickRate:1

[Events]
//Background and Video events
Video,30,"video.mp4"
0,0,"a.jpg",0,0
//Break Periods
//Storyboard Layer 0 (Background)
//Storyboard Layer 1 (Fail)
//Storyboard Layer 2 (Pass)
//Storyboard Layer 3 (Foreground)
//Storyboard Layer 4 (Overlay)
//Storyboard Sound Samples
Sample,34149,0,"Hat Open2.wav",30
Sample,34965,0,"Hat Open.wav",70
Sample,42312,0,"Hat Open2.wav",30
Sample,68639,0,"Hat Open.wav",100
Sample,99455,0,"Hat Open2.wav",30
Sample,127414,0,"ride02.wav",70
Sample,164761,0,"Hat Open2.wav",30
Sample,178435,0,"tom2.wav",30
Sample,178843,0,"tom3.wav",30
Sample,220272,0,"Hat Open2.wav",30

[TimingPoints]
68,408.163265306122,4,2,1,60,1,0
78435,-100,4,2,1,60,0,1
86598,-100,4,2,1,60,0,0
88231,-100,4,2,1,60,0,1
101292,-100,4,2,1,60,0,0
153537,-100,4,2,1,60,0,1
159659,-100,4,2,1,60,0,0
160067,-100,4,2,1,60,0,1
166598,-100,4,2,1,60,0,0
205782,-100,4,2,1,20,0,0
209047,-100,4,2,1,60,0,1
215170,-100,4,2,1,60,0,0
215578,-100,4,2,1,60,0,1
220476,-100,4,2,1,60,0,0
222516,-100,4,2,1,60,0,1
228231,-100,4,2,1,60,0,0
228639,-100,4,2,1,60,0,1
235170,-100,4,2,1,60,0,0

[HitObjects]
64,192,3129,5,0,0:0:0:0:
192,192,3231,1,0,0:0:0:0:
320,192,3333,1,2,0:0:0:0:
320,192,3537,1,2,0:0:0:0:
64,192,3741,1,8,0:0:0:70:
448,192,3741,1,0,0:0:0:0:
192,192,4149,1,0,0:0:0:0:
64,192,4353,1,2,0:0:0:0:
192,192,4557,1,8,0:0:0:70:
448,192,4557,1,0,0:0:0:0:
320,192,4761,1,0,0:0:0:0:
448,192,4965,1,2,0:0:0:0:
448,192,5170,1,2,0:0:0:0:
192,192,5374,1,8,0:0:0:70:
320,192,5374,1,0,0:0:0:0:
448,192,5986,1,2,0:0:0:0:
192,192,6190,1,8,0:0:0:70:
320,192,6190,1,0,0:0:0:0:
448,192,6598,1,2,0:0:0:0:
448,192,6802,1,2,0:0:0:0:
64,192,7006,1,8,0:0:0:70:
192,192,7006,1,0,0:0:0:0:
320,192,7414,1,0,0:0:0:0:
448,192,7619,1,2,0:0:0:0:
192,192,7823,1,8,0:0:0:70:
320,192,7823,1,0,0:0:0:0:
64,192,8027,1,0,0:0:0:0:
192,192,8231,1,2,0:0:0:0:
192,192,8435,1,2,0:0:0:0:
320,192,8639,1,8,0:0:0:70:
448,192,8639,1,0,0:0:0:0:
192,192,9251,1,2,0:0:0:0:
320,192,9455,1,8,0:0:0:70:
448,192,9455,1,0,0:0:0:0:
64,192,9863,1,2,0:0:0:0:
64,192,10067,1,2,0:0:0:0:
192,192,10272,1,8,0:0:0:70:
448,192,10272,1,0,0:0:0:0:
320,192,10476,1,0,0:0:0:0:
448,192,10680,1,0,0:0:0:0:
320,192,10884,1,2,0:0:0:0:
64,192,11088,1,8,0:0:0:70:
192,192,11088,1,0,0:0:0:0:
448,192,11292,1,0,0:0:0:0:
192,192,11496,1,2,0:0:0:0:
192,192,11700,1,2,0:0:0:0:
64,192,11904,1,8,0:0:0:70:
320,192,11904,1,0,0:0:0:0:
448,192,12108,1,0,0:0:0:0:
320,192,12312,1,0,0:0:0:0:
192,192,12516,1,2,0:0:0:0:
64,192,12721,1,8,0:0:0:70:
320,192,12721,1,0,0:0:0:0:
448,192,12925,1,0,0:0:0:0:
320,192,13129,1,2,0:0:0:0:
320,192,13333,1,2,0:0:0:0:
192,192,13537,1,8,0:0:0:70:
448,192,13537,1,0,0:0:0:0:
320,192,13945,1,0,0:0:0:0:
192,192,14149,1,2,0:0:0:0:
448,192,14251,1,0,0:0:0:0:
64,192,14353,1,8,0:0:0:70:
320,192,14353,1,0,0:0:0:0:
448,192,14557,1,0,0:0:0:0:
64,192,14761,1,2,0:0:0:0:
64,192,14965,1,2,0:0:0:0:
192,192,15170,1,8,0:0:0:70:
448,192,15170,1,0,0:0:0:0:
320,192,15374,1,0,0:0:0:0:
192,192,15782,1,2,0:0:0:0:
64,192,15986,1,8,0:0:0:70:
448,192,15986,1,0,0:0:0:0:
64,192,16394,1,2,0:0:0:0:
64,192,16598,1,2,0:0:0:0:
192,192,16802,1,8,0:0:0:70:
448,192,16802,1,0,0:0:0:0:
320,192,17006,1,0,0:0:0:0:
448,192,17210,1,0,0:0:0:0:
64,192,17414,1,2,0:0:0:0:
192,192,17619,1,8,0:0:0:70:
448,192,17619,1,0,0:0:0:0:
320,192,17823,1,0,0:0:0:0:
448,192,18027,1,2,0:0:0:0:
448,192,18231,1,2,0:0:0:0:
64,192,18435,1,8,0:0:0:70:
192,192,18435,1,0,0:0:0:0:
320,192,18639,1,0,0:0:0:0:
448,192,18843,1,0,0:0:0:0:
192,192,19047,1,2,0:0:0:0:
64,192,19251,1,8,0:0:0:70:
448,192,19251,1,0,0:0:0:0:
320,192,19455,1,0,0:0:0:0:
64,192,19659,1,2,0:0:0:0:
64,192,19863,1,2,0:0:0:0:
192,192,20067,1,8,0:0:0:70:
320,192,20067,1,0,0:0:0:0:
64,192,20476,1,0,0:0:0:0:
192,192,20680,1,2,0:0:0:0:
64,192,20884,1,8,0:0:0:70:
448,192,20884,1,0,0:0:0:0:
320,192,21088,1,0,0:0:0:0:
448,192,21292,1,2,0:0:0:0:
448,192,21496,1,2,0:0:0:0:
64,192,22925,128,2,23333:0:0:0:0:
192,192,22925,1,4,0:0:0:0:
448,192,22925,1,0,0:0:0:0:
320,192,23129,1,0,0:0:0:30:Hat Open2.wav
192,192,23333,128,8,23537:0:0:0:70:
448,192,23333,1,0,0:0:0:0:
64,192,23537,1,0,0:0:0:30:Hat Open2.wav
192,192,23741,1,2,0:0:0:0:
320,192,23741,128,0,24149:0:0:0:0:
64,192,23945,1,0,0:0:0:30:Hat Open2.wav
192,192,24149,1,8,0:0:0:70:
448,192,24149,128,0,24353:0:0:0:0:
320,192,24353,1,0,0:0:0:30:Hat Open2.wav
64,192,24557,128,2,24965:0:0:0:0:
192,192,24557,1,0,0:0:0:0:
448,192,24761,1,0,0:0:0:30:Hat Open2.wav
192,192,24965,128,8,25170:0:0:0:70:
320,192,24965,1,0,0:0:0:0:
64,192,25170,1,0,0:0:0:30:Hat Open2.wav
192,192,25374,1,2,0:0:0:0:
320,192,25374,128,0,25782:0:0:0:0:
64,192,25578,1,0,0:0:0:30:Hat Open2.wav
192,192,25782,1,8,0:0:0:70:
448,192,25782,128,0,25986:0:0:0:0:
320,192,25986,1,0,0:0:0:30:Hat Open2.wav
64,192,26190,128,2,26394:0:0:0:0:
192,192,26190,1,0,0:0:0:0:
320,192,26394,1,0,0:0:0:30:Hat Open2.wav
64,192,26598,128,8,27006:0:0:0:70:
448,192,26598,1,0,0:0:0:0:
320,192,26802,1,0,0:0:0:30:Hat Open2.wav
192,192,27006,128,2,27210:0:0:0:0:
448,192,27006,1,0,0:0:0:0:
320,192,27210,1,0,0:0:0:30:Hat Open2.wav
192,192,27414,128,8,27619:0:0:0:70:
448,192,27414,1,0,0:0:0:0:
320,192,27619,128,0,27823:0:0:0:30:Hat Open2.wav
64,192,27823,1,2,0:0:0:0:
448,192,27823,1,0,0:0:0:0:
192,192,28027,128,0,28231:0:0:0:30:Hat Open2.wav
64,192,28231,1,8,0:0:0:70:
320,192,28231,128,0,28435:0:0:0:0:
192,192,28435,128,0,28639:0:0:0:30:Hat Open2.wav
64,192,28639,1,2,0:0:0:0:
448,192,28639,1,0,0:0:0:0:
320,192,28843,1,8,0:0:0:70:
448,192,28843,1,0,0:0:0:30:Hat Open2.wav
320,192,29047,1,8,0:0:0:70:
448,192,29047,128,0,29251:0:0:0:0:
192,192,29251,1,8,0:0:0:0:
320,192,29353,1,8,0:0:0:0:
64,192,29455,128,2,29659:0:0:0:0:
192,192,29455,1,4,0:0:0:0:
448,192,29455,1,0,0:0:0:0:
320,192,29659,1,0,0:0:0:30:Hat Open2.wav
192,192,29863,128,8,30067:0:0:0:0:
448,192,29863,1,0,0:0:0:0:
64,192,30067,1,0,0:0:0:30:Hat Open2.wav
192,192,30272,1,2,0:0:0:0:
320,192,30272,128,0,30476:0:0:0:0:
64,192,30476,1,0,0:0:0:30:Hat Open2.wav
192,192,30680,1,8,0:0:0:0:
448,192,30680,128,0,30884:0:0:0:0:
320,192,30884,1,0,0:0:0:30:Hat Open2.wav
64,192,31088,128,2,31292:0:0:0:0:
448,192,31088,1,0,0:0:0:0:
320,192,31292,1,0,0:0:0:30:Hat Open2.wav
192,192,31496,128,8,31700:0:0:0:0:
448,192,31496,1,0,0:0:0:0:
64,192,31700,1,0,0:0:0:30:Hat Open2.wav
192,192,31904,1,2,0:0:0:0:
320,192,31904,128,0,32108:0:0:0:0:
64,192,32108,1,0,0:0:0:30:Hat Open2.wav
192,192,32312,1,8,0:0:0:0:
448,192,32312,128,0,32516:0:0:0:0:
320,192,32516,1,0,0:0:0:30:Hat Open2.wav
192,192,32721,1,2,0:0:0:0:
448,192,32721,1,0,0:0:0:0:
320,192,32925,1,0,0:0:0:30:Hat Open2.wav
192,192,33129,1,8,0:0:0:0:
320,192,33129,1,0,0:0:0:0:
448,192,33333,1,0,0:0:0:30:Hat Open2.wav
192,192,33537,1,2,0:0:0:0:
320,192,33537,1,0,0:0:0:0:
320,192,33741,1,0,0:0:0:30:Hat Open2.wav
192,192,33945,1,8,0:0:0:0:
448,192,33945,1,0,0:0:0:0:
320,192,34149,1,2,0:0:0:0:
192,192,34251,1,2,0:0:0:0:
320,192,34353,1,2,0:0:0:0:
448,192,34353,1,0,0:0:0:70:Hat Open.wav
192,192,34557,1,2,0:0:0:0:
448,192,34557,1,0,0:0:0:0:
320,192,34761,1,8,0:0:0:0:
192,192,34863,1,8,0:0:0:0:
448,192,34965,1,2,0:0:0:0:
320,192,35170,1,2,0:0:0:0:
320,192,35374,1,2,0:0:0:0:
320,192,35578,1,8,0:0:0:0:
448,192,35578,1,4,0:0:0:0:
64,192,35986,128,4,36190:0:0:0:0:
192,192,35986,1,2,0:0:0:0:
448,192,35986,1,0,0:0:0:0:
320,192,36190,1,0,0:0:0:30:Hat Open2.wav
192,192,36394,128,8,36598:0:0:0:0:
448,192,36394,1,0,0:0:0:0:
64,192,36598,1,0,0:0:0:30:Hat Open2.wav
192,192,36802,1,2,0:0:0:0:
320,192,36802,128,0,37006:0:0:0:0:
64,192,37006,1,0,0:0:0:30:Hat Open2.wav
192,192,37210,1,8,0:0:0:0:
448,192,37210,128,0,37619:0:0:0:0:
320,192,37414,128,0,37619:0:0:0:30:Hat Open2.wav
64,192,37619,1,2,0:0:0:0:
192,192,37619,1,0,0:0:0:0:
192,192,37823,128,0,38027:0:0:0:30:Hat Open2.wav
64,192,38027,1,8,0:0:0:0:
448,192,38027,1,0,0:0:0:0:
320,192,38231,128,0,38435:0:0:0:30:Hat Open2.wav
64,192,38435,1,2,0:0:0:0:
192,192,38435,1,0,0:0:0:0:
448,192,38639,128,0,38843:0:0:0:30:Hat Open2.wav
192,192,38843,1,8,0:0:0:0:
320,192,38843,1,0,0:0:0:0:
448,192,39047,128,0,39251:0:0:0:30:Hat Open2.wav
64,192,39251,128,2,39455:0:0:0:0:
192,192,39251,1,0,0:0:0:0:
448,192,39455,1,0,0:0:0:30:Hat Open2.wav
192,192,39659,128,8,39863:0:0:0:0:
320,192,39659,1,0,0:0:0:0:
64,192,39863,1,0,0:0:0:30:Hat Open2.wav
192,192,40067,1,2,0:0:0:0:
320,192,40067,128,0,40272:0:0:0:0:
64,192,40272,1,0,0:0:0:30:Hat Open2.wav
192,192,40476,1,8,0:0:0:0:
448,192,40476,128,0,40884:0:0:0:0:
320,192,40680,128,0,40884:0:0:0:30:Hat Open2.wav
64,192,40884,1,2,0:0:0:0:
192,192,40884,1,0,0:0:0:0:
192,192,41088,128,0,41292:0:0:0:30:Hat Open2.wav
64,192,41292,1,8,0:0:0:0:
448,192,41292,1,0,0:0:0:0:
320,192,41496,128,0,41700:0:0:0:30:Hat Open2.wav
64,192,41700,1,2,0:0:0:0:
192,192,41700,1,0,0:0:0:0:
448,192,41904,128,0,42108:0:0:0:30:Hat Open2.wav
192,192,42108,1,8,0:0:0:0:
320,192,42108,1,0,0:0:0:0:
64,192,42312,1,2,0:0:0:0:
192,192,42414,1,0,0:0:0:0:
64,192,42516,128,2,42721:0:0:0:0:
320,192,42516,1,4,0:0:0:0:
448,192,42516,1,0,0:0:0:0:
192,192,42721,1,0,0:0:0:30:Hat Open2.wav
192,192,42925,128,8,43129:0:0:0:0:
320,192,42925,1,0,0:0:0:0:
448,192,43129,1,0,0:0:0:30:Hat Open2.wav
64,192,43333,1,2,0:0:0:0:
320,192,43333,128,0,43537:0:0:0:0:
192,192,43537,1,0,0:0:0:30:Hat Open2.wav
64,192,43741,1,8,0:0:0:0:
448,192,43741,128,0,43945:0:0:0:0:
320,192,43945,128,0,44149:0:0:0:30:Hat Open2.wav
64,192,44149,1,2,0:0:0:0:
192,192,44149,1,0,0:0:0:0:
448,192,44353,128,0,44557:0:0:0:30:Hat Open2.wav
64,192,44557,1,8,0:0:0:0:
320,192,44557,1,0,0:0:0:0:
448,192,44761,128,0,44965:0:0:0:30:Hat Open2.wav
64,192,44965,1,2,0:0:0:0:
192,192,44965,1,0,0:0:0:0:
448,192,45170,128,0,45374:0:0:0:30:Hat Open2.wav
192,192,45374,1,8,0:0:0:0:
320,192,45374,1,0,0:0:0:0:
448,192,45578,128,0,45782:0:0:0:30:Hat Open2.wav
64,192,45782,128,2,45986:0:0:0:0:
192,192,45782,1,0,0:0:0:0:
320,192,45986,1,0,0:0:0:30:Hat Open2.wav
192,192,46190,128,8,46394:0:0:0:0:
448,192,46190,1,0,0:0:0:0:
64,192,46394,1,0,0:0:0:30:Hat Open2.wav
192,192,46598,1,2,0:0:0:0:
320,192,46598,128,0,46802:0:0:0:0:
64,192,46802,1,0,0:0:0:30:Hat Open2.wav
192,192,47006,1,8,0:0:0:0:
448,192,47006,128,0,47210:0:0:0:0:
320,192,47210,1,8,0:0:0:0:
192,192,47312,1,8,0:0:0:0:
64,192,47414,1,2,0:0:0:0:
448,192,47414,1,0,0:0:0:100:Hat Open.wav
192,192,47619,1,0,0:0:0:70:ride02.wav
320,192,47823,1,2,0:0:0:0:
192,192,48027,1,0,0:0:0:70:ride02.wav
320,192,48231,1,2,0:0:0:0:
192,192,48435,1,0,0:0:0:70:ride02.wav
192,192,48639,128,2,48945:0:0:0:0:
320,192,48639,128,0,48945:0:0:0:0:
192,192,49047,1,2,0:0:0:0:
320,192,49047,1,4,0:0:0:0:
64,192,49149,1,0,0:0:0:0:
320,192,49251,1,0,0:0:0:0:
448,192,49353,1,0,0:0:0:0:
192,192,49455,1,8,0:0:0:0:
320,192,49455,1,0,0:0:0:0:
64,192,49557,1,0,0:0:0:0:
192,192,49659,1,0,0:0:0:0:
320,192,49761,1,0,0:0:0:0:
448,192,49863,1,2,0:0:0:0:
192,192,49965,1,0,0:0:0:0:
320,192,50067,1,0,0:0:0:0:
64,192,50170,1,0,0:0:0:0:
192,192,50272,1,8,0:0:0:0:
320,192,50272,1,0,0:0:0:0:
448,192,50374,1,0,0:0:0:0:
320,192,50476,1,0,0:0:0:0:
192,192,50578,1,0,0:0:0:0:
64,192,50680,1,2,0:0:0:0:
320,192,50782,1,0,0:0:0:0:
192,192,50884,1,0,0:0:0:0:
448,192,50986,1,0,0:0:0:0:
192,192,51088,1,8,0:0:0:0:
320,192,51088,1,0,0:0:0:0:
64,192,51190,1,0,0:0:0:0:
448,192,51292,1,0,0:0:0:0:
192,192,51394,1,0,0:0:0:0:
64,192,51496,1,2,0:0:0:0:
320,192,51598,1,0,0:0:0:0:
192,192,51700,1,0,0:0:0:0:
448,192,51802,1,0,0:0:0:0:
192,192,51904,1,8,0:0:0:0:
320,192,51904,1,0,0:0:0:0:
64,192,52006,1,0,0:0:0:0:
448,192,52108,1,0,0:0:0:0:
320,192,52210,1,0,0:0:0:0:
192,192,52312,1,2,0:0:0:0:
320,192,52414,1,0,0:0:0:0:
448,192,52516,1,0,0:0:0:0:
64,192,52619,1,0,0:0:0:0:
192,192,52721,1,8,0:0:0:0:
320,192,52721,1,0,0:0:0:0:
448,192,52823,1,0,0:0:0:0:
64,192,52925,1,0,0:0:0:0:
192,192,53027,1,0,0:0:0:0:
320,192,53129,1,2,0:0:0:0:
448,192,53231,1,0,0:0:0:0:
320,192,53333,1,0,0:0:0:0:
64,192,53435,1,0,0:0:0:0:
192,192,53537,1,8,0:0:0:0:
320,192,53537,1,0,0:0:0:0:
448,192,53639,1,0,0:0:0:0:
64,192,53741,1,0,0:0:0:0:
320,192,53843,1,0,0:0:0:0:
192,192,53945,1,2,0:0:0:0:
448,192,54047,1,0,0:0:0:0:
320,192,54149,1,0,0:0:0:0:
64,192,54251,1,0,0:0:0:0:
192,192,54353,1,8,0:0:0:0:
320,192,54353,1,0,0:0:0:0:
448,192,54455,1,0,0:0:0:0:
192,192,54557,1,0,0:0:0:0:
64,192,54659,1,0,0:0:0:0:
320,192,54761,1,2,0:0:0:0:
192,192,54863,1,0,0:0:0:0:
448,192,54965,1,0,0:0:0:30:Hat Open2.wav
64,192,55067,1,0,0:0:0:0:
192,192,55170,1,8,0:0:0:0:
320,192,55170,1,0,0:0:0:0:
448,192,55272,1,0,0:0:0:0:
64,192,55374,1,0,0:0:0:30:Hat Open2.wav
192,192,55476,1,0,0:0:0:0:
448,192,55578,1,2,0:0:0:0:
320,192,55680,1,0,0:0:0:0:
192,192,55782,1,0,0:0:0:0:
64,192,55884,1,0,0:0:0:0:
320,192,55986,1,8,0:0:0:0:
448,192,55986,1,0,0:0:0:0:
192,192,56088,1,0,0:0:0:0:
64,192,56190,1,0,0:0:0:0:
448,192,56292,1,0,0:0:0:0:
320,192,56394,1,2,0:0:0:0:
192,192,56496,1,0,0:0:0:0:
64,192,56598,1,0,0:0:0:0:
192,192,56700,1,0,0:0:0:0:
320,192,56802,1,8,0:0:0:0:
448,192,56802,1,0,0:0:0:0:
64,192,56904,1,0,0:0:0:0:
192,192,57006,1,0,0:0:0:0:
320,192,57108,1,0,0:0:0:0:
448,192,57210,1,2,0:0:0:0:
320,192,57312,1,0,0:0:0:0:
192,192,57414,1,0,0:0:0:0:
64,192,57516,1,0,0:0:0:0:
320,192,57619,1,8,0:0:0:0:
448,192,57619,1,0,0:0:0:0:
192,192,57721,1,0,0:0:0:0:
64,192,57823,1,0,0:0:0:0:
448,192,57925,1,0,0:0:0:0:
320,192,58027,1,2,0:0:0:0:
192,192,58129,1,0,0:0:0:0:
64,192,58231,1,0,0:0:0:0:
192,192,58333,1,0,0:0:0:0:
320,192,58435,1,8,0:0:0:0:
448,192,58435,1,0,0:0:0:0:
64,192,58537,1,0,0:0:0:0:
192,192,58639,1,0,0:0:0:0:
320,192,58741,1,0,0:0:0:0:
448,192,58843,1,2,0:0:0:0:
320,192,58945,1,0,0:0:0:0:
192,192,59047,1,0,0:0:0:0:
64,192,59149,1,0,0:0:0:0:
320,192,59251,1,8,0:0:0:0:
448,192,59251,1,0,0:0:0:0:
192,192,59353,1,0,0:0:0:0:
64,192,59455,1,0,0:0:0:0:
448,192,59557,1,0,0:0:0:0:
320,192,59659,1,2,0:0:0:0:
192,192,59761,1,0,0:0:0:0:
64,192,59863,1,0,0:0:0:0:
192,192,59965,1,0,0:0:0:0:
320,192,60067,1,8,0:0:0:0:
448,192,60067,1,0,0:0:0:0:
64,192,60272,1,8,0:0:0:0:
320,192,60272,1,0,0:0:0:55:Hat Open2.wav
64,192,60680,1,0,0:0:0:0:
448,192,60782,1,0,0:0:0:0:
64,192,60884,1,0,0:0:0:0:
448,192,61088,1,0,0:0:0:0:
64,192,61292,1,0,0:0:0:0:
448,192,61496,1,0,0:0:0:0:
320,192,61598,1,0,0:0:0:0:
64,192,61700,1,0,0:0:0:0:
448,192,61904,1,0,0:0:0:0:
192,192,62108,1,2,0:0:0:0:
320,192,62108,1,4,0:0:0:0:
448,192,62312,1,0,0:0:0:30:Hat Open2.wav
320,192,62516,1,2,0:0:0:0:
192,192,62721,1,0,0:0:0:30:Hat Open2.wav
320,192,62925,1,2,0:0:0:0:
448,192,63129,1,0,0:0:0:30:Hat Open2.wav
320,192,63333,1,2,0:0:0:0:
192,192,63537,1,0,0:0:0:30:Hat Open2.wav
320,192,63741,1,2,0:0:0:0:
448,192,63945,1,0,0:0:0:30:Hat Open2.wav
320,192,64149,1,2,0:0:0:0:
192,192,64353,1,0,0:0:0:30:Hat Open2.wav
320,192,64557,1,2,0:0:0:0:
448,192,64761,1,0,0:0:0:30:Hat Open2.wav
320,192,64863,1,0,0:0:0:30:Hat Open2.wav
192,192,64965,1,2,0:0:0:0:
448,192,65170,1,0,0:0:0:30:Hat Open2.wav
320,192,65374,1,2,0:0:0:0:
192,192,65578,1,0,0:0:0:30:Hat Open2.wav
320,192,65782,1,2,0:0:0:0:
192,192,65884,1,0,0:0:0:0:
448,192,65986,1,0,0:0:0:30:Hat Open2.wav
320,192,66190,1,2,0:0:0:0:
192,192,66394,1,0,0:0:0:30:Hat Open2.wav
320,192,66598,1,2,0:0:0:0:
448,192,66802,1,0,0:0:0:30:Hat Open2.wav
320,192,67006,1,2,0:0:0:0:
192,192,67210,1,0,0:0:0:30:Hat Open2.wav
320,192,67414,1,2,0:0:0:0:
448,192,67619,1,0,0:0:0:30:Hat Open2.wav
320,192,67823,1,2,0:0:0:0:
192,192,68027,1,0,0:0:0:30:Hat Open2.wav
320,192,68129,1,0,0:0:0:0:
448,192,68231,1,2,0:0:0:0:
320,192,68435,1,0,0:0:0:30:Hat Open2.wav
64,192,68639,1,2,0:0:0:0:
192,192,68843,1,0,0:0:0:30:Hat Open2.wav
320,192,69047,1,2,0:0:0:0:
192,192,69251,1,0,0:0:0:30:Hat Open2.wav
64,192,69455,1,2,0:0:0:0:
192,192,69659,1,0,0:0:0:30:Hat Open2.wav
320,192,69863,1,2,0:0:0:0:
192,192,70067,1,0,0:0:0:30:Hat Open2.wav
64,192,70272,1,2,0:0:0:0:
192,192,70476,1,0,0:0:0:30:Hat Open2.wav
320,192,70680,1,2,0:0:0:0:
192,192,70884,1,0,0:0:0:30:Hat Open2.wav
64,192,71088,1,2,0:0:0:0:
320,192,71292,1,0,0:0:0:30:Hat Open2.wav
192,192,71394,1,0,0:0:0:0:
64,192,71496,1,2,0:0:0:0:
192,192,71700,1,0,0:0:0:30:Hat Open2.wav
320,192,71904,1,2,0:0:0:0:
192,192,72108,1,0,0:0:0:30:Hat Open2.wav
64,192,72312,1,2,0:0:0:0:
192,192,72516,1,0,0:0:0:30:Hat Open2.wav
320,192,72721,1,2,0:0:0:0:
192,192,72925,1,0,0:0:0:30:Hat Open2.wav
64,192,73129,1,2,0:0:0:0:
320,192,73129,1,8,0:0:0:0:
64,192,73333,1,10,0:0:0:0:
320,192,73333,1,0,0:0:0:50:Hat Open2.wav
64,192,73741,1,10,0:0:0:0:
320,192,73741,1,0,0:0:0:50:Hat Open2.wav
320,192,73945,1,8,0:0:0:0:
192,192,74047,1,8,0:0:0:0:
64,192,74149,1,10,0:0:0:0:
320,192,74149,1,0,0:0:0:50:Hat Open2.wav
64,192,74557,1,2,0:0:0:0:
192,192,74557,1,8,0:0:0:0:
64,192,74761,1,2,0:0:0:0:
192,192,74761,1,8,0:0:0:0:
192,192,75170,1,2,0:0:0:0:
320,192,75170,1,8,0:0:0:0:
448,192,75170,1,4,0:0:0:0:
192,192,75374,1,8,0:0:0:0:
320,192,75374,1,2,0:0:0:0:
448,192,75374,1,4,0:0:0:0:
448,192,75578,1,0,0:0:0:0:
448,192,75782,1,0,0:0:0:0:
192,192,75986,1,0,0:0:0:0:
320,192,76190,1,0,0:0:0:0:
320,192,76394,1,0,0:0:0:0:
448,192,76598,1,0,0:0:0:0:
320,192,76802,1,0,0:0:0:0:
192,192,77006,1,0,0:0:0:0:
192,192,77210,1,0,0:0:0:0:
448,192,77414,1,0,0:0:0:0:
320,192,77619,1,0,0:0:0:0:
320,192,77823,1,2,0:0:0:0:
448,192,77823,1,8,0:0:0:0:
320,192,78027,1,8,0:0:0:0:
448,192,78027,1,2,0:0:0:0:
320,192,78231,1,2,0:0:0:0:
448,192,78231,1,8,0:0:0:0:
64,192,78435,128,2,78639:0:0:0:0:
192,192,78435,1,4,0:0:0:0:
448,192,78435,1,8,0:0:0:0:
320,192,78639,1,0,0:0:0:30:Hat Open2.wav
192,192,78843,128,8,79047:0:0:0:0:
448,192,78843,1,0,0:0:0:0:
64,192,79047,1,0,0:0:0:30:Hat Open2.wav
192,192,79251,1,2,0:0:0:0:
320,192,79251,128,0,79455:0:0:0:0:
64,192,79455,1,0,0:0:0:30:Hat Open2.wav
192,192,79557,1,0,0:0:0:0:
320,192,79659,1,8,0:0:0:0:
448,192,79659,128,0,79863:0:0:0:0:
192,192,79863,1,0,0:0:0:30:Hat Open2.wav
64,192,80067,1,2,0:0:0:0:
448,192,80067,1,0,0:0:0:0:
320,192,80272,128,0,80476:0:0:0:30:Hat Open2.wav
64,192,80476,1,8,0:0:0:0:
192,192,80476,128,0,80680:0:0:0:0:
320,192,80680,128,0,80884:0:0:0:30:Hat Open2.wav
64,192,80884,1,2,0:0:0:0:
448,192,80884,1,0,0:0:0:0:
320,192,81088,1,8,0:0:0:0:
448,192,81088,1,0,0:0:0:30:Hat Open2.wav
320,192,81292,1,8,0:0:0:0:
448,192,81292,128,0,81496:0:0:0:0:
64,192,81496,1,8,0:0:0:0:
192,192,81598,1,8,0:0:0:0:
64,192,81700,128,2,81904:0:0:0:0:
320,192,81700,1,4,0:0:0:0:
448,192,81700,1,0,0:0:0:0:
192,192,81904,1,0,0:0:0:30:Hat Open2.wav
192,192,82108,128,8,82312:0:0:0:0:
448,192,82108,1,0,0:0:0:0:
64,192,82312,1,0,0:0:0:30:Hat Open2.wav
192,192,82516,1,2,0:0:0:0:
320,192,82516,128,0,82721:0:0:0:0:
64,192,82721,1,0,0:0:0:30:Hat Open2.wav
192,192,82925,1,8,0:0:0:0:
448,192,82925,128,0,83129:0:0:0:0:
320,192,83129,1,0,0:0:0:30:Hat Open2.wav
64,192,83333,128,2,83537:0:0:0:0:
448,192,83333,1,0,0:0:0:0:
320,192,83537,1,0,0:0:0:30:Hat Open2.wav
192,192,83741,128,8,83945:0:0:0:0:
448,192,83741,1,0,0:0:0:0:
64,192,83945,1,0,0:0:0:30:Hat Open2.wav
192,192,84149,1,2,0:0:0:0:
320,192,84149,128,0,84353:0:0:0:0:
64,192,84353,1,0,0:0:0:30:Hat Open2.wav
192,192,84557,1,8,0:0:0:0:
448,192,84557,128,0,84761:0:0:0:0:
320,192,84761,1,0,0:0:0:30:Hat Open2.wav
192,192,84965,1,2,0:0:0:0:
448,192,84965,1,0,0:0:0:0:
320,192,85170,1,0,0:0:0:30:Hat Open2.wav
192,192,85374,1,8,0:0:0:0:
320,192,85374,1,0,0:0:0:0:
448,192,85578,1,0,0:0:0:30:Hat Open2.wav
192,192,85782,1,2,0:0:0:0:
320,192,85782,1,0,0:0:0:0:
320,192,85986,1,0,0:0:0:30:Hat Open2.wav
192,192,86190,1,8,0:0:0:0:
448,192,86190,1,0,0:0:0:0:
320,192,86394,1,2,0:0:0:0:
192,192,86496,1,2,0:0:0:0:
320,192,86598,1,2,0:0:0:0:
448,192,86598,1,0,0:0:0:70:Hat Open.wav
448,192,87006,1,0,0:0:0:0:
448,192,87414,1,0,0:0:0:0:
320,192,87619,1,0,0:0:0:0:
192,192,87823,1,0,0:0:0:0:
320,192,88027,1,0,0:0:0:0:
64,192,88231,128,2,88639:0:0:0:0:
192,192,88231,1,4,0:0:0:0:
448,192,88231,1,0,0:0:0:0:
448,192,88435,1,0,0:0:0:30:Hat Open2.wav
192,192,88639,128,8,88843:0:0:0:0:
320,192,88639,1,0,0:0:0:0:
448,192,88843,1,0,0:0:0:30:Hat Open2.wav
64,192,89047,1,2,0:0:0:0:
320,192,89047,128,0,89251:0:0:0:0:
448,192,89251,1,0,0:0:0:30:Hat Open2.wav
192,192,89455,1,8,0:0:0:0:
448,192,89455,128,0,89659:0:0:0:0:
64,192,89659,1,0,0:0:0:30:Hat Open2.wav
320,192,89863,1,2,0:0:0:0:
448,192,89863,128,0,90067:0:0:0:0:
192,192,90067,1,0,0:0:0:30:Hat Open2.wav
64,192,90272,1,8,0:0:0:0:
448,192,90272,128,0,90476:0:0:0:0:
320,192,90476,1,0,0:0:0:30:Hat Open2.wav
192,192,90680,1,2,0:0:0:0:
448,192,90680,128,0,90884:0:0:0:0:
64,192,90884,1,0,0:0:0:30:Hat Open2.wav
320,192,91088,1,8,0:0:0:0:
448,192,91088,128,0,91292:0:0:0:0:
192,192,91292,1,0,0:0:0:30:Hat Open2.wav
64,192,91496,128,2,91700:0:0:0:0:
448,192,91496,1,0,0:0:0:0:
192,192,91700,1,0,0:0:0:30:Hat Open2.wav
64,192,91904,128,8,92312:0:0:0:0:
448,192,91904,1,0,0:0:0:0:
320,192,92108,1,0,0:0:0:30:Hat Open2.wav
192,192,92312,128,2,92516:0:0:0:0:
448,192,92312,1,0,0:0:0:0:
320,192,92516,1,0,0:0:0:30:Hat Open2.wav
192,192,92721,128,8,92925:0:0:0:0:
448,192,92721,1,0,0:0:0:0:
320,192,92925,128,0,93129:0:0:0:30:Hat Open2.wav
64,192,93129,1,2,0:0:0:0:
448,192,93129,1,0,0:0:0:0:
192,192,93333,128,0,93537:0:0:0:30:Hat Open2.wav
64,192,93537,1,8,0:0:0:0:
320,192,93537,128,0,93741:0:0:0:0:
192,192,93741,128,0,93945:0:0:0:30:Hat Open2.wav
64,192,93945,1,2,0:0:0:0:
448,192,93945,1,0,0:0:0:0:
320,192,94149,1,8,0:0:0:0:
448,192,94149,1,0,0:0:0:30:Hat Open2.wav
320,192,94353,1,8,0:0:0:0:
448,192,94353,128,0,94557:0:0:0:0:
192,192,94557,1,8,0:0:0:0:
320,192,94659,1,8,0:0:0:0:
64,192,94761,128,2,94965:0:0:0:0:
192,192,94761,1,4,0:0:0:0:
448,192,94761,1,0,0:0:0:0:
320,192,94965,1,0,0:0:0:30:Hat Open2.wav
192,192,95170,128,8,95374:0:0:0:0:
448,192,95170,1,0,0:0:0:0:
64,192,95374,1,0,0:0:0:30:Hat Open2.wav
192,192,95578,1,2,0:0:0:0:
320,192,95578,128,0,95782:0:0:0:0:
64,192,95782,1,0,0:0:0:30:Hat Open2.wav
192,192,95986,1,8,0:0:0:0:
448,192,95986,128,0,96190:0:0:0:0:
320,192,96190,1,0,0:0:0:30:Hat Open2.wav
64,192,96394,128,2,96598:0:0:0:0:
448,192,96394,1,0,0:0:0:0:
320,192,96598,1,0,0:0:0:30:Hat Open2.wav
192,192,96802,128,8,97006:0:0:0:0:
448,192,96802,1,0,0:0:0:0:
320,192,97006,128,0,97108:0:0:0:30:Hat Open2.wav
192,192,97210,1,2,0:0:0:0:
320,192,97210,128,0,97414:0:0:0:0:
64,192,97414,1,0,0:0:0:30:Hat Open2.wav
192,192,97619,1,8,0:0:0:0:
448,192,97619,128,0,97823:0:0:0:0:
320,192,97823,1,0,0:0:0:30:Hat Open2.wav
192,192,98027,1,2,0:0:0:0:
448,192,98027,1,0,0:0:0:0:
320,192,98231,1,0,0:0:0:30:Hat Open2.wav
192,192,98435,1,8,0:0:0:0:
320,192,98435,1,0,0:0:0:0:
448,192,98639,1,0,0:0:0:30:Hat Open2.wav
192,192,98843,1,2,0:0:0:0:
320,192,98843,1,0,0:0:0:0:
320,192,99047,1,0,0:0:0:30:Hat Open2.wav
192,192,99251,1,8,0:0:0:0:
448,192,99251,1,0,0:0:0:0:
320,192,99455,1,2,0:0:0:0:
192,192,99557,1,2,0:0:0:0:
320,192,99659,1,2,0:0:0:0:
448,192,99659,1,4,0:0:0:0:
192,192,99863,1,2,0:0:0:0:
448,192,99863,1,0,0:0:0:0:
320,192,100067,1,8,0:0:0:0:
192,192,100170,1,8,0:0:0:0:
448,192,100272,1,2,0:0:0:0:
320,192,100476,1,2,0:0:0:0:
320,192,100680,1,2,0:0:0:0:
320,192,100884,1,8,0:0:0:0:
448,192,100884,1,0,0:0:0:0:
64,192,101292,128,2,101496:0:0:0:0:
192,192,101292,1,4,0:0:0:0:
448,192,101292,1,0,0:0:0:0:
320,192,101496,1,0,0:0:0:30:Hat Open2.wav
192,192,101700,128,8,101904:0:0:0:70:
448,192,101700,1,0,0:0:0:0:
64,192,101904,1,0,0:0:0:30:Hat Open2.wav
192,192,102108,1,2,0:0:0:0:
320,192,102108,128,0,102312:0:0:0:0:
64,192,102312,1,0,0:0:0:30:Hat Open2.wav
192,192,102516,1,8,0:0:0:70:
448,192,102516,128,0,102925:0:0:0:0:
320,192,102721,128,0,102925:0:0:0:30:Hat Open2.wav
64,192,102925,1,2,0:0:0:0:
192,192,102925,1,0,0:0:0:0:
192,192,103129,128,0,103333:0:0:0:30:Hat Open2.wav
64,192,103333,1,8,0:0:0:70:
448,192,103333,1,0,0:0:0:0:
320,192,103537,128,0,103741:0:0:0:30:Hat Open2.wav
64,192,103741,1,2,0:0:0:0:
192,192,103741,1,0,0:0:0:0:
448,192,103945,128,0,104149:0:0:0:30:Hat Open2.wav
192,192,104149,1,8,0:0:0:70:
320,192,104149,1,0,0:0:0:0:
448,192,104353,128,0,104557:0:0:0:30:Hat Open2.wav
64,192,104557,128,2,104761:0:0:0:0:
192,192,104557,1,0,0:0:0:0:
448,192,104761,1,0,0:0:0:30:Hat Open2.wav
192,192,104965,128,8,105170:0:0:0:70:
320,192,104965,1,0,0:0:0:0:
64,192,105170,1,0,0:0:0:30:Hat Open2.wav
192,192,105374,1,2,0:0:0:0:
320,192,105374,128,0,105578:0:0:0:0:
64,192,105578,1,0,0:0:0:30:Hat Open2.wav
192,192,105782,1,8,0:0:0:70:
448,192,105782,128,0,106190:0:0:0:0:
320,192,105986,128,0,106190:0:0:0:30:Hat Open2.wav
64,192,106190,1,2,0:0:0:0:
192,192,106190,1,0,0:0:0:0:
192,192,106394,128,0,106598:0:0:0:30:Hat Open2.wav
64,192,106598,1,8,0:0:0:70:
448,192,106598,1,0,0:0:0:0:
320,192,106802,128,0,107006:0:0:0:30:Hat Open2.wav
64,192,107006,1,2,0:0:0:0:
192,192,107006,1,0,0:0:0:0:
448,192,107210,128,0,107414:0:0:0:30:Hat Open2.wav
64,192,107414,1,8,0:0:0:70:
192,192,107414,1,0,0:0:0:0:
320,192,107619,1,8,0:0:0:0:
192,192,107721,1,8,0:0:0:0:
320,192,107823,1,2,0:0:0:0:
320,192,108027,1,2,0:0:0:0:
64,192,108231,128,8,109047:0:0:0:0:
192,192,108231,128,4,109047:0:0:0:0:
448,192,108231,1,0,0:0:0:0:
320,192,108639,128,2,109047:0:0:0:0:
448,192,109047,128,8,109455:0:0:0:0:
64,192,109251,128,0,109455:0:0:0:30:Hat Open2.wav
320,192,109455,1,2,0:0:0:0:
192,192,109659,128,0,109863:0:0:0:30:Hat Open2.wav
64,192,109863,1,8,0:0:0:0:
448,192,109863,1,0,0:0:0:0:
320,192,110067,128,0,110476:0:0:0:30:Hat Open2.wav
192,192,110272,128,2,110476:0:0:0:0:
448,192,110476,128,0,110680:0:0:0:30:Hat Open2.wav
64,192,110680,1,8,0:0:0:0:
320,192,110680,1,0,0:0:0:0:
448,192,110884,128,0,111088:0:0:0:30:Hat Open2.wav
64,192,111088,128,2,111292:0:0:0:0:
192,192,111088,1,0,0:0:0:0:
320,192,111292,1,0,0:0:0:30:Hat Open2.wav
192,192,111496,128,8,111700:0:0:0:0:
448,192,111496,1,0,0:0:0:0:
64,192,111700,1,0,0:0:0:30:Hat Open2.wav
192,192,111904,1,2,0:0:0:0:
320,192,111904,128,0,112108:0:0:0:0:
64,192,112108,1,0,0:0:0:30:Hat Open2.wav
192,192,112312,1,8,0:0:0:0:
448,192,112312,128,0,112516:0:0:0:0:
320,192,112516,1,2,0:0:0:0:
192,192,112619,1,2,0:0:0:0:
64,192,112721,1,2,0:0:0:0:
448,192,112721,1,0,0:0:0:25:soft-hitfinish.wav
64,192,112925,1,0,0:0:0:0:
192,192,113027,1,0,0:0:0:0:
64,192,113129,1,0,0:0:0:0:
448,192,113333,1,0,0:0:0:0:
320,192,113435,1,0,0:0:0:0:
448,192,113537,1,0,0:0:0:0:
192,192,113741,1,0,0:0:0:0:
192,192,113945,128,0,114251:0:0:0:50:tom3.wav
320,192,113945,128,0,114251:0:0:0:0:
64,192,114353,1,2,0:0:0:0:
192,192,114353,1,4,0:0:0:0:
448,192,114353,1,0,0:0:0:0:
320,192,114557,1,0,0:0:0:0:
192,192,114761,1,0,0:0:0:0:
448,192,114965,1,0,0:0:0:0:
320,192,115170,1,0,0:0:0:0:
448,192,115374,1,0,0:0:0:0:
320,192,115578,1,0,0:0:0:0:
192,192,115782,1,0,0:0:0:0:
448,192,115986,1,0,0:0:0:0:
192,192,116190,1,0,0:0:0:0:
448,192,116394,1,0,0:0:0:0:
320,192,116598,1,0,0:0:0:0:
192,192,116802,1,0,0:0:0:0:
320,192,117006,1,0,0:0:0:0:
192,192,117210,1,8,0:0:0:0:
448,192,117210,1,0,0:0:0:0:
448,192,117414,1,2,0:0:0:0:
64,192,117619,1,2,0:0:0:0:
192,192,117619,1,4,0:0:0:0:
320,192,117619,1,0,0:0:0:0:
192,192,118027,1,8,0:0:0:0:
320,192,118027,1,0,0:0:0:0:
64,192,118435,1,2,0:0:0:0:
192,192,118843,1,8,0:0:0:0:
320,192,118843,1,0,0:0:0:0:
192,192,119047,1,0,0:0:0:50:tom4.wav
320,192,119149,1,0,0:0:0:50:tom4.wav
192,192,119251,1,2,0:0:0:0:
64,192,119455,1,0,0:0:0:50:tom4.wav
192,192,119659,1,8,0:0:0:0:
320,192,119659,1,0,0:0:0:0:
64,192,119863,1,0,0:0:0:50:tom3.wav
320,192,120067,1,2,0:0:0:0:
64,192,120272,1,0,0:0:0:50:tom3.wav
192,192,120476,1,8,0:0:0:0:
320,192,120476,1,0,0:0:0:0:
64,192,120680,1,0,0:0:0:50:tom3.wav
192,192,120884,1,2,0:0:0:0:
448,192,120884,1,4,0:0:0:0:
192,192,121292,1,8,0:0:0:0:
320,192,121292,1,0,0:0:0:0:
448,192,121496,1,0,0:0:0:0:
320,192,121700,1,2,0:0:0:0:
192,192,121904,1,0,0:0:0:0:
320,192,122108,1,8,0:0:0:0:
448,192,122108,1,0,0:0:0:0:
192,192,122312,1,0,0:0:0:50:tom4.wav
320,192,122414,1,0,0:0:0:50:tom4.wav
448,192,122516,1,2,0:0:0:0:
192,192,122721,1,0,0:0:0:50:tom4.wav
320,192,122925,1,8,0:0:0:0:
448,192,122925,1,0,0:0:0:0:
192,192,123129,1,0,0:0:0:50:tom3.wav
320,192,123333,1,2,0:0:0:0:
448,192,123537,1,0,0:0:0:50:tom3.wav
192,192,123741,1,8,0:0:0:0:
320,192,123741,1,0,0:0:0:0:
448,192,123945,1,0,0:0:0:50:tom3.wav
192,192,124149,1,2,0:0:0:0:
192,192,124557,1,8,0:0:0:0:
320,192,124557,1,0,0:0:0:0:
448,192,124965,1,2,0:0:0:0:
320,192,125170,1,0,0:0:0:0:
192,192,125374,1,8,0:0:0:0:
448,192,125374,1,0,0:0:0:30:Hat Open2.wav
192,192,125578,1,8,0:0:0:0:
320,192,125578,1,0,0:0:0:30:Hat Open2.wav
448,192,125986,1,0,0:0:0:30:Hat Open2.wav
192,192,126088,1,8,0:0:0:0:
448,192,126190,1,8,0:0:0:0:
320,192,126394,1,2,0:0:0:0:
192,192,126598,1,8,0:0:0:0:
448,192,126598,1,0,0:0:0:30:Hat Open2.wav
192,192,126802,1,8,0:0:0:0:
448,192,126802,1,0,0:0:0:30:Hat Open2.wav
320,192,126904,1,0,0:0:0:0:
448,192,127006,1,2,0:0:0:0:
448,192,127210,1,2,0:0:0:0:
192,192,127414,1,2,0:0:0:0:
320,192,127414,1,0,0:0:0:40:Hat Open2.wav
64,192,127619,1,0,0:0:0:0:
320,192,127823,1,2,0:0:0:0:
64,192,128027,1,0,0:0:0:0:
320,192,128231,1,2,0:0:0:0:
64,192,128435,1,0,0:0:0:0:
192,192,128639,1,2,0:0:0:0:
320,192,128639,1,8,0:0:0:0:
64,192,128843,1,0,0:0:0:0:
192,192,128945,1,0,0:0:0:0:
448,192,129047,1,2,0:0:0:0:
192,192,129251,1,0,0:0:0:0:
448,192,129455,1,2,0:0:0:0:
192,192,129659,1,0,0:0:0:0:
448,192,129863,1,2,0:0:0:0:
192,192,130067,1,0,0:0:0:0:
448,192,130272,1,2,0:0:0:0:
192,192,130476,1,8,0:0:0:0:
320,192,130476,1,0,0:0:0:50:Hat Open2.wav
64,192,130680,1,2,0:0:0:0:
448,192,130680,1,0,0:0:0:70:Hat Open.wav
320,192,130884,1,0,0:0:0:0:
192,192,131088,1,2,0:0:0:0:
448,192,131292,1,0,0:0:0:0:
192,192,131496,1,2,0:0:0:0:
320,192,131700,1,0,0:0:0:0:
64,192,131904,1,2,0:0:0:0:
192,192,131904,1,8,0:0:0:0:
320,192,132108,1,0,0:0:0:0:
192,192,132210,1,0,0:0:0:0:
320,192,132312,1,2,0:0:0:0:
64,192,132516,1,0,0:0:0:0:
320,192,132721,1,2,0:0:0:0:
64,192,132925,1,0,0:0:0:0:
320,192,133129,1,2,0:0:0:0:
64,192,133333,1,0,0:0:0:50:Hat Open2.wav
320,192,133537,1,10,0:0:0:0:
192,192,133673,1,8,0:0:0:0:
192,192,133809,1,8,0:0:0:0:
64,192,133945,1,2,0:0:0:0:
448,192,133945,1,0,0:0:0:70:Hat Open.wav
320,192,134149,1,2,0:0:0:0:
192,192,134353,1,2,0:0:0:0:
320,192,134557,1,0,0:0:0:0:
448,192,134761,1,2,0:0:0:0:
320,192,134965,1,0,0:0:0:0:
64,192,135170,1,2,0:0:0:0:
192,192,135170,1,8,0:0:0:0:
448,192,135374,1,0,0:0:0:0:
320,192,135476,1,0,0:0:0:0:
64,192,135578,1,2,0:0:0:0:
448,192,135782,1,0,0:0:0:0:
64,192,135986,1,2,0:0:0:0:
320,192,136190,1,0,0:0:0:0:
64,192,136394,1,2,0:0:0:0:
448,192,136598,1,0,0:0:0:0:
64,192,136802,1,2,0:0:0:0:
192,192,137006,1,8,0:0:0:0:
320,192,137006,1,0,0:0:0:0:
64,192,137210,1,2,0:0:0:0:
448,192,137210,1,0,0:0:0:50:Hat Open2.wav
320,192,137414,1,0,0:0:0:0:
192,192,137619,1,2,0:0:0:0:
320,192,137823,1,0,0:0:0:0:
448,192,138027,1,2,0:0:0:0:
320,192,138231,1,0,0:0:0:0:
64,192,138435,1,2,0:0:0:0:
192,192,138435,1,8,0:0:0:0:
448,192,138571,1,0,0:0:0:0:
448,192,138707,1,0,0:0:0:0:
320,192,138843,1,2,0:0:0:0:
192,192,139047,1,0,0:0:0:30:Hat Open2.wav
320,192,139251,1,2,0:0:0:0:
192,192,139455,1,0,0:0:0:30:Hat Open2.wav
64,192,139659,1,2,0:0:0:0:
64,192,139863,1,2,0:0:0:0:
192,192,140067,1,8,0:0:0:0:
320,192,140067,1,2,0:0:0:0:
64,192,140272,1,0,0:0:0:0:
192,192,140374,1,0,0:0:0:0:
64,192,140476,1,2,0:0:0:0:
320,192,140476,1,4,0:0:0:0:
448,192,140476,128,0,140680:0:0:0:0:
192,192,140680,1,0,0:0:0:30:Hat Open2.wav
64,192,140884,128,8,141088:0:0:0:0:
448,192,140884,1,0,0:0:0:0:
192,192,141088,1,0,0:0:0:30:Hat Open2.wav
64,192,141292,1,2,0:0:0:0:
320,192,141292,128,0,141496:0:0:0:0:
192,192,141496,1,0,0:0:0:30:Hat Open2.wav
64,192,141700,128,8,141904:0:0:0:0:
448,192,141700,1,0,0:0:0:0:
192,192,141904,128,0,142108:0:0:0:30:Hat Open2.wav
320,192,142108,1,2,0:0:0:0:
448,192,142108,1,0,0:0:0:0:
192,192,142312,1,0,0:0:0:30:Hat Open2.wav
64,192,142516,128,8,142721:0:0:0:0:
448,192,142516,1,0,0:0:0:0:
192,192,142721,128,0,142925:0:0:0:30:Hat Open2.wav
64,192,142925,1,2,0:0:0:0:
448,192,142925,1,0,0:0:0:0:
192,192,143129,1,0,0:0:0:30:Hat Open2.wav
320,192,143231,1,0,0:0:0:30:Hat Open2.wav
64,192,143333,1,8,0:0:0:0:
448,192,143333,1,0,0:0:0:0:
320,192,143537,1,0,0:0:0:30:Hat Open2.wav
192,192,143639,1,0,0:0:0:0:
64,192,143741,1,2,0:0:0:0:
448,192,143741,128,0,143945:0:0:0:0:
192,192,143945,1,0,0:0:0:30:Hat Open2.wav
64,192,144149,128,8,144353:0:0:0:0:
320,192,144149,1,0,0:0:0:0:
448,192,144353,1,0,0:0:0:30:Hat Open2.wav
192,192,144557,128,2,144761:0:0:0:0:
320,192,144557,1,0,0:0:0:0:
64,192,144761,1,0,0:0:0:30:Hat Open2.wav
192,192,144965,1,8,0:0:0:0:
320,192,144965,1,0,0:0:0:0:
192,192,145170,128,0,145374:0:0:0:30:Hat Open2.wav
64,192,145374,1,2,0:0:0:0:
448,192,145374,1,0,0:0:0:0:
320,192,145578,1,0,0:0:0:30:Hat Open2.wav
192,192,145782,1,8,0:0:0:0:
320,192,145782,128,0,145986:0:0:0:0:
64,192,145986,1,0,0:0:0:30:Hat Open2.wav
192,192,146190,1,2,0:0:0:0:
448,192,146190,1,0,0:0:0:0:
320,192,146394,1,0,0:0:0:30:Hat Open2.wav
64,192,146496,1,0,0:0:0:0:
320,192,146598,1,8,0:0:0:0:
448,192,146598,1,0,0:0:0:0:
192,192,146802,1,0,0:0:0:30:Hat Open2.wav
320,192,146904,1,0,0:0:0:0:
64,192,147006,1,2,0:0:0:0:
192,192,147006,1,4,0:0:0:0:
448,192,147006,128,0,147210:0:0:0:0:
320,192,147210,1,0,0:0:0:30:Hat Open2.wav
64,192,147414,128,8,147619:0:0:0:0:
448,192,147414,1,0,0:0:0:0:
192,192,147619,1,0,0:0:0:30:Hat Open2.wav
64,192,147823,1,2,0:0:0:0:
320,192,147823,128,0,148027:0:0:0:0:
192,192,148027,1,0,0:0:0:30:Hat Open2.wav
64,192,148231,128,8,148435:0:0:0:0:
448,192,148231,1,0,0:0:0:0:
320,192,148435,128,0,148639:0:0:0:30:Hat Open2.wav
192,192,148639,1,2,0:0:0:0:
448,192,148639,1,0,0:0:0:0:
320,192,148843,1,0,0:0:0:30:Hat Open2.wav
64,192,149047,128,8,149251:0:0:0:0:
448,192,149047,1,0,0:0:0:0:
192,192,149251,128,0,149455:0:0:0:30:Hat Open2.wav
64,192,149455,1,2,0:0:0:0:
320,192,149455,1,0,0:0:0:0:
192,192,149659,128,0,149863:0:0:0:30:Hat Open2.wav
320,192,149863,1,8,0:0:0:0:
448,192,149863,1,0,0:0:0:0:
64,192,150067,1,0,0:0:0:30:Hat Open2.wav
192,192,150170,1,0,0:0:0:0:
320,192,150272,1,2,0:0:0:0:
448,192,150272,128,0,150476:0:0:0:0:
64,192,150476,1,0,0:0:0:30:Hat Open2.wav
192,192,150680,1,8,0:0:0:0:
448,192,150680,128,0,150884:0:0:0:0:
320,192,150884,1,0,0:0:0:30:Hat Open2.wav
64,192,151088,128,2,151292:0:0:0:0:
448,192,151088,1,0,0:0:0:0:
320,192,151292,1,0,0:0:0:30:Hat Open2.wav
64,192,151496,1,8,0:0:0:0:
192,192,151496,1,2,0:0:0:0:
320,192,151700,1,2,0:0:0:0:
448,192,151700,1,0,0:0:0:50:Hat Open2.wav
320,192,152108,1,2,0:0:0:0:
448,192,152108,1,0,0:0:0:60:Hat Open2.wav
192,192,152312,1,8,0:0:0:0:
64,192,152414,1,8,0:0:0:0:
320,192,152516,1,2,0:0:0:0:
448,192,152516,1,0,0:0:0:70:Hat Open2.wav
192,192,152721,1,2,0:0:0:0:
64,192,152925,1,8,0:0:0:0:
448,192,152925,1,0,0:0:0:0:
64,192,153129,1,8,0:0:0:0:
448,192,153129,1,0,0:0:0:0:
64,192,153333,1,8,0:0:0:0:
448,192,153333,1,0,0:0:0:0:
192,192,153537,1,2,0:0:0:0:
320,192,153537,128,4,153843:0:0:0:0:
448,192,153537,1,0,0:0:0:0:
64,192,153741,1,0,0:0:0:30:Hat Open2.wav
192,192,153945,1,8,0:0:0:0:
320,192,153945,128,0,154149:0:0:0:0:
448,192,154149,1,0,0:0:0:30:Hat Open2.wav
192,192,154353,1,2,0:0:0:0:
320,192,154353,128,0,154557:0:0:0:0:
64,192,154557,1,0,0:0:0:30:Hat Open2.wav
192,192,154761,1,8,0:0:0:0:
320,192,154761,128,0,154965:0:0:0:0:
448,192,154965,1,0,0:0:0:30:Hat Open2.wav
192,192,155170,1,2,0:0:0:0:
320,192,155170,128,0,155374:0:0:0:0:
64,192,155374,1,0,0:0:0:30:Hat Open2.wav
192,192,155578,1,8,0:0:0:0:
320,192,155578,128,0,155782:0:0:0:0:
448,192,155782,1,0,0:0:0:30:Hat Open2.wav
192,192,155986,1,2,0:0:0:0:
320,192,155986,128,0,156292:0:0:0:0:
64,192,156190,1,0,0:0:0:30:Hat Open2.wav
192,192,156394,1,8,0:0:0:0:
320,192,156394,128,0,156598:0:0:0:0:
448,192,156598,1,0,0:0:0:30:Hat Open2.wav
64,192,156802,128,2,157006:0:0:0:0:
192,192,156802,1,0,0:0:0:0:
320,192,157006,1,0,0:0:0:30:Hat Open2.wav
64,192,157210,128,8,157414:0:0:0:0:
448,192,157210,1,0,0:0:0:0:
320,192,157414,1,0,0:0:0:30:Hat Open2.wav
64,192,157619,128,2,157823:0:0:0:0:
192,192,157619,1,0,0:0:0:0:
320,192,157823,1,0,0:0:0:30:Hat Open2.wav
64,192,158027,128,8,158435:0:0:0:0:
448,192,158027,1,0,0:0:0:0:
320,192,158231,128,0,158435:0:0:0:30:Hat Open2.wav
192,192,158435,1,2,0:0:0:0:
320,192,158639,128,0,159047:0:0:0:30:Hat Open2.wav
64,192,158843,128,8,159047:0:0:0:0:
192,192,158843,1,0,0:0:0:0:
448,192,159047,1,0,0:0:0:30:Hat Open2.wav
192,192,159251,1,2,0:0:0:0:
448,192,159251,1,0,0:0:0:0:
64,192,159455,128,8,159557:0:0:0:0:
320,192,159455,128,0,159557:0:0:0:30:Hat Open2.wav
64,192,159659,128,8,159863:0:0:0:0:
320,192,159659,128,0,159863:0:0:0:0:
192,192,159863,1,8,0:0:0:0:
320,192,159965,1,8,0:0:0:0:
64,192,160067,128,2,160272:0:0:0:0:
192,192,160067,1,4,0:0:0:0:
448,192,160067,1,0,0:0:0:0:
320,192,160272,1,0,0:0:0:30:Hat Open2.wav
64,192,160476,128,8,160680:0:0:0:0:
448,192,160476,1,0,0:0:0:0:
192,192,160680,1,0,0:0:0:30:Hat Open2.wav
64,192,160884,128,2,161088:0:0:0:0:
448,192,160884,1,0,0:0:0:0:
320,192,161088,1,0,0:0:0:30:Hat Open2.wav
64,192,161292,128,8,161496:0:0:0:0:
448,192,161292,1,0,0:0:0:0:
192,192,161496,1,0,0:0:0:30:Hat Open2.wav
64,192,161700,128,2,161904:0:0:0:0:
320,192,161700,1,0,0:0:0:0:
448,192,161904,1,0,0:0:0:30:Hat Open2.wav
192,192,162108,128,8,162312:0:0:0:0:
320,192,162108,1,0,0:0:0:0:
64,192,162312,1,0,0:0:0:30:Hat Open2.wav
192,192,162516,1,2,0:0:0:0:
320,192,162516,128,0,162721:0:0:0:0:
64,192,162721,1,0,0:0:0:30:Hat Open2.wav
192,192,162925,1,8,0:0:0:0:
448,192,162925,128,0,163129:0:0:0:0:
320,192,163129,1,0,0:0:0:30:Hat Open2.wav
64,192,163333,1,2,0:0:0:0:
192,192,163333,1,0,0:0:0:0:
320,192,163537,1,0,0:0:0:30:Hat Open2.wav
192,192,163741,1,8,0:0:0:0:
320,192,163741,1,0,0:0:0:0:
64,192,163945,1,0,0:0:0:30:Hat Open2.wav
192,192,164149,1,2,0:0:0:0:
320,192,164149,1,0,0:0:0:0:
320,192,164353,1,0,0:0:0:30:Hat Open2.wav
64,192,164557,1,8,0:0:0:0:
192,192,164557,1,0,0:0:0:0:
64,192,164761,1,2,0:0:0:0:
192,192,164863,1,2,0:0:0:0:
64,192,164965,1,2,0:0:0:0:
320,192,164965,1,0,0:0:0:100:Hat Open.wav
64,192,165170,1,2,0:0:0:0:
320,192,165170,1,0,0:0:0:0:
192,192,165374,1,8,0:0:0:0:
64,192,165476,1,8,0:0:0:40:soft-hitclap.wav
320,192,165578,1,2,0:0:0:0:
192,192,165680,1,0,0:0:0:0:
448,192,165782,1,2,0:0:0:0:
448,192,165986,1,8,0:0:0:0:
192,192,166190,1,2,0:0:0:0:
448,192,166190,1,0,0:0:0:100:Hat Open.wav
320,192,166394,1,2,0:0:0:0:
64,192,166598,1,2,0:0:0:0:
192,192,166598,1,0,0:0:0:0:
64,192,166802,1,2,0:0:0:0:
192,192,166802,1,0,0:0:0:0:
64,192,167006,1,4,0:0:0:0:
320,192,167006,1,8,0:0:0:0:
448,192,167006,1,2,0:0:0:0:
448,192,167210,1,0,0:0:0:30:Hat Open2.wav
192,192,167414,1,2,0:0:0:0:
448,192,167414,128,0,167619:0:0:0:0:
320,192,167619,1,0,0:0:0:30:Hat Open2.wav
192,192,167823,1,8,0:0:0:0:
448,192,167823,1,0,0:0:0:0:
448,192,168027,1,0,0:0:0:30:Hat Open2.wav
192,192,168231,1,2,0:0:0:0:
448,192,168231,128,0,168435:0:0:0:0:
320,192,168435,1,0,0:0:0:30:Hat Open2.wav
192,192,168639,1,8,0:0:0:0:
448,192,168639,1,0,0:0:0:0:
448,192,168843,1,0,0:0:0:30:Hat Open2.wav
320,192,169047,1,2,0:0:0:0:
448,192,169047,128,0,169251:0:0:0:0:
192,192,169251,1,0,0:0:0:30:Hat Open2.wav
320,192,169455,1,8,0:0:0:0:
448,192,169455,1,0,0:0:0:0:
448,192,169659,128,0,169863:0:0:0:30:Hat Open2.wav
192,192,169863,1,2,0:0:0:0:
320,192,169863,1,0,0:0:0:0:
64,192,170067,1,0,0:0:0:30:Hat Open2.wav
64,192,170272,128,8,170476:0:0:0:0:
320,192,170272,1,0,0:0:0:0:
192,192,170476,1,0,0:0:0:30:Hat Open2.wav
64,192,170680,1,2,0:0:0:0:
192,192,170680,128,0,170884:0:0:0:0:
320,192,170884,1,0,0:0:0:30:Hat Open2.wav
64,192,171088,1,8,0:0:0:0:
448,192,171088,128,0,171292:0:0:0:0:
320,192,171292,128,0,171496:0:0:0:30:Hat Open2.wav
192,192,171496,1,2,0:0:0:0:
448,192,171496,1,0,0:0:0:0:
64,192,171700,1,0,0:0:0:30:Hat Open2.wav
64,192,171904,128,8,172108:0:0:0:0:
320,192,171904,1,0,0:0:0:0:
192,192,172108,128,0,172312:0:0:0:30:Hat Open2.wav
64,192,172312,1,2,0:0:0:0:
448,192,172312,1,0,0:0:0:0:
320,192,172516,1,8,0:0:0:0:
448,192,172516,1,0,0:0:0:30:Hat Open2.wav
320,192,172721,1,8,0:0:0:0:
448,192,172721,128,0,172925:0:0:0:0:
192,192,172925,1,2,0:0:0:0:
64,192,173129,1,2,0:0:0:0:
192,192,173231,1,2,0:0:0:40:tom3.wav
64,192,173333,1,2,0:0:0:40:tom3.wav
64,192,173537,128,8,174149:0:0:0:0:
192,192,173537,128,4,174149:0:0:0:0:
448,192,173537,1,0,0:0:0:0:
320,192,173741,1,0,0:0:0:30:Hat Open2.wav
320,192,173945,128,2,174149:0:0:0:0:
448,192,174149,1,0,0:0:0:30:Hat Open2.wav
64,192,174353,1,8,0:0:0:0:
192,192,174353,128,0,174965:0:0:0:0:
320,192,174557,128,0,174965:0:0:0:30:Hat Open2.wav
448,192,174761,128,2,174965:0:0:0:0:
64,192,174965,1,0,0:0:0:30:Hat Open2.wav
64,192,175170,128,8,175782:0:0:0:0:
448,192,175170,1,0,0:0:0:0:
192,192,175374,128,0,175782:0:0:0:30:Hat Open2.wav
320,192,175578,128,2,175782:0:0:0:0:
448,192,175782,1,0,0:0:0:30:Hat Open2.wav
64,192,175986,1,8,0:0:0:0:
320,192,175986,128,0,176394:0:0:0:0:
448,192,176190,128,0,176394:0:0:0:30:Hat Open2.wav
192,192,176394,1,2,0:0:0:0:
64,192,176598,1,0,0:0:0:30:Hat Open2.wav
64,192,176802,1,8,0:0:0:0:
192,192,176802,1,0,0:0:0:0:
320,192,177006,1,0,0:0:0:30:Hat Open2.wav
64,192,177210,1,2,0:0:0:0:
192,192,177210,1,0,0:0:0:0:
448,192,177414,1,0,0:0:0:30:Hat Open2.wav
320,192,177619,1,8,0:0:0:0:
448,192,177619,1,0,0:0:0:0:
192,192,177823,1,8,0:0:0:0:
320,192,177925,1,8,0:0:0:0:
64,192,178027,1,2,0:0:0:0:
192,192,178027,1,4,0:0:0:0:
448,192,178027,1,0,0:0:0:0:
64,192,178231,1,0,0:0:0:30:tom2.wav
192,192,178333,1,0,0:0:0:30:tom2.wav
64,192,178435,1,2,0:0:0:0:
320,192,178639,1,0,0:0:0:30:tom3.wav
192,192,178741,1,0,0:0:0:30:tom3.wav
320,192,178843,1,2,0:0:0:0:
320,192,179047,1,2,0:0:0:0:
448,192,179047,1,8,0:0:0:0:
320,192,179251,1,2,0:0:0:0:
448,192,179251,1,8,0:0:0:0:
64,192,179455,1,0,0:0:0:30:tom4.wav
448,192,179455,1,0,0:0:0:0:
64,192,179659,1,2,0:0:0:0:
192,192,179659,1,4,0:0:0:0:
320,192,179659,1,0,0:0:0:0:
64,192,181292,1,0,0:0:0:0:
64,192,181496,1,0,0:0:0:0:
192,192,182516,1,8,0:0:0:0:
320,192,182516,1,0,0:0:0:0:
320,192,182721,1,2,0:0:0:0:
64,192,182925,1,2,0:0:0:0:
192,192,182925,1,4,0:0:0:0:
448,192,182925,1,0,0:0:0:0:
192,192,183129,1,0,0:0:0:0:
64,192,183333,1,8,0:0:0:0:
448,192,183333,1,0,0:0:0:0:
448,192,183537,1,0,0:0:0:0:
192,192,183741,1,2,0:0:0:0:
448,192,183741,1,0,0:0:0:0:
448,192,183945,1,0,0:0:0:0:
64,192,184149,1,8,0:0:0:0:
320,192,184149,1,0,0:0:0:0:
448,192,184353,1,2,0:0:0:0:
320,192,184455,1,2,0:0:0:0:
64,192,184557,1,2,0:0:0:0:
192,192,184557,1,0,0:0:0:0:
64,192,184761,1,2,0:0:0:0:
192,192,184965,1,8,0:0:0:0:
320,192,184965,1,0,0:0:0:0:
320,192,185170,1,0,0:0:0:0:
64,192,185374,1,2,0:0:0:0:
320,192,185374,1,0,0:0:0:0:
320,192,185578,1,0,0:0:0:55:tom2.wav
64,192,185782,1,8,0:0:0:0:
448,192,185782,1,0,0:0:0:0:
192,192,185986,1,0,0:0:0:55:tom2.wav
320,192,185986,1,0,0:0:0:0:
64,192,186190,1,2,0:0:0:0:
192,192,186190,1,4,0:0:0:0:
448,192,186190,1,0,0:0:0:0:
448,192,186394,1,0,0:0:0:0:
192,192,186598,1,8,0:0:0:0:
320,192,186598,1,0,0:0:0:0:
192,192,186802,1,0,0:0:0:0:
192,192,187006,1,2,0:0:0:0:
448,192,187006,1,0,0:0:0:0:
192,192,187210,1,0,0:0:0:0:
64,192,187414,1,8,0:0:0:0:
320,192,187414,1,0,0:0:0:0:
192,192,187619,1,0,0:0:0:25:tom3.wav
320,192,187721,1,0,0:0:0:25:tom3.wav
64,192,187823,1,2,0:0:0:0:
448,192,187823,1,0,0:0:0:0:
448,192,188027,1,0,0:0:0:40:tom2.wav
192,192,188231,1,8,0:0:0:0:
320,192,188231,1,0,0:0:0:0:
320,192,188435,1,0,0:0:0:0:
64,192,188639,1,2,0:0:0:0:
320,192,188639,1,0,0:0:0:0:
320,192,188843,1,0,0:0:0:25:tom3.wav
64,192,189047,1,8,0:0:0:0:
448,192,189047,1,0,0:0:0:0:
320,192,189251,1,0,0:0:0:25:tom3.wav
64,192,189455,1,2,0:0:0:0:
192,192,189455,1,4,0:0:0:0:
448,192,189455,1,0,0:0:0:0:
192,192,189659,1,0,0:0:0:0:
320,192,189863,1,8,0:0:0:0:
448,192,189863,1,0,0:0:0:0:
448,192,190067,1,0,0:0:0:20:tom3.wav
64,192,190272,1,2,0:0:0:0:
448,192,190272,1,0,0:0:0:0:
448,192,190476,1,0,0:0:0:20:tom3.wav
192,192,190680,1,8,0:0:0:0:
320,192,190680,1,0,0:0:0:0:
64,192,190884,1,0,0:0:0:20:tom3.wav
192,192,190986,1,0,0:0:0:20:tom3.wav
320,192,191088,1,2,0:0:0:0:
448,192,191088,1,0,0:0:0:0:
448,192,191292,1,0,0:0:0:35:tom2.wav
64,192,191496,1,8,0:0:0:0:
192,192,191496,1,0,0:0:0:0:
192,192,191700,1,0,0:0:0:20:tom3.wav
64,192,191904,1,2,0:0:0:0:
448,192,191904,1,0,0:0:0:0:
192,192,192108,1,8,0:0:0:0:
320,192,192108,1,0,0:0:0:60:Hat Open2.wav
192,192,192312,1,8,0:0:0:0:
320,192,192312,1,0,0:0:0:60:Hat Open2.wav
64,192,192721,1,2,0:0:0:0:
320,192,192721,1,4,0:0:0:0:
448,192,192721,1,0,0:0:0:0:
320,192,192925,1,2,0:0:0:0:
448,192,192925,1,0,0:0:0:0:
192,192,193129,1,8,0:0:0:0:
320,192,193129,1,0,0:0:0:0:
64,192,193537,1,2,0:0:0:0:
192,192,193537,1,0,0:0:0:0:
64,192,193741,1,2,0:0:0:0:
192,192,193741,1,0,0:0:0:0:
64,192,193945,1,8,0:0:0:0:
448,192,193945,1,0,0:0:0:0:
320,192,194353,1,2,0:0:0:0:
448,192,194353,1,0,0:0:0:0:
320,192,194557,1,2,0:0:0:0:
448,192,194557,1,0,0:0:0:0:
64,192,194761,1,8,0:0:0:0:
448,192,194761,1,0,0:0:0:0:
64,192,195170,1,2,0:0:0:0:
192,192,195170,1,0,0:0:0:0:
64,192,195374,1,2,0:0:0:0:
192,192,195374,1,0,0:0:0:0:
64,192,195578,1,8,0:0:0:0:
448,192,195578,1,0,0:0:0:0:
192,192,195986,1,2,0:0:0:0:
320,192,195986,1,4,0:0:0:0:
448,192,195986,1,0,0:0:0:0:
320,192,196190,1,2,0:0:0:0:
448,192,196190,1,0,0:0:0:0:
192,192,196394,1,8,0:0:0:0:
320,192,196394,1,0,0:0:0:0:
64,192,196802,1,2,0:0:0:0:
192,192,196802,1,0,0:0:0:0:
64,192,197006,1,2,0:0:0:0:
192,192,197006,1,0,0:0:0:0:
192,192,197210,1,8,0:0:0:0:
320,192,197210,1,0,0:0:0:0:
320,192,197619,1,2,0:0:0:0:
448,192,197619,1,0,0:0:0:0:
320,192,197823,1,2,0:0:0:0:
448,192,197823,1,0,0:0:0:0:
192,192,198027,1,8,0:0:0:0:
320,192,198027,1,0,0:0:0:0:
64,192,198435,1,2,0:0:0:0:
192,192,198435,1,0,0:0:0:0:
64,192,198639,1,2,0:0:0:0:
192,192,198639,1,0,0:0:0:0:
320,192,198843,1,8,0:0:0:0:
448,192,198843,1,0,0:0:0:0:
192,192,199047,1,2,0:0:0:0:
320,192,199047,1,0,0:0:0:0:
64,192,199251,1,2,0:0:0:0:
192,192,199251,1,4,0:0:0:0:
448,192,199251,1,0,0:0:0:0:
448,192,199455,1,2,0:0:0:0:
448,192,199659,1,2,0:0:0:0:
448,192,199863,1,2,0:0:0:0:
64,192,200067,1,2,0:0:0:0:
192,192,200067,1,0,0:0:0:0:
64,192,200272,1,2,0:0:0:0:
192,192,200272,1,0,0:0:0:0:
64,192,200476,1,2,0:0:0:0:
192,192,200476,1,0,0:0:0:0:
64,192,200680,1,2,0:0:0:0:
192,192,200680,1,0,0:0:0:0:
320,192,200884,1,2,0:0:0:0:
448,192,200884,1,0,0:0:0:0:
320,192,201088,1,2,0:0:0:0:
448,192,201088,1,0,0:0:0:0:
320,192,201292,1,2,0:0:0:0:
448,192,201292,1,0,0:0:0:0:
320,192,201496,1,2,0:0:0:0:
448,192,201496,1,0,0:0:0:0:
64,192,201700,1,2,0:0:0:0:
192,192,201700,1,0,0:0:0:0:
64,192,201904,1,2,0:0:0:0:
192,192,201904,1,0,0:0:0:0:
64,192,202108,1,2,0:0:0:0:
192,192,202108,1,0,0:0:0:0:
64,192,202312,1,2,0:0:0:0:
192,192,202312,1,0,0:0:0:0:
64,192,202516,1,2,0:0:0:0:
320,192,202516,1,4,0:0:0:0:
448,192,202516,1,0,0:0:0:0:
192,192,202721,1,2,0:0:0:0:
320,192,202823,1,0,0:0:0:0:
64,192,202925,1,2,0:0:0:0:
448,192,203027,1,8,0:0:0:0:
320,192,203129,1,2,0:0:0:0:
64,192,203231,1,8,0:0:0:0:
320,192,203333,1,2,0:0:0:0:
448,192,203333,1,0,0:0:0:0:
320,192,203537,1,2,0:0:0:0:
448,192,203537,1,0,0:0:0:0:
320,192,203741,1,2,0:0:0:0:
448,192,203741,1,0,0:0:0:0:
64,192,203945,1,2,0:0:0:0:
192,192,203945,1,4,0:0:0:0:
448,192,203945,1,8,0:0:0:0:
64,192,204353,1,2,0:0:0:0:
448,192,204353,1,0,0:0:0:30:Hat Open2.wav
192,192,204557,1,8,0:0:0:0:
320,192,204659,1,8,0:0:0:0:
64,192,204761,1,2,0:0:0:0:
448,192,204761,1,0,0:0:0:30:Hat Open2.wav
192,192,205170,1,2,0:0:0:0:
320,192,205170,1,8,0:0:0:0:
192,192,205374,1,2,0:0:0:0:
320,192,205374,1,8,0:0:0:0:
64,192,209047,128,2,209455:0:0:0:0:
320,192,209047,1,4,0:0:0:0:
448,192,209047,1,0,0:0:0:0:
448,192,209251,1,0,0:0:0:30:Hat Open2.wav
192,192,209455,128,8,209659:0:0:0:0:
320,192,209455,1,0,0:0:0:0:
448,192,209659,1,0,0:0:0:30:Hat Open2.wav
64,192,209863,1,2,0:0:0:0:
320,192,209863,128,0,210067:0:0:0:0:
448,192,210067,1,0,0:0:0:30:Hat Open2.wav
192,192,210272,1,8,0:0:0:0:
448,192,210272,128,0,210476:0:0:0:0:
64,192,210476,1,0,0:0:0:30:Hat Open2.wav
320,192,210680,1,2,0:0:0:0:
448,192,210680,128,0,210884:0:0:0:0:
192,192,210884,1,0,0:0:0:30:Hat Open2.wav
64,192,211088,1,8,0:0:0:0:
448,192,211088,128,0,211292:0:0:0:0:
320,192,211292,1,0,0:0:0:30:Hat Open2.wav
192,192,211496,1,2,0:0:0:0:
448,192,211496,128,0,211700:0:0:0:0:
64,192,211700,1,0,0:0:0:30:Hat Open2.wav
320,192,211904,1,8,0:0:0:0:
448,192,211904,128,0,212108:0:0:0:0:
192,192,212108,1,0,0:0:0:30:Hat Open2.wav
64,192,212312,128,2,212516:0:0:0:0:
448,192,212312,1,0,0:0:0:0:
192,192,212516,1,0,0:0:0:30:Hat Open2.wav
64,192,212721,128,8,212925:0:0:0:0:
448,192,212721,1,0,0:0:0:0:
320,192,212925,1,0,0:0:0:30:Hat Open2.wav
64,192,213129,1,2,0:0:0:0:
192,192,213129,128,0,213333:0:0:0:0:
448,192,213333,1,0,0:0:0:30:Hat Open2.wav
320,192,213435,1,0,0:0:0:0:
192,192,213537,128,8,213741:0:0:0:0:
448,192,213537,1,0,0:0:0:0:
320,192,213741,128,0,213945:0:0:0:30:Hat Open2.wav
64,192,213945,1,2,0:0:0:0:
448,192,213945,1,0,0:0:0:0:
192,192,214149,128,0,214353:0:0:0:30:Hat Open2.wav
64,192,214353,1,8,0:0:0:0:
320,192,214353,128,0,214557:0:0:0:0:
192,192,214557,128,0,214761:0:0:0:30:Hat Open2.wav
320,192,214761,1,2,0:0:0:0:
448,192,214761,1,0,0:0:0:0:
64,192,214965,128,8,215067:0:0:0:0:
448,192,214965,128,0,215067:0:0:0:30:Hat Open2.wav
64,192,215170,128,8,215374:0:0:0:0:
448,192,215170,128,0,215374:0:0:0:0:
192,192,215374,1,8,0:0:0:0:
320,192,215476,1,8,0:0:0:0:
64,192,215578,128,2,215782:0:0:0:0:
192,192,215578,1,4,0:0:0:0:
448,192,215578,1,0,0:0:0:0:
448,192,215782,1,0,0:0:0:30:Hat Open2.wav
192,192,215986,1,8,0:0:0:0:
320,192,215986,1,0,0:0:0:0:
64,192,216190,1,0,0:0:0:30:Hat Open2.wav
192,192,216394,1,2,0:0:0:0:
320,192,216394,128,0,216598:0:0:0:0:
64,192,216598,1,0,0:0:0:30:Hat Open2.wav
192,192,216802,1,8,0:0:0:0:
448,192,216802,128,0,217006:0:0:0:0:
320,192,217006,1,0,0:0:0:30:Hat Open2.wav
64,192,217210,128,2,217414:0:0:0:0:
448,192,217210,1,0,0:0:0:0:
320,192,217414,1,0,0:0:0:30:Hat Open2.wav
64,192,217619,1,8,0:0:0:0:
192,192,217619,128,0,217823:0:0:0:0:
320,192,217823,128,0,217925:0:0:0:30:Hat Open2.wav
64,192,218027,1,2,0:0:0:0:
320,192,218027,128,0,218231:0:0:0:0:
192,192,218231,1,0,0:0:0:30:Hat Open2.wav
64,192,218435,1,8,0:0:0:0:
448,192,218435,128,0,218639:0:0:0:0:
320,192,218639,1,0,0:0:0:30:Hat Open2.wav
192,192,218843,1,2,0:0:0:0:
448,192,218843,1,0,0:0:0:0:
320,192,219047,1,0,0:0:0:30:Hat Open2.wav
192,192,219251,1,8,0:0:0:0:
320,192,219251,1,0,0:0:0:0:
192,192,219455,1,0,0:0:0:30:Hat Open2.wav
320,192,219659,1,2,0:0:0:0:
448,192,219659,1,0,0:0:0:0:
448,192,219863,1,0,0:0:0:30:Hat Open2.wav
320,192,220067,1,8,0:0:0:0:
448,192,220067,1,0,0:0:0:0:
192,192,220272,1,2,0:0:0:0:
320,192,220374,1,2,0:0:0:0:
64,192,220476,1,2,0:0:0:0:
192,192,220476,1,4,0:0:0:0:
448,192,220476,1,0,0:0:0:0:
320,192,220680,1,8,0:0:0:0:
192,192,220782,1,0,0:0:0:0:
64,192,220884,1,2,0:0:0:0:
448,192,220884,1,4,0:0:0:0:
192,192,221088,1,8,0:0:0:0:
320,192,221190,1,0,0:0:0:0:
64,192,221292,1,2,0:0:0:0:
192,192,221292,1,4,0:0:0:0:
448,192,221292,1,0,0:0:0:0:
320,192,221496,1,8,0:0:0:0:
192,192,221598,1,0,0:0:0:0:
448,192,221700,1,6,0:0:0:0:
64,192,221802,1,0,0:0:0:0:
192,192,221904,1,2,0:0:0:0:
448,192,222006,1,0,0:0:0:0:
192,192,222108,128,2,222414:0:0:0:0:
320,192,222108,128,0,222414:0:0:0:0:
64,192,222516,1,8,0:0:0:0:
192,192,222516,128,4,222721:0:0:0:0:
448,192,222516,1,0,0:0:0:0:
320,192,222721,1,0,0:0:0:30:Hat Open2.wav
64,192,222925,1,2,0:0:0:0:
320,192,222925,128,0,223129:0:0:0:0:
192,192,223129,1,0,0:0:0:30:Hat Open2.wav
64,192,223333,1,8,0:0:0:0:
448,192,223333,128,0,223537:0:0:0:0:
320,192,223537,1,0,0:0:0:30:Hat Open2.wav
64,192,223741,1,2,0:0:0:0:
448,192,223741,128,0,224557:0:0:0:0:
192,192,223945,1,0,0:0:0:30:Hat Open2.wav
64,192,224149,128,8,224965:0:0:0:0:
320,192,224149,1,0,0:0:0:0:
192,192,224353,1,0,0:0:0:30:Hat Open2.wav
192,192,224557,128,2,224965:0:0:0:0:
320,192,224761,1,0,0:0:0:30:Hat Open2.wav
320,192,224965,128,8,225374:0:0:0:0:
448,192,224965,1,0,0:0:0:0:
448,192,225170,128,0,225374:0:0:0:30:Hat Open2.wav
64,192,225374,128,2,225578:0:0:0:0:
192,192,225374,1,0,0:0:0:0:
320,192,225578,1,0,0:0:0:30:Hat Open2.wav
64,192,225782,128,8,226190:0:0:0:0:
448,192,225782,1,0,0:0:0:0:
320,192,225986,1,0,0:0:0:30:Hat Open2.wav
192,192,226190,128,2,226394:0:0:0:0:
448,192,226190,1,0,0:0:0:0:
64,192,226394,1,0,0:0:0:30:Hat Open2.wav
192,192,226598,128,8,226700:0:0:0:0:
320,192,226598,1,0,0:0:0:0:
64,192,226802,128,0,226904:0:0:0:30:Hat Open2.wav
192,192,227006,1,2,0:0:0:0:
320,192,227006,1,0,0:0:0:0:
320,192,227210,128,0,227414:0:0:0:30:Hat Open2.wav
192,192,227414,128,8,227619:0:0:0:0:
448,192,227414,1,0,0:0:0:0:
320,192,227619,128,0,227823:0:0:0:30:Hat Open2.wav
64,192,227823,1,2,0:0:0:0:
448,192,227823,1,0,0:0:0:0:
64,192,228027,128,8,228129:0:0:0:0:
448,192,228027,128,0,228129:0:0:0:0:
64,192,228231,128,8,228435:0:0:0:0:
448,192,228231,128,0,228435:0:0:0:0:
192,192,228435,1,8,0:0:0:0:
448,192,228537,1,8,0:0:0:0:
64,192,228639,128,2,228843:0:0:0:0:
192,192,228639,1,4,0:0:0:0:
320,192,228639,128,0,228843:0:0:0:0:
448,192,228843,1,0,0:0:0:30:Hat Open2.wav
192,192,229047,128,8,229251:0:0:0:0:
320,192,229047,128,0,229251:0:0:0:0:
64,192,229251,1,0,0:0:0:30:Hat Open2.wav
192,192,229455,128,2,229659:0:0:0:0:
448,192,229455,128,0,229659:0:0:0:0:
64,192,229659,1,0,0:0:0:30:Hat Open2.wav
192,192,229863,128,8,230067:0:0:0:0:
320,192,229863,128,0,230067:0:0:0:0:
448,192,230067,1,0,0:0:0:30:Hat Open2.wav
64,192,230272,128,2,230476:0:0:0:0:
320,192,230272,128,0,230476:0:0:0:0:
448,192,230476,1,0,0:0:0:30:Hat Open2.wav
192,192,230680,128,8,230884:0:0:0:0:
320,192,230680,128,0,230884:0:0:0:0:
64,192,230884,1,0,0:0:0:30:Hat Open2.wav
192,192,231088,128,2,231292:0:0:0:0:
448,192,231088,128,0,231292:0:0:0:0:
64,192,231292,1,0,0:0:0:30:Hat Open2.wav
192,192,231496,128,8,231700:0:0:0:0:
320,192,231496,128,0,231700:0:0:0:0:
448,192,231700,1,0,0:0:0:30:Hat Open2.wav
192,192,231904,1,2,0:0:0:0:
320,192,231904,1,0,0:0:0:0:
64,192,232108,1,0,0:0:0:30:Hat Open2.wav
64,192,232312,1,8,0:0:0:0:
448,192,232312,1,0,0:0:0:0:
320,192,232516,1,0,0:0:0:30:Hat Open2.wav
192,192,232721,1,2,0:0:0:0:
448,192,232721,1,0,0:0:0:0:
448,192,232925,1,0,0:0:0:30:Hat Open2.wav
192,192,233129,1,8,0:0:0:0:
320,192,233129,1,0,0:0:0:0:
64,192,233333,1,2,0:0:0:0:
448,192,233333,1,0,0:0:0:0:
64,192,233537,1,2,0:0:0:0:
320,192,233537,1,4,0:0:0:0:
448,192,233537,1,0,0:0:0:0:
192,192,233741,1,2,0:0:0:0:
320,192,233741,1,0,0:0:0:30:Hat Open2.wav
64,192,233945,1,8,0:0:0:0:
192,192,234047,1,0,0:0:0:0:
320,192,234149,1,2,0:0:0:0:
448,192,234149,1,0,0:0:0:30:Hat Open2.wav
64,192,234353,1,2,0:0:0:0:
192,192,234353,1,0,0:0:0:0:
64,192,234761,1,10,0:0:0:0:
448,192,234761,1,0,0:0:0:100:Hat Open.wav
320,192,234965,1,0,0:0:0:0:
64,192,235170,128,2,235374:0:0:0:0:
192,192,235170,1,4,0:0:0:0:
320,192,235170,128,0,235986:0:0:0:0:
64,192,235578,128,0,235986:0:0:0:0:
192,192,235986,128,2,236598:0:0:0:0:
448,192,235986,128,4,236190:0:0:0:0:
448,192,236394,128,0,236802:0:0:0:0:
320,192,236598,128,0,236802:0:0:0:0:
64,192,236802,128,2,237619:0:0:0:0:
192,192,236802,1,4,0:0:0:0:
448,192,237006,1,0,0:0:0:0:
320,192,237414,1,0,0:0:0:0:
192,192,237619,1,2,0:0:0:0:
320,192,237619,1,4,0:0:0:0:
448,192,237619,128,0,238435:0:0:0:0:
64,192,237823,1,0,0:0:0:0:
192,192,237925,1,8,0:0:0:0:
320,192,238027,1,2,0:0:0:0:
192,192,238231,1,8,0:0:0:0:
64,192,238333,1,8,0:0:0:0:
192,192,238435,128,2,239251:0:0:0:0:
320,192,238435,128,4,238639:0:0:0:0:
320,192,238843,128,0,239251:0:0:0:0:
64,192,239251,128,2,239863:0:0:0:0:
448,192,239251,128,4,239455:0:0:0:0:
448,192,239659,128,0,240067:0:0:0:0:
320,192,239863,128,0,240067:0:0:0:0:
64,192,240067,128,2,240884:0:0:0:0:
192,192,240067,1,4,0:0:0:0:
320,192,240272,1,0,0:0:0:0:
320,192,240680,1,0,0:0:0:0:
192,192,240884,1,2,0:0:0:0:
320,192,240884,1,4,0:0:0:0:
448,192,240884,128,0,241496:0:0:0:0:
64,192,241088,1,8,0:0:0:0:
192,192,241088,1,0,0:0:0:0:
320,192,241292,1,8,0:0:0:0:
64,192,241496,1,8,0:0:0:0:
192,192,241598,1,0,0:0:0:0:
64,192,241700,1,2,0:0:0:0:
320,192,241700,1,0,0:0:0:40:soft-hitfinish.wav
448,192,241700,128,0,241904:0:0:0:0:
64,192,242108,128,2,242312:0:0:0:0:
192,192,242108,1,0,0:0:0:40:soft-hitfinish.wav
448,192,242108,128,0,242312:0:0:0:0:
192,192,242516,128,2,242721:0:0:0:0:
320,192,242516,1,0,0:0:0:40:soft-hitfinish.wav
448,192,242516,1,0,0:0:0:0:
64,192,242925,1,2,0:0:0:0:
192,192,242925,1,0,0:0:0:40:soft-hitfinish.wav
320,192,242925,128,0,243129:0:0:0:0:
448,192,243129,1,8,0:0:0:0:
64,192,243333,128,2,243537:0:0:0:0:
192,192,243333,1,0,0:0:0:40:soft-hitfinish.wav
320,192,243333,1,0,0:0:0:0:
448,192,243537,1,0,0:0:0:0:
64,192,243741,1,2,0:0:0:0:
192,192,243741,1,0,0:0:0:40:soft-hitfinish.wav
320,192,243741,128,0,243945:0:0:0:0:
448,192,243945,1,0,0:0:0:0:
64,192,244149,1,2,0:0:0:0:
192,192,244149,128,0,244353:0:0:0:40:soft-hitfinish.wav
320,192,244149,1,0,0:0:0:0:
448,192,244353,1,0,0:0:0:0:
320,192,244455,1,8,0:0:0:0:
64,192,244557,1,2,0:0:0:0:
192,192,244557,1,0,0:0:0:40:soft-hitfinish.wav
320,192,244761,1,8,0:0:0:0:
448,192,244761,1,0,0:0:0:0:
64,192,244965,128,2,245170:0:0:0:0:
192,192,244965,128,0,245170:0:0:0:40:soft-hitfinish.wav
448,192,244965,1,0,0:0:0:0:
64,192,245374,1,2,0:0:0:0:
192,192,245374,128,0,245578:0:0:0:40:soft-hitfinish.wav
320,192,245374,128,0,245578:0:0:0:0:
64,192,245782,1,8,0:0:0:0:
320,192,245782,128,0,245986:0:0:0:40:soft-hitfinish.wav
448,192,245782,128,0,245986:0:0:0:0:
64,192,245986,1,2,0:0:0:0:
448,192,246190,128,2,246394:0:0:0:0:
64,192,246394,1,8,0:0:0:0:
192,192,246394,1,0,0:0:0:60:Hat Open2.wav
320,192,246394,1,0,0:0:0:0:
