osu file format v14

[General]
AudioFilename: audio.mp3
AudioLeadIn: 0
PreviewTime: 153981
Countdown: 0
SampleSet: Soft
StackLeniency: 0.7
Mode: 0
LetterboxInBreaks: 0
WidescreenStoryboard: 1

[Editor]
DistanceSpacing: 0.3
BeatDivisor: 4
GridSize: 16
TimelineZoom: 1

[Metadata]
Title:Hello Marina
TitleUnicode:ハローマリーナ
Artist:inabakumori
ArtistUnicode:稲葉曇
Creator:Segula
Version:eM&You
Source:
Tags:japanese pop jpop j-pop 歌愛ユキ kaai yuki 初音ミク hatsune miku harōmarīna harō marīna haromarina haro ぬくぬくにぎりめし nukunuku nigirimeshi vocaloid zevinlevin rzatlit clubber -_clubber_- baack
BeatmapID:3336341
BeatmapSetID:1634616

[Difficulty]
HPDrainRate:6
CircleSize:4.2
OverallDifficulty:8.4
ApproachRate:9
SliderMultiplier:1.8
SliderTickRate:1

[Events]
//Background and Video events
0,0,"hello marina.jpeg",0,0
//Break Periods
//Storyboard Layer 0 (Background)
//Storyboard Layer 1 (Fail)
//Storyboard Layer 2 (Pass)
//Storyboard Layer 3 (Foreground)
//Storyboard Layer 4 (Overlay)
//Storyboard Sound Samples

[TimingPoints]
2021,340.909090909091,4,2,1,60,1,0
23839,-111.111111111111,4,2,1,50,0,0
45657,-125,4,2,1,25,0,0
56566,-90.9090909090909,4,2,1,70,0,0
78384,-133.333333333333,4,2,1,40,0,0
78469,-100,4,2,1,5,0,0
78725,-133.333333333333,4,2,1,40,0,0
78810,-100,4,2,1,5,0,0
78896,-133.333333333333,4,2,1,40,0,0
78981,-100,4,2,1,5,0,0
79066,-133.333333333333,4,2,1,40,0,0
79151,-100,4,2,1,5,0,0
79407,-133.333333333333,4,2,1,40,0,0
79492,-100,4,2,1,5,0,0
79577,-133.333333333333,4,2,1,40,0,0
79663,-100,4,2,1,5,0,0
79748,-133.333333333333,4,2,1,40,0,0
79833,-100,4,2,1,5,0,0
80089,-133.333333333333,4,2,1,40,0,0
80174,-100,4,2,1,5,0,0
80259,-133.333333333333,4,2,1,40,0,0
80344,-100,4,2,1,5,0,0
80430,-133.333333333333,4,2,1,40,0,0
80515,-100,4,2,1,5,0,0
80600,-100,4,2,1,40,0,0
80770,-100,4,2,1,40,0,0
80856,-100,4,2,1,40,0,0
80883,-100,4,2,1,5,0,0
80941,-133.333333333333,4,2,1,40,0,0
81026,-100,4,2,1,5,0,0
81111,-100,4,2,1,65,0,0
83924,-100,4,2,1,5,0,0
84009,-100,4,2,1,65,0,0
84180,-100,4,2,1,65,0,0
84265,-100,4,2,1,5,0,0
84350,-100,4,2,1,65,0,0
84435,-100,4,2,1,5,0,0
84521,-100,4,2,1,65,0,0
84606,-100,4,2,1,5,0,0
84691,-100,4,2,1,65,0,0
84947,-100,4,2,1,5,0,0
85032,-100,4,2,1,65,0,0
85117,-100,4,2,1,5,0,0
85202,-100,4,2,1,65,0,0
85288,-100,4,2,1,5,0,0
85373,-100,4,2,1,65,0,0
85543,-100,4,2,1,65,0,0
85628,-100,4,2,1,5,0,0
85714,-100,4,2,1,65,0,0
85799,-100,4,2,1,5,0,0
85884,-100,4,2,1,65,0,0
85969,-100,4,2,1,5,0,0
86055,-100,4,2,1,65,0,0
86310,-100,4,2,1,5,0,0
86396,-100,4,2,1,65,0,0
89293,-111.111111111111,4,2,2,50,0,0
94748,-100,4,2,1,60,0,0
111111,-133.333333333333,4,2,2,40,0,0
121339,340.909090909091,4,2,2,70,1,0
121339,-133.333333333333,4,2,2,40,0,0
131907,-133.333333333333,4,2,1,50,0,0
132248,-90.9090909090909,4,2,1,70,0,0
152702,-90.9090909090909,4,2,1,65,0,0
154066,-90.9090909090909,4,2,1,75,0,0
175884,-100,4,2,1,65,0,0
186793,-125,4,2,2,60,0,0
189179,-125,4,2,1,70,0,0
189520,-100,4,2,1,65,0,0
196338,-181.818181818181,4,2,1,60,0,0

[Colours]
Combo1 : 169,177,252
Combo2 : 223,223,223
Combo3 : 170,168,168
Combo4 : 208,213,253

[HitObjects]
174,329,2021,6,0,P|256:297|355:351,1,180,4|8,3:1|0:0,0:0:0:0:
256,192,2532,1,2,0:0:0:0:
400,128,2702,1,0,3:0:0:0:
456,272,2873,1,0,3:0:0:0:
320,128,3043,2,0,P|308:76|291:19,1,90,10|0,0:0|0:0,0:0:0:0:
256,192,3384,5,0,3:0:0:0:
214,40,3555,2,0,P|201:84|192:128,1,90,2|10,0:0|0:0,0:0:0:0:
120,216,3896,1,0,3:0:0:0:
24,80,4066,2,0,P|74:80|108:106,1,90,2|0,0:0|3:0,0:0:0:0:
178,270,4407,2,0,P|140:294|96:292,1,90,8|0,0:0|0:0,0:0:0:0:
241,134,4748,6,0,B|216:174|248:214|256:214|264:214|288:254|268:303,1,180,2|8,3:2|0:0,0:0:0:0:
376,384,5259,1,0,0:0:0:0:
512,280,5430,1,0,3:0:0:0:
353,283,5600,1,0,3:0:0:0:
349,269,5685,1,0,0:0:0:0:
345,255,5771,2,0,P|396:214|434:220,1,90,8|0,0:0|0:0,0:0:0:0:
511,137,6111,5,2,3:2:0:0:
354,0,6282,1,0,0:0:0:0:
350,14,6367,1,0,0:0:0:0:
345,28,6453,2,0,P|396:69|434:63,1,90,8|0,0:0|3:0,0:0:0:0:
336,136,6793,1,0,0:0:0:0:
176,136,6964,1,0,3:0:0:0:
256,0,7134,2,0,L|256:96,1,90,8|0,0:0|0:0,0:0:0:0:
104,176,7475,5,2,3:2:0:0:
108,190,7560,1,0,0:0:0:0:
113,204,7646,2,0,P|167:216|220:232,1,90,0|8,0:0|0:0,0:0:0:0:
320,344,7986,1,2,0:0:0:0:
320,192,8157,1,0,3:0:0:0:
184,344,8327,2,0,L|137:356,1,45,0|0,3:0|0:0,0:0:0:0:
0,232,8498,1,10,0:0:0:0:
4,246,8583,1,0,0:0:0:0:
9,260,8668,6,0,P|63:272|116:288,1,90,0|0,0:0|3:0,0:0:0:0:
185,153,9009,2,0,P|134:153|100:179,1,90,2|10,0:0|0:0,0:0:0:0:
0,96,9350,1,0,3:0:0:0:
132,0,9521,2,0,P|119:54|103:107,1,90,2|0,0:0|3:0,0:0:0:0:
166,232,9861,2,0,P|216:231|250:205,1,90,8|0,0:0|0:0,0:0:0:0:
315,62,10202,6,0,B|268:50|256:0|256:0|244:50|197:61,1,180,2|8,3:2|0:0,0:0:0:0:
256,192,10714,1,0,0:0:0:0:
400,88,10884,1,0,3:0:0:0:
512,176,11055,1,0,3:0:0:0:
508,190,11140,1,0,0:0:0:0:
505,204,11226,2,0,P|448:200|420:176,1,90,8|0,0:0|0:0,0:0:0:0:
256,282,11566,5,2,3:2:0:0:
392,384,11736,1,2,0:0:0:0:
404,380,11822,1,0,0:0:0:0:
417,377,11907,1,8,0:0:0:0:
354,209,12077,2,0,P|329:295|307:382,1,180,2|2,3:0|3:0,0:0:0:0:
256,192,12589,2,0,L|256:288,1,90,8|0,0:0|0:0,0:0:0:0:
133,216,12930,5,4,3:1:0:0:
145,212,13016,1,0,0:0:0:0:
158,209,13100,2,0,P|170:252|180:296,1,90,0|8,0:0|0:0,0:0:0:0:
28,384,13441,1,2,0:0:0:0:
92,268,13611,1,0,3:0:0:0:
0,152,13782,2,0,L|46:164,1,45,0|0,3:0|0:0,0:0:0:0:
168,56,13952,1,10,0:0:0:0:
164,41,14037,1,0,0:0:0:0:
160,27,14123,6,0,P|100:28|72:60,1,90,0|0,0:0|3:0,0:0:0:0:
152,176,14464,2,0,P|195:185|239:198,1,90,2|10,0:0|0:0,0:0:0:0:
357,106,14805,1,0,3:0:0:0:
256,16,14975,2,0,L|256:106,1,90,2|0,0:0|3:0,0:0:0:0:
417,49,15316,2,0,P|379:24|335:25,1,90,8|0,0:0|0:0,0:0:0:0:
343,191,15657,6,0,B|390:196|418:165|418:165|518:192,1,180,2|8,3:2|0:0,0:0:0:0:
438,276,16168,1,0,0:0:0:0:
332,176,16339,1,0,3:0:0:0:
295,330,16509,1,0,3:0:0:0:
299,345,16594,1,0,0:0:0:0:
303,359,16680,2,0,P|363:358|391:326,1,90,8|0,0:0|0:0,0:0:0:0:
256,192,17021,5,2,3:2:0:0:
217,330,17191,1,0,0:0:0:0:
213,345,17276,1,0,0:0:0:0:
209,359,17362,2,0,P|149:358|121:326,1,90,8|0,0:0|3:0,0:0:0:0:
0,232,17702,1,0,0:0:0:0:
144,176,17873,1,0,3:0:0:0:
48,360,18043,2,0,P|60:316|70:272,1,90,8|0,0:0|0:0,0:0:0:0:
0,117,18384,5,2,3:2:0:0:
3,130,18469,1,0,0:0:0:0:
7,143,18555,2,0,P|67:142|95:110,1,90,0|8,0:0|0:0,0:0:0:0:
214,41,18896,1,2,3:2:0:0:
71,0,19066,1,0,0:0:0:0:
167,149,19236,2,0,L|225:133,1,45,0|0,3:0|0:0,0:0:0:0:
390,32,19407,1,10,0:0:0:0:
386,44,19492,1,0,0:0:0:0:
383,57,19578,6,0,P|339:66|295:79,1,90,0|0,0:0|3:0,0:0:0:0:
477,134,19918,2,0,P|507:86|495:43,1,90,2|10,0:0|0:0,0:0:0:0:
373,171,20259,1,0,3:0:0:0:
425,298,20430,2,0,P|468:285|512:275,1,90,2|0,0:0|3:0,0:0:0:0:
325,292,20771,2,0,P|324:338|351:376,1,90,8|0,0:0|0:0,0:0:0:0:
245,211,21111,6,0,B|223:167|247:127|255:127|263:127|291:87|266:41,1,180,2|8,3:2|0:0,0:0:0:0:
333,180,21623,1,0,0:0:0:0:
184,75,21793,1,0,3:0:0:0:
163,243,21964,1,0,3:0:0:0:
166,255,22049,1,0,0:0:0:0:
169,268,22135,2,0,P|212:277|256:290,1,90,8|0,0:0|0:0,0:0:0:0:
88,384,22475,5,6,3:2:0:0:
0,212,22646,1,2,0:0:0:0:
12,209,22731,1,0,0:0:0:0:
25,206,22816,1,8,0:0:0:0:
156,116,22986,2,0,P|94:102|53:-9,1,180,2|8,3:2|0:0,0:0:0:0:
256,108,23498,1,8,0:0:0:0:
256,0,23668,1,8,0:3:0:0:
370,76,23839,6,0,B|427:60|427:60|452:29|452:29|518:11,1,161.999995056153,4|10,3:1|0:0,0:0:0:0:
512,117,24350,1,2,0:0:0:0:
384,151,24521,1,2,0:0:0:0:
506,261,24691,1,0,3:0:0:0:
509,248,24776,1,0,0:0:0:0:
512,235,24861,2,0,P|473:209|439:208,1,80.9999975280763,8|0,0:0|0:0,0:0:0:0:
368,281,25202,6,0,P|407:291|445:303,1,80.9999975280763,2|0,3:0|0:3,0:0:0:0:
381,375,25543,1,8,0:0:0:0:
311,222,25714,2,0,B|271:255|271:255|303:374,1,161.999995056153,2|2,3:0|3:0,0:0:0:0:
193,316,26225,1,10,0:0:0:0:
170,232,26396,1,2,1:2:0:0:
114,384,26566,6,0,P|75:371|36:361,1,80.9999975280763,2|0,3:2|0:0,0:0:0:0:
102,283,26907,1,10,0:0:0:0:
22,207,27077,2,0,P|9:245|0:284,1,80.9999975280763,2|0,0:0|0:0,0:0:0:0:
129,143,27418,1,2,3:2:0:0:
125,130,27503,1,0,0:0:0:0:
123,117,27589,2,0,P|72:118|36:155,1,80.9999975280763,10|2,0:0|0:0,0:0:0:0:
185,37,27930,6,0,P|145:26|107:14,1,80.9999975280763,2|0,3:0|0:0,0:0:0:0:
212,141,28271,1,8,0:0:0:0:
330,52,28441,2,0,P|290:62|252:74,1,80.9999975280763,2|0,3:0|0:0,0:0:0:0:
321,147,28782,1,2,3:0:0:0:
424,29,28952,2,0,P|411:67|401:106,1,80.9999975280763,8|0,0:0|1:0,0:0:0:0:
358,266,29293,6,0,B|456:274|416:208|506:211,1,161.999995056153,6|10,3:2|0:0,0:0:0:0:
381,185,29805,1,2,0:0:0:0:
434,340,29975,1,2,3:2:0:0:
271,284,30146,1,0,3:0:0:0:
274,295,30231,1,0,0:0:0:0:
277,307,30316,2,0,P|244:339|211:338,1,80.9999975280763,10|2,0:0|0:0,0:0:0:0:
61,218,30657,6,0,P|138:236|247:273,1,161.999995056153,2|10,3:2|0:0,0:0:0:0:
272,127,31168,1,2,3:2:0:0:
120,157,31339,2,0,P|159:167|197:179,1,80.9999975280763,2|0,0:0|3:0,0:0:0:0:
294,50,31680,1,10,0:0:0:0:
181,87,31850,1,2,1:2:0:0:
37,37,32021,6,0,B|82:-7|135:21|135:21|104:45|104:86,1,161.999995056153,2|8,3:2|0:0,0:0:0:0:
29,137,32532,1,0,0:0:0:0:
181,87,32702,1,2,3:2:0:0:
101,253,32873,1,2,3:2:0:0:
97,240,32958,1,0,0:0:0:0:
94,227,33043,2,0,P|110:164|137:148,1,80.9999975280763,8|2,0:0|0:0,0:0:0:0:
215,278,33384,5,0,3:0:0:0:
59,356,33555,1,2,0:0:0:0:
46,352,33640,1,0,0:0:0:0:
33,349,33725,2,0,P|23:305|9:263,1,80.9999975280763,10|0,0:0|3:0,0:0:0:0:
129,308,34066,1,2,0:0:0:0:
242,351,34236,1,2,3:2:0:0:
318,282,34407,2,0,P|343:312|347:352,1,80.9999975280763,8|0,0:0|1:0,0:0:0:0:
221,184,34748,6,0,B|236:126|236:126|275:103|275:103|298:18,1,161.999995056153,6|10,3:2|0:0,0:0:0:0:
201,42,35259,1,2,0:0:0:0:
310,189,35430,1,2,0:0:0:0:
430,84,35600,1,0,3:0:0:0:
441,87,35685,1,0,0:0:0:0:
453,89,35771,2,0,P|439:130|425:192,1,80.9999975280763,8|0,0:0|0:0,0:0:0:0:
371,271,36111,6,0,P|414:251|459:263,1,80.9999975280763,2|0,3:0|0:0,0:0:0:0:
426,346,36452,1,8,0:0:0:0:
304,217,36623,2,0,P|287:293|339:354,1,161.999995056153,2|2,3:0|3:0,0:0:0:0:
371,271,37134,1,10,0:0:0:0:
330,140,37305,1,2,1:2:0:0:
206,182,37475,6,0,P|164:168|102:154,1,80.9999975280763,2|0,3:2|0:0,0:0:0:0:
161,34,37816,1,10,0:0:0:0:
77,97,37986,2,0,P|37:107|0:119,1,80.9999975280763,2|0,0:0|0:0,0:0:0:0:
32,262,38327,1,2,3:2:0:0:
43,258,38413,1,0,0:0:0:0:
55,255,38498,2,0,P|52:195|32:180,1,80.9999975280763,10|2,0:0|0:0,0:0:0:0:
0,335,38839,6,0,P|39:345|77:357,1,80.9999975280763,2|0,3:0|0:0,0:0:0:0:
185,283,39180,1,8,0:0:0:0:
249,361,39350,2,0,P|210:371|172:384,1,80.9999975280763,2|0,3:0|0:0,0:0:0:0:
275,263,39691,1,2,3:0:0:0:
377,329,39861,2,0,P|416:339|454:351,1,80.9999975280763,8|0,0:0|0:0,0:0:0:0:
506,181,40202,6,0,P|473:223|363:215,1,161.999995056153,6|10,3:2|0:0,0:0:0:0:
288,107,40714,1,2,0:0:0:0:
422,147,40884,1,2,3:2:0:0:
486,11,41055,1,0,3:0:0:0:
473,14,41140,1,0,0:0:0:0:
460,17,41225,2,0,P|417:26|358:44,1,80.9999975280763,10|2,0:0|0:0,0:0:0:0:
218,149,41566,6,0,P|140:124|62:105,1,161.999995056153,2|10,3:2|0:0,0:0:0:0:
163,44,42077,1,2,3:2:0:0:
75,188,42248,2,0,P|11:175|-10:146,1,80.9999975280763,2|0,0:0|3:0,0:0:0:0:
110,295,42589,1,10,0:0:0:0:
190,222,42759,1,0,1:0:0:0:
233,362,42930,6,0,B|148:335|159:403|75:376,1,161.999995056153,2|8,3:2|0:0,0:0:0:0:
190,222,43441,1,0,0:0:0:0:
296,296,43611,1,2,3:2:0:0:
377,194,43782,1,2,3:2:0:0:
388,197,43867,1,0,0:0:0:0:
400,200,43952,2,0,P|411:236|421:280,1,80.9999975280763,8|2,0:0|0:0,0:0:0:0:
502,146,44293,5,0,3:0:0:0:
361,82,44464,1,2,0:0:0:0:
350,85,44549,1,0,0:0:0:0:
338,88,44634,2,0,P|326:124|316:168,1,80.9999975280763,10|0,0:0|3:0,0:0:0:0:
190,222,44975,1,2,0:0:0:0:
142,92,45146,1,0,3:0:0:0:
9,154,45316,2,0,P|58:178|94:174,1,80.9999975280763,10|0,0:0|0:0,0:0:0:0:
142,92,45657,5,4,0:2:0:0:
0,384,47702,1,2,0:0:0:0:
69,365,47873,1,2,0:0:0:0:
139,346,48043,2,0,P|148:301|161:260,1,72,2|0,0:0|0:0,0:0:0:0:
192,178,48384,5,4,0:0:0:0:
512,0,50430,1,2,0:0:0:0:
443,19,50601,1,2,0:0:0:0:
373,38,50771,2,0,P|363:82|350:123,1,72,2|0,0:0|0:0,0:0:0:0:
317,205,51112,5,4,0:0:0:0:
512,321,51452,1,2,0:0:0:0:
437,384,51623,2,0,P|427:339|414:298,1,72,2|0,0:0|0:0,0:0:0:0:
231,190,52134,1,2,0:0:0:0:
140,202,52305,6,0,P|162:253|263:277,1,144,2|2,0:0|0:0,0:0:0:0:
373,38,53498,2,0,P|328:47|287:60,1,72,2|0,0:0|0:0,0:0:0:0:
166,114,53839,6,0,B|78:94|135:49|43:27,1,144,6|2,0:0|0:0,0:0:0:0:
32,111,54350,1,2,0:0:0:0:
139,275,54861,2,0,P|147:235|159:196,1,72,2|2,0:0|0:0,0:0:0:0:
256,144,55884,5,2,0:0:0:0:
256,240,56055,1,2,0:0:0:0:
320,192,56225,1,2,0:0:0:0:
192,192,56396,1,0,0:0:0:0:
384,80,56566,6,0,P|434:91|492:108,1,99.0000030212403,4|0,3:1|0:0,0:0:0:0:
300,144,56907,1,10,0:0:0:0:
332,0,57077,1,2,0:0:0:0:
128,80,57248,6,0,P|77:91|19:108,1,99.0000030212403,2|0,3:2|3:0,0:0:0:0:
212,144,57589,1,10,0:0:0:0:
180,0,57759,1,2,0:0:0:0:
94,197,57930,6,0,P|192:221|294:250,1,198.000006042481,2|10,3:2|0:0,0:0:0:0:
424,192,58441,1,2,3:2:0:0:
350,308,58611,2,0,P|302:336|238:320,1,99.0000030212403,2|0,0:0|3:0,0:0:0:0:
220,182,58952,2,0,P|268:154|332:170,1,99.0000030212403,10|0,0:0|0:0,0:0:0:0:
160,335,59293,6,0,B|184:280|159:241|151:241|143:241|120:196|139:146,1,198.000006042481,2|8,3:0|0:0,0:0:0:0:
0,32,59805,1,0,0:0:0:0:
48,224,59975,1,0,3:0:0:0:
177,67,60146,1,0,3:0:0:0:
191,63,60231,1,0,0:0:0:0:
205,59,60316,2,0,P|266:60|296:84,1,99.0000030212403,10|0,0:0|0:0,0:0:0:0:
477,62,60657,6,0,B|419:41|377:97|377:97|367:157|291:169,1,198.000006042481,2|10,3:2|0:0,0:0:0:0:
433,234,61168,1,2,3:2:0:0:
297,337,61339,2,0,P|347:348|405:365,1,99.0000030212403,2|0,0:0|3:0,0:0:0:0:
210,184,61680,2,0,P|161:173|114:159,1,99.0000030212403,10|0,0:0|0:0,0:0:0:0:
0,336,62021,6,0,P|79:343|137:240,1,198.000006042481,2|8,3:0|0:0,0:0:0:0:
22,126,62532,1,0,0:0:0:0:
195,30,62702,1,0,3:0:0:0:
234,211,62873,1,0,3:0:0:0:
220,207,62958,1,0,0:0:0:0:
206,203,63043,2,0,P|173:169|176:113,1,99.0000030212403,10|0,0:0|0:0,0:0:0:0:
321,0,63384,6,0,P|416:27|512:50,1,198.000006042481,2|10,3:2|0:0,0:0:0:0:
331,137,63896,1,2,3:2:0:0:
512,256,64066,1,2,0:0:0:0:
434,111,64236,1,0,3:0:0:0:
324,234,64407,2,0,P|371:220|419:209,1,99.0000030212403,8|2,0:0|0:0,0:0:0:0:
256,128,64748,6,0,L|256:240,1,99.0000030212403,2|0,3:0|0:0,0:0:0:0:
364,384,65089,1,10,0:0:0:0:
148,384,65259,1,2,0:0:0:0:
324,320,65430,1,2,3:2:0:0:
168,208,65600,1,0,3:0:0:0:
52,364,65771,2,0,P|41:315|27:268,1,99.0000030212403,10|0,0:0|1:0,0:0:0:0:
64,112,66111,6,0,P|120:140|160:128,1,99.0000030212403,6|0,3:2|0:0,0:0:0:0:
164,124,66367,1,0,0:0:0:0:
176,116,66452,1,10,0:0:0:0:
256,0,66623,2,0,L|256:56,1,49.5000015106202,8|8,0:3|0:3,0:0:0:0:
256,192,66793,1,4,0:3:0:0:
384,120,66964,1,4,3:0:0:0:
512,48,67134,2,0,P|498:95|487:143,1,99.0000030212403,12|0,0:0|0:0,0:0:0:0:
328,272,67475,6,0,P|317:223|303:176,1,99.0000030212403,4|0,3:1|0:0,0:0:0:0:
352,360,67816,1,10,0:0:0:0:
408,200,67986,1,2,0:0:0:0:
184,272,68157,6,0,P|194:223|208:176,1,99.0000030212403,2|0,3:2|3:0,0:0:0:0:
160,360,68498,1,10,0:0:0:0:
104,200,68668,1,2,0:0:0:0:
10,368,68839,6,0,B|98:368|98:285|98:285|56:285|34:243,1,198.000006042481,2|10,3:2|0:0,0:0:0:0:
142,105,69350,1,2,3:2:0:0:
14,181,69521,2,0,P|75:178|114:216,1,99.0000030212403,2|0,0:0|3:0,0:0:0:0:
231,86,69861,2,0,P|189:111|141:104,1,99.0000030212403,10|0,0:0|0:0,0:0:0:0:
319,0,70202,6,0,B|365:41|365:41|328:182,1,198.000006042481,2|8,3:0|0:0,0:0:0:0:
464,128,70714,1,0,0:0:0:0:
309,248,70884,1,0,3:0:0:0:
459,359,71055,1,0,3:0:0:0:
473,355,71140,1,0,0:0:0:0:
487,351,71225,2,0,P|496:307|512:255,1,99.0000030212403,10|0,0:0|0:0,0:0:0:0:
350,330,71566,6,0,B|295:354|256:329|256:321|256:313|211:290|161:309,1,198.000006042481,2|10,3:2|0:0,0:0:0:0:
46,367,72077,1,2,3:2:0:0:
106,190,72248,2,0,P|91:237|80:285,1,99.0000030212403,2|0,0:0|3:0,0:0:0:0:
25,95,72589,2,0,P|14:47|0:0,1,99.0000030212403,10|0,0:0|0:0,0:0:0:0:
173,126,72930,6,0,B|210:92|261:100|261:100|296:47|230:5,1,198.000006042481,2|8,3:0|0:0,0:0:0:0:
115,54,73441,1,0,3:0:0:0:
239,182,73611,1,0,0:0:0:0:
158,304,73782,1,0,3:0:0:0:
322,384,73952,2,0,P|333:335|347:288,1,99.0000030212403,10|0,0:0|0:0,0:0:0:0:
441,101,74293,6,0,B|474:141|435:172|435:172|374:187|297:209,1,198.000006042481,2|10,3:2|0:0,0:0:0:0:
211,103,74805,1,2,3:2:0:0:
301,32,74975,2,0,P|333:75|329:124,1,99.0000030212403,2|0,0:0|3:0,0:0:0:0:
243,227,75316,1,8,0:0:0:0:
126,174,75486,1,2,0:0:0:0:
168,345,75657,6,0,P|216:356|263:370,1,99.0000030212403,2|2,3:0|0:0,0:0:0:0:
442,263,75998,2,0,P|394:277|346:288,1,99.0000030212403,10|2,0:0|0:0,0:0:0:0:
484,145,76339,1,2,3:2:0:0:
402,90,76509,2,0,P|353:78|306:64,1,99.0000030212403,2|8,3:2|0:0,0:0:0:0:
181,0,76850,6,0,P|217:52|207:101,1,99.0000030212403,2|4,1:2|3:2,0:0:0:0:
137,207,77191,1,2,0:0:0:0:
0,164,77361,1,10,0:0:0:0:
103,323,77532,1,8,0:3:0:0:
273,254,77702,2,0,P|258:301|247:349,1,99.0000030212403,4|4,0:3|3:0,0:0:0:0:
419,243,78043,2,0,P|404:195|393:147,1,99.0000030212403,14|2,0:0|0:0,0:0:0:0:
296,0,78384,6,0,L|309:50,1,33.7500012874604,4|0,0:1|0:0,0:0:0:0:
393,147,78725,2,0,L|404:103,1,33.7500012874604,2|0,0:0|0:0,0:0:0:0:
462,165,78896,2,0,L|473:121,1,33.7500012874604,2|0,0:0|0:0,0:0:0:0:
216,60,79066,6,0,L|202:110,1,33.7500012874604,2|0,0:0|0:0,0:0:0:0:
119,207,79407,2,0,L|107:163,1,33.7500012874604,2|0,0:0|0:0,0:0:0:0:
50,225,79578,2,0,L|38:181,1,33.7500012874604,2|0,0:0|0:0,0:0:0:0:
296,124,79748,6,0,L|309:174,1,33.7500012874604,2|0,0:0|0:0,0:0:0:0:
393,271,80089,2,0,L|404:227,1,33.7500012874604,2|0,0:0|0:0,0:0:0:0:
462,289,80260,2,0,L|473:245,1,33.7500012874604,2|0,0:0|0:0,0:0:0:0:
216,180,80430,6,0,L|202:230,1,33.7500012874604,2|0,0:0|0:0,0:0:0:0:
127,353,80600,1,2,0:3:0:0:
123,340,80685,1,2,0:3:0:0:
119,327,80771,2,0,L|107:283,1,45,2|0,0:0|0:0,0:0:0:0:
15,214,80941,2,0,L|26:257,1,33.7500012874604,2|0,0:3|0:0,0:0:0:0:
192,292,81111,6,0,B|244:303|278:257|278:257|333:234|382:295,1,180,4|8,3:1|0:0,0:0:0:0:
476,145,81623,1,0,0:0:0:0:
336,177,81793,1,0,0:0:0:0:
305,36,81964,1,2,3:0:0:0:
317,39,82049,1,0,0:0:0:0:
330,42,82134,2,0,P|382:75|397:113,1,90,8|0,0:0|0:0,0:0:0:0:
354,267,82475,5,2,3:0:0:0:
228,187,82646,1,0,0:0:0:0:
239,190,82731,1,0,0:0:0:0:
252,194,82816,2,0,P|313:191|345:166,1,90,8|2,0:0|3:0,0:0:0:0:
211,34,83157,1,0,0:0:0:0:
148,121,83327,1,2,3:0:0:0:
31,8,83498,2,0,P|44:52|53:96,1,90,8|0,0:0|0:0,0:0:0:0:
30,200,83839,6,0,L|95:217,1,45,2|0,3:0|0:0,0:0:0:0:
183,184,84009,1,0,0:0:0:0:
101,312,84180,2,0,L|144:300,1,45,10|0,0:0|0:0,0:0:0:0:
207,351,84350,2,0,L|250:339,1,45,2|0,0:0|0:0,0:0:0:0:
330,226,84521,1,2,3:2:0:0:
372,384,84691,1,0,3:0:0:0:
376,369,84776,1,0,0:0:0:0:
379,356,84861,6,0,L|392:306,1,45,10|0,0:0|0:0,0:0:0:0:
473,311,85032,2,0,L|484:267,1,45,2|0,0:0|0:0,0:0:0:0:
404,169,85202,6,0,L|447:180,1,45,2|0,3:2|0:0,0:0:0:0:
415,0,85373,1,0,0:0:0:0:
402,3,85458,1,0,0:0:0:0:
389,7,85543,2,0,L|345:18,1,45,10|0,0:0|0:0,0:0:0:0:
309,92,85714,2,0,L|265:103,1,45,2|0,3:2|0:0,0:0:0:0:
164,37,85884,1,2,0:0:0:0:
265,102,86055,1,0,3:0:0:0:
212,203,86225,1,10,0:0:0:0:
369,161,86396,1,0,0:0:0:0:
154,276,86566,6,0,B|108:234|108:234|141:109,1,180,2|8,3:0|0:0,0:0:0:0:
212,203,87077,1,0,0:0:0:0:
73,319,87248,1,0,3:0:0:0:
242,378,87418,1,2,3:0:0:0:
254,374,87503,1,0,0:0:0:0:
267,371,87589,2,0,P|319:348|333:317,1,90,8|0,0:0|0:0,0:0:0:0:
370,156,87930,5,2,3:0:0:0:
480,295,88100,1,0,0:0:0:0:
483,281,88185,1,0,0:0:0:0:
487,267,88271,1,8,0:0:0:0:
332,320,88441,2,0,B|282:330|251:293|253:285|255:277|222:242|170:250,1,180,4|10,3:2|3:0,0:0:0:0:
184,338,88952,1,4,0:3:0:0:
2,268,89293,6,0,B|110:296|110:296|91:268|97:234,1,161.999995056153,6|10,3:2|0:0,0:0:0:0:
168,164,89805,1,2,0:0:0:0:
24,112,89975,2,0,B|70:91|70:91|39:207,1,161.999995056153,2|8,0:0|0:0,0:0:0:0:
144,33,90657,5,0,0:0:0:0:
144,33,90827,1,0,0:0:0:0:
207,98,90998,2,0,P|228:64|228:22,1,80.9999975280763,8|0,0:0|0:0,0:0:0:0:
246,175,91339,1,0,0:0:0:0:
246,175,91509,1,0,0:0:0:0:
183,240,91680,2,0,P|162:206|162:164,1,80.9999975280763,10|2,0:0|0:0,0:0:0:0:
307,113,92021,6,0,B|386:134|386:134|435:117|415:67,1,161.999995056153,2|10,3:2|0:0,0:0:0:0:
265,27,92532,2,0,P|304:37|342:49,1,80.9999975280763,2|0,0:0|0:0,0:0:0:0:
437,137,92873,1,2,0:0:0:0:
344,238,93043,2,0,P|382:225|421:215,1,80.9999975280763,10|2,0:0|0:0,0:0:0:0:
416,319,93384,5,0,0:0:0:0:
416,319,93554,1,0,0:0:0:0:
350,381,93725,2,0,P|329:347|329:305,1,80.9999975280763,8|0,0:0|0:0,0:0:0:0:
258,219,94066,1,0,0:0:0:0:
258,219,94236,1,0,0:0:0:0:
322,163,94407,2,0,P|343:197|343:239,1,80.9999975280763
256,346,94748,6,0,B|214:383|214:383|160:366|91:350,1,180,6|10,3:2|0:0,0:0:0:0:
182,235,95259,1,2,0:0:0:0:
53,135,95430,1,2,3:0:0:0:
0,265,95600,1,0,3:0:0:0:
3,277,95685,1,0,0:0:0:0:
6,290,95771,2,0,P|63:288|91:264,1,90,10|2,0:0|0:0,0:0:0:0:
232,148,96111,6,0,P|158:154|122:60,1,180,2|10,3:2|0:0,0:0:0:0:
256,0,96623,1,2,3:2:0:0:
360,124,96793,1,2,0:0:0:0:
496,52,96964,1,0,3:0:0:0:
344,204,97134,2,0,P|387:215|430:228,1,90,8|0,0:0|1:0,0:0:0:0:
512,339,97475,6,0,P|429:359|318:390,1,180,2|10,3:0|0:0,0:0:0:0:
216,288,97986,1,2,0:0:0:0:
344,204,98157,1,2,3:2:0:0:
238,382,98327,1,2,3:0:0:0:
224,378,98413,1,0,0:0:0:0:
210,374,98498,2,0,P|162:355|139:317,1,90,10|0,0:0|0:0,0:0:0:0:
77,163,98839,6,0,P|66:210|51:259,1,90,2|0,3:2|0:0,0:0:0:0:
50,262,99094,1,0,0:0:0:0:
46,275,99180,1,10,0:0:0:0:
0,128,99350,1,2,3:0:0:0:
149,225,99521,1,2,0:0:0:0:
187,61,99691,1,2,3:0:0:0:
77,163,99861,2,0,P|123:140|179:146,1,90,10|8,0:0|0:3,0:0:0:0:
290,232,100202,6,0,B|338:241|370:208|368:200|366:192|397:155|448:167,1,180,6|10,3:2|0:0,0:0:0:0:
397,23,100714,1,2,0:0:0:0:
301,145,100884,1,2,0:0:0:0:
179,12,101055,1,0,3:0:0:0:
191,15,101140,1,0,0:0:0:0:
204,18,101225,2,0,P|251:28|300:43,1,90,8|0,0:0|0:0,0:0:0:0:
143,99,101566,6,0,P|105:59|105:20,1,90,2|0,3:0|0:0,0:0:0:0:
223,125,101907,1,8,0:0:0:0:
69,198,102077,2,0,P|157:187|225:271,1,180,2|2,3:0|3:0,0:0:0:0:
105,361,102589,1,10,0:0:0:0:
0,279,102759,1,0,1:0:0:0:
197,335,102930,6,0,P|240:322|284:313,1,90,2|0,3:2|0:0,0:0:0:0:
296,196,103271,1,10,0:0:0:0:
343,376,103441,2,0,P|367:332|339:269,1,90,2|0,0:0|0:0,0:0:0:0:
239,245,103782,1,2,3:2:0:0:
408,186,103952,2,0,P|452:195|495:207,1,90,10|2,0:0|0:0,0:0:0:0:
436,63,104293,6,0,P|391:53|348:41,1,90,2|0,3:0|0:0,0:0:0:0:
256,148,104634,1,8,0:0:0:0:
224,0,104805,2,0,B|233:48|200:80|192:78|184:76|147:107|159:158,1,180,2|2,3:0|3:0,0:0:0:0:
88,230,105316,2,0,P|123:259|171:258,1,90,8|0,0:0|0:0,0:0:0:0:
179,256,105572,1,0,0:0:0:0:
192,253,105657,6,0,P|179:296|170:340,1,90,6|0,3:2|1:0,0:0:0:0:
336,363,105998,2,0,P|291:372|248:384,1,90,2|2,1:2|1:2,0:0:0:0:
289,263,106339,1,2,1:2:0:0:
423,326,106509,1,0,1:0:0:0:
435,329,106594,1,0,1:0:0:0:
448,332,106680,2,0,P|491:299|491:259,1,90,2|2,1:2|1:2,0:0:0:0:
384,145,107021,6,0,P|396:188|405:232,1,90,2|0,1:2|1:0,0:0:0:0:
408,245,107276,1,8,1:3:0:0:
411,258,107361,2,0,P|357:262|324:234,1,90,2|2,1:2|1:2,0:0:0:0:
183,137,107702,1,2,1:2:0:0:
295,162,107873,1,0,3:0:0:0:
347,41,108043,2,0,P|302:49|259:62,1,90,14|0,0:0|0:0,0:0:0:0:
69,32,108384,6,0,B|109:7|109:7|69:156,1,180,2|8,3:2|0:0,0:0:0:0:
30,285,108896,1,0,0:0:0:0:
191,220,109066,1,2,3:0:0:0:
246,377,109236,1,2,3:0:0:0:
232,380,109322,1,0,0:0:0:0:
218,384,109407,2,0,P|165:378|139:348,1,90,8|0,0:0|0:0,0:0:0:0:
88,159,109748,6,0,P|100:202|109:246,1,90,2|0,3:0|0:0,0:0:0:0:
113,258,110003,1,0,0:0:0:0:
116,271,110089,1,8,0:0:0:0:
255,189,110259,1,2,3:0:0:0:
302,311,110430,1,0,3:2:0:0:
401,337,110600,1,10,0:3:0:0:
427,241,110771,1,8,0:3:0:0:
512,217,110941,1,4,0:3:0:0:
449,160,111111,5,4,3:1:0:0:
440,145,111452,1,0,1:0:0:0:
430,130,111793,2,0,P|445:64|464:0,1,135.000005149842,8|0,1:2|1:0,0:0:0:0:
333,55,112475,5,0,1:0:0:0:
318,46,112816,1,0,1:0:0:0:
303,35,113157,2,0,P|266:27|220:13,1,67.5000025749208,10|2,1:2|0:0,0:0:0:0:
183,88,113498,2,0,P|150:97|117:104,1,67.5000025749208,2|0,1:2|0:0,0:0:0:0:
0,139,113839,6,0,B|80:147|30:184|119:197,2,135.000005149842,0|0|8,3:0|1:0|1:2,0:0:0:0:
0,219,114861,1,0,1:0:0:0:
143,276,115202,5,0,1:0:0:0:
158,267,115543,1,0,1:0:0:0:
173,256,115884,2,0,P|180:292|194:338,1,67.5000025749208,10|2,1:2|0:0,0:0:0:0:
277,312,116225,2,0,P|267:344|260:377,1,67.5000025749208,2|0,1:2|0:0,0:0:0:0:
363,289,116566,5,0,3:0:0:0:
378,297,116907,2,0,P|410:287|443:280,1,67.5000025749208,2|2,1:2|0:0,0:0:0:0:
512,226,117248,5,8,1:2:0:0:
423,178,117589,1,2,1:2:0:0:
439,170,117759,6,0,P|458:105|474:39,1,135.000005149842,2|2,0:0|0:0,0:0:0:0:
390,50,118271,2,0,P|383:83|373:115,1,67.5000025749208,0|0,1:0|0:0,0:0:0:0:
350,200,118611,1,8,1:2:0:0:
361,215,118952,2,0,P|327:221|295:231,1,67.5000025749208,0|2,1:0|0:0,0:0:0:0:
257,152,119293,6,0,P|219:191|223:282,1,135.000005149842,0|0,3:0|1:0,0:0:0:0:
146,384,119975,2,0,P|113:374|80:367,1,67.5000025749208,10|2,1:2|0:0,0:0:0:0:
93,284,120316,2,0,P|60:293|27:300,1,67.5000025749208,2|0,1:2|0:0,0:0:0:0:
85,201,120657,6,0,P|126:208|174:271,2,101.250003862381,2|2|2,1:2|0:0|0:0,0:0:0:0:
31,140,121339,2,0,P|99:123|177:100,1,135.000005149842,4|0,3:1|1:0,0:0:0:0:
247,0,122021,1,0,1:0:0:0:
256,15,122362,1,0,1:0:0:0:
266,30,122703,6,0,P|336:78|390:59,1,135.000005149842,8|0,1:2|1:0,0:0:0:0:
497,0,123384,2,0,P|487:32|480:65,1,67.5000025749208,2|2,1:2|0:0,0:0:0:0:
463,152,123725,1,2,1:2:0:0:
350,226,124066,5,8,1:2:0:0:
365,217,124407,1,0,1:0:0:0:
380,207,124748,2,0,P|441:251|431:310,1,135.000005149842,0|0,1:0|1:0,0:0:0:0:
326,384,125430,5,8,1:2:0:0:
311,375,125771,1,0,1:0:0:0:
296,365,126111,2,0,P|289:331|279:299,1,67.5000025749208,2|2,1:2|0:0,0:0:0:0:
253,216,126452,1,2,1:2:0:0:
148,76,126793,5,12,3:2:0:0:
213,94,127474,1,8,3:2:0:0:
196,159,128157,1,8,3:2:0:0:
131,142,128839,1,8,3:2:0:0:
113,15,129521,5,10,3:2:0:0:
275,60,129861,1,10,3:2:0:0:
233,222,130202,1,8,3:2:0:0:
70,180,130543,1,10,3:2:0:0:
256,135,130884,5,8,3:2:0:0:
131,265,131055,1,8,3:2:0:0:
256,384,131225,1,8,3:2:0:0:
256,350,131310,1,8,3:2:0:0:
256,316,131395,1,8,3:2:0:0:
256,282,131480,1,8,3:2:0:0:
256,249,131566,5,2,1:2:0:0:
256,135,131736,1,2,3:2:0:0:
352,192,131907,1,10,0:0:0:0:
160,192,132077,1,0,0:0:0:0:
341,103,132248,6,0,P|350:60|368:1,1,99.0000030212403,4|0,3:1|0:0,0:0:0:0:
443,158,132588,1,10,0:0:0:0:
293,230,132759,1,2,0:0:0:0:
171,103,132929,6,0,P|161:60|143:1,1,99.0000030212403,2|0,3:2|3:0,0:0:0:0:
69,158,133269,1,10,0:0:0:0:
219,230,133440,1,2,0:0:0:0:
92,334,133611,6,0,B|163:314|163:314|204:345|204:345|275:326,1,198.000006042481,2|10,3:2|0:0,0:0:0:0:
371,198,134123,1,2,3:2:0:0:
463,384,134293,2,0,P|393:372|370:341,1,99.0000030212403,2|0,0:0|3:0,0:0:0:0:
252,252,134634,2,0,P|322:264|345:295,1,99.0000030212403,10|0,0:0|0:0,0:0:0:0:
512,186,134975,6,0,B|464:175|427:207|427:207|361:168|414:104,1,198.000006042481,2|8,3:0|0:0,0:0:0:0:
512,0,135486,1,0,0:0:0:0:
322,106,135657,1,0,3:0:0:0:
155,0,135827,1,0,3:0:0:0:
168,3,135912,1,0,0:0:0:0:
182,7,135998,2,0,P|234:23|296:37,1,99.0000030212403,10|0,0:0|0:0,0:0:0:0:
213,177,136338,6,0,P|111:147|-18:114,1,198.000006042481,2|10,3:2|0:0,0:0:0:0:
140,71,136850,1,2,3:2:0:0:
96,232,137020,2,0,P|54:264|0:258,1,99.0000030212403,2|0,0:0|3:0,0:0:0:0:
197,350,137361,2,0,P|245:362|292:376,1,99.0000030212403,10|0,0:0|0:0,0:0:0:0:
495,271,137702,6,0,B|512:238|512:238|431:259|431:259|419:310|366:324,1,198.000006042481,2|8,3:0|0:0,0:0:0:0:
230,192,138213,1,0,0:0:0:0:
382,64,138384,1,0,3:0:0:0:
356,245,138554,1,0,3:0:0:0:
341,248,138640,1,0,0:0:0:0:
327,252,138725,2,0,P|275:263|213:282,1,99.0000030212403,10|0,0:0|0:0,0:0:0:0:
0,172,139066,6,0,B|133:207|133:207|101:173|110:128,1,198.000006042481,2|10,3:2|0:0,0:0:0:0:
233,0,139577,1,2,3:2:0:0:
49,105,139748,1,2,0:0:0:0:
260,183,139918,1,0,3:0:0:0:
164,50,140088,2,0,P|177:97|187:146,1,99.0000030212403,8|2,0:0|0:0,0:0:0:0:
359,265,140429,5,2,3:0:0:0:
209,245,140600,1,2,0:0:0:0:
316,347,140770,1,10,0:0:0:0:
437,318,140941,1,2,0:0:0:0:
425,149,141111,1,2,3:2:0:0:
334,174,141282,1,0,3:0:0:0:
359,265,141452,1,10,0:0:0:0:
512,126,141623,1,2,1:2:0:0:
385,0,141793,6,0,P|374:48|361:96,1,99.0000030212403,6|0,3:2|0:0,0:0:0:0:
488,222,142134,2,0,P|498:173|511:125,1,99.0000030212403,10|8,0:0|0:3,0:0:0:0:
334,174,142475,1,4,0:3:0:0:
195,136,142645,1,4,3:0:0:0:
56,96,142816,2,0,P|59:33|94:9,1,99.0000030212403,12|0,0:0|0:0,0:0:0:0:
216,239,143157,6,0,P|168:225|119:215,1,99.0000030212403,4|0,3:1|0:0,0:0:0:0:
7,277,143498,1,10,0:0:0:0:
126,117,143668,1,2,0:0:0:0:
296,239,143838,6,0,P|343:225|392:215,1,99.0000030212403,2|0,3:2|3:0,0:0:0:0:
505,277,144179,1,10,0:0:0:0:
386,117,144349,1,2,0:0:0:0:
327,304,144520,6,0,B|280:312|256:368|256:368|232:303|146:297,1,198.000006042481,2|10,3:2|0:0,0:0:0:0:
48,384,145032,1,2,3:2:0:0:
147,221,145202,2,0,P|182:257|183:312,1,99.0000030212403,2|0,0:0|3:0,0:0:0:0:
9,193,145543,2,0,P|13:144|47:110,1,99.0000030212403,10|0,0:0|0:0,0:0:0:0:
215,25,145884,6,0,B|192:96|132:92|132:92|119:42|68:31,1,198.000006042481,2|8,3:0|0:0,0:0:0:0:
87,180,146395,1,0,0:0:0:0:
239,126,146566,1,0,3:0:0:0:
288,301,146736,1,0,3:0:0:0:
284,316,146821,1,0,0:0:0:0:
280,330,146907,2,0,P|228:314|161:298,1,99.0000030212403,10|0,0:0|0:0,0:0:0:0:
315,206,147248,6,0,B|358:141|436:161|436:161|409:187|406:228,1,198.000006042481,2|10,3:2|0:0,0:0:0:0:
364,352,147759,1,2,3:2:0:0:
501,232,147929,2,0,P|485:284|469:351,1,99.0000030212403,2|0,0:0|3:0,0:0:0:0:
315,206,148270,2,0,P|331:154|347:87,1,99.0000030212403,10|0,0:0|0:0,0:0:0:0:
177,0,148611,6,0,B|117:-8|86:25|88:33|90:40|53:74|-5:63,1,198.000006042481,2|8,3:0|0:0,0:0:0:0:
159,88,149123,1,0,3:0:0:0:
30,224,149293,1,0,0:0:0:0:
195,332,149463,1,0,3:0:0:0:
208,335,149549,1,0,0:0:0:0:
222,339,149634,2,0,P|232:291|247:243,1,99.0000030212403,10|0,0:0|0:0,0:0:0:0:
424,176,149975,6,0,B|394:239|328:228|328:228|319:182|270:162,1,198.000006042481,2|10,3:2|0:0,0:0:0:0:
323,0,150486,1,2,3:2:0:0:
453,100,150657,1,2,0:0:0:0:
281,167,150827,1,0,3:0:0:0:
417,290,150998,2,0,P|464:275|512:264,1,99.0000030212403,8|2,0:0|0:0,0:0:0:0:
368,384,151338,5,2,3:0:0:0:
232,292,151509,1,2,0:0:0:0:
136,193,151679,5,10,0:0:0:0:
0,285,151850,1,2,0:0:0:0:
72,106,152020,5,2,3:2:0:0:
236,165,152191,1,2,3:2:0:0:
288,28,152361,2,0,P|239:38|192:53,1,99.0000030212403,10|2,0:0|0:2,0:0:0:0:
331,159,152702,5,4,3:2:0:0:
504,222,152873,1,0,0:0:0:0:
464,64,153043,5,8,0:0:0:0:
416,205,153213,1,0,3:2:0:0:
484,332,153384,5,8,0:0:0:0:
498,335,153469,1,8,0:0:0:0:
512,339,153554,1,8,0:0:0:0:
396,384,153725,5,8,0:0:0:0:
286,357,153895,1,8,0:0:0:0:
129,292,154066,6,0,P|80:302|33:317,1,99.0000030212403,4|0,3:1|0:0,0:0:0:0:
214,384,154407,1,10,0:0:0:0:
175,191,154577,1,2,0:0:0:0:
383,292,154748,6,0,P|431:302|478:317,1,99.0000030212403,2|0,3:2|3:0,0:0:0:0:
298,384,155089,1,10,0:0:0:0:
337,191,155259,1,2,0:0:0:0:
129,292,155429,6,0,P|105:194|76:92,1,198.000006042481,2|10,3:2|0:0,0:0:0:0:
239,9,155941,1,2,3:2:0:0:
261,164,156111,2,0,P|206:169|168:144,1,99.0000030212403,2|0,0:0|3:0,0:0:0:0:
338,25,156452,2,0,P|393:20|431:45,1,99.0000030212403,10|0,0:0|0:0,0:0:0:0:
389,217,156793,6,0,B|335:235|335:235|375:87,1,198.000006042481,2|8,3:0|0:0,0:0:0:0:
477,190,157304,1,0,0:0:0:0:
398,316,157475,1,0,3:0:0:0:
234,251,157645,1,0,3:0:0:0:
237,265,157730,1,0,0:0:0:0:
241,279,157816,2,0,P|226:326|215:374,1,99.0000030212403,10|0,0:0|0:0,0:0:0:0:
53,317,158157,6,0,B|92:287|141:292|141:292|166:234|98:201,1,198.000006042481,2|10,3:2|0:0,0:0:0:0:
0,134,158668,1,2,3:2:0:0:
162,21,158838,2,0,P|151:69|136:116,1,99.0000030212403,2|0,0:0|3:0,0:0:0:0:
237,265,159179,2,0,P|247:216|262:169,1,99.0000030212403,10|0,0:0|0:0,0:0:0:0:
318,0,159520,6,0,B|377:-8|408:25|406:33|404:40|441:74|495:69,1,198.000006042481,2|8,3:0|0:0,0:0:0:0:
336,93,160032,1,0,0:0:0:0:
457,209,160202,1,0,3:0:0:0:
307,307,160373,1,0,3:0:0:0:
320,310,160458,1,0,0:0:0:0:
334,314,160543,2,0,P|383:325|429:339,1,99.0000030212403,10|0,0:0|0:0,0:0:0:0:
330,215,160884,6,0,P|263:224|219:343,1,198.000006042481,2|10,3:2|0:0,0:0:0:0:
86,197,161395,1,2,3:2:0:0:
16,367,161566,1,2,0:0:0:0:
146,246,161736,1,0,3:0:0:0:
14,119,161907,2,0,P|63:107|109:93,1,99.0000030212403,8|2,0:0|0:0,0:0:0:0:
302,0,162248,6,0,B|326:55|301:94|293:94|285:94|262:139|288:193,1,198.000006042481,2|10,3:0|0:0,0:0:0:0:
220,38,162759,1,0,0:0:0:0:
368,147,162929,1,2,3:2:0:0:
476,0,163100,1,0,3:0:0:0:
435,194,163270,2,0,P|390:232|330:222,1,99.0000030212403,10|0,0:0|1:0,0:0:0:0:
189,147,163611,6,0,P|203:194|215:242,1,99.0000030212403,6|0,3:2|0:0,0:0:0:0:
219,256,163867,1,0,0:0:0:0:
223,270,163952,1,10,0:0:0:0:
387,384,164123,2,0,L|401:328,1,49.5000015106202,8|8,0:3|0:3,0:0:0:0:
256,352,164293,1,4,0:3:0:0:
112,320,164463,1,4,3:0:0:0:
0,224,164634,2,0,P|55:223|96:193,1,99.0000030212403,12|0,0:0|0:0,0:0:0:0:
196,31,164975,6,0,P|181:78|169:126,1,99.0000030212403,4|0,3:1|0:0,0:0:0:0:
217,246,165316,1,10,0:0:0:0:
90,121,165486,1,2,0:0:0:0:
316,31,165657,6,0,P|330:78|342:126,1,99.0000030212403,2|0,3:2|3:0,0:0:0:0:
295,246,165998,1,10,0:0:0:0:
422,121,166168,1,2,0:0:0:0:
478,300,166338,6,0,B|422:310|388:269|388:269|374:334|299:350,1,198.000006042481,2|10,3:2|0:0,0:0:0:0:
157,288,166850,1,2,3:2:0:0:
268,156,167020,2,0,P|295:195|290:257,1,99.0000030212403,2|0,0:0|3:0,0:0:0:0:
157,288,167361,2,0,P|130:249|135:187,1,99.0000030212403,10|0,0:0|0:0,0:0:0:0:
312,63,167702,6,0,B|203:91|203:91|162:58|117:69,1,198.000006042481,2|8,3:0|0:0,0:0:0:0:
3,231,168213,1,0,0:0:0:0:
140,160,168384,1,0,3:0:0:0:
188,339,168554,1,0,3:0:0:0:
173,335,168640,1,0,0:0:0:0:
159,331,168725,2,0,P|108:283|113:247,1,99.0000030212403,10|0,0:0|0:0,0:0:0:0:
230,128,169066,6,0,P|257:223|282:318,1,198.000006042481,2|10,3:2|0:0,0:0:0:0:
409,223,169577,1,2,3:2:0:0:
461,384,169748,2,0,P|414:370|366:358,1,99.0000030212403,2|0,0:0|3:0,0:0:0:0:
486,209,170088,2,0,P|497:257|512:304,1,99.0000030212403,10|0,0:0|0:0,0:0:0:0:
313,164,170429,6,0,B|353:205|406:186|406:186|436:120|521:129,1,198.000006042481,2|8,3:0|0:0,0:0:0:0:
348,34,170941,1,0,3:0:0:0:
216,164,171111,1,0,0:0:0:0:
375,106,171282,1,0,3:0:0:0:
226,0,171452,2,0,P|193:45|204:110,1,99.0000030212403,10|0,0:0|0:0,0:0:0:0:
69,211,171793,6,0,B|48:173|86:146|86:146|207:178,1,198.000006042481,2|10,3:2|0:0,0:0:0:0:
327,336,172304,1,2,3:2:0:0:
377,165,172475,1,2,0:0:0:0:
228,279,172645,1,0,3:0:0:0:
213,282,172730,1,0,0:0:0:0:
199,286,172816,2,0,P|151:296|83:317,1,99.0000030212403,8|2,0:0|0:0,0:0:0:0:
0,176,173157,6,0,P|51:194|83:244,1,99.0000030212403,2|2,3:0|0:0,0:0:0:0:
193,86,173498,2,0,P|142:104|110:154,1,99.0000030212403,10|0,0:0|0:0,0:0:0:0:
34,76,173838,1,2,3:2:0:0:
197,169,174009,2,0,P|244:155|292:144,1,99.0000030212403,2|8,3:2|0:0,0:0:0:0:
398,0,174350,6,0,P|384:47|373:95,1,99.0000030212403,2|4,1:2|3:2,0:0:0:0:
443,261,174691,1,2,0:0:0:0:
482,88,174861,1,10,0:0:0:0:
346,198,175032,1,8,0:3:0:0:
428,344,175202,2,0,P|492:331|519:292,1,99.0000030212403,4|4,0:3|3:0,0:0:0:0:
300,297,175543,2,0,P|252:310|204:321,1,99.0000030212403,14|2,0:0|0:0,0:0:0:0:
197,155,175884,6,0,B|244:166|256:216|256:216|268:166|315:154,1,180,4|8,0:1|0:0,0:0:0:0:
495,172,176395,1,2,0:0:0:0:
353,60,176566,1,0,3:0:0:0:
337,229,176736,1,0,3:0:0:0:
175,67,176907,2,0,P|187:110|196:154,1,90,10|0,0:0|0:0,0:0:0:0:
256,16,177248,5,2,3:1:0:0:
315,154,177418,2,0,P|324:110|337:67,1,90,2|10,0:0|0:0,0:0:0:0:
256,216,177759,1,2,3:2:0:0:
112,128,177929,2,0,P|61:128|27:154,1,90,2|0,0:0|3:0,0:0:0:0:
110,300,178270,2,0,P|147:323|191:321,1,90,8|0,0:0|0:0,0:0:0:0:
241,187,178611,6,0,B|216:227|248:267|256:267|264:267|288:307|268:356,1,180,2|8,3:1|0:0,0:0:0:0:
319,214,179123,1,2,0:0:0:0:
417,343,179293,1,0,3:0:0:0:
512,235,179463,1,0,3:0:0:0:
498,238,179549,1,0,0:0:0:0:
484,242,179634,2,0,P|436:252|363:274,1,90,8|0,0:0|0:0,0:0:0:0:
302,134,179975,5,2,3:1:0:0:
456,167,180145,1,0,0:0:0:0:
459,153,180231,1,0,0:0:0:0:
463,139,180316,2,0,P|473:91|495:18,1,90,10|2,0:0|3:2,0:0:0:0:
336,0,180657,1,0,0:0:0:0:
256,168,180827,1,2,3:2:0:0:
256,0,180998,2,0,L|256:96,1,90,10|2,0:0|0:0,0:0:0:0:
168,232,181338,5,2,3:1:0:0:
152,227,181424,1,0,0:0:0:0:
137,223,181509,2,0,P|96:198|83:149,1,90,0|8,0:0|0:0,0:0:0:0:
56,8,181850,1,2,0:0:0:0:
171,141,182020,1,0,3:0:0:0:
210,2,182191,2,0,L|196:52,1,45,0|0,3:0|0:0,0:0:0:0:
259,180,182361,5,10,0:0:0:0:
275,175,182447,1,0,0:0:0:0:
290,171,182532,2,0,P|331:146|344:97,1,90,0|2,0:0|3:1,0:0:0:0:
466,0,182873,2,0,P|454:43|444:87,1,90,2|10,0:0|0:0,0:0:0:0:
512,209,183213,1,2,3:2:0:0:
360,253,183384,2,0,P|405:256|446:280,1,90,2|0,0:0|3:0,0:0:0:0:
312,360,183725,2,0,P|268:369|224:381,1,90,8|0,0:0|0:0,0:0:0:0:
60,333,184066,6,0,B|123:315|123:315|146:276|146:276|246:249,1,180,2|10,3:1|0:0,0:0:0:0:
133,124,184577,1,2,0:0:0:0:
0,208,184748,1,0,3:2:0:0:
85,56,184917,1,0,3:0:0:0:
101,52,185003,1,0,0:0:0:0:
116,48,185088,2,0,P|164:49|199:85,1,90,8|0,0:0|0:0,0:0:0:0:
256,224,185429,5,2,3:1:0:0:
394,147,185600,1,2,0:0:0:0:
380,143,185685,1,0,0:0:0:0:
366,139,185770,1,8,0:0:0:0:
492,78,185941,2,0,B|534:115|534:115|493:268,1,180,2|2,3:0|3:0,0:0:0:0:
396,357,186452,2,0,P|440:328|486:325,1,90,8|8,0:0|0:3,0:0:0:0:
357,258,186793,5,4,3:1:0:0:
346,255,186878,1,0,0:0:0:0:
335,252,186963,2,0,P|302:214|336:132,1,144,0|0,0:0|3:0,0:0:0:0:
256,64,187475,1,8,0:0:0:0:
185,237,188157,6,0,P|210:196|167:124,2,108,0|0|2,3:0|3:0|3:2,0:0:0:0:
94,215,188838,1,10,0:0:0:0:
32,321,189009,1,0,3:0:0:0:
203,384,189179,2,0,P|212:339|226:297,1,72,8|0,0:0|0:0,0:0:0:0:
307,156,189520,6,0,P|338:214|462:205,1,180,4|8,3:2|0:0,0:0:0:0:
512,63,190032,1,2,0:0:0:0:
392,151,190202,1,0,3:0:0:0:
299,0,190373,1,0,3:0:0:0:
311,3,190458,1,0,0:0:0:0:
324,6,190543,2,0,P|372:48|374:91,1,90,8|0,0:0|0:0,0:0:0:0:
223,134,190884,5,2,3:1:0:0:
79,70,191055,1,0,0:0:0:0:
91,67,191140,1,0,0:0:0:0:
104,64,191225,2,0,P|152:21|154:-21,1,90,10|2,0:0|3:2,0:0:0:0:
145,164,191566,1,0,0:0:0:0:
0,74,191736,1,2,3:2:0:0:
85,232,191907,2,0,P|129:241|172:252,1,90,10|2,0:0|0:0,0:0:0:0:
256,384,192248,5,2,3:0:0:0:
256,361,192333,1,0,0:0:0:0:
256,338,192418,2,0,L|256:229,1,90,0|8,0:0|0:0,0:0:0:0:
337,112,192759,2,0,P|255:79|173:113,1,180,2|0,3:2|0:0,0:0:0:0:
303,187,193270,1,2,0:0:0:0:
324,192,193355,1,0,0:0:0:0:
345,198,193441,2,0,L|407:214,1,45
512,156,193611,5,2,3:0:0:0:
394,291,193781,1,2,0:0:0:0:
415,285,193867,1,2,0:0:0:0:
436,279,193952,1,10,0:0:0:0:
312,384,194123,2,0,P|270:326|164:332,1,180,2|2,3:2|0:3,0:0:0:0:
30,262,194634,1,2,0:3:0:0:
169,328,194804,1,2,0:3:0:0:
128,152,194975,5,2,3:0:0:0:
265,51,195145,1,8,0:0:0:0:
300,237,195316,2,0,P|256:225|212:216,1,90,8|2,0:0|0:3,0:0:0:0:
154,45,195657,1,12,0:0:0:0:
335,144,195827,1,8,0:0:0:0:
356,138,195913,1,8,0:0:0:0:
377,132,195998,1,8,0:0:0:0:
512,0,196168,1,8,0:0:0:0:
512,192,196338,5,2,0:0:0:0:
455,285,196509,2,0,P|442:231|427:182,1,99.0000030212403,2|2,0:0|0:0,0:0:0:0:
