osu file format v14

[General]
AudioFilename: audio.mp3
AudioLeadIn: 0
PreviewTime: 134238
Countdown: 0
SampleSet: Normal
StackLeniency: 0.7
Mode: 1
LetterboxInBreaks: 0
WidescreenStoryboard: 1

[Editor]
Bookmarks: 1638,14438,27238,38438,51238,67238,80038,92838,105638,118438,134438,147238,160038,171238
DistanceSpacing: 0.1
BeatDivisor: 2
GridSize: 16
TimelineZoom: 1.200001

[Metadata]
Title:Haru no Sekibaku
TitleUnicode:ハルノ寂寞
Artist:inabakumori
ArtistUnicode:稲葉曇
Creator:Gamelan4
Version:Kantan
Source:
Tags:gaston_2199 midnaait reficul japanese rock jrock j-rock ぬくぬくにぎりめし cumori inabacumori nukunuku nigirimeshi 弦巻マキ Tsurumaki Maki vocaloid synthesizer V 5
BeatmapID:3091463
BeatmapSetID:1467922

[Difficulty]
HPDrainRate:8
CircleSize:2
OverallDifficulty:3
ApproachRate:10
SliderMultiplier:1.4
SliderTickRate:1

[Events]
//Background and Video events
0,0,"cool bg.png",0,20
//Break Periods
2,131038,133988
//Storyboard Layer 0 (Background)
//Storyboard Layer 1 (Fail)
//Storyboard Layer 2 (Pass)
//Storyboard Layer 3 (Foreground)
//Storyboard Layer 4 (Overlay)
//Storyboard Sound Samples

[TimingPoints]
1638,400,4,1,0,60,1,0
1638,-100,4,1,0,60,0,0
27138,-100,4,1,0,70,0,0
67238,-100,4,1,0,80,0,1
92838,-100,4,1,0,80,0,0
130488,-100,4,1,0,60,0,0
134188,-100,4,1,0,80,0,0
134438,-100,4,1,0,80,0,1
160038,-100,4,1,0,80,0,0

[HitObjects]
288,256,1638,5,8,0:0:0:0:
256,192,3238,1,0,0:0:0:0:
256,192,4838,1,0,0:0:0:0:
256,192,6438,1,8,0:0:0:0:
256,192,8038,1,8,0:0:0:0:
256,192,9638,1,0,0:0:0:0:
256,192,11238,1,0,0:0:0:0:
256,176,12038,1,8,0:0:0:0:
240,176,12838,1,0,0:0:0:0:
256,176,13238,1,0,0:0:0:0:
256,176,13638,1,8,0:0:0:0:
340,180,14038,1,8,0:0:0:0:
256,176,14438,1,0,0:0:0:0:
224,160,15638,1,8,0:0:0:0:
208,160,16038,1,0,0:0:0:0:
192,160,16838,1,8,0:0:0:0:
144,160,17638,1,0,0:0:0:0:
128,160,18238,1,8,0:0:0:0:
144,128,18838,1,8,0:0:0:0:
144,128,19238,1,0,0:0:0:0:
144,128,19838,1,8,0:0:0:0:
144,128,20838,1,0,0:0:0:0:
144,128,22038,1,8,0:0:0:0:
144,128,22438,1,0,0:0:0:0:
144,128,23238,1,8,0:0:0:0:
144,128,24038,1,0,0:0:0:0:
144,128,24838,1,8,0:0:0:0:
144,128,25638,1,0,0:0:0:0:
144,128,26038,1,0,0:0:0:0:
144,128,26438,1,8,0:0:0:0:
144,128,27238,1,4,0:0:0:0:
144,112,28438,1,8,0:0:0:0:
144,112,28838,1,0,0:0:0:0:
160,96,29638,1,8,0:0:0:0:
160,80,30038,1,8,0:0:0:0:
176,64,30438,1,0,0:0:0:0:
176,64,31238,1,8,0:0:0:0:
176,64,32038,1,0,0:0:0:0:
176,64,32438,1,8,0:0:0:0:
176,64,32838,1,8,0:0:0:0:
176,64,33638,1,4,0:0:0:0:
144,112,34438,1,8,0:0:0:0:
144,112,35238,1,0,0:0:0:0:
160,96,36038,1,0,0:0:0:0:
160,80,36438,1,8,0:0:0:0:
176,64,36838,1,0,0:0:0:0:
176,64,37238,1,8,0:0:0:0:
414,228,38038,1,8,0:0:0:0:
192,64,38438,1,4,0:0:0:0:
176,48,39638,1,8,0:0:0:0:
192,64,40038,1,0,0:0:0:0:
192,64,40838,1,8,0:0:0:0:
192,64,41638,1,0,0:0:0:0:
192,64,42238,1,8,0:0:0:0:
192,64,42838,1,8,0:0:0:0:
192,64,43238,1,0,0:0:0:0:
192,64,44038,1,8,0:0:0:0:
192,64,44438,1,8,0:0:0:0:
192,64,44838,1,0,0:0:0:0:
176,64,45638,1,8,0:0:0:0:
176,64,46438,1,0,0:0:0:0:
176,64,46838,1,8,0:0:0:0:
229,166,47238,1,0,0:0:0:0:
176,64,47638,1,8,0:0:0:0:
176,64,48038,1,0,0:0:0:0:
176,64,49238,1,8,0:0:0:0:
176,64,49638,1,0,0:0:0:0:
176,64,50038,1,8,0:0:0:0:
176,64,50838,1,8,0:0:0:0:
176,64,51238,1,4,0:0:0:0:
160,48,52038,1,8,0:0:0:0:
192,64,52838,1,0,0:0:0:0:
192,64,53238,1,8,0:0:0:0:
276,172,53638,1,0,0:0:0:0:
192,64,54438,1,0,0:0:0:0:
192,64,55038,1,8,0:0:0:0:
192,64,55638,1,8,0:0:0:0:
192,64,56038,1,0,0:0:0:0:
192,64,56638,1,8,0:0:0:0:
78,149,57238,1,8,0:0:0:0:
479,159,57638,1,4,0:0:0:0:
208,32,58838,1,8,0:0:0:0:
176,64,59238,1,0,0:0:0:0:
176,64,60038,1,8,0:0:0:0:
176,64,60438,1,8,0:0:0:0:
176,64,60838,1,0,0:0:0:0:
444,149,61238,1,8,0:0:0:0:
479,162,62038,1,8,0:0:0:0:
176,64,62438,1,0,0:0:0:0:
176,64,63238,1,0,0:0:0:0:
176,64,63638,1,8,0:0:0:0:
176,64,64038,1,4,0:0:0:0:
339,153,64838,1,8,0:0:0:0:
128,96,65638,1,4,0:0:0:0:
144,96,66238,1,12,0:0:0:0:
128,96,67238,1,4,0:0:0:0:
352,169,67838,1,8,0:0:0:0:
160,80,68438,1,8,0:0:0:0:
192,64,68838,1,0,0:0:0:0:
338,164,69238,1,0,0:0:0:0:
192,64,69638,1,8,0:0:0:0:
192,48,70238,1,0,0:0:0:0:
144,64,70838,1,8,0:0:0:0:
144,64,71238,1,0,0:0:0:0:
144,64,72038,1,0,0:0:0:0:
144,64,72638,1,8,0:0:0:0:
144,64,73238,1,8,0:0:0:0:
144,64,73638,1,4,0:0:0:0:
160,80,74838,1,8,0:0:0:0:
176,80,75238,1,0,0:0:0:0:
192,64,75638,1,8,0:0:0:0:
192,64,76438,1,8,0:0:0:0:
192,64,76838,1,0,0:0:0:0:
192,64,77438,1,0,0:0:0:0:
192,64,78038,1,8,0:0:0:0:
192,64,78438,1,4,0:0:0:0:
160,80,79238,1,0,0:0:0:0:
160,48,79638,1,8,0:0:0:0:
128,96,80038,1,4,0:0:0:0:
387,196,80638,1,8,0:0:0:0:
160,80,81238,1,8,0:0:0:0:
192,64,81638,1,0,0:0:0:0:
192,64,82038,1,8,0:0:0:0:
192,64,82438,1,8,0:0:0:0:
192,48,83038,1,0,0:0:0:0:
144,64,83638,1,8,0:0:0:0:
144,64,84038,1,0,0:0:0:0:
144,64,84438,1,8,0:0:0:0:
144,64,84838,1,0,0:0:0:0:
144,64,85438,1,0,0:0:0:0:
160,48,86038,1,8,0:0:0:0:
144,64,86438,1,4,0:0:0:0:
160,80,87638,1,8,0:0:0:0:
176,80,88038,1,0,0:0:0:0:
192,64,88438,1,8,0:0:0:0:
192,64,89238,1,8,0:0:0:0:
192,64,89638,1,0,0:0:0:0:
192,64,90038,1,8,0:0:0:0:
269,155,90438,1,0,0:0:0:0:
192,64,90838,1,8,0:0:0:0:
192,64,91238,1,4,0:0:0:0:
160,64,92038,1,0,0:0:0:0:
304,160,92438,1,8,0:0:0:0:
256,192,92838,1,4,0:0:0:0:
256,144,94038,1,8,0:0:0:0:
256,128,94438,1,0,0:0:0:0:
256,112,95238,1,0,0:0:0:0:
240,96,95638,1,8,0:0:0:0:
240,80,96038,1,0,0:0:0:0:
335,139,96438,1,0,0:0:0:0:
208,64,96838,1,8,0:0:0:0:
192,64,97238,1,8,0:0:0:0:
192,64,97638,1,0,0:0:0:0:
176,64,98238,1,8,0:0:0:0:
160,64,98838,1,8,0:0:0:0:
160,64,99238,1,4,0:0:0:0:
256,144,100438,1,8,0:0:0:0:
256,128,100838,1,0,0:0:0:0:
256,112,101638,1,0,0:0:0:0:
240,96,102038,1,8,0:0:0:0:
240,80,102438,1,0,0:0:0:0:
333,159,103638,1,8,0:0:0:0:
192,64,104038,1,0,0:0:0:0:
192,64,104638,1,8,0:0:0:0:
160,64,105238,1,8,0:0:0:0:
160,64,105638,1,4,0:0:0:0:
176,48,107238,1,0,0:0:0:0:
160,64,108838,1,0,0:0:0:0:
160,64,109638,1,8,0:0:0:0:
160,64,110438,1,0,0:0:0:0:
176,64,111238,1,0,0:0:0:0:
176,64,111638,1,8,0:0:0:0:
176,64,112038,1,0,0:0:0:0:
176,48,113638,1,8,0:0:0:0:
427,189,114838,1,8,0:0:0:0:
160,64,115238,1,4,0:0:0:0:
160,64,116038,1,8,0:0:0:0:
317,100,116438,1,8,0:0:0:0:
176,64,116838,1,4,0:0:0:0:
176,64,117638,1,0,0:0:0:0:
176,64,118038,1,8,0:0:0:0:
176,64,118438,1,4,0:0:0:0:
160,64,119638,1,8,0:0:0:0:
192,64,120038,1,0,0:0:0:0:
176,80,120838,1,0,0:0:0:0:
192,64,121238,1,8,0:0:0:0:
311,152,121638,1,0,0:0:0:0:
192,64,122438,1,8,0:0:0:0:
192,64,123238,1,0,0:0:0:0:
192,64,123838,1,0,0:0:0:0:
192,64,124438,1,8,0:0:0:0:
192,64,124838,1,4,0:0:0:0:
176,64,125638,1,8,0:0:0:0:
192,64,126038,1,8,0:0:0:0:
176,64,126438,1,0,0:0:0:0:
176,64,127238,1,8,0:0:0:0:
176,64,127638,1,0,0:0:0:0:
176,64,128038,1,12,0:0:0:0:
302,113,128838,1,0,0:0:0:0:
176,64,129238,1,8,0:0:0:0:
176,64,129638,1,0,0:0:0:0:
176,64,130238,1,8,0:0:0:0:
128,96,134438,5,4,0:0:0:0:
352,169,135038,1,8,0:0:0:0:
160,80,135638,1,8,0:0:0:0:
192,64,136038,1,0,0:0:0:0:
338,164,136438,1,0,0:0:0:0:
192,64,136838,1,8,0:0:0:0:
192,48,137438,1,0,0:0:0:0:
144,64,138038,1,8,0:0:0:0:
144,64,138438,1,0,0:0:0:0:
447,177,138838,1,8,0:0:0:0:
144,64,139238,1,0,0:0:0:0:
144,64,139838,1,8,0:0:0:0:
144,64,140438,1,8,0:0:0:0:
144,64,140838,1,4,0:0:0:0:
160,80,142038,1,8,0:0:0:0:
176,80,142438,1,0,0:0:0:0:
192,64,142838,1,8,0:0:0:0:
192,64,143638,1,8,0:0:0:0:
192,64,144038,1,0,0:0:0:0:
192,64,144638,1,0,0:0:0:0:
192,64,145238,1,8,0:0:0:0:
192,64,145638,1,4,0:0:0:0:
160,80,146438,1,0,0:0:0:0:
160,48,146838,1,8,0:0:0:0:
128,96,147238,1,4,0:0:0:0:
387,196,147838,1,8,0:0:0:0:
160,80,148438,1,8,0:0:0:0:
192,64,148838,1,0,0:0:0:0:
192,64,149238,1,8,0:0:0:0:
192,64,149638,1,8,0:0:0:0:
192,48,150238,1,0,0:0:0:0:
144,64,150838,1,8,0:0:0:0:
144,64,151238,1,0,0:0:0:0:
144,64,151638,1,8,0:0:0:0:
144,64,152038,1,0,0:0:0:0:
144,64,152638,1,0,0:0:0:0:
160,48,153238,1,8,0:0:0:0:
144,64,153638,1,4,0:0:0:0:
160,80,154838,1,8,0:0:0:0:
176,80,155238,1,0,0:0:0:0:
114,154,155638,1,8,0:0:0:0:
325,182,156438,1,8,0:0:0:0:
154,271,156838,1,0,0:0:0:0:
378,150,157238,1,8,0:0:0:0:
269,155,157638,1,0,0:0:0:0:
192,64,158038,1,8,0:0:0:0:
107,184,158438,1,4,0:0:0:0:
295,97,159238,1,0,0:0:0:0:
304,160,159638,1,8,0:0:0:0:
256,192,160038,1,4,0:0:0:0:
144,112,161238,1,8,0:0:0:0:
202,283,161638,1,0,0:0:0:0:
89,294,162438,1,8,0:0:0:0:
314,243,162838,1,8,0:0:0:0:
392,130,163238,1,0,0:0:0:0:
32,207,164038,1,8,0:0:0:0:
140,240,164838,1,0,0:0:0:0:
96,108,165238,1,8,0:0:0:0:
283,136,165638,1,8,0:0:0:0:
176,64,166438,1,4,0:0:0:0:
144,112,167238,1,8,0:0:0:0:
144,112,168038,1,0,0:0:0:0:
160,96,168838,1,0,0:0:0:0:
160,80,169238,1,8,0:0:0:0:
176,64,169638,1,0,0:0:0:0:
176,64,170038,1,8,0:0:0:0:
414,228,170838,1,8,0:0:0:0:
192,64,171238,1,4,0:0:0:0:
144,112,172438,1,8,0:0:0:0:
144,112,172838,1,0,0:0:0:0:
160,96,173638,1,8,0:0:0:0:
160,80,174038,1,8,0:0:0:0:
176,64,174438,1,0,0:0:0:0:
176,64,175238,1,8,0:0:0:0:
176,64,176038,1,0,0:0:0:0:
176,64,176438,1,8,0:0:0:0:
176,64,177238,1,8,0:0:0:0:
176,64,177638,1,4,0:0:0:0:
144,112,178438,1,8,0:0:0:0:
144,112,179238,1,0,0:0:0:0:
160,96,180038,1,0,0:0:0:0:
160,80,180438,1,8,0:0:0:0:
176,64,180838,1,0,0:0:0:0:
176,64,181238,1,12,0:0:0:0:
192,64,182038,1,0,0:0:0:0:
400,158,182638,1,0,0:0:0:0:
406,176,183238,1,8,0:0:0:0:
