osu file format v14

[General]
AudioFilename: audio.ogg
AudioLeadIn: 0
PreviewTime: 150711
Countdown: 0
SampleSet: Soft
StackLeniency: 0.7
Mode: 3
LetterboxInBreaks: 0
SpecialStyle: 0
WidescreenStoryboard: 0

[Editor]
DistanceSpacing: 0.6
BeatDivisor: 4
GridSize: 16
TimelineZoom: 1.6

[Metadata]
Title:Float Play
TitleUnicode:フロートプレイ
Artist:inabakumori
ArtistUnicode:稲葉曇
Creator:Crisper
Version:Tsunagu
Source:
Tags:MichouP 視長P 因幡プカリ Inaba Pukari きゐな kiwina Inaba Cumori Japanese Kaai Yuki 歌愛ユキ Synthesizer V Vocaloid voiceroid ぬくぬくにぎりめし Nukunuku Nigirimeshi jpop j-pop jrock j-rock electronic long notes ln rock 4k vocal synth mapping contest
BeatmapID:4206346
BeatmapSetID:2019833

[Difficulty]
HPDrainRate:8
CircleSize:4
OverallDifficulty:7.5
ApproachRate:5
SliderMultiplier:1.4
SliderTickRate:1

[Events]
//Background and Video events
0,0,"maxresdefault_waifu2x_art_noise1_scale.png",0,0
Video,-55,"video.mp4"
//Break Periods
//Storyboard Layer 0 (Background)
//Storyboard Layer 1 (Fail)
//Storyboard Layer 2 (Pass)
//Storyboard Layer 3 (Foreground)
//Storyboard Layer 4 (Overlay)
//Storyboard Sound Samples

[TimingPoints]
891,359.281437125748,4,2,1,65,1,0
42567,-100,4,2,1,65,0,1
65561,-100,4,2,1,65,0,0
111549,-100,4,2,1,65,0,1
128795,-100,4,2,1,65,0,0
151789,-100,4,2,1,65,0,1
174783,-100,4,2,1,65,0,0

[HitObjects]
320,192,531,5,0,0:0:0:0:
64,192,891,128,0,1250:0:0:0:0:
320,192,891,128,0,1070:0:0:0:0:
192,192,1070,1,0,0:0:0:0:
192,192,1250,128,0,1429:0:0:0:0:
320,192,1250,128,0,1429:0:0:0:0:
64,192,1429,1,0,0:0:0:0:
192,192,1609,128,0,1789:0:0:0:0:
64,192,1609,128,0,1968:0:0:0:0:
320,192,1789,1,0,0:0:0:0:
192,192,1968,128,0,2058:0:0:0:0:
320,192,1968,128,0,2058:0:0:0:0:
192,192,2148,128,0,2328:0:0:0:0:
64,192,2148,128,0,2328:0:0:0:0:
448,192,2328,1,0,0:0:0:0:
320,192,2328,1,0,0:0:0:0:
64,192,2507,128,0,2597:0:0:0:0:
64,192,2687,128,0,2867:0:0:0:0:
320,192,2687,1,0,0:0:0:0:
192,192,2867,1,0,0:0:0:0:
192,192,3046,128,0,3226:0:0:0:0:
320,192,3046,1,0,0:0:0:0:
448,192,3226,1,0,0:0:0:0:
192,192,3405,128,0,3765:0:0:0:0:
448,192,3405,128,0,3585:0:0:0:0:
320,192,3585,1,0,0:0:0:0:
320,192,3765,128,0,3944:0:0:0:0:
448,192,3765,128,0,3944:0:0:0:0:
192,192,3944,1,0,0:0:0:0:
192,192,4124,128,0,4304:0:0:0:0:
448,192,4124,128,0,4304:0:0:0:0:
320,192,4304,1,0,0:0:0:0:
320,192,4483,128,0,4663:0:0:0:0:
448,192,4483,128,0,4573:0:0:0:0:
192,192,4663,1,0,0:0:0:0:
192,192,4843,128,0,4932:0:0:0:0:
448,192,4843,128,0,4932:0:0:0:0:
448,192,5022,128,0,5202:0:0:0:0:
320,192,5022,128,0,5202:0:0:0:0:
64,192,5202,1,0,0:0:0:0:
192,192,5202,1,0,0:0:0:0:
320,192,5382,128,0,5471:0:0:0:0:
320,192,5561,128,0,5741:0:0:0:0:
192,192,5561,1,0,0:0:0:0:
448,192,5741,1,0,0:0:0:0:
448,192,5920,128,0,6100:0:0:0:0:
192,192,5920,1,0,0:0:0:0:
64,192,6100,1,0,0:0:0:0:
64,192,6280,128,0,6459:0:0:0:0:
320,192,6280,128,0,6639:0:0:0:0:
192,192,6459,1,0,0:0:0:0:
192,192,6639,128,0,6819:0:0:0:0:
64,192,6639,128,0,6819:0:0:0:0:
320,192,6819,1,0,0:0:0:0:
320,192,6998,128,0,7178:0:0:0:0:
64,192,6998,128,0,7178:0:0:0:0:
192,192,7178,1,0,0:0:0:0:
192,192,7358,128,0,7537:0:0:0:0:
320,192,7358,128,0,7447:0:0:0:0:
64,192,7537,1,0,0:0:0:0:
64,192,7717,128,0,7807:0:0:0:0:
320,192,7717,128,0,7807:0:0:0:0:
192,192,7896,128,0,8076:0:0:0:0:
320,192,7896,128,0,8076:0:0:0:0:
64,192,8076,1,0,0:0:0:0:
448,192,8076,1,0,0:0:0:0:
320,192,8256,128,0,8346:0:0:0:0:
320,192,8435,128,0,8615:0:0:0:0:
64,192,8435,1,0,0:0:0:0:
64,192,8615,128,0,8974:0:0:0:0:
320,192,8795,1,0,0:0:0:0:
192,192,8795,128,0,8974:0:0:0:0:
320,192,8974,128,0,9154:0:0:0:0:
192,192,9154,1,0,0:0:0:0:
64,192,9154,1,0,0:0:0:0:
448,192,9334,128,0,9423:0:0:0:0:
448,192,9513,128,0,9693:0:0:0:0:
192,192,9513,128,0,9873:0:0:0:0:
320,192,9693,1,0,0:0:0:0:
320,192,9873,128,0,10052:0:0:0:0:
448,192,9873,128,0,10052:0:0:0:0:
192,192,10052,128,0,10142:0:0:0:0:
192,192,10232,128,0,10411:0:0:0:0:
320,192,10232,128,0,10501:0:0:0:0:
448,192,10411,128,0,10501:0:0:0:0:
192,192,10591,128,0,10771:0:0:0:0:
448,192,10591,128,0,10681:0:0:0:0:
448,192,10771,128,0,10950:0:0:0:0:
192,192,10950,128,0,11310:0:0:0:0:
64,192,10950,128,0,11130:0:0:0:0:
320,192,11130,128,0,11489:0:0:0:0:
448,192,11310,128,0,11669:0:0:0:0:
64,192,11310,1,0,0:0:0:0:
192,192,11489,128,0,11849:0:0:0:0:
64,192,11669,128,0,12028:0:0:0:0:
320,192,11669,1,0,0:0:0:0:
448,192,11849,128,0,12208:0:0:0:0:
320,192,12028,128,0,12388:0:0:0:0:
192,192,12028,1,0,0:0:0:0:
192,192,12208,128,0,12567:0:0:0:0:
448,192,12388,1,0,0:0:0:0:
64,192,12388,1,0,0:0:0:0:
320,192,12567,128,0,12657:0:0:0:0:
320,192,12747,128,0,12926:0:0:0:0:
192,192,12747,128,0,12926:0:0:0:0:
64,192,12926,1,0,0:0:0:0:
64,192,13106,128,0,13286:0:0:0:0:
320,192,13106,128,0,13286:0:0:0:0:
192,192,13286,1,0,0:0:0:0:
192,192,13465,128,0,13825:0:0:0:0:
64,192,13465,128,0,13645:0:0:0:0:
320,192,13645,1,0,0:0:0:0:
320,192,13825,128,0,14184:0:0:0:0:
448,192,13825,128,0,14004:0:0:0:0:
192,192,14004,128,0,14364:0:0:0:0:
64,192,14184,128,0,14543:0:0:0:0:
448,192,14184,1,0,0:0:0:0:
320,192,14364,128,0,14723:0:0:0:0:
448,192,14543,128,0,14902:0:0:0:0:
192,192,14543,1,0,0:0:0:0:
64,192,14723,128,0,15082:0:0:0:0:
192,192,14902,128,0,15262:0:0:0:0:
320,192,14902,1,0,0:0:0:0:
320,192,15082,128,0,15441:0:0:0:0:
64,192,15262,1,0,0:0:0:0:
448,192,15262,1,0,0:0:0:0:
192,192,15441,128,0,15531:0:0:0:0:
192,192,15621,128,0,15801:0:0:0:0:
320,192,15621,128,0,15801:0:0:0:0:
448,192,15801,1,0,0:0:0:0:
192,192,15980,128,0,16160:0:0:0:0:
448,192,15980,128,0,16160:0:0:0:0:
320,192,16160,1,0,0:0:0:0:
448,192,16340,128,0,16519:0:0:0:0:
320,192,16340,128,0,16699:0:0:0:0:
192,192,16519,1,0,0:0:0:0:
64,192,16699,128,0,17058:0:0:0:0:
192,192,16699,128,0,16879:0:0:0:0:
448,192,16879,128,0,17238:0:0:0:0:
320,192,17058,128,0,17417:0:0:0:0:
192,192,17058,1,0,0:0:0:0:
64,192,17238,128,0,17597:0:0:0:0:
192,192,17417,128,0,17777:0:0:0:0:
448,192,17417,1,0,0:0:0:0:
320,192,17597,128,0,17777:0:0:0:0:
64,192,17777,1,0,0:0:0:0:
448,192,17777,128,0,17956:0:0:0:0:
192,192,17956,128,0,18316:0:0:0:0:
64,192,17956,128,0,18136:0:0:0:0:
320,192,17956,1,0,0:0:0:0:
448,192,18136,1,0,0:0:0:0:
320,192,18136,1,0,0:0:0:0:
320,192,18316,128,0,18675:0:0:0:0:
64,192,18316,128,0,18405:0:0:0:0:
64,192,18495,128,0,18675:0:0:0:0:
448,192,18495,128,0,18675:0:0:0:0:
192,192,18675,1,0,0:0:0:0:
320,192,18765,1,0,0:0:0:0:
448,192,18855,128,0,19034:0:0:0:0:
64,192,18855,128,0,18944:0:0:0:0:
192,192,19034,1,0,0:0:0:0:
64,192,19034,1,0,0:0:0:0:
448,192,19214,1,0,0:0:0:0:
320,192,19214,128,0,19573:0:0:0:0:
64,192,19393,1,0,0:0:0:0:
192,192,19393,1,0,0:0:0:0:
64,192,19573,1,0,0:0:0:0:
448,192,19573,1,0,0:0:0:0:
192,192,19573,128,0,19932:0:0:0:0:
320,192,19753,128,0,20112:0:0:0:0:
448,192,19932,128,0,20112:0:0:0:0:
192,192,20112,1,0,0:0:0:0:
320,192,20292,128,0,20651:0:0:0:0:
448,192,20471,128,0,20831:0:0:0:0:
192,192,20651,128,0,21010:0:0:0:0:
320,192,20831,128,0,21010:0:0:0:0:
64,192,21010,128,0,22358:0:0:0:0:
448,192,21190,128,0,21549:0:0:0:0:
320,192,21370,128,0,21549:0:0:0:0:
192,192,21729,128,0,22358:0:0:0:0:
320,192,21908,1,0,0:0:0:0:
320,192,22088,128,0,22178:0:0:0:0:
448,192,22088,128,0,22178:0:0:0:0:
64,192,22447,128,0,22537:0:0:0:0:
192,192,22447,128,0,22627:0:0:0:0:
320,192,22627,128,0,22807:0:0:0:0:
64,192,22807,128,0,22896:0:0:0:0:
448,192,22807,128,0,22896:0:0:0:0:
192,192,22807,128,0,22896:0:0:0:0:
192,192,22986,1,0,0:0:0:0:
64,192,23166,128,0,23256:0:0:0:0:
320,192,23166,128,0,23256:0:0:0:0:
448,192,23166,128,0,23256:0:0:0:0:
320,192,23346,1,0,0:0:0:0:
64,192,23525,128,0,23615:0:0:0:0:
192,192,23525,128,0,23615:0:0:0:0:
448,192,23525,128,0,23885:0:0:0:0:
64,192,23705,128,0,23795:0:0:0:0:
192,192,23705,128,0,23795:0:0:0:0:
320,192,23705,128,0,23885:0:0:0:0:
64,192,23885,128,0,24064:0:0:0:0:
192,192,23885,128,0,24244:0:0:0:0:
320,192,24064,1,0,0:0:0:0:
320,192,24244,128,0,24334:0:0:0:0:
448,192,24244,128,0,24334:0:0:0:0:
64,192,24244,128,0,24334:0:0:0:0:
64,192,24423,1,0,0:0:0:0:
448,192,24603,128,0,24783:0:0:0:0:
320,192,24603,128,0,24873:0:0:0:0:
64,192,24783,1,0,0:0:0:0:
192,192,24873,1,0,0:0:0:0:
320,192,24962,128,0,25052:0:0:0:0:
448,192,24962,128,0,25052:0:0:0:0:
64,192,24962,128,0,25052:0:0:0:0:
320,192,25142,128,0,25501:0:0:0:0:
64,192,25322,128,0,25501:0:0:0:0:
448,192,25322,128,0,25501:0:0:0:0:
192,192,25501,128,0,25681:0:0:0:0:
320,192,25681,128,0,25771:0:0:0:0:
64,192,25681,128,0,25771:0:0:0:0:
448,192,25681,128,0,25771:0:0:0:0:
320,192,25861,1,0,0:0:0:0:
192,192,26040,128,0,26130:0:0:0:0:
448,192,26040,128,0,26220:0:0:0:0:
192,192,26220,1,0,0:0:0:0:
448,192,26399,128,0,26489:0:0:0:0:
320,192,26399,128,0,26489:0:0:0:0:
64,192,26399,128,0,26759:0:0:0:0:
320,192,26579,128,0,26669:0:0:0:0:
448,192,26579,128,0,26669:0:0:0:0:
192,192,26579,128,0,26759:0:0:0:0:
320,192,26759,128,0,26938:0:0:0:0:
448,192,26759,1,0,0:0:0:0:
192,192,26938,128,0,27118:0:0:0:0:
320,192,27118,128,0,27208:0:0:0:0:
448,192,27118,128,0,27208:0:0:0:0:
64,192,27118,128,0,27208:0:0:0:0:
448,192,27298,1,0,0:0:0:0:
64,192,27477,128,0,27567:0:0:0:0:
192,192,27477,128,0,27567:0:0:0:0:
64,192,27657,1,0,0:0:0:0:
320,192,27837,128,0,27926:0:0:0:0:
448,192,27837,128,0,27926:0:0:0:0:
192,192,27837,128,0,27926:0:0:0:0:
192,192,28016,128,0,28376:0:0:0:0:
320,192,28196,128,0,28286:0:0:0:0:
64,192,28196,128,0,28376:0:0:0:0:
320,192,28376,1,0,0:0:0:0:
64,192,28555,128,0,28645:0:0:0:0:
192,192,28555,128,0,28645:0:0:0:0:
448,192,28555,128,0,28645:0:0:0:0:
192,192,28735,1,0,0:0:0:0:
448,192,28914,128,0,29004:0:0:0:0:
320,192,28914,128,0,29004:0:0:0:0:
320,192,29094,1,0,0:0:0:0:
64,192,29274,128,0,29364:0:0:0:0:
192,192,29274,128,0,29364:0:0:0:0:
448,192,29274,128,0,29633:0:0:0:0:
64,192,29453,128,0,29543:0:0:0:0:
192,192,29453,128,0,29543:0:0:0:0:
320,192,29453,128,0,29633:0:0:0:0:
64,192,29633,1,0,0:0:0:0:
192,192,29633,1,0,0:0:0:0:
320,192,29813,128,0,29992:0:0:0:0:
64,192,29992,128,0,30082:0:0:0:0:
448,192,29992,128,0,30082:0:0:0:0:
192,192,29992,128,0,30352:0:0:0:0:
320,192,30172,128,0,30531:0:0:0:0:
64,192,30352,1,0,0:0:0:0:
448,192,30352,128,0,30711:0:0:0:0:
64,192,30531,1,0,0:0:0:0:
192,192,30531,1,0,0:0:0:0:
192,192,30711,128,0,30801:0:0:0:0:
64,192,30711,128,0,30801:0:0:0:0:
320,192,30711,128,0,30801:0:0:0:0:
320,192,30890,128,0,31250:0:0:0:0:
192,192,31070,128,0,31250:0:0:0:0:
64,192,31070,1,0,0:0:0:0:
448,192,31250,1,0,0:0:0:0:
320,192,31340,1,0,0:0:0:0:
64,192,31429,1,0,0:0:0:0:
448,192,31429,128,0,31519:0:0:0:0:
448,192,31609,128,0,31699:0:0:0:0:
192,192,31789,1,0,0:0:0:0:
448,192,31789,128,0,31968:0:0:0:0:
64,192,31968,128,0,32148:0:0:0:0:
192,192,32148,128,0,32328:0:0:0:0:
448,192,32148,128,0,32507:0:0:0:0:
320,192,32148,128,0,32417:0:0:0:0:
64,192,32328,1,0,0:0:0:0:
192,192,32417,1,0,0:0:0:0:
64,192,32507,128,0,32597:0:0:0:0:
320,192,32507,1,0,0:0:0:0:
64,192,32687,128,0,32777:0:0:0:0:
64,192,32867,128,0,33046:0:0:0:0:
448,192,32867,1,0,0:0:0:0:
320,192,33046,128,0,33405:0:0:0:0:
192,192,33226,128,0,33495:0:0:0:0:
448,192,33226,128,0,33316:0:0:0:0:
64,192,33405,128,0,33765:0:0:0:0:
320,192,33585,1,0,0:0:0:0:
448,192,33585,1,0,0:0:0:0:
192,192,33585,128,0,33855:0:0:0:0:
320,192,33765,128,0,34034:0:0:0:0:
64,192,33855,1,0,0:0:0:0:
192,192,33944,1,0,0:0:0:0:
448,192,33944,128,0,34124:0:0:0:0:
64,192,34124,128,0,34483:0:0:0:0:
192,192,34214,128,0,34304:0:0:0:0:
448,192,34304,1,0,0:0:0:0:
320,192,34304,128,0,34663:0:0:0:0:
192,192,34483,128,0,34843:0:0:0:0:
448,192,34663,1,0,0:0:0:0:
64,192,34663,128,0,34843:0:0:0:0:
320,192,34843,128,0,35202:0:0:0:0:
64,192,35022,128,0,35112:0:0:0:0:
192,192,35022,128,0,35202:0:0:0:0:
448,192,35022,128,0,35202:0:0:0:0:
64,192,35202,128,0,35382:0:0:0:0:
192,192,35292,128,0,35382:0:0:0:0:
320,192,35382,1,0,0:0:0:0:
448,192,35382,1,0,0:0:0:0:
192,192,35471,128,0,35651:0:0:0:0:
320,192,35561,128,0,35741:0:0:0:0:
448,192,35561,128,0,35741:0:0:0:0:
64,192,35561,128,0,35651:0:0:0:0:
64,192,35741,128,0,36010:0:0:0:0:
192,192,35741,128,0,36010:0:0:0:0:
448,192,35920,128,0,36190:0:0:0:0:
192,192,36100,128,0,36280:0:0:0:0:
64,192,36100,128,0,36280:0:0:0:0:
320,192,36100,128,0,36190:0:0:0:0:
448,192,36280,128,0,36370:0:0:0:0:
448,192,36459,1,0,0:0:0:0:
192,192,36459,1,0,0:0:0:0:
64,192,36459,128,0,36729:0:0:0:0:
192,192,36639,128,0,36729:0:0:0:0:
320,192,36639,1,0,0:0:0:0:
320,192,36819,128,0,37178:0:0:0:0:
448,192,36819,128,0,36998:0:0:0:0:
64,192,36819,128,0,36998:0:0:0:0:
192,192,36998,128,0,37088:0:0:0:0:
64,192,37178,1,0,0:0:0:0:
448,192,37178,1,0,0:0:0:0:
192,192,37178,128,0,37358:0:0:0:0:
320,192,37358,128,0,37717:0:0:0:0:
64,192,37537,128,0,37717:0:0:0:0:
448,192,37537,128,0,37717:0:0:0:0:
192,192,37717,1,0,0:0:0:0:
64,192,37896,1,0,0:0:0:0:
448,192,37896,1,0,0:0:0:0:
192,192,37896,128,0,38256:0:0:0:0:
320,192,38076,128,0,38435:0:0:0:0:
448,192,38256,128,0,38435:0:0:0:0:
64,192,38256,128,0,38435:0:0:0:0:
192,192,38435,128,0,38525:0:0:0:0:
64,192,38615,1,0,0:0:0:0:
448,192,38615,1,0,0:0:0:0:
192,192,38615,128,0,38795:0:0:0:0:
320,192,38795,128,0,39154:0:0:0:0:
448,192,38974,128,0,39154:0:0:0:0:
64,192,38974,128,0,39064:0:0:0:0:
64,192,39154,128,0,39244:0:0:0:0:
320,192,39334,1,0,0:0:0:0:
64,192,39334,128,0,39513:0:0:0:0:
448,192,39334,128,0,39423:0:0:0:0:
448,192,39513,128,0,39603:0:0:0:0:
192,192,39603,128,0,39693:0:0:0:0:
64,192,39693,1,0,0:0:0:0:
448,192,39693,128,0,39962:0:0:0:0:
64,192,39873,128,0,39962:0:0:0:0:
192,192,39873,128,0,39962:0:0:0:0:
320,192,39873,128,0,39962:0:0:0:0:
448,192,40052,128,0,40232:0:0:0:0:
320,192,40052,128,0,40232:0:0:0:0:
192,192,40052,128,0,40232:0:0:0:0:
64,192,40232,1,0,0:0:0:0:
64,192,40411,128,0,40591:0:0:0:0:
448,192,40411,128,0,40591:0:0:0:0:
192,192,40411,128,0,40591:0:0:0:0:
320,192,40591,1,0,0:0:0:0:
64,192,40771,128,0,40861:0:0:0:0:
192,192,40771,128,0,40861:0:0:0:0:
320,192,40771,128,0,41040:0:0:0:0:
64,192,40950,128,0,41130:0:0:0:0:
192,192,40950,128,0,41130:0:0:0:0:
448,192,40950,128,0,41040:0:0:0:0:
320,192,41130,1,0,0:0:0:0:
448,192,41130,1,0,0:0:0:0:
64,192,41310,1,0,0:0:0:0:
192,192,41310,1,0,0:0:0:0:
320,192,41399,1,0,0:0:0:0:
64,192,41489,1,0,0:0:0:0:
192,192,41489,1,0,0:0:0:0:
448,192,41489,1,0,0:0:0:0:
320,192,41669,128,0,41759:0:0:0:0:
64,192,41759,1,0,0:0:0:0:
320,192,41849,128,0,41938:0:0:0:0:
448,192,41849,1,0,0:0:0:0:
320,192,42028,128,0,42118:0:0:0:0:
192,192,42028,1,0,0:0:0:0:
320,192,42208,128,0,42388:0:0:0:0:
448,192,42208,128,0,42298:0:0:0:0:
64,192,42208,128,0,42298:0:0:0:0:
192,192,42388,128,0,42567:0:0:0:0:
64,192,42567,128,0,42837:0:0:0:0:
320,192,42567,128,0,42926:0:0:0:0:
448,192,42567,128,0,42747:0:0:0:0:
192,192,42747,128,0,42837:0:0:0:0:
64,192,42926,128,0,43106:0:0:0:0:
192,192,42926,128,0,43465:0:0:0:0:
448,192,42926,128,0,43196:0:0:0:0:
320,192,43106,128,0,43286:0:0:0:0:
64,192,43286,128,0,43465:0:0:0:0:
448,192,43286,128,0,43555:0:0:0:0:
320,192,43465,128,0,43555:0:0:0:0:
64,192,43645,128,0,43825:0:0:0:0:
320,192,43645,128,0,44004:0:0:0:0:
448,192,43645,128,0,43825:0:0:0:0:
192,192,43825,128,0,44184:0:0:0:0:
448,192,44004,128,0,44184:0:0:0:0:
64,192,44004,128,0,44184:0:0:0:0:
320,192,44184,128,0,44274:0:0:0:0:
192,192,44364,128,0,44453:0:0:0:0:
64,192,44364,128,0,44723:0:0:0:0:
320,192,44364,128,0,44633:0:0:0:0:
192,192,44543,128,0,44723:0:0:0:0:
448,192,44723,128,0,44813:0:0:0:0:
320,192,44723,128,0,44902:0:0:0:0:
192,192,44813,128,0,44992:0:0:0:0:
448,192,44902,128,0,45082:0:0:0:0:
320,192,44992,128,0,45082:0:0:0:0:
64,192,45082,128,0,45172:0:0:0:0:
192,192,45082,128,0,45262:0:0:0:0:
320,192,45172,128,0,45352:0:0:0:0:
64,192,45262,128,0,45441:0:0:0:0:
192,192,45352,128,0,45531:0:0:0:0:
448,192,45441,128,0,45621:0:0:0:0:
320,192,45441,128,0,45801:0:0:0:0:
192,192,45621,128,0,45711:0:0:0:0:
192,192,45801,128,0,46160:0:0:0:0:
64,192,45801,128,0,45980:0:0:0:0:
448,192,45801,128,0,46070:0:0:0:0:
320,192,45980,128,0,46070:0:0:0:0:
320,192,46160,128,0,46519:0:0:0:0:
64,192,46160,128,0,46250:0:0:0:0:
64,192,46340,128,0,46429:0:0:0:0:
448,192,46519,128,0,46609:0:0:0:0:
64,192,46519,128,0,46699:0:0:0:0:
192,192,46519,128,0,46879:0:0:0:0:
448,192,46699,128,0,46789:0:0:0:0:
448,192,46879,128,0,47148:0:0:0:0:
64,192,46879,128,0,47148:0:0:0:0:
192,192,47058,128,0,47148:0:0:0:0:
192,192,47238,128,0,47597:0:0:0:0:
64,192,47238,128,0,47417:0:0:0:0:
320,192,47238,128,0,47328:0:0:0:0:
320,192,47417,128,0,47777:0:0:0:0:
448,192,47597,128,0,47777:0:0:0:0:
64,192,47597,128,0,47777:0:0:0:0:
192,192,47777,128,0,47867:0:0:0:0:
192,192,47956,128,0,48316:0:0:0:0:
320,192,47956,128,0,48226:0:0:0:0:
448,192,47956,128,0,48046:0:0:0:0:
448,192,48136,128,0,48585:0:0:0:0:
64,192,48316,128,0,48585:0:0:0:0:
320,192,48316,128,0,48585:0:0:0:0:
192,192,48495,128,0,48675:0:0:0:0:
64,192,48675,128,0,48855:0:0:0:0:
320,192,48675,128,0,49034:0:0:0:0:
448,192,48675,128,0,48944:0:0:0:0:
192,192,48855,128,0,48944:0:0:0:0:
192,192,49034,128,0,49304:0:0:0:0:
448,192,49034,128,0,49214:0:0:0:0:
320,192,49214,128,0,49304:0:0:0:0:
64,192,49393,128,0,49573:0:0:0:0:
320,192,49393,128,0,49663:0:0:0:0:
192,192,49393,128,0,49753:0:0:0:0:
448,192,49573,128,0,49663:0:0:0:0:
448,192,49753,128,0,49932:0:0:0:0:
320,192,49753,128,0,49932:0:0:0:0:
64,192,49932,128,0,50022:0:0:0:0:
320,192,50112,128,0,50292:0:0:0:0:
64,192,50112,128,0,50382:0:0:0:0:
448,192,50112,128,0,50202:0:0:0:0:
192,192,50292,128,0,50561:0:0:0:0:
320,192,50382,128,0,50651:0:0:0:0:
448,192,50471,128,0,50741:0:0:0:0:
64,192,50471,128,0,50741:0:0:0:0:
192,192,50651,128,0,50741:0:0:0:0:
64,192,50831,128,0,51010:0:0:0:0:
192,192,50831,128,0,51190:0:0:0:0:
448,192,50831,128,0,51100:0:0:0:0:
320,192,51010,128,0,51100:0:0:0:0:
320,192,51190,128,0,51549:0:0:0:0:
448,192,51190,128,0,51370:0:0:0:0:
192,192,51370,128,0,51459:0:0:0:0:
64,192,51549,128,0,51729:0:0:0:0:
192,192,51549,128,0,51639:0:0:0:0:
448,192,51549,128,0,51908:0:0:0:0:
320,192,51729,128,0,51908:0:0:0:0:
192,192,51908,128,0,52268:0:0:0:0:
64,192,51908,128,0,52088:0:0:0:0:
448,192,52088,128,0,52178:0:0:0:0:
64,192,52268,128,0,52627:0:0:0:0:
320,192,52268,128,0,52358:0:0:0:0:
448,192,52268,128,0,52447:0:0:0:0:
192,192,52447,128,0,52627:0:0:0:0:
320,192,52627,1,0,0:0:0:0:
448,192,52627,1,0,0:0:0:0:
64,192,52717,1,0,0:0:0:0:
448,192,52807,1,0,0:0:0:0:
192,192,52807,1,0,0:0:0:0:
64,192,52986,128,0,53166:0:0:0:0:
320,192,52986,128,0,53166:0:0:0:0:
192,192,52986,128,0,53256:0:0:0:0:
448,192,53166,1,0,0:0:0:0:
64,192,53256,1,0,0:0:0:0:
320,192,53346,1,0,0:0:0:0:
448,192,53346,1,0,0:0:0:0:
192,192,53346,1,0,0:0:0:0:
192,192,53525,128,0,53615:0:0:0:0:
64,192,53525,128,0,53615:0:0:0:0:
320,192,53615,1,0,0:0:0:0:
192,192,53705,128,0,53795:0:0:0:0:
64,192,53705,128,0,53795:0:0:0:0:
320,192,53795,1,0,0:0:0:0:
192,192,53885,128,0,53974:0:0:0:0:
64,192,53885,128,0,53974:0:0:0:0:
320,192,53974,1,0,0:0:0:0:
448,192,54064,128,0,54334:0:0:0:0:
192,192,54064,128,0,54423:0:0:0:0:
64,192,54064,128,0,54244:0:0:0:0:
320,192,54244,128,0,54334:0:0:0:0:
448,192,54423,128,0,54603:0:0:0:0:
320,192,54423,128,0,54873:0:0:0:0:
64,192,54423,128,0,54693:0:0:0:0:
192,192,54603,128,0,54693:0:0:0:0:
64,192,54783,128,0,54962:0:0:0:0:
448,192,54783,128,0,55052:0:0:0:0:
192,192,54783,128,0,55052:0:0:0:0:
320,192,54962,128,0,55052:0:0:0:0:
320,192,55142,128,0,55411:0:0:0:0:
64,192,55142,128,0,55232:0:0:0:0:
192,192,55142,128,0,55232:0:0:0:0:
64,192,55322,128,0,55411:0:0:0:0:
192,192,55322,128,0,55411:0:0:0:0:
320,192,55501,128,0,55771:0:0:0:0:
448,192,55501,128,0,55771:0:0:0:0:
192,192,55681,128,0,55771:0:0:0:0:
64,192,55681,128,0,55771:0:0:0:0:
448,192,55861,128,0,56040:0:0:0:0:
64,192,55861,128,0,56220:0:0:0:0:
320,192,55861,128,0,56130:0:0:0:0:
192,192,56040,128,0,56220:0:0:0:0:
320,192,56220,128,0,56310:0:0:0:0:
448,192,56220,128,0,56399:0:0:0:0:
192,192,56310,128,0,56489:0:0:0:0:
320,192,56399,128,0,56579:0:0:0:0:
448,192,56489,128,0,56579:0:0:0:0:
192,192,56579,128,0,56669:0:0:0:0:
64,192,56579,128,0,56759:0:0:0:0:
320,192,56669,128,0,56849:0:0:0:0:
192,192,56759,128,0,56938:0:0:0:0:
64,192,56849,128,0,57028:0:0:0:0:
320,192,56938,128,0,57298:0:0:0:0:
448,192,56938,128,0,57118:0:0:0:0:
64,192,57118,128,0,57208:0:0:0:0:
448,192,57298,128,0,57388:0:0:0:0:
192,192,57298,128,0,57477:0:0:0:0:
64,192,57298,128,0,57477:0:0:0:0:
448,192,57477,128,0,57657:0:0:0:0:
320,192,57657,128,0,57926:0:0:0:0:
192,192,57657,128,0,57747:0:0:0:0:
64,192,57657,128,0,57747:0:0:0:0:
192,192,57837,128,0,57926:0:0:0:0:
320,192,58016,128,0,58106:0:0:0:0:
448,192,58016,128,0,58106:0:0:0:0:
192,192,58016,128,0,58196:0:0:0:0:
320,192,58196,128,0,58376:0:0:0:0:
448,192,58196,128,0,58376:0:0:0:0:
192,192,58376,128,0,58735:0:0:0:0:
64,192,58376,128,0,58555:0:0:0:0:
320,192,58555,128,0,58645:0:0:0:0:
448,192,58555,128,0,58645:0:0:0:0:
448,192,58735,128,0,58914:0:0:0:0:
64,192,58735,128,0,58825:0:0:0:0:
320,192,58735,128,0,58914:0:0:0:0:
64,192,58914,128,0,59364:0:0:0:0:
192,192,59094,128,0,59364:0:0:0:0:
320,192,59094,128,0,59184:0:0:0:0:
448,192,59094,128,0,59274:0:0:0:0:
320,192,59274,128,0,59453:0:0:0:0:
192,192,59453,128,0,59723:0:0:0:0:
448,192,59453,128,0,59723:0:0:0:0:
64,192,59453,128,0,59633:0:0:0:0:
320,192,59633,128,0,59723:0:0:0:0:
448,192,59813,128,0,60082:0:0:0:0:
320,192,59813,128,0,60082:0:0:0:0:
192,192,59813,128,0,59992:0:0:0:0:
64,192,59992,128,0,60082:0:0:0:0:
448,192,60172,128,0,60352:0:0:0:0:
320,192,60172,128,0,60531:0:0:0:0:
64,192,60172,128,0,60441:0:0:0:0:
192,192,60352,128,0,60441:0:0:0:0:
192,192,60531,128,0,60801:0:0:0:0:
64,192,60531,128,0,60711:0:0:0:0:
448,192,60531,128,0,60711:0:0:0:0:
320,192,60711,128,0,60801:0:0:0:0:
192,192,60890,128,0,60980:0:0:0:0:
64,192,60890,128,0,60980:0:0:0:0:
320,192,60890,128,0,61160:0:0:0:0:
64,192,61070,128,0,61160:0:0:0:0:
192,192,61070,128,0,61160:0:0:0:0:
320,192,61250,128,0,61519:0:0:0:0:
448,192,61250,128,0,61519:0:0:0:0:
192,192,61429,128,0,61519:0:0:0:0:
64,192,61429,128,0,61519:0:0:0:0:
192,192,61609,128,0,61789:0:0:0:0:
448,192,61609,128,0,61879:0:0:0:0:
64,192,61609,128,0,61789:0:0:0:0:
320,192,61789,128,0,61879:0:0:0:0:
192,192,61879,128,0,62058:0:0:0:0:
320,192,61968,128,0,62238:0:0:0:0:
448,192,61968,128,0,62058:0:0:0:0:
64,192,61968,128,0,62238:0:0:0:0:
192,192,62148,128,0,62238:0:0:0:0:
64,192,62328,128,0,62507:0:0:0:0:
192,192,62328,128,0,62687:0:0:0:0:
320,192,62328,128,0,62417:0:0:0:0:
320,192,62507,128,0,62597:0:0:0:0:
448,192,62507,128,0,62597:0:0:0:0:
320,192,62687,128,0,63046:0:0:0:0:
448,192,62687,128,0,62867:0:0:0:0:
64,192,62687,128,0,62956:0:0:0:0:
192,192,62867,128,0,62956:0:0:0:0:
448,192,63046,128,0,63405:0:0:0:0:
192,192,63046,128,0,63226:0:0:0:0:
64,192,63046,128,0,63136:0:0:0:0:
320,192,63226,128,0,63316:0:0:0:0:
320,192,63405,128,0,63675:0:0:0:0:
192,192,63405,128,0,63585:0:0:0:0:
448,192,63585,128,0,63675:0:0:0:0:
192,192,63765,128,0,64034:0:0:0:0:
64,192,63765,128,0,63944:0:0:0:0:
320,192,63765,128,0,63855:0:0:0:0:
320,192,63944,128,0,64124:0:0:0:0:
448,192,64124,128,0,64304:0:0:0:0:
64,192,64124,128,0,64393:0:0:0:0:
192,192,64124,128,0,64393:0:0:0:0:
320,192,64304,128,0,64393:0:0:0:0:
320,192,64483,128,0,64753:0:0:0:0:
64,192,64483,128,0,64663:0:0:0:0:
192,192,64483,128,0,64573:0:0:0:0:
192,192,64663,128,0,64843:0:0:0:0:
448,192,64843,1,0,0:0:0:0:
320,192,64843,1,0,0:0:0:0:
64,192,64843,1,0,0:0:0:0:
192,192,64932,1,0,0:0:0:0:
448,192,65022,1,0,0:0:0:0:
320,192,65022,1,0,0:0:0:0:
448,192,65202,1,0,0:0:0:0:
192,192,65202,128,0,65382:0:0:0:0:
64,192,65202,128,0,65292:0:0:0:0:
320,192,65292,1,0,0:0:0:0:
64,192,65382,1,0,0:0:0:0:
192,192,65471,1,0,0:0:0:0:
64,192,65561,1,0,0:0:0:0:
320,192,65561,128,0,65741:0:0:0:0:
448,192,65561,128,0,65741:0:0:0:0:
64,192,65741,128,0,66100:0:0:0:0:
448,192,65920,1,0,0:0:0:0:
192,192,65920,128,0,66100:0:0:0:0:
320,192,65920,128,0,66010:0:0:0:0:
320,192,66100,1,0,0:0:0:0:
192,192,66280,128,0,66459:0:0:0:0:
64,192,66280,128,0,66459:0:0:0:0:
448,192,66459,1,0,0:0:0:0:
320,192,66459,1,0,0:0:0:0:
64,192,66639,1,0,0:0:0:0:
448,192,66639,128,0,66998:0:0:0:0:
192,192,66639,128,0,66819:0:0:0:0:
320,192,66819,128,0,66998:0:0:0:0:
192,192,66998,128,0,67178:0:0:0:0:
64,192,66998,128,0,67178:0:0:0:0:
448,192,67178,1,0,0:0:0:0:
320,192,67178,1,0,0:0:0:0:
320,192,67358,128,0,67537:0:0:0:0:
64,192,67358,1,0,0:0:0:0:
192,192,67358,128,0,67447:0:0:0:0:
448,192,67537,1,0,0:0:0:0:
192,192,67537,1,0,0:0:0:0:
64,192,67627,1,0,0:0:0:0:
448,192,67717,128,0,67896:0:0:0:0:
64,192,67896,1,0,0:0:0:0:
320,192,67896,1,0,0:0:0:0:
320,192,68076,128,0,68256:0:0:0:0:
448,192,68076,128,0,68435:0:0:0:0:
192,192,68076,1,0,0:0:0:0:
192,192,68256,1,0,0:0:0:0:
64,192,68256,1,0,0:0:0:0:
64,192,68435,128,0,68615:0:0:0:0:
320,192,68435,128,0,68525:0:0:0:0:
320,192,68615,128,0,68795:0:0:0:0:
192,192,68615,1,0,0:0:0:0:
64,192,68795,1,0,0:0:0:0:
192,192,68795,128,0,69154:0:0:0:0:
448,192,68795,128,0,68885:0:0:0:0:
448,192,68974,128,0,69154:0:0:0:0:
320,192,69154,128,0,69334:0:0:0:0:
64,192,69154,128,0,69244:0:0:0:0:
448,192,69334,1,0,0:0:0:0:
64,192,69334,128,0,69513:0:0:0:0:
320,192,69513,1,0,0:0:0:0:
448,192,69513,128,0,69873:0:0:0:0:
192,192,69513,128,0,69603:0:0:0:0:
192,192,69693,128,0,69873:0:0:0:0:
320,192,69873,1,0,0:0:0:0:
64,192,69873,1,0,0:0:0:0:
320,192,70052,128,0,70232:0:0:0:0:
192,192,70052,128,0,70142:0:0:0:0:
64,192,70232,1,0,0:0:0:0:
192,192,70232,128,0,70411:0:0:0:0:
448,192,70232,128,0,70322:0:0:0:0:
448,192,70411,1,0,0:0:0:0:
320,192,70501,1,0,0:0:0:0:
64,192,70591,128,0,70771:0:0:0:0:
192,192,70591,128,0,70771:0:0:0:0:
320,192,70771,1,0,0:0:0:0:
448,192,70771,1,0,0:0:0:0:
64,192,70950,1,0,0:0:0:0:
320,192,70950,128,0,71130:0:0:0:0:
448,192,70950,128,0,71130:0:0:0:0:
64,192,71130,1,0,0:0:0:0:
192,192,71130,1,0,0:0:0:0:
448,192,71310,1,0,0:0:0:0:
192,192,71310,128,0,71489:0:0:0:0:
320,192,71310,128,0,71399:0:0:0:0:
448,192,71489,128,0,71849:0:0:0:0:
64,192,71489,1,0,0:0:0:0:
320,192,71669,128,0,71849:0:0:0:0:
192,192,71669,128,0,71759:0:0:0:0:
64,192,71669,128,0,71759:0:0:0:0:
192,192,71849,1,0,0:0:0:0:
320,192,72028,1,0,0:0:0:0:
64,192,72028,128,0,72208:0:0:0:0:
320,192,72208,128,0,72388:0:0:0:0:
192,192,72208,1,0,0:0:0:0:
192,192,72388,128,0,72747:0:0:0:0:
448,192,72388,128,0,72567:0:0:0:0:
64,192,72388,128,0,72477:0:0:0:0:
320,192,72567,128,0,72747:0:0:0:0:
64,192,72747,1,0,0:0:0:0:
448,192,72747,1,0,0:0:0:0:
192,192,72926,1,0,0:0:0:0:
448,192,72926,128,0,73106:0:0:0:0:
320,192,73106,128,0,73196:0:0:0:0:
192,192,73106,128,0,73196:0:0:0:0:
64,192,73106,128,0,73196:0:0:0:0:
64,192,73286,128,0,73376:0:0:0:0:
192,192,73286,128,0,73376:0:0:0:0:
320,192,73286,128,0,73376:0:0:0:0:
448,192,73376,1,0,0:0:0:0:
64,192,73465,128,0,73645:0:0:0:0:
320,192,73645,1,0,0:0:0:0:
448,192,73645,1,0,0:0:0:0:
192,192,73825,128,0,74004:0:0:0:0:
64,192,73825,128,0,73914:0:0:0:0:
448,192,73825,128,0,74004:0:0:0:0:
320,192,74004,128,0,74184:0:0:0:0:
192,192,74184,128,0,74274:0:0:0:0:
64,192,74184,128,0,74274:0:0:0:0:
448,192,74184,128,0,74274:0:0:0:0:
64,192,74364,128,0,74723:0:0:0:0:
448,192,74364,1,0,0:0:0:0:
192,192,74543,128,0,74902:0:0:0:0:
320,192,74543,128,0,74633:0:0:0:0:
448,192,74543,128,0,74633:0:0:0:0:
320,192,74723,128,0,74902:0:0:0:0:
448,192,74902,128,0,75082:0:0:0:0:
64,192,74902,128,0,75082:0:0:0:0:
192,192,75082,128,0,75172:0:0:0:0:
320,192,75262,128,0,75352:0:0:0:0:
448,192,75262,128,0,75352:0:0:0:0:
192,192,75262,128,0,75621:0:0:0:0:
64,192,75441,128,0,75621:0:0:0:0:
320,192,75621,128,0,75711:0:0:0:0:
448,192,75621,128,0,75801:0:0:0:0:
320,192,75801,128,0,75980:0:0:0:0:
192,192,75980,128,0,76070:0:0:0:0:
64,192,75980,128,0,76070:0:0:0:0:
448,192,75980,128,0,76070:0:0:0:0:
448,192,76160,128,0,76340:0:0:0:0:
192,192,76160,128,0,76250:0:0:0:0:
64,192,76160,128,0,76250:0:0:0:0:
320,192,76250,128,0,76340:0:0:0:0:
192,192,76340,128,0,76519:0:0:0:0:
64,192,76340,128,0,76429:0:0:0:0:
320,192,76519,128,0,76699:0:0:0:0:
448,192,76699,128,0,76879:0:0:0:0:
192,192,76699,128,0,76789:0:0:0:0:
64,192,76699,128,0,76789:0:0:0:0:
320,192,76789,128,0,76879:0:0:0:0:
64,192,76879,1,0,0:0:0:0:
192,192,76879,1,0,0:0:0:0:
64,192,77058,1,0,0:0:0:0:
448,192,77058,128,0,77238:0:0:0:0:
320,192,77058,128,0,77417:0:0:0:0:
192,192,77238,1,0,0:0:0:0:
192,192,77417,128,0,77597:0:0:0:0:
64,192,77417,128,0,77597:0:0:0:0:
448,192,77417,1,0,0:0:0:0:
320,192,77597,1,0,0:0:0:0:
320,192,77777,128,0,77956:0:0:0:0:
192,192,77777,128,0,78136:0:0:0:0:
448,192,77956,1,0,0:0:0:0:
320,192,78136,128,0,78316:0:0:0:0:
448,192,78136,128,0,78495:0:0:0:0:
64,192,78136,1,0,0:0:0:0:
64,192,78316,128,0,78495:0:0:0:0:
320,192,78495,1,0,0:0:0:0:
192,192,78495,1,0,0:0:0:0:
192,192,78675,128,0,79034:0:0:0:0:
448,192,78855,1,0,0:0:0:0:
64,192,78855,128,0,79034:0:0:0:0:
320,192,78855,1,0,0:0:0:0:
448,192,79034,1,0,0:0:0:0:
192,192,79214,128,0,79393:0:0:0:0:
64,192,79214,128,0,79393:0:0:0:0:
320,192,79393,1,0,0:0:0:0:
320,192,79573,128,0,79753:0:0:0:0:
448,192,79573,1,0,0:0:0:0:
192,192,79573,128,0,79932:0:0:0:0:
64,192,79753,128,0,79932:0:0:0:0:
320,192,79932,128,0,80112:0:0:0:0:
448,192,79932,128,0,80112:0:0:0:0:
192,192,80112,1,0,0:0:0:0:
192,192,80292,128,0,80471:0:0:0:0:
64,192,80292,128,0,80471:0:0:0:0:
448,192,80292,1,0,0:0:0:0:
320,192,80471,1,0,0:0:0:0:
192,192,80651,128,0,80831:0:0:0:0:
320,192,80651,128,0,80831:0:0:0:0:
64,192,80831,1,0,0:0:0:0:
64,192,81010,128,0,81370:0:0:0:0:
448,192,81010,1,0,0:0:0:0:
192,192,81010,128,0,81190:0:0:0:0:
448,192,81190,128,0,81370:0:0:0:0:
192,192,81370,1,0,0:0:0:0:
320,192,81370,1,0,0:0:0:0:
320,192,81549,128,0,81908:0:0:0:0:
448,192,81729,128,0,81908:0:0:0:0:
64,192,81729,1,0,0:0:0:0:
192,192,81729,1,0,0:0:0:0:
64,192,81908,1,0,0:0:0:0:
320,192,82088,128,0,82268:0:0:0:0:
448,192,82088,128,0,82268:0:0:0:0:
192,192,82268,1,0,0:0:0:0:
448,192,82447,1,0,0:0:0:0:
192,192,82447,128,0,82627:0:0:0:0:
64,192,82447,128,0,82627:0:0:0:0:
320,192,82627,128,0,82807:0:0:0:0:
448,192,82627,128,0,82807:0:0:0:0:
64,192,82807,128,0,82986:0:0:0:0:
192,192,82807,128,0,83166:0:0:0:0:
320,192,82986,1,0,0:0:0:0:
64,192,83166,1,0,0:0:0:0:
320,192,83166,128,0,83346:0:0:0:0:
448,192,83166,128,0,83346:0:0:0:0:
192,192,83346,1,0,0:0:0:0:
192,192,83525,128,0,83705:0:0:0:0:
320,192,83525,128,0,83885:0:0:0:0:
64,192,83705,1,0,0:0:0:0:
448,192,83885,1,0,0:0:0:0:
64,192,83885,128,0,84064:0:0:0:0:
192,192,83885,128,0,84244:0:0:0:0:
448,192,84064,128,0,84244:0:0:0:0:
64,192,84244,1,0,0:0:0:0:
320,192,84244,1,0,0:0:0:0:
320,192,84423,128,0,84783:0:0:0:0:
64,192,84603,1,0,0:0:0:0:
448,192,84603,128,0,84783:0:0:0:0:
192,192,84603,1,0,0:0:0:0:
64,192,84783,1,0,0:0:0:0:
320,192,84962,128,0,85142:0:0:0:0:
448,192,84962,128,0,85142:0:0:0:0:
192,192,85142,1,0,0:0:0:0:
192,192,85322,128,0,85501:0:0:0:0:
64,192,85322,1,0,0:0:0:0:
320,192,85322,128,0,85681:0:0:0:0:
448,192,85501,128,0,85681:0:0:0:0:
64,192,85681,128,0,85861:0:0:0:0:
192,192,85681,128,0,86040:0:0:0:0:
320,192,85861,1,0,0:0:0:0:
320,192,86040,128,0,86220:0:0:0:0:
448,192,86040,128,0,86220:0:0:0:0:
64,192,86040,1,0,0:0:0:0:
192,192,86220,1,0,0:0:0:0:
320,192,86399,128,0,86579:0:0:0:0:
192,192,86399,128,0,86759:0:0:0:0:
448,192,86579,1,0,0:0:0:0:
64,192,86759,1,0,0:0:0:0:
320,192,86759,128,0,86938:0:0:0:0:
448,192,86759,128,0,86938:0:0:0:0:
64,192,86938,128,0,87118:0:0:0:0:
192,192,86938,128,0,87118:0:0:0:0:
320,192,87118,1,0,0:0:0:0:
192,192,87298,128,0,87657:0:0:0:0:
448,192,87298,128,0,87388:0:0:0:0:
448,192,87477,1,0,0:0:0:0:
320,192,87477,1,0,0:0:0:0:
64,192,87477,1,0,0:0:0:0:
320,192,87657,128,0,87837:0:0:0:0:
448,192,87747,128,0,87837:0:0:0:0:
192,192,87837,128,0,88016:0:0:0:0:
64,192,87837,128,0,88016:0:0:0:0:
320,192,88016,1,0,0:0:0:0:
64,192,88196,1,0,0:0:0:0:
448,192,88196,128,0,88376:0:0:0:0:
320,192,88196,128,0,88555:0:0:0:0:
64,192,88555,1,0,0:0:0:0:
448,192,88555,128,0,88914:0:0:0:0:
192,192,88555,128,0,88735:0:0:0:0:
320,192,88735,128,0,89094:0:0:0:0:
192,192,88914,128,0,89274:0:0:0:0:
64,192,88914,1,0,0:0:0:0:
448,192,89094,128,0,89453:0:0:0:0:
320,192,89274,128,0,89453:0:0:0:0:
64,192,89274,1,0,0:0:0:0:
192,192,89453,128,0,89633:0:0:0:0:
448,192,89633,1,0,0:0:0:0:
64,192,89633,128,0,89813:0:0:0:0:
320,192,89633,128,0,89992:0:0:0:0:
192,192,89813,128,0,90172:0:0:0:0:
64,192,89992,128,0,90352:0:0:0:0:
448,192,89992,1,0,0:0:0:0:
320,192,90172,128,0,90531:0:0:0:0:
192,192,90352,128,0,90711:0:0:0:0:
448,192,90352,1,0,0:0:0:0:
64,192,90531,128,0,90711:0:0:0:0:
320,192,90711,1,0,0:0:0:0:
448,192,90711,1,0,0:0:0:0:
64,192,90890,128,0,91070:0:0:0:0:
192,192,91070,1,0,0:0:0:0:
320,192,91070,1,0,0:0:0:0:
448,192,91070,1,0,0:0:0:0:
320,192,91250,1,0,0:0:0:0:
192,192,91340,1,0,0:0:0:0:
64,192,91429,1,0,0:0:0:0:
448,192,91429,1,0,0:0:0:0:
320,192,91609,128,0,91968:0:0:0:0:
448,192,91789,128,0,92148:0:0:0:0:
64,192,91789,1,0,0:0:0:0:
192,192,91968,128,0,92328:0:0:0:0:
64,192,92148,1,0,0:0:0:0:
320,192,92148,128,0,92328:0:0:0:0:
448,192,92328,1,0,0:0:0:0:
64,192,92507,1,0,0:0:0:0:
448,192,92507,1,0,0:0:0:0:
320,192,92507,128,0,92867:0:0:0:0:
192,192,92687,128,0,92867:0:0:0:0:
64,192,92867,1,0,0:0:0:0:
448,192,92867,128,0,93046:0:0:0:0:
320,192,93046,1,0,0:0:0:0:
64,192,93046,1,0,0:0:0:0:
192,192,93046,1,0,0:0:0:0:
448,192,93226,1,0,0:0:0:0:
192,192,93226,1,0,0:0:0:0:
320,192,93405,128,0,93495:0:0:0:0:
64,192,93585,1,0,0:0:0:0:
320,192,93585,128,0,93765:0:0:0:0:
448,192,93585,128,0,93765:0:0:0:0:
192,192,93765,1,0,0:0:0:0:
448,192,93944,1,0,0:0:0:0:
192,192,93944,128,0,94124:0:0:0:0:
64,192,93944,128,0,94124:0:0:0:0:
448,192,94124,128,0,94304:0:0:0:0:
320,192,94304,1,0,0:0:0:0:
64,192,94304,128,0,94663:0:0:0:0:
192,192,94304,128,0,94483:0:0:0:0:
448,192,94483,1,0,0:0:0:0:
320,192,94663,128,0,94753:0:0:0:0:
192,192,94663,128,0,94753:0:0:0:0:
448,192,94663,128,0,94753:0:0:0:0:
320,192,94843,128,0,95202:0:0:0:0:
192,192,95022,128,0,95202:0:0:0:0:
64,192,95022,1,0,0:0:0:0:
448,192,95202,1,0,0:0:0:0:
320,192,95382,128,0,95471:0:0:0:0:
448,192,95382,128,0,95471:0:0:0:0:
192,192,95382,128,0,95471:0:0:0:0:
192,192,95561,128,0,95920:0:0:0:0:
320,192,95741,128,0,95920:0:0:0:0:
448,192,95741,1,0,0:0:0:0:
64,192,95920,1,0,0:0:0:0:
64,192,96100,128,0,96190:0:0:0:0:
192,192,96100,128,0,96190:0:0:0:0:
320,192,96100,128,0,96190:0:0:0:0:
64,192,96280,128,0,96370:0:0:0:0:
192,192,96280,128,0,96370:0:0:0:0:
320,192,96280,128,0,96639:0:0:0:0:
448,192,96459,128,0,96639:0:0:0:0:
192,192,96459,1,0,0:0:0:0:
64,192,96639,1,0,0:0:0:0:
64,192,96819,128,0,96908:0:0:0:0:
192,192,96819,128,0,96908:0:0:0:0:
320,192,96819,128,0,96908:0:0:0:0:
448,192,96998,1,0,0:0:0:0:
64,192,97088,1,0,0:0:0:0:
320,192,97178,1,0,0:0:0:0:
192,192,97178,1,0,0:0:0:0:
448,192,97178,128,0,97627:0:0:0:0:
64,192,97358,128,0,97447:0:0:0:0:
192,192,97358,128,0,97447:0:0:0:0:
320,192,97358,128,0,97447:0:0:0:0:
64,192,97537,128,0,97986:0:0:0:0:
192,192,97537,128,0,97627:0:0:0:0:
320,192,97537,128,0,97627:0:0:0:0:
448,192,97896,128,0,98256:0:0:0:0:
320,192,97896,128,0,97986:0:0:0:0:
192,192,97896,128,0,97986:0:0:0:0:
192,192,98256,128,0,98346:0:0:0:0:
64,192,98256,128,0,98525:0:0:0:0:
320,192,98256,128,0,98346:0:0:0:0:
448,192,98435,128,0,98525:0:0:0:0:
192,192,98435,128,0,98525:0:0:0:0:
320,192,98435,128,0,98525:0:0:0:0:
320,192,98795,1,0,0:0:0:0:
192,192,98885,1,0,0:0:0:0:
320,192,98974,1,0,0:0:0:0:
64,192,99154,128,0,99244:0:0:0:0:
64,192,99334,128,0,99873:0:0:0:0:
448,192,99513,128,0,99603:0:0:0:0:
448,192,99693,128,0,99873:0:0:0:0:
192,192,99873,128,0,100052:0:0:0:0:
64,192,100052,128,0,100232:0:0:0:0:
320,192,100052,128,0,100411:0:0:0:0:
448,192,100052,128,0,100411:0:0:0:0:
64,192,100411,128,0,100591:0:0:0:0:
192,192,100411,128,0,100771:0:0:0:0:
320,192,100591,128,0,100771:0:0:0:0:
64,192,100771,128,0,100950:0:0:0:0:
448,192,100771,128,0,101130:0:0:0:0:
320,192,100950,128,0,101130:0:0:0:0:
64,192,101130,128,0,101310:0:0:0:0:
192,192,101130,128,0,101310:0:0:0:0:
448,192,101310,128,0,101669:0:0:0:0:
320,192,101489,128,0,101669:0:0:0:0:
64,192,101489,128,0,101669:0:0:0:0:
192,192,101669,128,0,102028:0:0:0:0:
64,192,101849,128,0,102028:0:0:0:0:
320,192,101849,128,0,101938:0:0:0:0:
320,192,102028,128,0,102208:0:0:0:0:
64,192,102208,128,0,102298:0:0:0:0:
192,192,102208,128,0,102388:0:0:0:0:
320,192,102298,128,0,102477:0:0:0:0:
64,192,102388,128,0,102477:0:0:0:0:
192,192,102477,128,0,102567:0:0:0:0:
448,192,102567,128,0,102657:0:0:0:0:
320,192,102567,128,0,102747:0:0:0:0:
192,192,102657,128,0,102837:0:0:0:0:
448,192,102747,128,0,102837:0:0:0:0:
320,192,102837,128,0,102926:0:0:0:0:
64,192,102926,128,0,103106:0:0:0:0:
192,192,102926,128,0,103196:0:0:0:0:
320,192,103106,128,0,103196:0:0:0:0:
448,192,103106,128,0,103196:0:0:0:0:
448,192,103286,128,0,103645:0:0:0:0:
64,192,103286,128,0,103465:0:0:0:0:
320,192,103465,128,0,103645:0:0:0:0:
64,192,103645,128,0,103914:0:0:0:0:
192,192,103645,128,0,103914:0:0:0:0:
320,192,103825,128,0,103914:0:0:0:0:
192,192,104004,128,0,104274:0:0:0:0:
320,192,104004,128,0,104274:0:0:0:0:
448,192,104184,128,0,104274:0:0:0:0:
320,192,104364,128,0,104723:0:0:0:0:
448,192,104364,128,0,104543:0:0:0:0:
64,192,104543,128,0,104723:0:0:0:0:
192,192,104723,128,0,105082:0:0:0:0:
448,192,104723,128,0,104813:0:0:0:0:
448,192,104902,128,0,105082:0:0:0:0:
64,192,105082,128,0,105352:0:0:0:0:
320,192,105082,128,0,105262:0:0:0:0:
192,192,105262,128,0,105352:0:0:0:0:
448,192,105441,128,0,105801:0:0:0:0:
192,192,105441,128,0,105621:0:0:0:0:
64,192,105441,128,0,105621:0:0:0:0:
320,192,105621,128,0,105801:0:0:0:0:
192,192,105801,128,0,105980:0:0:0:0:
64,192,105801,128,0,105890:0:0:0:0:
448,192,105980,128,0,106160:0:0:0:0:
320,192,105980,128,0,106070:0:0:0:0:
192,192,106160,128,0,106429:0:0:0:0:
64,192,106160,128,0,106429:0:0:0:0:
448,192,106340,128,0,106429:0:0:0:0:
192,192,106519,128,0,106789:0:0:0:0:
64,192,106519,128,0,106699:0:0:0:0:
320,192,106699,128,0,106789:0:0:0:0:
192,192,106879,128,0,107058:0:0:0:0:
320,192,106879,128,0,107148:0:0:0:0:
448,192,107058,128,0,107148:0:0:0:0:
448,192,107238,128,0,107417:0:0:0:0:
320,192,107238,128,0,107597:0:0:0:0:
192,192,107417,128,0,107597:0:0:0:0:
64,192,107597,128,0,107777:0:0:0:0:
448,192,107597,128,0,107777:0:0:0:0:
320,192,107777,128,0,107956:0:0:0:0:
192,192,107867,128,0,108046:0:0:0:0:
64,192,107956,128,0,108136:0:0:0:0:
448,192,107956,128,0,108226:0:0:0:0:
320,192,108136,128,0,108226:0:0:0:0:
448,192,108316,128,0,108495:0:0:0:0:
320,192,108316,128,0,108495:0:0:0:0:
64,192,108316,128,0,108585:0:0:0:0:
192,192,108495,128,0,108585:0:0:0:0:
192,192,108675,128,0,108944:0:0:0:0:
64,192,108675,128,0,108855:0:0:0:0:
320,192,108855,128,0,108944:0:0:0:0:
448,192,108855,128,0,108944:0:0:0:0:
448,192,109034,128,0,109214:0:0:0:0:
64,192,109034,128,0,109393:0:0:0:0:
320,192,109214,128,0,109304:0:0:0:0:
320,192,109393,128,0,109753:0:0:0:0:
192,192,109393,128,0,109573:0:0:0:0:
64,192,109573,128,0,109663:0:0:0:0:
448,192,109753,128,0,110112:0:0:0:0:
64,192,109753,128,0,109932:0:0:0:0:
320,192,109932,128,0,110112:0:0:0:0:
192,192,110112,128,0,110471:0:0:0:0:
64,192,110112,128,0,110292:0:0:0:0:
320,192,110292,128,0,110471:0:0:0:0:
448,192,110471,1,0,0:0:0:0:
64,192,110471,1,0,0:0:0:0:
192,192,110561,1,0,0:0:0:0:
320,192,110651,1,0,0:0:0:0:
448,192,110651,1,0,0:0:0:0:
192,192,110741,1,0,0:0:0:0:
448,192,110831,128,0,111010:0:0:0:0:
320,192,110831,128,0,111010:0:0:0:0:
64,192,110831,128,0,111010:0:0:0:0:
192,192,111010,128,0,111100:0:0:0:0:
192,192,111190,128,0,111280:0:0:0:0:
320,192,111370,128,0,111459:0:0:0:0:
64,192,111549,128,0,111819:0:0:0:0:
320,192,111549,128,0,111908:0:0:0:0:
448,192,111549,128,0,111729:0:0:0:0:
192,192,111729,128,0,111819:0:0:0:0:
64,192,111908,128,0,112088:0:0:0:0:
192,192,111908,128,0,112358:0:0:0:0:
448,192,111908,128,0,112178:0:0:0:0:
320,192,112088,128,0,112178:0:0:0:0:
448,192,112268,128,0,112447:0:0:0:0:
64,192,112268,128,0,112537:0:0:0:0:
320,192,112268,128,0,112537:0:0:0:0:
192,192,112447,128,0,112537:0:0:0:0:
192,192,112627,128,0,112896:0:0:0:0:
448,192,112627,128,0,112717:0:0:0:0:
320,192,112627,128,0,112717:0:0:0:0:
448,192,112807,128,0,112896:0:0:0:0:
320,192,112807,128,0,112896:0:0:0:0:
192,192,112986,128,0,113256:0:0:0:0:
64,192,112986,128,0,113256:0:0:0:0:
320,192,113166,128,0,113256:0:0:0:0:
448,192,113166,128,0,113256:0:0:0:0:
64,192,113346,128,0,113525:0:0:0:0:
448,192,113346,128,0,113705:0:0:0:0:
192,192,113346,128,0,113615:0:0:0:0:
320,192,113525,128,0,113705:0:0:0:0:
192,192,113705,128,0,113795:0:0:0:0:
64,192,113705,128,0,113885:0:0:0:0:
320,192,113795,128,0,113974:0:0:0:0:
192,192,113885,128,0,114064:0:0:0:0:
64,192,113974,128,0,114064:0:0:0:0:
320,192,114064,128,0,114154:0:0:0:0:
448,192,114064,128,0,114244:0:0:0:0:
192,192,114154,128,0,114334:0:0:0:0:
320,192,114244,128,0,114423:0:0:0:0:
448,192,114334,128,0,114513:0:0:0:0:
192,192,114423,128,0,114783:0:0:0:0:
64,192,114423,128,0,114603:0:0:0:0:
448,192,114603,128,0,114693:0:0:0:0:
64,192,114783,128,0,114873:0:0:0:0:
320,192,114783,128,0,114962:0:0:0:0:
448,192,114783,128,0,114962:0:0:0:0:
64,192,114962,128,0,115142:0:0:0:0:
192,192,115142,128,0,115411:0:0:0:0:
320,192,115142,128,0,115232:0:0:0:0:
448,192,115142,128,0,115232:0:0:0:0:
320,192,115322,128,0,115411:0:0:0:0:
192,192,115501,128,0,115591:0:0:0:0:
64,192,115501,128,0,115591:0:0:0:0:
320,192,115501,128,0,115681:0:0:0:0:
192,192,115681,128,0,115861:0:0:0:0:
64,192,115681,128,0,115861:0:0:0:0:
320,192,115861,128,0,116220:0:0:0:0:
448,192,115861,128,0,116040:0:0:0:0:
192,192,116040,128,0,116130:0:0:0:0:
64,192,116040,128,0,116130:0:0:0:0:
64,192,116220,128,0,116399:0:0:0:0:
448,192,116220,128,0,116310:0:0:0:0:
192,192,116220,128,0,116399:0:0:0:0:
448,192,116399,128,0,116669:0:0:0:0:
320,192,116579,128,0,116669:0:0:0:0:
192,192,116579,128,0,116669:0:0:0:0:
64,192,116579,128,0,116669:0:0:0:0:
192,192,116759,128,0,116938:0:0:0:0:
320,192,116759,128,0,116849:0:0:0:0:
448,192,116759,128,0,116849:0:0:0:0:
320,192,116938,128,0,117208:0:0:0:0:
64,192,116938,128,0,117208:0:0:0:0:
448,192,116938,128,0,117208:0:0:0:0:
192,192,117118,128,0,117208:0:0:0:0:
448,192,117298,128,0,117477:0:0:0:0:
192,192,117298,128,0,117567:0:0:0:0:
320,192,117298,128,0,117388:0:0:0:0:
64,192,117298,128,0,117567:0:0:0:0:
320,192,117477,128,0,117657:0:0:0:0:
64,192,117657,128,0,117837:0:0:0:0:
192,192,117657,128,0,118016:0:0:0:0:
448,192,117657,128,0,117926:0:0:0:0:
320,192,117837,128,0,117926:0:0:0:0:
320,192,118016,128,0,118286:0:0:0:0:
448,192,118016,128,0,118196:0:0:0:0:
64,192,118016,128,0,118196:0:0:0:0:
192,192,118196,128,0,118286:0:0:0:0:
320,192,118376,128,0,118465:0:0:0:0:
448,192,118376,128,0,118465:0:0:0:0:
192,192,118376,128,0,118645:0:0:0:0:
448,192,118555,128,0,118645:0:0:0:0:
320,192,118555,128,0,118645:0:0:0:0:
192,192,118735,128,0,119004:0:0:0:0:
64,192,118735,128,0,119004:0:0:0:0:
320,192,118914,128,0,119004:0:0:0:0:
448,192,118914,128,0,119004:0:0:0:0:
320,192,119094,128,0,119274:0:0:0:0:
64,192,119094,128,0,119364:0:0:0:0:
448,192,119094,128,0,119274:0:0:0:0:
192,192,119274,128,0,119364:0:0:0:0:
320,192,119364,128,0,119543:0:0:0:0:
192,192,119453,128,0,119633:0:0:0:0:
64,192,119453,128,0,119543:0:0:0:0:
448,192,119453,128,0,119723:0:0:0:0:
320,192,119633,128,0,119723:0:0:0:0:
192,192,119723,128,0,119902:0:0:0:0:
448,192,119813,128,0,119992:0:0:0:0:
320,192,119813,128,0,120172:0:0:0:0:
64,192,119813,128,0,119902:0:0:0:0:
192,192,119992,128,0,120082:0:0:0:0:
192,192,120172,128,0,120531:0:0:0:0:
64,192,120172,128,0,120352:0:0:0:0:
448,192,120172,128,0,120441:0:0:0:0:
320,192,120352,128,0,120441:0:0:0:0:
320,192,120531,128,0,120890:0:0:0:0:
64,192,120531,128,0,120711:0:0:0:0:
448,192,120531,128,0,120621:0:0:0:0:
192,192,120711,128,0,120801:0:0:0:0:
64,192,120890,128,0,121160:0:0:0:0:
192,192,120890,128,0,121160:0:0:0:0:
448,192,120890,128,0,121070:0:0:0:0:
320,192,121070,128,0,121160:0:0:0:0:
320,192,121250,128,0,121519:0:0:0:0:
192,192,121250,128,0,121340:0:0:0:0:
64,192,121250,128,0,121340:0:0:0:0:
64,192,121429,128,0,121519:0:0:0:0:
192,192,121429,128,0,121519:0:0:0:0:
192,192,121609,128,0,121879:0:0:0:0:
320,192,121609,128,0,121699:0:0:0:0:
448,192,121789,128,0,121879:0:0:0:0:
320,192,121789,128,0,121879:0:0:0:0:
320,192,121968,128,0,122148:0:0:0:0:
448,192,121968,128,0,122238:0:0:0:0:
192,192,121968,128,0,122148:0:0:0:0:
64,192,122148,128,0,122238:0:0:0:0:
320,192,122238,128,0,122417:0:0:0:0:
192,192,122328,128,0,122507:0:0:0:0:
64,192,122328,128,0,122507:0:0:0:0:
448,192,122328,128,0,122597:0:0:0:0:
320,192,122507,128,0,122597:0:0:0:0:
192,192,122597,128,0,122777:0:0:0:0:
448,192,122687,128,0,122867:0:0:0:0:
64,192,122687,128,0,122777:0:0:0:0:
320,192,122687,128,0,123046:0:0:0:0:
192,192,122867,128,0,122956:0:0:0:0:
448,192,123046,128,0,123226:0:0:0:0:
64,192,123046,128,0,123316:0:0:0:0:
192,192,123046,128,0,123226:0:0:0:0:
320,192,123226,128,0,123405:0:0:0:0:
64,192,123405,128,0,123585:0:0:0:0:
192,192,123405,128,0,123765:0:0:0:0:
448,192,123405,128,0,123675:0:0:0:0:
320,192,123585,128,0,123675:0:0:0:0:
320,192,123765,128,0,124034:0:0:0:0:
448,192,123765,128,0,123944:0:0:0:0:
64,192,123765,128,0,123944:0:0:0:0:
192,192,123944,128,0,124034:0:0:0:0:
320,192,124124,128,0,124214:0:0:0:0:
448,192,124124,128,0,124214:0:0:0:0:
192,192,124124,128,0,124393:0:0:0:0:
448,192,124304,128,0,124393:0:0:0:0:
320,192,124304,128,0,124393:0:0:0:0:
192,192,124483,128,0,124753:0:0:0:0:
64,192,124483,128,0,124753:0:0:0:0:
320,192,124663,128,0,124753:0:0:0:0:
448,192,124663,128,0,124753:0:0:0:0:
320,192,124843,128,0,125022:0:0:0:0:
64,192,124843,128,0,125112:0:0:0:0:
448,192,124843,128,0,125022:0:0:0:0:
192,192,125022,128,0,125112:0:0:0:0:
320,192,125112,128,0,125292:0:0:0:0:
64,192,125202,128,0,125292:0:0:0:0:
448,192,125202,128,0,125471:0:0:0:0:
192,192,125202,128,0,125382:0:0:0:0:
320,192,125382,128,0,125471:0:0:0:0:
192,192,125471,128,0,125561:0:0:0:0:
448,192,125561,128,0,125741:0:0:0:0:
320,192,125561,128,0,125920:0:0:0:0:
64,192,125561,128,0,125831:0:0:0:0:
192,192,125741,128,0,125831:0:0:0:0:
192,192,125920,128,0,126280:0:0:0:0:
64,192,125920,128,0,126100:0:0:0:0:
448,192,125920,128,0,126190:0:0:0:0:
320,192,126100,128,0,126190:0:0:0:0:
64,192,126280,128,0,126639:0:0:0:0:
320,192,126280,128,0,126459:0:0:0:0:
448,192,126280,128,0,126370:0:0:0:0:
192,192,126459,128,0,126549:0:0:0:0:
192,192,126639,128,0,126908:0:0:0:0:
320,192,126639,128,0,126908:0:0:0:0:
448,192,126639,128,0,126819:0:0:0:0:
64,192,126819,128,0,126908:0:0:0:0:
64,192,126998,128,0,127268:0:0:0:0:
320,192,126998,128,0,127088:0:0:0:0:
448,192,126998,128,0,127088:0:0:0:0:
448,192,127178,128,0,127268:0:0:0:0:
320,192,127178,128,0,127268:0:0:0:0:
320,192,127358,128,0,127627:0:0:0:0:
192,192,127358,128,0,127447:0:0:0:0:
64,192,127537,128,0,127627:0:0:0:0:
192,192,127537,128,0,127627:0:0:0:0:
192,192,127717,128,0,127896:0:0:0:0:
448,192,127717,128,0,127986:0:0:0:0:
64,192,127717,128,0,127896:0:0:0:0:
320,192,127896,128,0,127986:0:0:0:0:
192,192,127986,128,0,128076:0:0:0:0:
64,192,128076,128,0,128166:0:0:0:0:
320,192,128076,128,0,128256:0:0:0:0:
448,192,128076,128,0,128346:0:0:0:0:
64,192,128256,128,0,128435:0:0:0:0:
192,192,128346,128,0,128435:0:0:0:0:
320,192,128435,128,0,128525:0:0:0:0:
448,192,128435,128,0,128525:0:0:0:0:
192,192,128525,128,0,128615:0:0:0:0:
64,192,128525,128,0,128615:0:0:0:0:
320,192,128615,128,0,128705:0:0:0:0:
192,192,128705,128,0,128795:0:0:0:0:
64,192,128795,128,0,128885:0:0:0:0:
320,192,128795,128,0,128974:0:0:0:0:
448,192,128795,128,0,129064:0:0:0:0:
64,192,128974,128,0,129334:0:0:0:0:
448,192,129154,128,0,129334:0:0:0:0:
448,192,129513,128,0,129693:0:0:0:0:
64,192,129873,128,0,130052:0:0:0:0:
320,192,130052,128,0,130411:0:0:0:0:
64,192,130232,128,0,130411:0:0:0:0:
448,192,130411,128,0,130591:0:0:0:0:
192,192,130591,128,0,130950:0:0:0:0:
448,192,130771,128,0,131310:0:0:0:0:
320,192,130950,128,0,131310:0:0:0:0:
192,192,131310,128,0,131669:0:0:0:0:
64,192,131669,1,0,0:0:0:0:
448,192,131669,1,0,0:0:0:0:
320,192,131669,128,0,131849:0:0:0:0:
192,192,131849,128,0,132208:0:0:0:0:
320,192,132028,1,0,0:0:0:0:
448,192,132028,1,0,0:0:0:0:
64,192,132028,128,0,132208:0:0:0:0:
448,192,132208,1,0,0:0:0:0:
192,192,132388,128,0,132567:0:0:0:0:
64,192,132388,1,0,0:0:0:0:
320,192,132567,1,0,0:0:0:0:
64,192,132747,1,0,0:0:0:0:
448,192,132747,1,0,0:0:0:0:
320,192,132747,128,0,133106:0:0:0:0:
64,192,132926,128,0,133106:0:0:0:0:
192,192,133106,1,0,0:0:0:0:
448,192,133106,1,0,0:0:0:0:
320,192,133286,128,0,133465:0:0:0:0:
192,192,133465,128,0,133825:0:0:0:0:
448,192,133465,1,0,0:0:0:0:
64,192,133465,1,0,0:0:0:0:
320,192,133645,128,0,134004:0:0:0:0:
64,192,133825,128,0,134004:0:0:0:0:
448,192,133825,1,0,0:0:0:0:
192,192,134004,128,0,134184:0:0:0:0:
64,192,134184,1,0,0:0:0:0:
320,192,134184,128,0,134543:0:0:0:0:
448,192,134184,128,0,134364:0:0:0:0:
192,192,134364,1,0,0:0:0:0:
192,192,134543,128,0,134723:0:0:0:0:
64,192,134543,128,0,134723:0:0:0:0:
448,192,134543,128,0,134723:0:0:0:0:
320,192,134723,1,0,0:0:0:0:
448,192,134902,1,0,0:0:0:0:
320,192,134902,128,0,135262:0:0:0:0:
192,192,134902,1,0,0:0:0:0:
64,192,135082,1,0,0:0:0:0:
448,192,135262,1,0,0:0:0:0:
64,192,135262,128,0,135441:0:0:0:0:
320,192,135441,1,0,0:0:0:0:
64,192,135621,1,0,0:0:0:0:
192,192,135621,1,0,0:0:0:0:
320,192,135621,128,0,135801:0:0:0:0:
448,192,135801,1,0,0:0:0:0:
448,192,135980,128,0,136160:0:0:0:0:
64,192,135980,1,0,0:0:0:0:
192,192,136160,1,0,0:0:0:0:
192,192,136340,128,0,136699:0:0:0:0:
320,192,136340,1,0,0:0:0:0:
448,192,136340,1,0,0:0:0:0:
320,192,136519,128,0,136879:0:0:0:0:
448,192,136699,128,0,137058:0:0:0:0:
64,192,136699,1,0,0:0:0:0:
192,192,136879,1,0,0:0:0:0:
64,192,137058,1,0,0:0:0:0:
320,192,137058,1,0,0:0:0:0:
192,192,137058,128,0,137597:0:0:0:0:
320,192,137238,1,0,0:0:0:0:
64,192,137417,128,0,137597:0:0:0:0:
448,192,137417,1,0,0:0:0:0:
320,192,137597,128,0,137956:0:0:0:0:
192,192,137777,1,0,0:0:0:0:
64,192,137777,1,0,0:0:0:0:
448,192,137777,128,0,137956:0:0:0:0:
192,192,137956,1,0,0:0:0:0:
448,192,138136,128,0,138316:0:0:0:0:
320,192,138136,1,0,0:0:0:0:
64,192,138316,1,0,0:0:0:0:
320,192,138495,1,0,0:0:0:0:
192,192,138495,1,0,0:0:0:0:
64,192,138495,128,0,138675:0:0:0:0:
320,192,138675,128,0,138855:0:0:0:0:
448,192,138855,1,0,0:0:0:0:
192,192,138855,128,0,139034:0:0:0:0:
64,192,138855,128,0,139034:0:0:0:0:
320,192,139034,1,0,0:0:0:0:
448,192,139034,1,0,0:0:0:0:
320,192,139214,128,0,139393:0:0:0:0:
448,192,139214,128,0,139393:0:0:0:0:
64,192,139214,1,0,0:0:0:0:
64,192,139393,1,0,0:0:0:0:
192,192,139393,1,0,0:0:0:0:
448,192,139573,1,0,0:0:0:0:
64,192,139573,1,0,0:0:0:0:
320,192,139573,1,0,0:0:0:0:
192,192,139663,1,0,0:0:0:0:
448,192,139753,1,0,0:0:0:0:
320,192,139753,1,0,0:0:0:0:
192,192,139932,128,0,140022:0:0:0:0:
64,192,139932,128,0,140022:0:0:0:0:
448,192,139932,128,0,140022:0:0:0:0:
320,192,139932,128,0,140022:0:0:0:0:
448,192,140292,1,0,0:0:0:0:
192,192,140292,128,0,140471:0:0:0:0:
64,192,140292,128,0,140471:0:0:0:0:
320,192,140292,1,0,0:0:0:0:
448,192,140471,128,0,140831:0:0:0:0:
64,192,140651,1,0,0:0:0:0:
320,192,140651,128,0,140831:0:0:0:0:
192,192,140651,128,0,140741:0:0:0:0:
192,192,140831,1,0,0:0:0:0:
320,192,141010,128,0,141190:0:0:0:0:
448,192,141010,128,0,141190:0:0:0:0:
64,192,141190,1,0,0:0:0:0:
192,192,141190,1,0,0:0:0:0:
448,192,141370,1,0,0:0:0:0:
64,192,141370,128,0,141729:0:0:0:0:
320,192,141370,128,0,141549:0:0:0:0:
192,192,141549,128,0,141729:0:0:0:0:
320,192,141729,128,0,141908:0:0:0:0:
448,192,141729,128,0,141908:0:0:0:0:
64,192,141908,1,0,0:0:0:0:
192,192,141908,1,0,0:0:0:0:
192,192,142088,128,0,142268:0:0:0:0:
448,192,142088,1,0,0:0:0:0:
320,192,142088,128,0,142178:0:0:0:0:
64,192,142268,1,0,0:0:0:0:
320,192,142268,1,0,0:0:0:0:
448,192,142358,1,0,0:0:0:0:
64,192,142447,128,0,142627:0:0:0:0:
448,192,142627,1,0,0:0:0:0:
192,192,142627,1,0,0:0:0:0:
192,192,142807,128,0,142986:0:0:0:0:
64,192,142807,128,0,143166:0:0:0:0:
320,192,142807,1,0,0:0:0:0:
320,192,142986,1,0,0:0:0:0:
448,192,142986,1,0,0:0:0:0:
448,192,143166,128,0,143346:0:0:0:0:
192,192,143166,128,0,143256:0:0:0:0:
192,192,143346,128,0,143525:0:0:0:0:
320,192,143346,1,0,0:0:0:0:
448,192,143525,1,0,0:0:0:0:
320,192,143525,128,0,143885:0:0:0:0:
64,192,143525,128,0,143615:0:0:0:0:
64,192,143705,128,0,143885:0:0:0:0:
192,192,143885,128,0,144064:0:0:0:0:
448,192,143885,128,0,143974:0:0:0:0:
64,192,144064,1,0,0:0:0:0:
448,192,144064,128,0,144244:0:0:0:0:
192,192,144244,1,0,0:0:0:0:
64,192,144244,128,0,144603:0:0:0:0:
320,192,144244,128,0,144334:0:0:0:0:
320,192,144423,128,0,144603:0:0:0:0:
192,192,144603,1,0,0:0:0:0:
448,192,144603,1,0,0:0:0:0:
192,192,144783,128,0,144962:0:0:0:0:
320,192,144783,128,0,144873:0:0:0:0:
448,192,144962,1,0,0:0:0:0:
320,192,144962,128,0,145142:0:0:0:0:
64,192,144962,128,0,145052:0:0:0:0:
192,192,145142,1,0,0:0:0:0:
64,192,145142,1,0,0:0:0:0:
320,192,145232,1,0,0:0:0:0:
192,192,145322,128,0,145501:0:0:0:0:
320,192,145501,128,0,145591:0:0:0:0:
448,192,145501,128,0,145591:0:0:0:0:
64,192,145501,128,0,145591:0:0:0:0:
320,192,145681,128,0,145861:0:0:0:0:
448,192,145681,128,0,145861:0:0:0:0:
64,192,145681,128,0,145771:0:0:0:0:
64,192,145861,1,0,0:0:0:0:
192,192,145861,1,0,0:0:0:0:
192,192,146040,128,0,146220:0:0:0:0:
320,192,146040,128,0,146130:0:0:0:0:
64,192,146130,128,0,146220:0:0:0:0:
448,192,146220,128,0,146579:0:0:0:0:
320,192,146220,1,0,0:0:0:0:
320,192,146399,128,0,146579:0:0:0:0:
192,192,146399,128,0,146489:0:0:0:0:
64,192,146399,128,0,146489:0:0:0:0:
64,192,146579,1,0,0:0:0:0:
192,192,146759,128,0,146938:0:0:0:0:
320,192,146759,128,0,146849:0:0:0:0:
64,192,146849,128,0,146938:0:0:0:0:
448,192,146938,128,0,147118:0:0:0:0:
320,192,146938,1,0,0:0:0:0:
64,192,147118,128,0,147208:0:0:0:0:
192,192,147118,128,0,147208:0:0:0:0:
320,192,147118,128,0,147298:0:0:0:0:
64,192,147298,128,0,147477:0:0:0:0:
192,192,147477,128,0,147657:0:0:0:0:
320,192,147477,128,0,147567:0:0:0:0:
64,192,147567,128,0,147657:0:0:0:0:
448,192,147657,128,0,147837:0:0:0:0:
320,192,147657,1,0,0:0:0:0:
320,192,147837,128,0,147926:0:0:0:0:
192,192,147837,128,0,147926:0:0:0:0:
64,192,147837,128,0,147926:0:0:0:0:
64,192,148016,128,0,148106:0:0:0:0:
192,192,148016,128,0,148106:0:0:0:0:
320,192,148016,128,0,148106:0:0:0:0:
448,192,148106,1,0,0:0:0:0:
192,192,148196,128,0,148376:0:0:0:0:
320,192,148376,1,0,0:0:0:0:
64,192,148376,1,0,0:0:0:0:
192,192,148555,128,0,148645:0:0:0:0:
64,192,148555,128,0,148645:0:0:0:0:
448,192,148555,128,0,148645:0:0:0:0:
192,192,148735,128,0,148914:0:0:0:0:
320,192,148735,128,0,148825:0:0:0:0:
320,192,148914,128,0,149184:0:0:0:0:
64,192,148914,128,0,149004:0:0:0:0:
448,192,148914,128,0,149184:0:0:0:0:
64,192,149094,128,0,149453:0:0:0:0:
192,192,149274,128,0,149633:0:0:0:0:
320,192,149274,128,0,149364:0:0:0:0:
448,192,149274,128,0,149364:0:0:0:0:
320,192,149453,128,0,149633:0:0:0:0:
448,192,149633,128,0,149813:0:0:0:0:
64,192,149633,128,0,149813:0:0:0:0:
192,192,149813,128,0,149902:0:0:0:0:
320,192,149992,128,0,150082:0:0:0:0:
448,192,149992,128,0,150082:0:0:0:0:
192,192,149992,128,0,150262:0:0:0:0:
64,192,150172,128,0,150262:0:0:0:0:
448,192,150262,128,0,150352:0:0:0:0:
64,192,150352,128,0,150441:0:0:0:0:
192,192,150352,128,0,150621:0:0:0:0:
320,192,150352,128,0,150531:0:0:0:0:
448,192,150531,128,0,150621:0:0:0:0:
320,192,150621,128,0,150711:0:0:0:0:
192,192,150711,128,0,150801:0:0:0:0:
64,192,150711,128,0,150801:0:0:0:0:
448,192,150711,128,0,150801:0:0:0:0:
320,192,150890,128,0,151070:0:0:0:0:
192,192,150890,128,0,150980:0:0:0:0:
64,192,150890,128,0,150980:0:0:0:0:
448,192,150890,128,0,151070:0:0:0:0:
192,192,151070,128,0,151250:0:0:0:0:
64,192,151070,128,0,151160:0:0:0:0:
448,192,151250,128,0,151340:0:0:0:0:
320,192,151250,128,0,151340:0:0:0:0:
192,192,151340,128,0,151519:0:0:0:0:
64,192,151429,128,0,151519:0:0:0:0:
448,192,151429,128,0,151519:0:0:0:0:
320,192,151519,128,0,151699:0:0:0:0:
448,192,151609,128,0,151699:0:0:0:0:
64,192,151609,128,0,151699:0:0:0:0:
192,192,151699,128,0,151789:0:0:0:0:
64,192,151789,128,0,152058:0:0:0:0:
320,192,151789,128,0,152148:0:0:0:0:
448,192,151789,128,0,151968:0:0:0:0:
64,192,152148,128,0,152328:0:0:0:0:
192,192,152148,128,0,152687:0:0:0:0:
448,192,152148,128,0,152417:0:0:0:0:
320,192,152328,128,0,152507:0:0:0:0:
64,192,152507,128,0,152687:0:0:0:0:
448,192,152507,128,0,152777:0:0:0:0:
320,192,152687,128,0,152777:0:0:0:0:
64,192,152867,128,0,153046:0:0:0:0:
320,192,152867,128,0,153226:0:0:0:0:
448,192,152867,128,0,153046:0:0:0:0:
192,192,153046,128,0,153405:0:0:0:0:
448,192,153226,128,0,153405:0:0:0:0:
64,192,153226,128,0,153405:0:0:0:0:
320,192,153405,128,0,153495:0:0:0:0:
192,192,153585,128,0,153675:0:0:0:0:
64,192,153585,128,0,153944:0:0:0:0:
320,192,153585,128,0,153855:0:0:0:0:
192,192,153765,128,0,153944:0:0:0:0:
448,192,153944,128,0,154034:0:0:0:0:
320,192,153944,128,0,154124:0:0:0:0:
192,192,154034,128,0,154214:0:0:0:0:
448,192,154124,128,0,154304:0:0:0:0:
320,192,154214,128,0,154304:0:0:0:0:
64,192,154304,128,0,154393:0:0:0:0:
192,192,154304,128,0,154483:0:0:0:0:
320,192,154393,128,0,154573:0:0:0:0:
64,192,154483,128,0,154663:0:0:0:0:
192,192,154573,128,0,154753:0:0:0:0:
448,192,154663,128,0,154843:0:0:0:0:
320,192,154663,128,0,155022:0:0:0:0:
192,192,154843,128,0,154932:0:0:0:0:
192,192,155022,128,0,155382:0:0:0:0:
64,192,155022,128,0,155202:0:0:0:0:
448,192,155022,128,0,155292:0:0:0:0:
320,192,155202,128,0,155292:0:0:0:0:
320,192,155382,128,0,155741:0:0:0:0:
64,192,155382,128,0,155471:0:0:0:0:
64,192,155561,128,0,155651:0:0:0:0:
448,192,155741,128,0,155831:0:0:0:0:
64,192,155741,128,0,155920:0:0:0:0:
192,192,155741,128,0,156100:0:0:0:0:
448,192,155920,128,0,156010:0:0:0:0:
448,192,156100,128,0,156370:0:0:0:0:
64,192,156100,128,0,156370:0:0:0:0:
192,192,156280,128,0,156370:0:0:0:0:
192,192,156459,128,0,156819:0:0:0:0:
64,192,156459,128,0,156639:0:0:0:0:
320,192,156459,128,0,156549:0:0:0:0:
320,192,156639,128,0,156998:0:0:0:0:
448,192,156819,128,0,156998:0:0:0:0:
64,192,156819,128,0,156998:0:0:0:0:
192,192,156998,128,0,157088:0:0:0:0:
64,192,157178,128,0,157447:0:0:0:0:
192,192,157178,128,0,157447:0:0:0:0:
448,192,157178,128,0,157268:0:0:0:0:
448,192,157358,128,0,157807:0:0:0:0:
64,192,157537,128,0,157717:0:0:0:0:
320,192,157537,128,0,157807:0:0:0:0:
192,192,157717,128,0,157896:0:0:0:0:
448,192,157896,128,0,158076:0:0:0:0:
320,192,157896,128,0,158256:0:0:0:0:
64,192,157896,128,0,158166:0:0:0:0:
192,192,158076,128,0,158166:0:0:0:0:
192,192,158256,128,0,158525:0:0:0:0:
64,192,158256,128,0,158435:0:0:0:0:
320,192,158435,128,0,158525:0:0:0:0:
448,192,158615,128,0,158795:0:0:0:0:
192,192,158615,128,0,158885:0:0:0:0:
320,192,158615,128,0,158974:0:0:0:0:
64,192,158795,128,0,158885:0:0:0:0:
192,192,158974,128,0,159154:0:0:0:0:
64,192,158974,128,0,159154:0:0:0:0:
448,192,159154,128,0,159244:0:0:0:0:
192,192,159334,128,0,159513:0:0:0:0:
448,192,159334,128,0,159603:0:0:0:0:
64,192,159334,128,0,159423:0:0:0:0:
320,192,159513,128,0,159783:0:0:0:0:
192,192,159603,128,0,159873:0:0:0:0:
64,192,159693,128,0,159962:0:0:0:0:
448,192,159693,128,0,159962:0:0:0:0:
320,192,159873,128,0,159962:0:0:0:0:
448,192,160052,128,0,160232:0:0:0:0:
320,192,160052,128,0,160411:0:0:0:0:
64,192,160052,128,0,160322:0:0:0:0:
192,192,160232,128,0,160322:0:0:0:0:
192,192,160411,128,0,160771:0:0:0:0:
64,192,160411,128,0,160591:0:0:0:0:
320,192,160591,128,0,160681:0:0:0:0:
448,192,160771,128,0,160950:0:0:0:0:
320,192,160771,128,0,160861:0:0:0:0:
64,192,160771,128,0,161130:0:0:0:0:
192,192,160950,128,0,161130:0:0:0:0:
320,192,161130,128,0,161489:0:0:0:0:
448,192,161130,128,0,161310:0:0:0:0:
64,192,161310,128,0,161399:0:0:0:0:
448,192,161489,128,0,161849:0:0:0:0:
192,192,161489,128,0,161579:0:0:0:0:
64,192,161489,128,0,161669:0:0:0:0:
320,192,161669,128,0,161849:0:0:0:0:
192,192,161849,1,0,0:0:0:0:
64,192,161849,1,0,0:0:0:0:
448,192,161938,1,0,0:0:0:0:
64,192,162028,1,0,0:0:0:0:
320,192,162028,1,0,0:0:0:0:
448,192,162208,128,0,162388:0:0:0:0:
192,192,162208,128,0,162388:0:0:0:0:
320,192,162208,128,0,162477:0:0:0:0:
64,192,162388,1,0,0:0:0:0:
448,192,162477,1,0,0:0:0:0:
192,192,162567,1,0,0:0:0:0:
64,192,162567,1,0,0:0:0:0:
320,192,162567,1,0,0:0:0:0:
320,192,162747,128,0,162837:0:0:0:0:
448,192,162747,128,0,162837:0:0:0:0:
192,192,162837,1,0,0:0:0:0:
320,192,162926,128,0,163016:0:0:0:0:
448,192,162926,128,0,163016:0:0:0:0:
192,192,163016,1,0,0:0:0:0:
320,192,163106,128,0,163196:0:0:0:0:
448,192,163106,128,0,163196:0:0:0:0:
192,192,163196,1,0,0:0:0:0:
64,192,163286,128,0,163555:0:0:0:0:
320,192,163286,128,0,163645:0:0:0:0:
448,192,163286,128,0,163465:0:0:0:0:
192,192,163465,128,0,163555:0:0:0:0:
64,192,163645,128,0,163825:0:0:0:0:
192,192,163645,128,0,164094:0:0:0:0:
448,192,163645,128,0,163914:0:0:0:0:
320,192,163825,128,0,163914:0:0:0:0:
448,192,164004,128,0,164184:0:0:0:0:
64,192,164004,128,0,164274:0:0:0:0:
320,192,164004,128,0,164274:0:0:0:0:
192,192,164184,128,0,164274:0:0:0:0:
192,192,164364,128,0,164633:0:0:0:0:
448,192,164364,128,0,164453:0:0:0:0:
320,192,164364,128,0,164453:0:0:0:0:
448,192,164543,128,0,164633:0:0:0:0:
320,192,164543,128,0,164633:0:0:0:0:
192,192,164723,128,0,164992:0:0:0:0:
64,192,164723,128,0,164992:0:0:0:0:
320,192,164902,128,0,164992:0:0:0:0:
448,192,164902,128,0,164992:0:0:0:0:
320,192,165082,128,0,165172:0:0:0:0:
448,192,165082,128,0,165441:0:0:0:0:
192,192,165082,128,0,165352:0:0:0:0:
320,192,165262,128,0,165441:0:0:0:0:
192,192,165441,128,0,165531:0:0:0:0:
64,192,165441,128,0,165621:0:0:0:0:
320,192,165531,128,0,165711:0:0:0:0:
192,192,165621,128,0,165801:0:0:0:0:
64,192,165711,128,0,165801:0:0:0:0:
320,192,165801,128,0,165890:0:0:0:0:
448,192,165801,128,0,165980:0:0:0:0:
192,192,165890,128,0,166070:0:0:0:0:
320,192,165980,128,0,166160:0:0:0:0:
448,192,166070,128,0,166250:0:0:0:0:
192,192,166160,128,0,166519:0:0:0:0:
64,192,166160,128,0,166340:0:0:0:0:
448,192,166340,128,0,166429:0:0:0:0:
64,192,166519,128,0,166609:0:0:0:0:
320,192,166519,128,0,166699:0:0:0:0:
448,192,166519,128,0,166699:0:0:0:0:
64,192,166699,128,0,166879:0:0:0:0:
192,192,166879,128,0,167148:0:0:0:0:
320,192,166879,128,0,166968:0:0:0:0:
448,192,166879,128,0,166968:0:0:0:0:
320,192,167058,128,0,167148:0:0:0:0:
192,192,167238,128,0,167328:0:0:0:0:
64,192,167238,128,0,167328:0:0:0:0:
320,192,167238,128,0,167417:0:0:0:0:
192,192,167417,128,0,167597:0:0:0:0:
64,192,167417,128,0,167597:0:0:0:0:
320,192,167597,128,0,167956:0:0:0:0:
448,192,167597,128,0,167777:0:0:0:0:
192,192,167777,128,0,167867:0:0:0:0:
64,192,167777,128,0,167867:0:0:0:0:
64,192,167956,128,0,168136:0:0:0:0:
448,192,167956,128,0,168046:0:0:0:0:
192,192,167956,128,0,168136:0:0:0:0:
448,192,168136,128,0,168405:0:0:0:0:
192,192,168316,128,0,168585:0:0:0:0:
320,192,168316,128,0,168405:0:0:0:0:
64,192,168316,128,0,168585:0:0:0:0:
320,192,168495,128,0,168855:0:0:0:0:
192,192,168675,128,0,168765:0:0:0:0:
64,192,168675,128,0,168855:0:0:0:0:
448,192,168675,128,0,168855:0:0:0:0:
192,192,168855,128,0,169214:0:0:0:0:
320,192,169034,128,0,169214:0:0:0:0:
64,192,169034,128,0,169124:0:0:0:0:
448,192,169034,128,0,169214:0:0:0:0:
64,192,169214,128,0,169393:0:0:0:0:
192,192,169393,128,0,169663:0:0:0:0:
320,192,169393,128,0,169753:0:0:0:0:
448,192,169393,128,0,169663:0:0:0:0:
64,192,169573,128,0,169663:0:0:0:0:
192,192,169753,128,0,170022:0:0:0:0:
64,192,169753,128,0,169932:0:0:0:0:
448,192,169753,128,0,169932:0:0:0:0:
320,192,169932,128,0,170022:0:0:0:0:
192,192,170112,128,0,170202:0:0:0:0:
64,192,170112,128,0,170202:0:0:0:0:
320,192,170112,128,0,170382:0:0:0:0:
64,192,170292,128,0,170382:0:0:0:0:
192,192,170292,128,0,170382:0:0:0:0:
320,192,170471,128,0,170741:0:0:0:0:
448,192,170471,128,0,170741:0:0:0:0:
192,192,170651,128,0,170741:0:0:0:0:
64,192,170651,128,0,170741:0:0:0:0:
192,192,170831,128,0,171010:0:0:0:0:
448,192,170831,128,0,171100:0:0:0:0:
64,192,170831,128,0,171010:0:0:0:0:
320,192,171010,128,0,171100:0:0:0:0:
192,192,171100,128,0,171280:0:0:0:0:
320,192,171190,128,0,171459:0:0:0:0:
448,192,171190,128,0,171280:0:0:0:0:
64,192,171190,128,0,171459:0:0:0:0:
192,192,171370,128,0,171459:0:0:0:0:
64,192,171549,128,0,171729:0:0:0:0:
192,192,171549,128,0,171908:0:0:0:0:
320,192,171549,128,0,171639:0:0:0:0:
320,192,171729,128,0,171819:0:0:0:0:
448,192,171729,128,0,171819:0:0:0:0:
320,192,171908,128,0,172268:0:0:0:0:
448,192,171908,128,0,172088:0:0:0:0:
64,192,171908,128,0,172178:0:0:0:0:
192,192,172088,128,0,172178:0:0:0:0:
448,192,172268,128,0,172627:0:0:0:0:
192,192,172268,128,0,172537:0:0:0:0:
64,192,172268,128,0,172358:0:0:0:0:
320,192,172447,128,0,172537:0:0:0:0:
192,192,172627,128,0,172896:0:0:0:0:
320,192,172627,128,0,172807:0:0:0:0:
64,192,172807,128,0,172896:0:0:0:0:
192,192,172986,128,0,173256:0:0:0:0:
64,192,172986,128,0,173256:0:0:0:0:
320,192,172986,128,0,173076:0:0:0:0:
320,192,173166,128,0,173346:0:0:0:0:
448,192,173346,128,0,173525:0:0:0:0:
64,192,173346,128,0,173615:0:0:0:0:
192,192,173346,128,0,173615:0:0:0:0:
320,192,173525,128,0,173615:0:0:0:0:
320,192,173705,128,0,173974:0:0:0:0:
448,192,173705,128,0,173885:0:0:0:0:
192,192,173705,128,0,173795:0:0:0:0:
192,192,173885,128,0,173974:0:0:0:0:
448,192,173974,1,0,0:0:0:0:
320,192,174064,1,0,0:0:0:0:
192,192,174064,1,0,0:0:0:0:
64,192,174064,1,0,0:0:0:0:
448,192,174154,1,0,0:0:0:0:
192,192,174244,1,0,0:0:0:0:
64,192,174244,1,0,0:0:0:0:
320,192,174334,1,0,0:0:0:0:
64,192,174423,128,0,174513:0:0:0:0:
192,192,174423,128,0,174513:0:0:0:0:
448,192,174423,128,0,174513:0:0:0:0:
320,192,174513,1,0,0:0:0:0:
448,192,174603,1,0,0:0:0:0:
64,192,174603,1,0,0:0:0:0:
192,192,174693,1,0,0:0:0:0:
320,192,174783,128,0,174962:0:0:0:0:
448,192,174783,128,0,175052:0:0:0:0:
64,192,174783,128,0,174873:0:0:0:0:
192,192,174962,128,0,175142:0:0:0:0:
64,192,175142,1,0,0:0:0:0:
320,192,175142,128,0,175322:0:0:0:0:
448,192,175142,128,0,175232:0:0:0:0:
192,192,175322,1,0,0:0:0:0:
192,192,175501,128,0,175681:0:0:0:0:
448,192,175501,1,0,0:0:0:0:
320,192,175681,1,0,0:0:0:0:
64,192,175861,1,0,0:0:0:0:
320,192,175861,128,0,176220:0:0:0:0:
448,192,175861,1,0,0:0:0:0:
192,192,176040,128,0,176220:0:0:0:0:
64,192,176220,1,0,0:0:0:0:
448,192,176220,1,0,0:0:0:0:
320,192,176399,128,0,176759:0:0:0:0:
192,192,176579,1,0,0:0:0:0:
448,192,176579,128,0,176759:0:0:0:0:
64,192,176579,1,0,0:0:0:0:
192,192,176759,1,0,0:0:0:0:
64,192,176938,1,0,0:0:0:0:
320,192,176938,128,0,177118:0:0:0:0:
448,192,177118,1,0,0:0:0:0:
64,192,177298,1,0,0:0:0:0:
192,192,177298,1,0,0:0:0:0:
448,192,177298,128,0,177657:0:0:0:0:
192,192,177477,1,0,0:0:0:0:
320,192,177657,128,0,177837:0:0:0:0:
64,192,177657,128,0,177837:0:0:0:0:
192,192,177837,128,0,178016:0:0:0:0:
448,192,178016,1,0,0:0:0:0:
320,192,178016,128,0,178196:0:0:0:0:
64,192,178016,1,0,0:0:0:0:
192,192,178196,1,0,0:0:0:0:
192,192,178376,128,0,178555:0:0:0:0:
448,192,178376,1,0,0:0:0:0:
320,192,178555,1,0,0:0:0:0:
448,192,178735,1,0,0:0:0:0:
64,192,178735,1,0,0:0:0:0:
320,192,178735,128,0,179094:0:0:0:0:
192,192,178914,128,0,179094:0:0:0:0:
448,192,179094,1,0,0:0:0:0:
64,192,179094,1,0,0:0:0:0:
192,192,179274,128,0,179633:0:0:0:0:
64,192,179453,128,0,179633:0:0:0:0:
448,192,179453,1,0,0:0:0:0:
320,192,179453,1,0,0:0:0:0:
320,192,179633,128,0,179813:0:0:0:0:
448,192,179813,1,0,0:0:0:0:
192,192,179813,128,0,179992:0:0:0:0:
64,192,179992,1,0,0:0:0:0:
64,192,180172,128,0,180531:0:0:0:0:
320,192,180172,1,0,0:0:0:0:
448,192,180172,1,0,0:0:0:0:
320,192,180352,128,0,180531:0:0:0:0:
448,192,180531,1,0,0:0:0:0:
192,192,180531,128,0,180711:0:0:0:0:
320,192,180711,128,0,180890:0:0:0:0:
192,192,180890,128,0,181070:0:0:0:0:
448,192,180890,1,0,0:0:0:0:
64,192,180890,128,0,181070:0:0:0:0:
320,192,181070,1,0,0:0:0:0:
320,192,181250,128,0,181429:0:0:0:0:
64,192,181250,128,0,181429:0:0:0:0:
192,192,181429,1,0,0:0:0:0:
192,192,181609,128,0,181789:0:0:0:0:
448,192,181609,128,0,181968:0:0:0:0:
64,192,181609,1,0,0:0:0:0:
320,192,181789,128,0,181968:0:0:0:0:
64,192,181968,1,0,0:0:0:0:
192,192,181968,1,0,0:0:0:0:
320,192,182148,128,0,182507:0:0:0:0:
64,192,182328,1,0,0:0:0:0:
448,192,182328,128,0,182507:0:0:0:0:
192,192,182328,1,0,0:0:0:0:
192,192,182507,1,0,0:0:0:0:
448,192,182687,1,0,0:0:0:0:
64,192,182687,128,0,182867:0:0:0:0:
320,192,182867,1,0,0:0:0:0:
64,192,183046,1,0,0:0:0:0:
448,192,183046,1,0,0:0:0:0:
320,192,183046,128,0,183405:0:0:0:0:
64,192,183226,1,0,0:0:0:0:
448,192,183405,1,0,0:0:0:0:
192,192,183405,128,0,183585:0:0:0:0:
320,192,183585,128,0,183765:0:0:0:0:
64,192,183765,1,0,0:0:0:0:
448,192,183765,1,0,0:0:0:0:
192,192,183765,128,0,183944:0:0:0:0:
320,192,183944,1,0,0:0:0:0:
320,192,184124,128,0,184304:0:0:0:0:
192,192,184124,1,0,0:0:0:0:
64,192,184304,1,0,0:0:0:0:
192,192,184393,1,0,0:0:0:0:
320,192,184483,1,0,0:0:0:0:
448,192,184483,1,0,0:0:0:0:
64,192,184483,128,0,184663:0:0:0:0:
448,192,184663,128,0,184843:0:0:0:0:
64,192,184843,1,0,0:0:0:0:
192,192,184843,1,0,0:0:0:0:
320,192,184843,1,0,0:0:0:0:
448,192,184932,1,0,0:0:0:0:
64,192,185022,1,0,0:0:0:0:
192,192,185022,1,0,0:0:0:0:
64,192,185202,1,0,0:0:0:0:
320,192,185202,1,0,0:0:0:0:
448,192,185202,1,0,0:0:0:0:
192,192,185382,128,0,185471:0:0:0:0:
320,192,185471,1,0,0:0:0:0:
64,192,185561,1,0,0:0:0:0:
448,192,185561,1,0,0:0:0:0:
192,192,185561,128,0,185651:0:0:0:0:
192,192,185741,128,0,185831:0:0:0:0:
320,192,185741,1,0,0:0:0:0:
448,192,185831,1,0,0:0:0:0:
192,192,185920,128,0,186010:0:0:0:0:
64,192,185920,1,0,0:0:0:0:
320,192,186010,1,0,0:0:0:0:
192,192,186100,128,0,186190:0:0:0:0:
64,192,186100,1,0,0:0:0:0:
320,192,186190,1,0,0:0:0:0:
448,192,186280,128,0,186459:0:0:0:0:
192,192,186280,128,0,186459:0:0:0:0:
64,192,186280,128,0,186459:0:0:0:0:
320,192,186459,128,0,186549:0:0:0:0:
448,192,186639,128,0,186729:0:0:0:0:
320,192,186639,128,0,186729:0:0:0:0:
64,192,186639,128,0,186729:0:0:0:0:
192,192,186819,1,0,0:0:0:0:
64,192,186998,128,0,187088:0:0:0:0:
448,192,186998,128,0,187088:0:0:0:0:
192,192,186998,128,0,187088:0:0:0:0:
320,192,187178,1,0,0:0:0:0:
320,192,187358,128,0,187627:0:0:0:0:
64,192,187358,128,0,187447:0:0:0:0:
192,192,187358,128,0,187447:0:0:0:0:
64,192,187537,128,0,187627:0:0:0:0:
192,192,187537,128,0,187627:0:0:0:0:
320,192,187717,1,0,0:0:0:0:
448,192,187717,1,0,0:0:0:0:
192,192,187896,128,0,187986:0:0:0:0:
64,192,187896,128,0,187986:0:0:0:0:
192,192,188076,128,0,188166:0:0:0:0:
64,192,188076,128,0,188166:0:0:0:0:
448,192,188076,128,0,188256:0:0:0:0:
320,192,188256,128,0,188435:0:0:0:0:
192,192,188435,128,0,188525:0:0:0:0:
64,192,188435,128,0,188525:0:0:0:0:
448,192,188435,128,0,188525:0:0:0:0:
320,192,188525,128,0,188615:0:0:0:0:
192,192,188615,128,0,188705:0:0:0:0:
320,192,188705,128,0,188795:0:0:0:0:
448,192,188795,128,0,188885:0:0:0:0:
64,192,188795,128,0,188885:0:0:0:0:
192,192,188795,128,0,188885:0:0:0:0:
320,192,188974,1,0,0:0:0:0:
320,192,189154,128,0,189244:0:0:0:0:
448,192,189154,128,0,189244:0:0:0:0:
64,192,189154,128,0,189244:0:0:0:0:
192,192,189334,128,0,189423:0:0:0:0:
448,192,189513,128,0,189603:0:0:0:0:
192,192,189513,128,0,189603:0:0:0:0:
64,192,189513,128,0,189603:0:0:0:0:
320,192,189693,1,0,0:0:0:0:
320,192,189873,128,0,189962:0:0:0:0:
192,192,189873,128,0,189962:0:0:0:0:
64,192,189873,128,0,189962:0:0:0:0:
448,192,190052,1,0,0:0:0:0:
192,192,190232,128,0,190322:0:0:0:0:
64,192,190232,128,0,190322:0:0:0:0:
448,192,190232,128,0,190411:0:0:0:0:
192,192,190411,128,0,190501:0:0:0:0:
64,192,190411,128,0,190501:0:0:0:0:
320,192,190591,1,0,0:0:0:0:
448,192,190591,1,0,0:0:0:0:
192,192,190771,128,0,190861:0:0:0:0:
64,192,190771,128,0,190861:0:0:0:0:
64,192,190950,128,0,191040:0:0:0:0:
448,192,190950,128,0,191040:0:0:0:0:
192,192,190950,128,0,191040:0:0:0:0:
448,192,191130,128,0,191310:0:0:0:0:
320,192,191310,128,0,191399:0:0:0:0:
64,192,191310,128,0,191399:0:0:0:0:
192,192,191310,128,0,191399:0:0:0:0:
192,192,191489,128,0,191669:0:0:0:0:
320,192,191669,128,0,191759:0:0:0:0:
64,192,191669,128,0,191759:0:0:0:0:
448,192,191669,128,0,191759:0:0:0:0:
320,192,191849,128,0,192028:0:0:0:0:
64,192,192028,128,0,192118:0:0:0:0:
192,192,192028,128,0,192208:0:0:0:0:
448,192,192028,128,0,192118:0:0:0:0:
320,192,192208,128,0,192298:0:0:0:0:
320,192,192388,128,0,192477:0:0:0:0:
64,192,192388,128,0,192477:0:0:0:0:
448,192,192388,128,0,192477:0:0:0:0:
192,192,192567,1,0,0:0:0:0:
64,192,192747,128,0,192837:0:0:0:0:
448,192,192747,128,0,192837:0:0:0:0:
192,192,192747,128,0,192837:0:0:0:0:
320,192,192926,1,0,0:0:0:0:
192,192,193106,128,0,193196:0:0:0:0:
64,192,193106,128,0,193196:0:0:0:0:
320,192,193106,128,0,193376:0:0:0:0:
64,192,193286,128,0,193376:0:0:0:0:
192,192,193286,128,0,193376:0:0:0:0:
320,192,193465,1,0,0:0:0:0:
448,192,193465,1,0,0:0:0:0:
192,192,193645,128,0,193735:0:0:0:0:
64,192,193645,128,0,193735:0:0:0:0:
192,192,193825,128,0,193914:0:0:0:0:
64,192,193825,128,0,193914:0:0:0:0:
448,192,193825,128,0,194004:0:0:0:0:
320,192,194004,1,0,0:0:0:0:
448,192,194184,128,0,194274:0:0:0:0:
320,192,194184,128,0,194274:0:0:0:0:
64,192,194184,128,0,194274:0:0:0:0:
192,192,194274,128,0,194364:0:0:0:0:
320,192,194364,128,0,194453:0:0:0:0:
192,192,194453,128,0,194543:0:0:0:0:
64,192,194543,128,0,194633:0:0:0:0:
320,192,194543,128,0,194633:0:0:0:0:
448,192,194543,128,0,194633:0:0:0:0:
192,192,194723,1,0,0:0:0:0:
64,192,194723,1,0,0:0:0:0:
320,192,194902,128,0,195082:0:0:0:0:
448,192,194902,128,0,195172:0:0:0:0:
64,192,194902,128,0,194992:0:0:0:0:
192,192,195082,128,0,195172:0:0:0:0:
192,192,195262,128,0,195621:0:0:0:0:
448,192,195262,1,0,0:0:0:0:
64,192,195262,1,0,0:0:0:0:
320,192,195441,128,0,195621:0:0:0:0:
64,192,195621,1,0,0:0:0:0:
448,192,195621,1,0,0:0:0:0:
448,192,195801,128,0,196160:0:0:0:0:
320,192,195980,128,0,196160:0:0:0:0:
192,192,195980,1,0,0:0:0:0:
64,192,195980,1,0,0:0:0:0:
64,192,196160,128,0,196340:0:0:0:0:
448,192,196340,128,0,196519:0:0:0:0:
320,192,196340,128,0,196519:0:0:0:0:
192,192,196340,128,0,196519:0:0:0:0:
64,192,196519,1,0,0:0:0:0:
320,192,196609,128,0,196699:0:0:0:0:
448,192,196609,128,0,196699:0:0:0:0:
64,192,196699,1,0,0:0:0:0:
192,192,196699,1,0,0:0:0:0:
320,192,196879,1,0,0:0:0:0:
448,192,196879,1,0,0:0:0:0:
192,192,196879,1,0,0:0:0:0:
64,192,197058,1,0,0:0:0:0:
320,192,197058,128,0,197238:0:0:0:0:
448,192,197058,128,0,197238:0:0:0:0:
64,192,197238,1,0,0:0:0:0:
192,192,197238,1,0,0:0:0:0:
320,192,197328,1,0,0:0:0:0:
192,192,197417,1,0,0:0:0:0:
448,192,197417,1,0,0:0:0:0:
64,192,197507,1,0,0:0:0:0:
320,192,197597,1,0,0:0:0:0:
448,192,197597,1,0,0:0:0:0:
192,192,197687,1,0,0:0:0:0:
320,192,197777,128,0,197956:0:0:0:0:
448,192,197777,128,0,197956:0:0:0:0:
64,192,197777,128,0,197956:0:0:0:0:
192,192,197956,128,0,198316:0:0:0:0:
448,192,198136,1,0,0:0:0:0:
64,192,198136,128,0,198316:0:0:0:0:
320,192,198136,1,0,0:0:0:0:
320,192,198316,1,0,0:0:0:0:
64,192,198495,1,0,0:0:0:0:
448,192,198495,128,0,198675:0:0:0:0:
64,192,198675,1,0,0:0:0:0:
192,192,198855,128,0,199214:0:0:0:0:
448,192,198855,1,0,0:0:0:0:
320,192,198855,128,0,199034:0:0:0:0:
64,192,199034,128,0,199214:0:0:0:0:
320,192,199214,1,0,0:0:0:0:
448,192,199214,1,0,0:0:0:0:
320,192,199393,128,0,199753:0:0:0:0:
64,192,199573,1,0,0:0:0:0:
448,192,199573,128,0,199753:0:0:0:0:
192,192,199573,1,0,0:0:0:0:
192,192,199753,1,0,0:0:0:0:
448,192,199932,1,0,0:0:0:0:
64,192,199932,128,0,200112:0:0:0:0:
448,192,200112,128,0,200471:0:0:0:0:
320,192,200292,128,0,200651:0:0:0:0:
64,192,200292,1,0,0:0:0:0:
192,192,200292,1,0,0:0:0:0:
192,192,200471,128,0,200831:0:0:0:0:
448,192,200651,1,0,0:0:0:0:
64,192,200651,128,0,200831:0:0:0:0:
320,192,200831,1,0,0:0:0:0:
320,192,201010,128,0,201190:0:0:0:0:
448,192,201010,128,0,201190:0:0:0:0:
192,192,201010,1,0,0:0:0:0:
192,192,201190,1,0,0:0:0:0:
448,192,201370,1,0,0:0:0:0:
64,192,201370,128,0,201549:0:0:0:0:
448,192,201549,1,0,0:0:0:0:
320,192,201729,128,0,202088:0:0:0:0:
64,192,201729,1,0,0:0:0:0:
192,192,201729,128,0,201908:0:0:0:0:
448,192,201908,128,0,202088:0:0:0:0:
192,192,202088,1,0,0:0:0:0:
64,192,202088,1,0,0:0:0:0:
192,192,202268,128,0,202627:0:0:0:0:
448,192,202447,1,0,0:0:0:0:
64,192,202447,128,0,202627:0:0:0:0:
320,192,202447,1,0,0:0:0:0:
320,192,202627,128,0,202986:0:0:0:0:
64,192,202807,1,0,0:0:0:0:
448,192,202807,128,0,202986:0:0:0:0:
64,192,202986,128,0,203346:0:0:0:0:
192,192,203166,128,0,203525:0:0:0:0:
448,192,203166,1,0,0:0:0:0:
320,192,203166,1,0,0:0:0:0:
320,192,203346,128,0,203705:0:0:0:0:
64,192,203525,1,0,0:0:0:0:
448,192,203525,128,0,203705:0:0:0:0:
192,192,203705,1,0,0:0:0:0:
192,192,203885,128,0,204064:0:0:0:0:
64,192,203885,128,0,204064:0:0:0:0:
320,192,203885,128,0,203974:0:0:0:0:
320,192,204064,1,0,0:0:0:0:
448,192,204244,128,0,204423:0:0:0:0:
64,192,204244,128,0,204334:0:0:0:0:
64,192,204423,1,0,0:0:0:0:
192,192,204603,128,0,204962:0:0:0:0:
320,192,204603,128,0,204783:0:0:0:0:
448,192,204603,128,0,204693:0:0:0:0:
64,192,204783,128,0,204962:0:0:0:0:
320,192,204962,1,0,0:0:0:0:
448,192,204962,1,0,0:0:0:0:
448,192,205142,128,0,205501:0:0:0:0:
64,192,205322,1,0,0:0:0:0:
320,192,205322,128,0,205501:0:0:0:0:
192,192,205322,1,0,0:0:0:0:
192,192,205501,1,0,0:0:0:0:
448,192,205681,1,0,0:0:0:0:
64,192,205681,128,0,205861:0:0:0:0:
448,192,205861,128,0,206220:0:0:0:0:
320,192,206040,128,0,206399:0:0:0:0:
64,192,206040,1,0,0:0:0:0:
192,192,206040,1,0,0:0:0:0:
192,192,206220,128,0,206579:0:0:0:0:
448,192,206399,1,0,0:0:0:0:
64,192,206399,128,0,206579:0:0:0:0:
320,192,206579,1,0,0:0:0:0:
320,192,206759,128,0,206938:0:0:0:0:
448,192,206759,128,0,206938:0:0:0:0:
192,192,206759,1,0,0:0:0:0:
192,192,206938,1,0,0:0:0:0:
448,192,207118,1,0,0:0:0:0:
64,192,207118,128,0,207298:0:0:0:0:
448,192,207298,1,0,0:0:0:0:
320,192,207477,128,0,207837:0:0:0:0:
64,192,207477,1,0,0:0:0:0:
192,192,207477,128,0,207657:0:0:0:0:
448,192,207657,128,0,207837:0:0:0:0:
192,192,207837,1,0,0:0:0:0:
64,192,207837,1,0,0:0:0:0:
320,192,207926,1,0,0:0:0:0:
64,192,208016,1,0,0:0:0:0:
448,192,208016,1,0,0:0:0:0:
192,192,208196,128,0,208376:0:0:0:0:
320,192,208196,128,0,208376:0:0:0:0:
448,192,208196,128,0,208376:0:0:0:0:
64,192,208376,1,0,0:0:0:0:
320,192,208465,128,0,208555:0:0:0:0:
448,192,208465,128,0,208555:0:0:0:0:
64,192,208555,1,0,0:0:0:0:
192,192,208555,1,0,0:0:0:0:
192,192,208735,1,0,0:0:0:0:
320,192,208735,1,0,0:0:0:0:
64,192,208825,1,0,0:0:0:0:
320,192,208914,1,0,0:0:0:0:
448,192,208914,1,0,0:0:0:0:
192,192,209004,1,0,0:0:0:0:
448,192,209094,1,0,0:0:0:0:
64,192,209094,1,0,0:0:0:0:
320,192,209184,1,0,0:0:0:0:
192,192,209274,128,0,209364:0:0:0:0:
64,192,209274,128,0,209364:0:0:0:0:
448,192,209274,128,0,209453:0:0:0:0:
320,192,209453,128,0,209813:0:0:0:0:
448,192,209633,128,0,209813:0:0:0:0:
192,192,209633,128,0,209723:0:0:0:0:
64,192,209633,128,0,209723:0:0:0:0:
192,192,209813,1,0,0:0:0:0:
64,192,209992,128,0,210172:0:0:0:0:
448,192,209992,128,0,210082:0:0:0:0:
320,192,209992,128,0,210082:0:0:0:0:
448,192,210172,1,0,0:0:0:0:
320,192,210352,128,0,210441:0:0:0:0:
192,192,210352,128,0,210441:0:0:0:0:
64,192,210352,128,0,210441:0:0:0:0:
448,192,210531,128,0,210711:0:0:0:0:
192,192,210531,128,0,210621:0:0:0:0:
320,192,210531,128,0,210711:0:0:0:0:
192,192,210711,1,0,0:0:0:0:
64,192,210711,1,0,0:0:0:0:
320,192,210890,128,0,210980:0:0:0:0:
448,192,210890,128,0,210980:0:0:0:0:
192,192,210890,128,0,211160:0:0:0:0:
320,192,211070,128,0,211160:0:0:0:0:
448,192,211070,128,0,211160:0:0:0:0:
64,192,211070,128,0,211160:0:0:0:0:
192,192,211250,1,0,0:0:0:0:
320,192,211340,1,0,0:0:0:0:
64,192,211429,128,0,211519:0:0:0:0:
192,192,211429,128,0,211519:0:0:0:0:
448,192,211429,128,0,211519:0:0:0:0:
64,192,211609,128,0,211968:0:0:0:0:
320,192,211789,128,0,211879:0:0:0:0:
448,192,211789,128,0,211879:0:0:0:0:
192,192,211789,128,0,211968:0:0:0:0:
320,192,211968,128,0,212328:0:0:0:0:
448,192,212148,128,0,212328:0:0:0:0:
64,192,212148,128,0,212238:0:0:0:0:
192,192,212148,128,0,212238:0:0:0:0:
192,192,212328,1,0,0:0:0:0:
448,192,212507,128,0,212597:0:0:0:0:
64,192,212507,128,0,212687:0:0:0:0:
320,192,212507,128,0,212597:0:0:0:0:
192,192,212687,1,0,0:0:0:0:
448,192,212867,128,0,213046:0:0:0:0:
64,192,212867,128,0,212956:0:0:0:0:
192,192,212867,128,0,212956:0:0:0:0:
64,192,213046,1,0,0:0:0:0:
448,192,213226,128,0,213316:0:0:0:0:
192,192,213226,128,0,213316:0:0:0:0:
320,192,213226,128,0,213316:0:0:0:0:
64,192,213405,128,0,213585:0:0:0:0:
192,192,213405,128,0,213585:0:0:0:0:
320,192,213405,128,0,213495:0:0:0:0:
320,192,213585,1,0,0:0:0:0:
448,192,213585,1,0,0:0:0:0:
192,192,213765,128,0,213855:0:0:0:0:
64,192,213765,128,0,213855:0:0:0:0:
320,192,213765,128,0,214034:0:0:0:0:
192,192,213944,128,0,214034:0:0:0:0:
64,192,213944,128,0,214034:0:0:0:0:
448,192,213944,128,0,214034:0:0:0:0:
320,192,214124,128,0,214304:0:0:0:0:
192,192,214304,128,0,214393:0:0:0:0:
448,192,214304,128,0,214393:0:0:0:0:
64,192,214304,128,0,214393:0:0:0:0:
448,192,214483,128,0,214843:0:0:0:0:
192,192,214663,128,0,214753:0:0:0:0:
64,192,214663,128,0,214753:0:0:0:0:
320,192,214663,128,0,214843:0:0:0:0:
192,192,214843,128,0,215202:0:0:0:0:
64,192,215022,128,0,215202:0:0:0:0:
320,192,215022,128,0,215112:0:0:0:0:
448,192,215022,128,0,215112:0:0:0:0:
320,192,215202,1,0,0:0:0:0:
320,192,215382,128,0,215561:0:0:0:0:
448,192,215382,128,0,215561:0:0:0:0:
192,192,215382,128,0,215471:0:0:0:0:
192,192,215561,1,0,0:0:0:0:
64,192,215741,128,0,215920:0:0:0:0:
448,192,215741,128,0,215831:0:0:0:0:
320,192,215741,128,0,215831:0:0:0:0:
448,192,215920,1,0,0:0:0:0:
64,192,216100,128,0,216190:0:0:0:0:
192,192,216100,128,0,216190:0:0:0:0:
320,192,216100,128,0,216190:0:0:0:0:
448,192,216280,128,0,216459:0:0:0:0:
192,192,216280,128,0,216370:0:0:0:0:
320,192,216280,128,0,216459:0:0:0:0:
192,192,216459,1,0,0:0:0:0:
64,192,216459,1,0,0:0:0:0:
320,192,216639,128,0,216729:0:0:0:0:
448,192,216639,128,0,216729:0:0:0:0:
64,192,216639,128,0,216908:0:0:0:0:
320,192,216819,128,0,216908:0:0:0:0:
448,192,216819,128,0,216908:0:0:0:0:
192,192,216819,128,0,216908:0:0:0:0:
64,192,216998,1,0,0:0:0:0:
448,192,217088,1,0,0:0:0:0:
192,192,217178,128,0,217268:0:0:0:0:
64,192,217178,128,0,217268:0:0:0:0:
320,192,217178,128,0,217268:0:0:0:0:
64,192,217358,128,0,217717:0:0:0:0:
320,192,217537,128,0,217627:0:0:0:0:
448,192,217537,128,0,217627:0:0:0:0:
192,192,217537,128,0,217717:0:0:0:0:
320,192,217717,128,0,218076:0:0:0:0:
448,192,217896,128,0,218076:0:0:0:0:
192,192,217896,128,0,217986:0:0:0:0:
64,192,217896,128,0,218076:0:0:0:0:
192,192,218076,1,0,0:0:0:0:
192,192,218256,128,0,218435:0:0:0:0:
64,192,218256,128,0,218435:0:0:0:0:
320,192,218256,1,0,0:0:0:0:
320,192,218435,1,0,0:0:0:0:
192,192,218615,1,0,0:0:0:0:
448,192,218615,128,0,218795:0:0:0:0:
192,192,218795,1,0,0:0:0:0:
320,192,218974,128,0,219154:0:0:0:0:
448,192,218974,128,0,219154:0:0:0:0:
64,192,218974,1,0,0:0:0:0:
192,192,219154,128,0,219334:0:0:0:0:
320,192,219334,128,0,219513:0:0:0:0:
448,192,219334,128,0,219423:0:0:0:0:
64,192,219334,128,0,219423:0:0:0:0:
448,192,219513,128,0,219873:0:0:0:0:
64,192,219693,1,0,0:0:0:0:
320,192,219693,128,0,219873:0:0:0:0:
192,192,219693,1,0,0:0:0:0:
192,192,219873,128,0,220052:0:0:0:0:
64,192,220052,1,0,0:0:0:0:
320,192,220052,1,0,0:0:0:0:
448,192,220052,1,0,0:0:0:0:
192,192,220142,1,0,0:0:0:0:
320,192,220232,1,0,0:0:0:0:
448,192,220232,1,0,0:0:0:0:
64,192,220411,1,0,0:0:0:0:
192,192,220411,1,0,0:0:0:0:
448,192,220411,1,0,0:0:0:0:
320,192,220501,1,0,0:0:0:0:
64,192,220591,1,0,0:0:0:0:
192,192,220591,1,0,0:0:0:0:
320,192,220681,1,0,0:0:0:0:
192,192,220771,128,0,220950:0:0:0:0:
64,192,220771,128,0,220861:0:0:0:0:
448,192,220771,128,0,220861:0:0:0:0:
320,192,220950,1,0,0:0:0:0:
64,192,221130,1,0,0:0:0:0:
448,192,221130,1,0,0:0:0:0:
320,192,221130,128,0,221310:0:0:0:0:
192,192,221310,1,0,0:0:0:0:
320,192,221489,1,0,0:0:0:0:
192,192,221489,128,0,221669:0:0:0:0:
448,192,221669,1,0,0:0:0:0:
64,192,221849,1,0,0:0:0:0:
192,192,221849,1,0,0:0:0:0:
448,192,221849,128,0,222028:0:0:0:0:
64,192,222028,128,0,222208:0:0:0:0:
320,192,222208,1,0,0:0:0:0:
448,192,222208,1,0,0:0:0:0:
192,192,222388,1,0,0:0:0:0:
64,192,222567,1,0,0:0:0:0:
448,192,222567,1,0,0:0:0:0:
192,192,222567,1,0,0:0:0:0:
320,192,222747,1,0,0:0:0:0:
64,192,222926,1,0,0:0:0:0:
320,192,222926,1,0,0:0:0:0:
64,192,223106,128,0,223286:0:0:0:0:
448,192,223286,1,0,0:0:0:0:
320,192,223286,1,0,0:0:0:0:
192,192,223286,128,0,223465:0:0:0:0:
320,192,223465,128,0,223645:0:0:0:0:
64,192,223645,1,0,0:0:0:0:
448,192,223645,128,0,223825:0:0:0:0:
192,192,223825,1,0,0:0:0:0:
448,192,224004,1,0,0:0:0:0:
64,192,224004,1,0,0:0:0:0:
192,192,224004,128,0,224184:0:0:0:0:
320,192,224184,1,0,0:0:0:0:
192,192,224364,1,0,0:0:0:0:
320,192,224364,128,0,224543:0:0:0:0:
64,192,224543,1,0,0:0:0:0:
448,192,224723,1,0,0:0:0:0:
320,192,224723,1,0,0:0:0:0:
64,192,224723,128,0,224902:0:0:0:0:
448,192,224902,128,0,225082:0:0:0:0:
192,192,225082,1,0,0:0:0:0:
64,192,225082,1,0,0:0:0:0:
320,192,225262,1,0,0:0:0:0:
320,192,225441,1,0,0:0:0:0:
64,192,225441,1,0,0:0:0:0:
448,192,225441,1,0,0:0:0:0:
192,192,225621,1,0,0:0:0:0:
448,192,225801,1,0,0:0:0:0:
192,192,225801,1,0,0:0:0:0:
448,192,225980,128,0,226160:0:0:0:0:
64,192,226160,1,0,0:0:0:0:
192,192,226160,1,0,0:0:0:0:
320,192,226160,128,0,226340:0:0:0:0:
192,192,226340,128,0,226519:0:0:0:0:
448,192,226519,1,0,0:0:0:0:
64,192,226519,128,0,226699:0:0:0:0:
320,192,226699,1,0,0:0:0:0:
64,192,226879,1,0,0:0:0:0:
448,192,226879,1,0,0:0:0:0:
320,192,226879,128,0,227058:0:0:0:0:
192,192,227058,1,0,0:0:0:0:
320,192,227238,1,0,0:0:0:0:
192,192,227238,128,0,227417:0:0:0:0:
448,192,227417,1,0,0:0:0:0:
64,192,227597,1,0,0:0:0:0:
192,192,227597,1,0,0:0:0:0:
448,192,227597,128,0,227777:0:0:0:0:
64,192,227777,128,0,227956:0:0:0:0:
320,192,227956,1,0,0:0:0:0:
448,192,227956,1,0,0:0:0:0:
192,192,228136,1,0,0:0:0:0:
192,192,228316,1,0,0:0:0:0:
448,192,228316,1,0,0:0:0:0:
64,192,228316,1,0,0:0:0:0:
320,192,228495,1,0,0:0:0:0:
64,192,228675,1,0,0:0:0:0:
448,192,228675,1,0,0:0:0:0:
64,192,228855,128,0,229034:0:0:0:0:
320,192,229034,1,0,0:0:0:0:
448,192,229034,1,0,0:0:0:0:
192,192,229034,128,0,229214:0:0:0:0:
320,192,229214,128,0,229393:0:0:0:0:
64,192,229393,1,0,0:0:0:0:
448,192,229393,128,0,229573:0:0:0:0:
192,192,229573,1,0,0:0:0:0:
448,192,229753,1,0,0:0:0:0:
64,192,229753,1,0,0:0:0:0:
192,192,229753,128,0,229932:0:0:0:0:
320,192,229932,1,0,0:0:0:0:
192,192,230112,1,0,0:0:0:0:
320,192,230112,128,0,230292:0:0:0:0:
64,192,230292,1,0,0:0:0:0:
448,192,230471,1,0,0:0:0:0:
320,192,230471,1,0,0:0:0:0:
64,192,230471,128,0,230651:0:0:0:0:
448,192,230651,128,0,230831:0:0:0:0:
192,192,230831,1,0,0:0:0:0:
64,192,230831,1,0,0:0:0:0:
320,192,230920,1,0,0:0:0:0:
448,192,231010,1,0,0:0:0:0:
64,192,231010,1,0,0:0:0:0:
448,192,231190,1,0,0:0:0:0:
192,192,231190,1,0,0:0:0:0:
320,192,231190,1,0,0:0:0:0:
64,192,231370,1,0,0:0:0:0:
448,192,231459,1,0,0:0:0:0:
320,192,231549,1,0,0:0:0:0:
192,192,231549,1,0,0:0:0:0:
64,192,231549,1,0,0:0:0:0:
192,192,231729,1,0,0:0:0:0:
320,192,231819,1,0,0:0:0:0:
64,192,231908,1,0,0:0:0:0:
448,192,231908,1,0,0:0:0:0:
192,192,231998,1,0,0:0:0:0:
320,192,232088,1,0,0:0:0:0:
192,192,232178,1,0,0:0:0:0:
448,192,232268,1,0,0:0:0:0:
320,192,232268,1,0,0:0:0:0:
64,192,232268,1,0,0:0:0:0:
