osu file format v14

[General]
AudioFilename: audio.mp3
AudioLeadIn: 0
PreviewTime: 80157
Countdown: 0
SampleSet: Soft
StackLeniency: 0.7
Mode: 3
LetterboxInBreaks: 0
SpecialStyle: 0
WidescreenStoryboard: 1

[Editor]
DistanceSpacing: 0.7
BeatDivisor: 4
GridSize: 32
TimelineZoom: 1.200001

[Metadata]
Title:trans rights
TitleUnicode:trans rights
Artist:in love with a ghost
ArtistUnicode:in love with a ghost
Creator:fvrex
Version:normal
Source:
Tags:transgender ucitysm tigerinity indoroid xtrippin featured artist fa mappers' guild mpg playful spirits ilwag said pride month lgbt+ lgbtq+ lgbtqia+ electronic instrumental lo-fi lofi chillwave ambient chillout
BeatmapID:4164032
BeatmapSetID:2002100

[Difficulty]
HPDrainRate:7
CircleSize:4
OverallDifficulty:7
ApproachRate:5
SliderMultiplier:1.4
SliderTickRate:1

[Events]
//Background and Video events
0,0,"itsme.jpg",0,0
//Break Periods
//Storyboard Layer 0 (Background)
//Storyboard Layer 1 (Fail)
//Storyboard Layer 2 (Pass)
//Storyboard Layer 3 (Foreground)
//Storyboard Layer 4 (Overlay)
//Storyboard Sound Samples

[TimingPoints]
189,500,4,2,1,65,1,0

[HitObjects]
64,192,189,128,0,4189:0:0:0:20:tick.wav
448,192,189,1,0,0:0:0:0:
192,192,689,1,0,0:0:0:20:tick.wav
448,192,1189,1,0,0:0:0:20:tick.wav
192,192,1689,1,0,0:0:0:20:tick.wav
448,192,3439,1,0,0:0:0:20:tick.wav
192,192,3689,1,0,0:0:0:20:tick.wav
448,192,4189,128,0,8189:0:0:0:0:
192,192,8189,128,0,12189:0:0:0:0:
320,192,12189,128,0,15939:0:0:0:0:
448,192,15939,1,0,0:0:0:0:
192,192,16189,128,0,16439:0:0:0:70:kick.wav
320,192,16439,128,0,16689:0:0:0:0:
64,192,16689,1,0,0:0:0:0:
448,192,17064,1,0,0:0:0:70:kick.wav
64,192,17189,1,0,0:0:0:65:snare.wav
192,192,17189,1,0,0:0:0:0:
320,192,17689,1,0,0:0:0:0:
320,192,18189,128,0,18439:0:0:0:0:
192,192,18439,128,0,18689:0:0:0:0:
320,192,18689,1,0,0:0:0:65:snare.wav
448,192,18689,1,0,0:0:0:0:
64,192,18939,1,0,0:0:0:65:snare.wav
448,192,18939,1,0,0:0:0:0:
64,192,19189,1,0,0:0:0:65:snare.wav
192,192,19189,1,0,0:0:0:0:
192,192,19439,1,0,0:0:0:0:
320,192,19689,1,0,0:0:0:65:snare.wav
448,192,19689,1,0,0:0:0:0:
320,192,19939,1,0,0:0:0:0:
64,192,20189,1,0,0:0:0:70:kick.wav
192,192,20189,1,0,0:0:0:65:snare.wav
448,192,20314,1,0,0:0:0:0:
320,192,20439,1,0,0:0:0:0:
64,192,21064,1,0,0:0:0:70:kick.wav
320,192,21189,1,0,0:0:0:65:snare.wav
448,192,21189,1,0,0:0:0:0:
192,192,21689,1,0,0:0:0:0:
192,192,22189,128,0,22439:0:0:0:0:
320,192,22439,128,0,22689:0:0:0:0:
64,192,22689,1,0,0:0:0:0:
448,192,23064,1,0,0:0:0:70:kick.wav
64,192,23189,1,0,0:0:0:65:snare.wav
192,192,23189,1,0,0:0:0:0:
320,192,23689,1,0,0:0:0:0:
320,192,24189,128,0,24439:0:0:0:70:kick.wav
192,192,24439,128,0,24689:0:0:0:0:
448,192,24689,1,0,0:0:0:0:
64,192,25064,1,0,0:0:0:70:kick.wav
320,192,25189,1,0,0:0:0:65:snare.wav
448,192,25189,1,0,0:0:0:0:
192,192,25689,1,0,0:0:0:0:
192,192,26189,128,0,26439:0:0:0:0:
320,192,26439,128,0,26689:0:0:0:0:
64,192,26689,1,0,0:0:0:65:snare.wav
192,192,26689,1,0,0:0:0:0:
64,192,26939,1,0,0:0:0:65:snare.wav
448,192,26939,1,0,0:0:0:0:
320,192,27189,1,0,0:0:0:65:snare.wav
448,192,27189,1,0,0:0:0:0:
320,192,27439,1,0,0:0:0:0:
64,192,27689,1,0,0:0:0:65:snare.wav
192,192,27689,1,0,0:0:0:0:
64,192,27939,1,0,0:0:0:0:
320,192,28189,1,0,0:0:0:70:kick.wav
448,192,28189,1,0,0:0:0:65:snare.wav
192,192,28439,1,0,0:0:0:0:
320,192,28689,1,0,0:0:0:0:
448,192,29064,1,0,0:0:0:70:kick.wav
64,192,29189,1,0,0:0:0:65:snare.wav
192,192,29189,1,0,0:0:0:0:
320,192,29689,1,0,0:0:0:0:
320,192,30189,128,0,30439:0:0:0:0:
192,192,30439,128,0,30689:0:0:0:0:
448,192,30689,1,0,0:0:0:0:
64,192,31064,1,0,0:0:0:70:kick.wav
320,192,31189,1,0,0:0:0:65:snare.wav
448,192,31189,1,0,0:0:0:0:
192,192,31689,1,0,0:0:0:0:
192,192,32189,128,0,32439:0:0:0:0:
64,192,32439,128,0,32689:0:0:0:0:
320,192,34189,128,0,34439:0:0:0:0:
448,192,34439,128,0,34689:0:0:0:0:
64,192,34689,1,0,0:0:0:65:snare.wav
192,192,34689,1,0,0:0:0:0:
64,192,34939,1,0,0:0:0:65:snare.wav
448,192,34939,1,0,0:0:0:0:
320,192,35189,1,0,0:0:0:65:snare.wav
448,192,35189,1,0,0:0:0:0:
320,192,35439,1,0,0:0:0:0:
64,192,35689,1,0,0:0:0:65:snare.wav
192,192,35689,1,0,0:0:0:0:
192,192,35939,1,0,0:0:0:0:
320,192,36189,1,0,0:0:0:70:kick.wav
448,192,36189,1,0,0:0:0:65:snare.wav
64,192,36314,1,0,0:0:0:0:
192,192,36439,1,0,0:0:0:0:
448,192,37064,1,0,0:0:0:70:kick.wav
64,192,37189,1,0,0:0:0:65:snare.wav
192,192,37189,1,0,0:0:0:0:
320,192,37689,1,0,0:0:0:0:
320,192,38189,128,0,38439:0:0:0:0:
192,192,38439,128,0,38689:0:0:0:0:
448,192,38689,1,0,0:0:0:0:
64,192,39064,1,0,0:0:0:70:kick.wav
320,192,39189,1,0,0:0:0:65:snare.wav
448,192,39189,1,0,0:0:0:0:
192,192,39689,1,0,0:0:0:0:
192,192,40189,128,0,40439:0:0:0:70:kick.wav
320,192,40439,128,0,40689:0:0:0:0:
64,192,40689,1,0,0:0:0:0:
448,192,41064,1,0,0:0:0:70:kick.wav
64,192,41189,1,0,0:0:0:65:snare.wav
192,192,41189,1,0,0:0:0:0:
320,192,41689,1,0,0:0:0:0:
320,192,42189,128,0,42439:0:0:0:0:
192,192,42439,128,0,42689:0:0:0:0:
320,192,42689,1,0,0:0:0:65:snare.wav
448,192,42689,1,0,0:0:0:0:
64,192,42939,1,0,0:0:0:65:snare.wav
448,192,42939,1,0,0:0:0:0:
64,192,43189,1,0,0:0:0:65:snare.wav
192,192,43189,1,0,0:0:0:0:
192,192,43439,1,0,0:0:0:0:
320,192,43689,1,0,0:0:0:65:snare.wav
448,192,43689,1,0,0:0:0:0:
448,192,43939,1,0,0:0:0:0:
64,192,44189,1,0,0:0:0:70:kick.wav
192,192,44189,1,0,0:0:0:65:snare.wav
320,192,44439,1,0,0:0:0:0:
192,192,44689,1,0,0:0:0:0:
64,192,45064,1,0,0:0:0:70:kick.wav
320,192,45189,1,0,0:0:0:65:snare.wav
448,192,45189,1,0,0:0:0:0:
192,192,45689,1,0,0:0:0:0:
192,192,46189,128,0,46439:0:0:0:0:
320,192,46439,128,0,46689:0:0:0:0:
64,192,46689,1,0,0:0:0:0:
448,192,47064,1,0,0:0:0:70:kick.wav
64,192,47189,1,0,0:0:0:65:snare.wav
192,192,47189,1,0,0:0:0:0:
320,192,47689,1,0,0:0:0:0:
320,192,48189,128,0,48439:0:0:0:70:kick.wav
192,192,48439,128,0,48689:0:0:0:0:
448,192,48689,1,0,0:0:0:0:
64,192,49064,1,0,0:0:0:70:kick.wav
320,192,49189,1,0,0:0:0:65:snare.wav
448,192,49189,1,0,0:0:0:0:
192,192,49689,1,0,0:0:0:0:
192,192,50189,128,0,50439:0:0:0:0:
320,192,50439,128,0,50689:0:0:0:0:
64,192,50689,1,0,0:0:0:65:snare.wav
192,192,50689,1,0,0:0:0:0:
64,192,50939,1,0,0:0:0:65:snare.wav
448,192,50939,1,0,0:0:0:0:
320,192,51189,1,0,0:0:0:65:snare.wav
448,192,51189,1,0,0:0:0:0:
320,192,51439,1,0,0:0:0:0:
64,192,51689,1,0,0:0:0:65:snare.wav
192,192,51689,1,0,0:0:0:0:
192,192,51939,1,0,0:0:0:0:
320,192,52189,1,0,0:0:0:70:kick.wav
448,192,52189,1,0,0:0:0:65:snare.wav
64,192,52314,1,0,0:0:0:0:
192,192,52439,1,0,0:0:0:0:
448,192,53064,1,0,0:0:0:70:kick.wav
64,192,53189,1,0,0:0:0:65:snare.wav
192,192,53189,1,0,0:0:0:0:
320,192,53689,1,0,0:0:0:0:
320,192,54189,128,0,54439:0:0:0:0:
192,192,54439,128,0,54689:0:0:0:0:
448,192,54689,1,0,0:0:0:0:
64,192,55064,1,0,0:0:0:70:kick.wav
320,192,55189,1,0,0:0:0:65:snare.wav
448,192,55189,1,0,0:0:0:0:
192,192,55689,1,0,0:0:0:0:
192,192,56189,128,0,56439:0:0:0:70:kick.wav
320,192,56439,128,0,56689:0:0:0:0:
64,192,56689,1,0,0:0:0:0:
448,192,57064,1,0,0:0:0:70:kick.wav
64,192,57189,1,0,0:0:0:65:snare.wav
192,192,57189,1,0,0:0:0:0:
320,192,57689,1,0,0:0:0:0:
320,192,58189,128,0,58439:0:0:0:0:
192,192,58439,128,0,58689:0:0:0:0:
320,192,58689,1,0,0:0:0:65:snare.wav
448,192,58689,1,0,0:0:0:0:
64,192,58939,1,0,0:0:0:65:snare.wav
448,192,58939,1,0,0:0:0:0:
64,192,59189,1,0,0:0:0:65:snare.wav
192,192,59189,1,0,0:0:0:0:
192,192,59439,1,0,0:0:0:0:
320,192,59689,1,0,0:0:0:65:snare.wav
448,192,59689,1,0,0:0:0:0:
448,192,59939,1,0,0:0:0:0:
64,192,60189,1,0,0:0:0:70:kick.wav
192,192,60189,1,0,0:0:0:65:snare.wav
320,192,60439,1,0,0:0:0:0:
192,192,60689,1,0,0:0:0:0:
64,192,61064,1,0,0:0:0:70:kick.wav
320,192,61189,1,0,0:0:0:65:snare.wav
448,192,61189,1,0,0:0:0:0:
192,192,61689,1,0,0:0:0:0:
192,192,62189,128,0,62439:0:0:0:0:
320,192,62439,128,0,62689:0:0:0:0:
64,192,62689,1,0,0:0:0:0:
448,192,63064,1,0,0:0:0:70:kick.wav
64,192,63189,1,0,0:0:0:65:snare.wav
192,192,63189,1,0,0:0:0:0:
320,192,63689,1,0,0:0:0:0:
192,192,64189,128,0,64689:0:0:0:70:kick.wav
320,192,64689,1,0,0:0:0:65:snare.wav
448,192,64689,1,0,0:0:0:0:
320,192,64939,128,0,65439:0:0:0:0:
192,192,65189,1,0,0:0:0:70:kick.wav
64,192,65689,1,0,0:0:0:65:snare.wav
192,192,65689,1,0,0:0:0:0:
320,192,66189,128,0,66439:0:0:0:70:kick.wav
192,192,66439,128,0,66689:0:0:0:0:
320,192,66689,1,0,0:0:0:65:snare.wav
448,192,66689,1,0,0:0:0:0:
64,192,66939,128,0,67439:0:0:0:0:
448,192,67189,1,0,0:0:0:70:kick.wav
320,192,67439,1,0,0:0:0:0:
64,192,67689,1,0,0:0:0:65:snare.wav
192,192,67689,1,0,0:0:0:0:
448,192,67939,1,0,0:0:0:0:
64,192,68189,128,0,68439:0:0:0:70:kick.wav
192,192,68439,128,0,68689:0:0:0:0:
320,192,68689,1,0,0:0:0:65:snare.wav
448,192,68689,1,0,0:0:0:0:
64,192,68939,128,0,69439:0:0:0:0:
320,192,69189,1,0,0:0:0:70:kick.wav
64,192,69689,1,0,0:0:0:65:snare.wav
192,192,69689,128,0,69939:0:0:0:0:
320,192,69939,128,0,70189:0:0:0:0:
448,192,70189,128,0,70439:0:0:0:70:kick.wav
64,192,70439,128,0,70689:0:0:0:0:
320,192,70689,128,0,70939:0:0:0:65:snare.wav
448,192,70689,1,0,0:0:0:0:
192,192,70939,128,0,71439:0:0:0:0:
320,192,71189,1,0,0:0:0:70:kick.wav
64,192,71689,1,0,0:0:0:65:snare.wav
192,192,71689,1,0,0:0:0:0:
192,192,72189,128,0,72689:0:0:0:70:kick.wav
320,192,72689,1,0,0:0:0:65:snare.wav
448,192,72689,1,0,0:0:0:0:
320,192,72939,128,0,73439:0:0:0:70:hat.wav
192,192,73189,1,0,0:0:0:70:kick.wav
64,192,73689,1,0,0:0:0:65:snare.wav
192,192,73689,1,0,0:0:0:0:
64,192,73939,128,0,74064:0:0:0:50:oof.wav
448,192,73939,128,0,74064:0:0:0:0:
320,192,74189,128,0,74439:0:0:0:70:kick.wav
192,192,74439,128,0,74689:0:0:0:70:hat.wav
320,192,74689,1,0,0:0:0:65:snare.wav
448,192,74689,1,0,0:0:0:0:
64,192,74939,128,0,75439:0:0:0:70:hat.wav
448,192,75189,1,0,0:0:0:70:kick.wav
320,192,75439,1,0,0:0:0:70:hat.wav
64,192,75689,1,0,0:0:0:65:snare.wav
192,192,75689,1,0,0:0:0:0:
448,192,75939,128,0,76189:0:0:0:70:hat.wav
64,192,76189,128,0,76439:0:0:0:70:kick.wav
192,192,76439,128,0,76689:0:0:0:70:hat.wav
320,192,76689,128,0,76939:0:0:0:65:snare.wav
448,192,76689,1,0,0:0:0:0:
64,192,76939,128,0,77439:0:0:0:70:hat.wav
320,192,77189,1,0,0:0:0:70:kick.wav
64,192,77689,1,0,0:0:0:65:snare.wav
192,192,77689,128,0,77939:0:0:0:0:
320,192,77939,128,0,78189:0:0:0:70:hat.wav
448,192,78189,128,0,78439:0:0:0:70:kick.wav
64,192,78439,128,0,78689:0:0:0:70:hat.wav
320,192,78689,128,0,78939:0:0:0:65:snare.wav
448,192,78689,1,0,0:0:0:0:
192,192,78939,128,0,79439:0:0:0:70:hat.wav
320,192,79189,1,0,0:0:0:70:kick.wav
64,192,79689,1,0,0:0:0:65:snare.wav
192,192,79689,1,0,0:0:0:0:
448,192,80189,1,0,0:0:0:70:kick.wav
192,192,80439,128,0,80689:0:0:0:70:hat.wav
320,192,80689,128,0,80939:0:0:0:65:snare.wav
448,192,80689,1,0,0:0:0:0:
64,192,80939,128,0,81439:0:0:0:70:hat.wav
320,192,81189,1,0,0:0:0:70:kick.wav
448,192,81439,128,0,81689:0:0:0:70:hat.wav
64,192,81689,1,0,0:0:0:65:snare.wav
192,192,81689,128,0,81939:0:0:0:0:
320,192,81939,128,0,82189:0:0:0:70:hat.wav
192,192,82189,1,0,0:0:0:70:kick.wav
320,192,82689,1,0,0:0:0:65:snare.wav
448,192,82689,1,0,0:0:0:0:
64,192,82939,128,0,83189:0:0:0:70:hat.wav
320,192,83189,128,0,83689:0:0:0:70:kick.wav
64,192,83689,1,0,0:0:0:65:snare.wav
192,192,83689,1,0,0:0:0:0:
448,192,83939,128,0,84189:0:0:0:70:hat.wav
64,192,84189,128,0,84689:0:0:0:70:kick.wav
320,192,84689,1,0,0:0:0:65:snare.wav
448,192,84689,1,0,0:0:0:0:
192,192,84939,128,0,85189:0:0:0:70:hat.wav
448,192,85189,128,0,85439:0:0:0:70:kick.wav
320,192,85439,128,0,85689:0:0:0:70:hat.wav
64,192,85689,1,0,0:0:0:65:snare.wav
192,192,85689,1,0,0:0:0:0:
192,192,86189,128,0,86689:0:0:0:70:kick.wav
320,192,86689,1,0,0:0:0:65:snare.wav
448,192,86689,1,0,0:0:0:0:
64,192,86939,128,0,87314:0:0:0:70:hat.wav
448,192,87314,128,0,87689:0:0:0:0:
64,192,87689,1,0,0:0:0:65:snare.wav
192,192,87689,1,0,0:0:0:0:
320,192,88189,128,0,88689:0:0:0:20:tick.wav
192,192,88689,128,0,89189:0:0:0:20:tick.wav
64,192,89189,128,0,89689:0:0:0:20:tick.wav
320,192,89439,1,0,0:0:0:0:
448,192,89689,128,0,90189:0:0:0:20:tick.wav
192,192,89939,128,0,90189:0:0:0:0:
320,192,91689,128,0,91939:0:0:0:20:tick.wav
64,192,92189,1,0,0:0:0:0:
320,192,92439,1,0,0:0:0:0:
192,192,92689,1,0,0:0:0:0:
448,192,92939,1,0,0:0:0:0:
64,192,93189,128,0,93439:0:0:0:0:
448,192,93689,128,0,94689:0:0:0:0:
64,192,94189,128,0,94689:0:0:0:0:
192,192,96189,128,0,96689:0:0:0:70:kick.wav
64,192,96439,1,0,0:0:0:70:hat.wav
320,192,96689,1,0,0:0:0:65:snare.wav
448,192,96689,1,0,0:0:0:0:
320,192,96939,128,0,97439:0:0:0:70:hat.wav
192,192,97189,1,0,0:0:0:70:kick.wav
448,192,97439,1,0,0:0:0:70:hat.wav
64,192,97689,128,0,97814:0:0:0:65:snare.wav
192,192,97689,128,0,97814:0:0:0:50:oof.wav
192,192,98189,128,0,98689:0:0:0:70:kick.wav
64,192,98439,1,0,0:0:0:70:hat.wav
320,192,98689,1,0,0:0:0:65:snare.wav
448,192,98689,1,0,0:0:0:0:
320,192,98939,128,0,99439:0:0:0:70:hat.wav
192,192,99189,1,0,0:0:0:70:kick.wav
448,192,99439,1,0,0:0:0:70:hat.wav
64,192,99689,1,0,0:0:0:65:snare.wav
192,192,99689,1,0,0:0:0:0:
192,192,100189,128,0,100689:0:0:0:70:kick.wav
64,192,100439,1,0,0:0:0:70:hat.wav
320,192,100689,1,0,0:0:0:65:snare.wav
448,192,100689,1,0,0:0:0:0:
320,192,100939,128,0,101439:0:0:0:70:hat.wav
192,192,101189,1,0,0:0:0:70:kick.wav
448,192,101439,1,0,0:0:0:70:hat.wav
64,192,101689,1,0,0:0:0:65:snare.wav
192,192,101689,1,0,0:0:0:0:
192,192,102189,128,0,102689:0:0:0:70:kick.wav
64,192,102439,1,0,0:0:0:70:hat.wav
320,192,102689,1,0,0:0:0:65:snare.wav
448,192,102689,1,0,0:0:0:0:
320,192,102939,128,0,103439:0:0:0:70:hat.wav
192,192,103189,1,0,0:0:0:70:kick.wav
448,192,103439,1,0,0:0:0:70:hat.wav
64,192,103689,1,0,0:0:0:65:snare.wav
192,192,103689,1,0,0:0:0:0:
192,192,104189,128,0,104689:0:0:0:70:kick.wav
64,192,104439,1,0,0:0:0:70:hat.wav
320,192,104689,1,0,0:0:0:65:snare.wav
448,192,104689,1,0,0:0:0:0:
320,192,104939,128,0,105439:0:0:0:70:hat.wav
192,192,105189,1,0,0:0:0:70:kick.wav
448,192,105439,1,0,0:0:0:70:hat.wav
64,192,105689,128,0,105814:0:0:0:65:snare.wav
192,192,105689,128,0,105814:0:0:0:50:oof.wav
192,192,106189,128,0,106689:0:0:0:70:kick.wav
64,192,106439,1,0,0:0:0:70:hat.wav
320,192,106689,1,0,0:0:0:65:snare.wav
448,192,106689,1,0,0:0:0:0:
320,192,106939,128,0,107439:0:0:0:70:hat.wav
192,192,107189,1,0,0:0:0:70:kick.wav
448,192,107439,1,0,0:0:0:70:hat.wav
64,192,107689,1,0,0:0:0:65:snare.wav
192,192,107689,1,0,0:0:0:0:
192,192,108189,128,0,108689:0:0:0:70:kick.wav
64,192,108439,1,0,0:0:0:70:hat.wav
320,192,108689,1,0,0:0:0:65:snare.wav
448,192,108689,1,0,0:0:0:0:
320,192,108939,128,0,109439:0:0:0:70:hat.wav
192,192,109189,1,0,0:0:0:70:kick.wav
448,192,109439,1,0,0:0:0:70:hat.wav
64,192,109689,1,0,0:0:0:65:snare.wav
192,192,109689,1,0,0:0:0:0:
192,192,110189,128,0,110689:0:0:0:70:kick.wav
64,192,110439,1,0,0:0:0:70:hat.wav
320,192,110689,1,0,0:0:0:65:snare.wav
448,192,110689,1,0,0:0:0:0:
320,192,110939,128,0,111439:0:0:0:70:hat.wav
192,192,111189,1,0,0:0:0:70:kick.wav
448,192,111439,1,0,0:0:0:70:hat.wav
64,192,111689,1,0,0:0:0:65:snare.wav
192,192,111689,1,0,0:0:0:0:
320,192,111939,1,0,0:0:0:70:hat.wav
192,192,112064,1,0,0:0:0:0:
