osu file format v14

[General]
AudioFilename: audio.mp3
AudioLeadIn: 0
PreviewTime: 80181
Countdown: 0
SampleSet: Soft
StackLeniency: 0.7
Mode: 2
LetterboxInBreaks: 0
WidescreenStoryboard: 1

[Editor]
Bookmarks: 181,16181,32181,48181,64181,80181,88181,96181,112181
DistanceSpacing: 1.1
BeatDivisor: 4
GridSize: 4
TimelineZoom: 1.5

[Metadata]
Title:trans rights
TitleUnicode:trans rights
Artist:in love with a ghost
ArtistUnicode:in love with a ghost
Creator:JBHyperion
Version:salad
Source:
Tags:Playful Spirits ilwag electronic instrumental lo-fi chillwave ambient chillout electronica transgender pride LGBT LGBTQ fa featured artist mappers' guild mpg
BeatmapID:3567712
BeatmapSetID:1744475

[Difficulty]
HPDrainRate:3
CircleSize:3
OverallDifficulty:5.5
ApproachRate:5.5
SliderMultiplier:1.8
SliderTickRate:2

[Events]
//Background and Video events
0,0,"trans-1792756.jpg",0,0
//Break Periods
2,88181,92556
//Storyboard Layer 0 (Background)
//Storyboard Layer 1 (Fail)
//Storyboard Layer 2 (Pass)
//Storyboard Layer 3 (Foreground)
//Storyboard Layer 4 (Overlay)
//Storyboard Sound Samples

[TimingPoints]
181,500,4,2,1,40,1,0
16681,-100,4,3,0,40,0,0
16931,-100,4,2,1,40,0,0
17931,-100,4,3,0,40,0,0
18181,-100,4,2,1,40,0,0
19931,-100,4,3,0,40,0,0
20181,-100,4,2,1,40,0,0
20681,-100,4,3,0,40,0,0
20931,-100,4,2,1,40,0,0
22681,-100,4,3,0,40,0,0
22931,-100,4,2,1,40,0,0
24681,-100,4,3,0,40,0,0
24931,-100,4,2,1,40,0,0
27556,-100,4,2,2,40,0,0
27681,-100,4,2,1,40,0,0
27931,-100,4,3,0,40,0,0
28181,-100,4,2,1,40,0,0
28681,-100,4,3,0,40,0,0
28931,-100,4,2,1,40,0,0
30681,-100,4,3,0,40,0,0
30931,-100,4,2,1,40,0,0
31931,-100,4,3,0,40,0,0
32181,-100,4,2,2,30,0,0
34556,-100,4,2,1,40,0,0
35556,-100,4,2,2,40,0,0
35681,-100,4,2,1,40,0,0
36681,-100,4,3,0,40,0,0
36931,-100,4,2,1,40,0,0
38681,-100,4,3,0,40,0,0
38931,-100,4,2,1,40,0,0
39931,-100,4,3,0,40,0,0
40181,-100,4,2,1,40,0,0
40681,-100,4,3,0,40,0,0
40931,-100,4,2,1,40,0,0
41931,-100,4,3,0,40,0,0
42181,-100,4,2,1,40,0,0
43556,-100,4,2,2,40,0,0
43681,-100,4,2,1,40,0,0
43931,-100,4,3,0,40,0,0
44181,-100,4,2,1,40,0,0
44681,-100,4,3,0,40,0,0
44931,-100,4,2,1,40,0,0
46681,-100,4,3,0,40,0,0
46931,-100,4,2,1,40,0,0
47931,-100,4,3,0,40,0,0
48181,-100,4,2,1,40,0,0
48681,-100,4,3,0,40,0,0
48931,-100,4,2,1,40,0,0
51556,-100,4,2,2,40,0,0
51681,-100,4,2,1,40,0,0
52681,-100,4,3,0,40,0,0
52931,-100,4,2,1,40,0,0
54681,-100,4,3,0,40,0,0
54931,-100,4,2,1,40,0,0
55931,-100,4,3,0,40,0,0
56181,-100,4,2,1,40,0,0
56681,-100,4,3,0,40,0,0
56931,-100,4,2,1,40,0,0
58056,-100,4,3,0,40,0,0
58306,-100,4,2,1,40,0,0
59556,-100,4,2,2,40,0,0
59681,-100,4,2,1,40,0,0
59931,-100,4,3,0,40,0,0
60056,-100,4,2,1,40,0,0
60181,-83.3333333333333,4,2,1,40,0,0
60681,-100,4,3,0,40,0,0
60931,-100,4,2,1,40,0,0
62681,-100,4,3,0,40,0,0
62931,-100,4,2,1,40,0,0
63931,-100,4,3,0,40,0,0
64181,-100,4,2,1,50,0,0
66181,-100,4,2,1,50,0,0
66556,-100,4,2,1,50,0,0
67431,-100,4,3,0,50,0,0
67556,-100,4,2,2,50,0,0
67681,-100,4,2,1,50,0,0
68806,-100,4,3,0,50,0,0
68931,-100,4,2,1,50,0,0
71556,-100,4,2,2,50,0,0
71681,-100,4,2,1,50,0,0
72806,-100,4,3,0,50,0,0
73056,-100,4,2,1,50,0,0
73931,-100,4,2,77,50,0,0
74181,-100,4,2,1,50,0,0
74431,-100,4,3,0,50,0,0
74681,-100,4,2,1,50,0,0
75556,-100,4,2,2,50,0,0
75681,-100,4,2,1,50,0,0
76806,-100,4,3,0,50,0,0
77056,-100,4,2,1,50,0,0
77806,-100,4,3,0,50,0,0
78056,-100,4,2,1,50,0,0
78181,-100,4,2,1,50,0,0
78431,-100,4,2,1,50,0,0
78806,-100,4,3,0,50,0,0
78931,-100,4,2,1,50,0,0
79556,-100,4,2,2,50,0,0
79681,-100,4,2,1,50,0,0
80806,-100,4,3,0,50,0,0
80931,-83.3333333333333,4,2,1,40,0,0
81056,-100,4,2,1,50,0,0
81431,-100,4,2,1,40,0,0
81806,-100,4,3,0,50,0,0
81931,-100,4,3,1,50,0,0
82056,-100,4,3,0,50,0,0
82181,-100,4,2,1,50,0,0
83181,-100,4,3,0,50,0,0
83431,-100,4,2,1,50,0,0
83556,-100,4,2,2,50,0,0
83681,-100,4,2,1,50,0,0
83931,-100,4,2,1,50,0,0
84806,-100,4,3,0,50,0,0
84931,-100,4,2,1,50,0,0
85181,-100,4,2,1,50,0,0
85431,-100,4,2,1,50,0,0
87431,-100,4,3,0,50,0,0
87556,-100,4,2,2,50,0,0
87681,-100,4,2,1,50,0,0
87931,-100,4,2,1,50,0,0
88181,-100,4,2,2,30,0,0
93681,-100,4,2,2,40,0,0
94056,-100,4,2,2,30,0,0
94181,-100,4,2,2,30,0,0
94431,-100,4,2,2,25,0,0
94931,-100,4,2,2,20,0,0
95431,-100,4,2,2,15,0,0
95931,-100,4,2,1,5,0,0
96181,-100,4,2,1,40,0,0
96556,-100,4,3,0,40,0,0
96681,-100,4,2,1,40,0,0
96931,-100,4,3,0,40,0,0
97181,-100,4,2,1,40,0,0
97431,-100,4,2,1,40,0,0
98556,-100,4,3,0,40,0,0
98681,-100,4,2,1,40,0,0
99681,-100,4,2,2,40,0,0
99931,-100,4,2,1,40,0,0
100806,-100,4,3,0,40,0,0
100931,-100,4,2,1,40,0,0
101181,-100,4,2,1,40,0,0
101431,-100,4,2,1,40,0,0
101931,-100,4,3,0,40,0,0
102181,-100,4,2,1,40,0,0
102806,-100,4,3,0,40,0,0
102931,-100,4,2,1,40,0,0
103556,-100,4,2,2,40,0,0
103681,-100,4,2,1,40,0,0
104181,-100,4,2,1,50,0,0
104806,-100,4,3,0,50,0,0
104931,-100,4,2,1,50,0,0
105181,-100,4,2,1,50,0,0
105431,-100,4,2,1,50,0,0
106181,-100,4,2,1,50,0,0
106431,-100,4,3,1,50,0,0
106681,-100,4,2,1,50,0,0
106931,-100,4,2,2,50,0,0
107056,-100,4,2,1,50,0,0
107431,-100,4,3,0,50,0,0
107556,-100,4,2,2,50,0,0
107681,-100,4,2,1,50,0,0
107931,-100,4,2,1,50,0,0
108806,-100,4,3,0,50,0,0
108931,-100,4,2,1,50,0,0
109181,-100,4,2,1,50,0,0
109431,-100,4,2,1,50,0,0
109931,-100,4,3,0,50,0,0
110181,-100,4,2,1,50,0,0
110806,-100,4,3,0,50,0,0
110931,-100,4,2,1,50,0,0
111556,-100,4,3,0,50,0,0
111681,-100,4,2,2,50,0,0
111931,-100,4,3,1,50,0,0

[Colours]
Combo1 : 247,168,184
Combo2 : 85,205,252
Combo3 : 220,220,220

[HitObjects]
252,192,16181,6,0,L|248:128,1,45,2|4,0:0|0:0,0:0:0:0:
356,192,16556,1,0,0:0:0:0:
404,192,16681,2,0,L|500:192,1,90
280,288,17181,1,8,0:0:0:0:
228,288,17431,1,0,0:0:0:0:
176,288,17681,1,0,0:0:0:0:
376,288,18181,6,0,L|380:184,1,90,0|0,0:0|0:0,0:0:0:0:
170,192,18681,2,0,L|78:192,2,90,8|8|8,0:0|0:0|0:0,0:0:0:0:
268,192,19431,1,0,0:0:0:0:
214,192,19556,1,2,0:0:0:0:
160,192,19681,2,0,L|156:92,1,90,8|0,0:0|0:0,0:0:0:0:
368,32,20181,6,0,L|460:32,1,90,8|0,0:0|0:0,0:0:0:0:
360,32,20681,1,0,0:0:0:0:
256,144,21056,1,2,0:0:0:0:
208,144,21181,2,0,L|112:144,1,90,8|0,0:0|0:0,0:0:0:0:
332,144,21681,1,4,0:0:0:0:
332,144,22181,6,0,L|224:144,1,90
144,144,22681,1,0,0:0:0:0:
248,192,23056,1,2,0:0:0:0:
196,192,23181,1,8,0:0:0:0:
304,192,23431,1,0,0:0:0:0:
88,192,23681,2,0,L|84:296,1,90,4|0,0:0|0:0,0:0:0:0:
300,80,24181,6,0,L|356:80,1,45,2|4,0:0|0:0,0:0:0:0:
345,80,24681,2,0,L|248:80,1,90,0|0,0:0|0:0,0:0:0:0:
40,80,25181,1,8,0:0:0:0:
130,80,25431,1,0,0:0:0:0:
236,80,25681,1,2,0:0:0:0:
92,80,26181,6,0,L|88:176,1,90,0|0,0:0|0:0,0:0:0:0:
304,192,26681,2,0,L|208:192,2,90,8|8|8,0:0|0:0|0:0,0:0:0:0:
412,192,27431,1,0,0:0:0:0:
358,192,27556,1,2,0:0:0:0:
304,192,27681,2,0,L|300:88,1,90,8|0,0:0|0:0,0:0:0:0:
84,32,28181,6,0,P|60:76|84:108,1,90,2|0,0:0|0:0,0:0:0:0:
180,192,28681,1,0,0:0:0:0:
332,192,29056,1,0,0:0:0:0:
280,192,29181,2,0,L|188:192,1,90,8|0,0:0|0:0,0:0:0:0:
408,192,29681,1,4,0:0:0:0:
408,192,30181,6,0,L|304:192,1,90,0|0,0:0|0:0,0:0:0:0:
208,192,30681,1,0,0:0:0:0:
104,192,31056,1,2,0:0:0:0:
156,192,31181,2,0,L|252:192,1,90,8|0,0:0|0:0,0:0:0:0:
32,192,31681,1,4,0:0:0:0:
140,192,31931,2,0,L|144:244,1,45,0|0,0:0|0:0,0:0:0:0:
80,192,32181,6,0,P|75:258|272:224,1,360,2|2,0:0|0:0,0:0:0:0:
436,192,34181,6,0,L|440:92,1,90,2|0,0:0|0:0,0:0:0:0:
220,48,34681,2,0,L|124:48,2,90,8|8|8,0:0|0:0|0:0,0:0:0:0:
328,48,35431,1,0,0:0:0:0:
268,48,35556,1,2,0:0:0:0:
208,48,35681,2,0,L|304:48,1,90,8|0,0:0|0:0,0:0:0:0:
88,48,36181,6,0,L|84:152,1,90,8|0,0:0|0:0,0:0:0:0:
192,192,36681,1,0,0:0:0:0:
237,192,36806,1,0,0:0:0:0:
264,192,36931,1,0,0:0:0:0:
237,192,37056,1,2,0:0:0:0:
192,192,37181,2,0,L|96:192,1,90,8|0,0:0|0:0,0:0:0:0:
320,192,37681,1,4,0:0:0:0:
320,192,38181,6,0,L|432:192,1,90,0|0,0:0|0:0,0:0:0:0:
304,192,38681,2,0,L|260:192,1,45,0|0,0:0|0:0,0:0:0:0:
152,192,39056,1,2,0:0:0:0:
208,192,39181,2,0,L|304:192,1,90,8|2,0:0|0:0,0:0:0:0:
80,192,39681,2,0,L|76:292,1,90,4|0,0:0|0:0,0:0:0:0:
296,340,40181,6,0,L|344:340,1,45,2|4,0:0|0:0,0:0:0:0:
341,340,40556,1,0,0:0:0:0:
296,340,40681,2,0,L|199:340,1,90,0|0,0:0|0:0,0:0:0:0:
424,192,41181,1,8,0:0:0:0:
324,192,41431,1,0,0:0:0:0:
224,192,41681,1,2,0:0:0:0:
224,192,42056,1,0,0:0:0:0:
276,192,42181,6,0,L|376:192,1,90,0|0,0:0|0:0,0:0:0:0:
148,80,42681,2,0,L|248:80,2,90,8|8|8,0:0|0:0|0:0,0:0:0:0:
256,80,43431,1,0,0:0:0:0:
308,80,43556,1,2,0:0:0:0:
360,80,43681,1,8,0:0:0:0:
236,80,43931,1,0,0:0:0:0:
464,80,44181,6,0,L|468:172,1,90,8|0,0:0|0:0,0:0:0:0:
356,252,44681,2,0,L|352:200,2,45,0|0|0,0:0|0:0|0:0,0:0:0:0:
140,312,45181,2,0,L|44:312,1,90,8|0,0:0|0:0,0:0:0:0:
268,192,45681,1,4,0:0:0:0:
268,192,46181,6,0,L|176:192,1,90,0|0,0:0|0:0,0:0:0:0:
72,192,46681,2,0,L|76:144,1,45,0|0,0:0|0:0,0:0:0:0:
184,192,47056,1,2,0:0:0:0:
236,192,47181,2,0,L|336:192,1,90,8|2,0:0|0:0,0:0:0:0:
108,192,47681,1,4,0:0:0:0:
108,192,47931,1,0,0:0:0:0:
324,192,48181,6,0,L|328:136,1,45,2|4,0:0|0:0,0:0:0:0:
220,148,48556,1,0,0:0:0:0:
204,148,48681,2,0,L|200:96,1,45
92,48,49056,1,2,0:0:0:0:
156,48,49181,2,0,L|252:48,2,90,8|0|2,0:0|0:0|0:0,0:0:0:0:
92,48,50056,1,0,0:0:0:0:
156,48,50181,6,0,L|248:48,1,90,0|0,0:0|0:0,0:0:0:0:
464,128,50681,1,8,0:0:0:0:
356,128,50931,1,8,0:0:0:0:
472,128,51181,1,8,0:0:0:0:
260,192,51431,1,0,0:0:0:0:
200,192,51556,1,2,0:0:0:0:
140,192,51681,2,0,L|136:300,1,90,8|0,0:0|0:0,0:0:0:0:
352,336,52181,6,0,L|448:336,1,90,8|0,0:0|0:0,0:0:0:0:
324,336,52681,2,0,L|320:280,1,45,0|0,0:0|0:0,0:0:0:0:
212,336,53056,1,2,0:0:0:0:
272,336,53181,2,0,L|276:240,1,90,8|0,0:0|0:0,0:0:0:0:
56,192,53681,1,4,0:0:0:0:
56,192,54181,6,0,L|148:192,1,90,0|0,0:0|0:0,0:0:0:0:
264,192,54681,2,0,L|268:144,1,45,0|0,0:0|0:0,0:0:0:0:
160,192,55056,1,2,0:0:0:0:
220,192,55181,2,0,L|316:192,1,90,8|2,0:0|0:0,0:0:0:0:
92,344,55681,2,0,L|88:248,1,90,4|0,0:0|0:0,0:0:0:0:
308,324,56181,6,0,L|368:324,1,45,2|4,0:0|0:0,0:0:0:0:
452,324,56556,1,0,0:0:0:0:
392,324,56681,1,0,0:0:0:0:
332,324,56806,1,0,0:0:0:0:
224,324,57056,1,2,0:0:0:0:
276,324,57181,2,0,L|376:324,2,90,8|0|2,0:0|0:0|0:0,0:0:0:0:
412,324,58056,1,0,0:0:0:0:
356,324,58181,6,0,L|264:324,1,90,0|0,0:0|0:0,0:0:0:0:
48,280,58681,1,8,0:0:0:0:
156,280,58931,1,8,0:0:0:0:
40,280,59181,1,8,0:0:0:0:
252,216,59431,1,0,0:0:0:0:
300,216,59556,1,2,0:0:0:0:
252,216,59681,2,0,L|160:216,1,90,8|0,0:0|0:0,0:0:0:0:
420,216,60181,6,0,L|424:104,1,107.999996704102,8|0,0:0|0:0,0:0:0:0:
304,64,60681,1,0,0:0:0:0:
356,64,60806,1,0,0:0:0:0:
448,64,61056,1,2,0:0:0:0:
388,64,61181,2,0,L|384:164,1,90,8|0,0:0|0:0,0:0:0:0:
168,184,61681,1,4,0:0:0:0:
168,184,62181,6,0,L|264:184,1,90,0|0,0:0|0:0,0:0:0:0:
364,184,62681,2,0,L|300:184,1,45,0|0,0:0|0:0,0:0:0:0:
212,184,63056,1,2,0:0:0:0:
276,184,63181,1,8,0:0:0:0:
160,184,63431,1,2,0:0:0:0:
376,276,63681,2,0,B|424:276|424:276|372:276,1,90,4|0,0:0|0:0,0:0:0:0:
168,336,64181,6,0,P|116:296|164:200,1,180,2|8,0:0|0:0,0:0:0:0:
207,196,64806,1,0,0:0:0:0:
260,192,64931,1,0,0:0:0:0:
144,204,65181,2,0,L|140:104,1,90,2|0,0:0|0:0,0:0:0:0:
360,64,65681,1,8,0:0:0:0:
200,20,66181,6,0,L|196:116,1,90,2|0,0:0|0:0,0:0:0:0:
412,184,66681,2,0,L|512:184,1,90,8|0,0:0|0:0,0:0:0:0:
388,320,67181,2,0,L|380:272,2,45,2|0|0,0:0|0:0|0:0,0:0:0:0:
172,260,67681,2,0,L|268:260,1,90,8|2,0:0|0:0,0:0:0:0:
48,260,68181,6,0,L|44:156,1,90,2|0,0:0|0:0,0:0:0:0:
256,84,68681,2,0,L|304:84,2,45,8|0|0,0:0|0:0|0:0,0:0:0:0:
148,84,69181,2,0,L|240:84,1,90,2|0,0:0|0:0,0:0:0:0:
456,192,69681,2,0,L|364:192,1,90,8|0,0:0|0:0,0:0:0:0:
144,244,70181,6,0,B|96:243|96:243|148:244,1,90,2|0,0:0|0:0,0:0:0:0:
360,304,70681,2,0,L|364:256,1,45,8|0,0:0|0:0,0:0:0:0:
308,192,70931,2,0,L|112:192,1,180,0|0,0:0|0:0,0:0:0:0:
344,92,71681,1,8,0:0:0:0:
228,92,71931,1,4,0:0:0:0:
444,40,72181,6,0,P|472:84|420:192,1,180,2|8,0:0|0:0,0:0:0:0:
364,192,72806,1,0,0:0:0:0:
304,192,72931,1,0,0:0:0:0:
188,192,73181,2,0,L|288:192,1,90,2|0,0:0|0:0,0:0:0:0:
60,192,73681,2,0,L|56:284,1,90,8|4,0:0|0:0,0:0:0:0:
272,340,74181,6,0,L|368:340,2,90,2|0|8,0:0|0:0|0:0,0:0:0:0:
220,340,74806,1,4,0:0:0:0:
168,340,74931,1,0,0:0:0:0:
60,260,75181,2,0,L|56:200,2,45,2|0|8,0:0|0:0|0:0,0:0:0:0:
276,228,75681,2,0,L|368:228,1,90,8|0,0:0|0:0,0:0:0:0:
147,215,76181,6,0,L|55:215,1,90,2|0,0:0|0:0,0:0:0:0:
168,128,76681,1,8,0:0:0:0:
228,128,76806,1,0,0:0:0:0:
288,128,76931,2,0,P|344:72|288:8,1,180,0|0,0:0|0:0,0:0:0:0:
72,20,77681,2,0,L|164:20,1,90,4|0,0:0|0:0,0:0:0:0:
380,68,78181,5,2,0:0:0:0:
468,116,78431,1,0,0:0:0:0:
468,216,78681,1,8,0:0:0:0:
424,236,78806,1,0,0:0:0:0:
380,260,78931,1,0,0:0:0:0:
272,260,79181,2,0,L|368:260,1,90,2|0,0:0|0:0,0:0:0:0:
148,260,79681,2,0,L|144:360,1,90,12|0,0:0|0:0,0:0:0:0:
360,260,80181,6,0,L|456:260,2,90,2|0|8,0:0|0:0|0:0,0:0:0:0:
308,260,80806,1,0,0:0:0:0:
244,260,80931,2,0,P|184:224|252:128,1,215.999993408203,0|2,0:0|0:0,0:0:0:0:
356,128,81681,2,0,L|360:28,1,90,8|0,0:0|0:0,0:0:0:0:
144,24,82181,6,0,P|76:44|32:144,1,180,2|8,0:0|0:0,0:0:0:0:
124,192,82931,1,0,0:0:0:0:
232,192,83181,1,0,0:0:0:0:
116,192,83431,1,8,0:0:0:0:
328,192,83681,2,0,L|332:300,1,90,8|0,0:0|0:0,0:0:0:0:
116,344,84181,5,2,0:0:0:0:
72,312,84306,2,0,P|56:284|112:212,1,135,0|8,0:0|0:0,0:0:0:0:
168,200,84806,1,0,0:0:0:0:
224,192,84931,1,0,0:0:0:0:
440,192,85181,2,0,L|444:92,1,90,2|0,0:0|0:0,0:0:0:0:
216,64,85681,1,4,0:0:0:0:
216,64,86181,6,0,L|296:64,1,45,2|0,0:0|0:0,0:0:0:0:
376,64,86556,1,0,0:0:0:0:
316,64,86681,2,0,L|224:64,1,90,8|0,0:0|0:0,0:0:0:0:
444,64,87181,2,0,L|448:132,1,45,2|0,0:0|0:0,0:0:0:0:
220,192,87556,1,2,0:0:0:0:
156,192,87681,2,0,L|152:288,1,90,8|0,0:0|0:0,0:0:0:0:
256,192,93681,5,2,0:0:0:0:
256,192,94181,12,0,95931,0:0:0:0:
344,192,96181,6,0,P|344:120|256:64,1,180,2|8,0:0|0:0,0:0:0:0:
196,64,96806,1,2,0:0:0:0:
260,64,96931,1,0,0:0:0:0:
380,64,97181,2,0,L|384:172,1,90,2|0,0:0|0:0,0:0:0:0:
148,192,97681,1,12,0:0:0:0:
148,192,98181,6,0,L|248:192,1,90,2|0,0:0|0:0,0:0:0:0:
472,192,98681,2,0,L|476:256,1,45,8|4,0:0|0:0,0:0:0:0:
412,296,98931,1,2,0:0:0:0:
296,296,99181,1,2,0:0:0:0:
420,296,99431,1,0,0:0:0:0:
184,296,99681,2,0,L|84:296,1,90,2|0,0:0|0:0,0:0:0:0:
328,296,100181,6,0,P|384:276|424:168,1,180,2|8,0:0|0:0,0:0:0:0:
372,140,100806,1,0,0:0:0:0:
320,112,100931,1,0,0:0:0:0:
204,112,101181,2,0,L|312:112,1,90,2|0,0:0|0:0,0:0:0:0:
64,112,101681,1,4,0:0:0:0:
62,67,101806,1,0,0:0:0:0:
60,22,101931,1,0,0:0:0:0:
292,28,102181,6,0,P|356:56|356:168,1,180,2|8,0:0|0:0,0:0:0:0:
316,192,102806,1,0,0:0:0:0:
256,192,102931,1,0,0:0:0:0:
140,192,103181,2,0,L|240:192,1,90,2|0,0:0|0:0,0:0:0:0:
460,192,103681,2,0,L|464:292,1,90,4|0,0:0|0:0,0:0:0:0:
232,352,104181,6,0,P|180:284|232:220,1,180,2|8,0:0|0:0,0:0:0:0:
292,216,104806,1,0,0:0:0:0:
230,220,104931,1,0,0:0:0:0:
112,220,105181,2,0,L|108:120,1,90,2|0,0:0|0:0,0:0:0:0:
336,96,105681,1,4,0:0:0:0:
336,96,106181,6,0,L|432:96,1,90,2|0,0:0|0:0,0:0:0:0:
200,96,106681,2,0,L|196:160,1,45,8|4,0:0|0:0,0:0:0:0:
260,200,106931,1,2,0:0:0:0:
376,200,107181,1,0,0:0:0:0:
252,200,107431,1,0,0:0:0:0:
28,96,107681,2,0,L|24:192,1,90,8|0,0:0|0:0,0:0:0:0:
256,328,108181,6,0,L|72:328,1,180,2|8,0:0|0:0,0:0:0:0:
76,328,108806,1,0,0:0:0:0:
76,328,108931,1,0,0:0:0:0:
192,332,109181,2,0,L|288:332,1,90,2|8,0:0|0:0,0:0:0:0:
48,328,109681,2,0,L|32:284,2,45,4|0|0,0:0|0:0|0:0,0:0:0:0:
272,332,110181,6,0,P|336:320|384:220,1,180,2|8,0:0|0:0,0:0:0:0:
384,224,110806,1,0,0:0:0:0:
384,224,110931,1,0,0:0:0:0:
256,192,111181,2,0,L|352:192,1,90,2|0,0:0|0:0,0:0:0:0:
116,192,111681,2,0,L|112:100,1,90,2|0,0:0|0:0,0:0:0:0:
