osu file format v14

[General]
AudioFilename: audio.mp3
AudioLeadIn: 0
PreviewTime: 80181
Countdown: 0
SampleSet: Soft
StackLeniency: 0.7
Mode: 2
LetterboxInBreaks: 0
WidescreenStoryboard: 0

[Editor]
Bookmarks: 181,16181,32181,48181,64181,80181,88181,96181,112181
DistanceSpacing: 1.2
BeatDivisor: 4
GridSize: 4
TimelineZoom: 1.5

[Metadata]
Title:trans rights
TitleUnicode:trans rights
Artist:in love with a ghost
ArtistUnicode:in love with a ghost
Creator:JBHyperion
Version:rain
Source:
Tags:Playful Spirits ilwag electronic instrumental lo-fi chillwave ambient chillout electronica transgender pride LGBT LGBTQ fa featured artist mappers' guild mpg
BeatmapID:3567711
BeatmapSetID:1744475

[Difficulty]
HPDrainRate:5
CircleSize:3.7
OverallDifficulty:6.5
ApproachRate:6.5
SliderMultiplier:2
SliderTickRate:2

[Events]
//Background and Video events
0,0,"trans-1792756.jpg",0,0
//Break Periods
//Storyboard Layer 0 (Background)
//Storyboard Layer 1 (Fail)
//Storyboard Layer 2 (Pass)
//Storyboard Layer 3 (Foreground)
//Storyboard Layer 4 (Overlay)
//Storyboard Sound Samples

[TimingPoints]
181,500,4,2,1,40,1,0
16681,-100,4,3,0,40,0,0
16931,-100,4,2,1,40,0,0
17931,-100,4,3,0,40,0,0
18181,-100,4,2,1,40,0,0
19931,-100,4,3,0,40,0,0
20181,-100,4,2,1,40,0,0
20681,-100,4,3,0,40,0,0
20931,-100,4,2,1,40,0,0
22681,-100,4,3,0,40,0,0
22931,-100,4,2,1,40,0,0
24681,-100,4,3,0,40,0,0
24931,-100,4,2,1,40,0,0
27556,-100,4,2,2,40,0,0
27681,-100,4,2,1,40,0,0
27931,-100,4,3,0,40,0,0
28181,-100,4,2,1,40,0,0
28681,-100,4,3,0,40,0,0
28931,-100,4,2,1,40,0,0
30681,-100,4,3,0,40,0,0
30931,-100,4,2,1,40,0,0
31931,-100,4,3,0,40,0,0
32181,-100,4,2,2,30,0,0
34556,-100,4,2,1,40,0,0
35556,-100,4,2,2,40,0,0
35681,-100,4,2,1,40,0,0
36681,-100,4,3,0,40,0,0
36931,-100,4,2,1,40,0,0
38681,-100,4,3,0,40,0,0
38931,-100,4,2,1,40,0,0
39931,-100,4,3,0,40,0,0
40181,-100,4,2,1,40,0,0
40681,-100,4,3,0,40,0,0
40931,-100,4,2,1,40,0,0
41931,-100,4,3,0,40,0,0
42181,-100,4,2,1,40,0,0
43556,-100,4,2,2,40,0,0
43681,-100,4,2,1,40,0,0
43931,-100,4,3,0,40,0,0
44181,-100,4,2,1,40,0,0
44681,-100,4,3,0,40,0,0
44931,-100,4,2,1,40,0,0
46681,-100,4,3,0,40,0,0
46931,-100,4,2,1,40,0,0
47931,-100,4,3,0,40,0,0
48181,-100,4,2,1,40,0,0
48681,-100,4,3,0,40,0,0
48931,-100,4,2,1,40,0,0
51556,-100,4,2,2,40,0,0
51681,-100,4,2,1,40,0,0
52681,-100,4,3,0,40,0,0
52931,-100,4,2,1,40,0,0
54681,-100,4,3,0,40,0,0
54931,-100,4,2,1,40,0,0
55931,-100,4,3,0,40,0,0
56181,-100,4,2,1,40,0,0
56681,-100,4,3,0,40,0,0
56931,-100,4,2,1,40,0,0
58056,-100,4,3,0,40,0,0
58306,-100,4,2,1,40,0,0
59556,-100,4,2,2,40,0,0
59681,-100,4,2,1,40,0,0
59931,-100,4,3,0,40,0,0
60056,-100,4,2,1,40,0,0
60681,-100,4,3,0,40,0,0
60931,-100,4,2,1,40,0,0
62681,-100,4,3,0,40,0,0
62931,-100,4,2,1,40,0,0
63931,-100,4,3,0,40,0,0
64181,-100,4,2,1,50,0,0
66181,-100,4,2,1,50,0,0
66556,-100,4,2,1,50,0,0
67431,-100,4,3,0,50,0,0
67556,-100,4,2,2,50,0,0
67681,-100,4,2,1,50,0,0
68806,-100,4,3,0,50,0,0
68931,-100,4,2,1,50,0,0
71556,-100,4,2,2,50,0,0
71681,-100,4,2,1,50,0,0
72806,-100,4,3,0,50,0,0
73056,-100,4,2,1,50,0,0
73931,-100,4,2,77,50,0,0
74181,-100,4,2,1,50,0,0
74431,-100,4,3,0,50,0,0
74681,-100,4,2,1,50,0,0
75556,-100,4,2,2,50,0,0
75681,-100,4,2,1,50,0,0
76806,-100,4,3,0,50,0,0
77056,-100,4,2,1,50,0,0
77806,-100,4,3,0,50,0,0
78056,-100,4,2,1,50,0,0
78181,-100,4,2,1,50,0,0
78431,-100,4,2,1,50,0,0
78806,-100,4,3,0,50,0,0
78931,-100,4,2,1,50,0,0
79556,-100,4,2,2,50,0,0
79681,-100,4,2,1,50,0,0
80806,-100,4,3,0,50,0,0
81056,-100,4,2,1,50,0,0
81806,-100,4,3,0,50,0,0
81931,-100,4,3,1,50,0,0
82056,-100,4,3,0,50,0,0
82181,-100,4,2,1,50,0,0
83181,-100,4,3,0,50,0,0
83431,-100,4,2,1,50,0,0
83556,-100,4,2,2,50,0,0
83681,-100,4,2,1,50,0,0
83931,-100,4,2,1,50,0,0
84806,-100,4,3,0,50,0,0
84931,-100,4,2,1,50,0,0
85181,-100,4,2,1,50,0,0
85431,-100,4,2,1,50,0,0
87431,-100,4,3,0,50,0,0
87556,-100,4,2,2,50,0,0
87681,-100,4,2,1,50,0,0
87931,-100,4,2,1,50,0,0
88181,-100,4,2,2,30,0,0
93681,-100,4,2,2,40,0,0
94056,-100,4,2,2,30,0,0
94181,-100,4,2,2,30,0,0
94431,-100,4,2,2,25,0,0
94931,-100,4,2,2,20,0,0
95431,-100,4,2,2,15,0,0
95931,-100,4,2,1,5,0,0
96181,-83.3333333333333,4,2,1,40,0,0
96556,-83.3333333333333,4,3,0,40,0,0
96681,-83.3333333333333,4,2,1,40,0,0
96931,-83.3333333333333,4,3,0,40,0,0
97181,-83.3333333333333,4,2,1,40,0,0
97431,-83.3333333333333,4,2,1,40,0,0
98556,-83.3333333333333,4,3,0,40,0,0
98681,-83.3333333333333,4,2,1,40,0,0
99681,-83.3333333333333,4,2,2,40,0,0
99931,-83.3333333333333,4,2,1,40,0,0
100806,-83.3333333333333,4,3,0,40,0,0
100931,-83.3333333333333,4,2,1,40,0,0
101181,-83.3333333333333,4,2,1,40,0,0
101431,-83.3333333333333,4,2,1,40,0,0
101931,-83.3333333333333,4,3,0,40,0,0
102181,-83.3333333333333,4,2,1,40,0,0
102806,-83.3333333333333,4,3,0,40,0,0
102931,-83.3333333333333,4,2,1,40,0,0
103556,-83.3333333333333,4,2,2,40,0,0
103681,-83.3333333333333,4,2,1,40,0,0
104181,-83.3333333333333,4,2,1,50,0,0
104806,-83.3333333333333,4,3,0,50,0,0
104931,-83.3333333333333,4,2,1,50,0,0
105181,-83.3333333333333,4,2,1,50,0,0
105431,-83.3333333333333,4,2,1,50,0,0
106181,-83.3333333333333,4,2,1,50,0,0
106431,-83.3333333333333,4,3,1,50,0,0
106681,-83.3333333333333,4,2,1,50,0,0
106931,-83.3333333333333,4,2,2,50,0,0
107056,-83.3333333333333,4,2,1,50,0,0
107431,-83.3333333333333,4,3,0,50,0,0
107556,-83.3333333333333,4,2,2,50,0,0
107681,-83.3333333333333,4,2,1,50,0,0
107931,-83.3333333333333,4,2,1,50,0,0
108806,-83.3333333333333,4,3,0,50,0,0
108931,-83.3333333333333,4,2,1,50,0,0
109181,-83.3333333333333,4,2,1,50,0,0
109431,-83.3333333333333,4,2,1,50,0,0
109931,-83.3333333333333,4,3,0,50,0,0
110181,-83.3333333333333,4,2,1,50,0,0
110806,-83.3333333333333,4,3,0,50,0,0
110931,-83.3333333333333,4,2,1,50,0,0
111556,-83.3333333333333,4,3,0,50,0,0
111681,-83.3333333333333,4,2,2,50,0,0
111931,-83.3333333333333,4,3,1,50,0,0

[Colours]
Combo1 : 247,168,184
Combo2 : 85,205,252
Combo3 : 220,220,220

[HitObjects]
192,192,16181,5,2,0:0:0:0:
308,192,16306,1,4,0:0:0:0:
308,192,16556,1,0,0:0:0:0:
262,173,16681,1,0,0:0:0:0:
244,128,16806,1,0,0:0:0:0:
262,83,16931,1,0,0:0:0:0:
306,64,17056,1,2,0:0:0:0:
492,192,17181,2,0,L|496:88,2,100,8|0|0,0:0|0:0|0:0,0:0:0:0:
372,140,17931,1,0,0:0:0:0:
312,140,18056,1,0,0:0:0:0:
252,140,18181,5,0,0:0:0:0:
372,140,18431,2,0,L|376:204,1,50,0|2,0:0|0:0,0:0:0:0:
252,140,18681,2,0,L|248:192,1,50,8|4,0:0|0:0,0:0:0:0:
316,192,18931,2,0,L|320:248,1,50,8|2,0:0|0:0,0:0:0:0:
192,352,19181,2,0,L|188:300,1,50,8|0,0:0|0:0,0:0:0:0:
252,264,19431,1,0,0:0:0:0:
188,304,19556,1,2,0:0:0:0:
380,348,19681,2,0,B|432:348|432:348|376:348,1,100,8|0,0:0|0:0,0:0:0:0:
336,348,20056,1,0,0:0:0:0:
144,304,20181,6,0,L|140:248,2,50,8|0|0,0:0|0:0|0:0,0:0:0:0:
264,192,20681,2,0,L|260:140,1,50,0|0,0:0|0:0,0:0:0:0:
188,192,20931,2,0,L|184:140,1,50,0|2,0:0|0:0,0:0:0:0:
64,192,21181,2,0,L|60:88,1,100,8|0,0:0|0:0,0:0:0:0:
264,192,21681,2,0,L|364:192,1,100,4|0,0:0|0:0,0:0:0:0:
247,191,22181,6,0,L|243:91,1,100,0|0,0:0|0:0,0:0:0:0:
344,92,22681,2,0,L|348:28,1,50,0|0,0:0|0:0,0:0:0:0:
232,92,23056,1,2,0:0:0:0:
347,42,23181,2,0,L|351:146,1,100,8|0,0:0|0:0,0:0:0:0:
152,92,23681,2,0,L|148:200,1,100,4|0,0:0|0:0,0:0:0:0:
350,141,24181,5,2,0:0:0:0:
228,192,24306,1,4,0:0:0:0:
228,192,24556,1,0,0:0:0:0:
284,192,24681,1,0,0:0:0:0:
340,192,24806,1,0,0:0:0:0:
448,192,25056,1,2,0:0:0:0:
324,296,25181,2,0,L|220:296,2,100,8|0|2,0:0|0:0|0:0,0:0:0:0:
448,192,25931,2,0,L|452:256,1,50,0|0,0:0|0:0,0:0:0:0:
392,296,26181,6,0,L|276:296,1,100,0|0,0:0|0:0,0:0:0:0:
224,296,26556,1,2,0:0:0:0:
104,296,26681,2,0,L|100:232,1,50,8|4,0:0|0:0,0:0:0:0:
172,192,26931,2,0,L|176:136,1,50,8|2,0:0|0:0,0:0:0:0:
300,192,27181,2,0,L|352:192,2,50,8|0|0,0:0|0:0|0:0,0:0:0:0:
240,192,27556,1,2,0:0:0:0:
56,140,27681,2,0,B|4:140|4:140|60:140,1,100,8|0,0:0|0:0,0:0:0:0:
112,140,28056,1,0,0:0:0:0:
232,192,28181,6,0,L|236:308,1,100,2|0,0:0|0:0,0:0:0:0:
336,92,28681,2,0,L|340:152,1,50,0|0,0:0|0:0,0:0:0:0:
408,172,28931,2,0,L|404:232,1,50,0|0,0:0|0:0,0:0:0:0:
284,292,29181,2,0,L|184:292,1,100,8|0,0:0|0:0,0:0:0:0:
364,292,29681,2,0,L|368:172,1,100,4|0,0:0|0:0,0:0:0:0:
248,192,30181,6,0,L|352:192,1,100,0|0,0:0|0:0,0:0:0:0:
228,192,30681,1,0,0:0:0:0:
168,192,30806,1,0,0:0:0:0:
288,192,31056,1,2,0:0:0:0:
168,192,31181,2,0,L|164:88,1,100,8|0,0:0|0:0,0:0:0:0:
364,16,31681,2,0,L|368:128,1,100,4|0,0:0|0:0,0:0:0:0:
296,124,32056,1,0,0:0:0:0:
367,115,32181,6,0,L|467:115,1,100,2|0,0:0|0:0,0:0:0:0:
467,115,32931,1,0,0:0:0:0:
367,115,33181,2,0,P|307:175|367:255,1,200,2|0,0:0|0:0,0:0:0:0:
484,256,33931,1,0,0:0:0:0:
364,344,34181,6,0,L|264:344,1,100,2|0,0:0|0:0,0:0:0:0:
204,344,34556,1,2,0:0:0:0:
324,256,34681,2,0,L|328:192,1,50,8|4,0:0|0:0,0:0:0:0:
252,192,34931,2,0,L|248:132,1,50,8|2,0:0|0:0,0:0:0:0:
372,116,35181,2,0,L|376:64,1,50,8|0,0:0|0:0,0:0:0:0:
304,40,35431,1,0,0:0:0:0:
372,116,35556,1,2,0:0:0:0:
184,144,35681,2,0,L|81:144,1,100,8|0,0:0|0:0,0:0:0:0:
144,144,36056,1,2,0:0:0:0:
336,192,36181,5,8,0:0:0:0:
396,192,36306,1,0,0:0:0:0:
396,192,36431,1,0,0:0:0:0:
276,192,36681,2,0,L|224:192,1,50,0|0,0:0|0:0,0:0:0:0:
284,192,36931,2,0,L|288:248,1,50,0|2,0:0|0:0,0:0:0:0:
168,280,37181,1,8,0:0:0:0:
168,280,37431,1,0,0:0:0:0:
228,280,37556,1,0,0:0:0:0:
420,192,37681,2,0,L|423:291,1,100,4|0,0:0|0:0,0:0:0:0:
308,192,38181,6,0,L|208:192,1,100,0|0,0:0|0:0,0:0:0:0:
324,92,38681,2,0,L|388:92,2,50,0|0|0,0:0|0:0|0:0,0:0:0:0:
264,92,39056,1,2,0:0:0:0:
144,192,39181,2,0,L|140:80,1,100,8|2,0:0|0:0,0:0:0:0:
332,312,39681,2,0,L|232:312,1,100,4|0,0:0|0:0,0:0:0:0:
292,312,40056,1,0,0:0:0:0:
224,312,40181,5,2,0:0:0:0:
416,312,40306,1,4,0:0:0:0:
416,312,40556,1,0,0:0:0:0:
354,312,40681,1,0,0:0:0:0:
292,312,40806,1,0,0:0:0:0:
172,312,41056,1,2,0:0:0:0:
292,192,41181,2,0,L|400:192,2,100,8|0|2,0:0|0:0|0:0,0:0:0:0:
172,192,41931,1,0,0:0:0:0:
116,192,42056,1,0,0:0:0:0:
60,192,42181,6,0,L|68:84,1,100,0|0,0:0|0:0,0:0:0:0:
252,32,42681,2,0,L|308:32,1,50,8|4,0:0|0:0,0:0:0:0:
252,96,42931,2,0,L|304:96,1,50,8|2,0:0|0:0,0:0:0:0:
424,192,43181,2,0,L|432:264,1,50,8|0,0:0|0:0,0:0:0:0:
360,268,43431,1,0,0:0:0:0:
424,192,43556,1,2,0:0:0:0:
232,268,43681,2,0,B|180:268|180:268|180:336,1,100,8|0,0:0|0:0,0:0:0:0:
232,316,44056,1,0,0:0:0:0:
424,192,44181,6,0,L|428:88,1,100,8|0,0:0|0:0,0:0:0:0:
308,192,44681,2,0,L|244:192,1,50,0|0,0:0|0:0,0:0:0:0:
200,116,44931,2,0,L|252:116,1,50,0|2,0:0|0:0,0:0:0:0:
372,48,45181,2,0,L|376:156,1,100,8|0,0:0|0:0,0:0:0:0:
192,292,45681,2,0,L|184:164,1,100,4|0,0:0|0:0,0:0:0:0:
304,192,46181,6,0,L|200:192,1,100,0|0,0:0|0:0,0:0:0:0:
84,192,46681,2,0,L|80:264,1,50,0|0,0:0|0:0,0:0:0:0:
188,292,47056,1,2,0:0:0:0:
308,292,47181,1,8,0:0:0:0:
200,292,47431,1,2,0:0:0:0:
440,252,47681,1,4,0:0:0:0:
440,252,47931,2,0,L|386:252,1,50,0|0,0:0|0:0,0:0:0:0:
448,252,48181,5,2,0:0:0:0:
256,292,48306,2,0,L|144:292,1,100,4|0,0:0|0:0,0:0:0:0:
212,292,48681,1,0,0:0:0:0:
268,292,48806,1,0,0:0:0:0:
268,292,49056,1,2,0:0:0:0:
148,292,49181,2,0,L|144:192,2,100,8|0|2,0:0|0:0|0:0,0:0:0:0:
256,192,49931,1,0,0:0:0:0:
312,192,50056,1,0,0:0:0:0:
368,192,50181,6,0,L|372:88,1,100,0|0,0:0|0:0,0:0:0:0:
312,88,50556,1,2,0:0:0:0:
192,28,50681,2,0,L|140:28,1,50,8|4,0:0|0:0,0:0:0:0:
204,104,50931,2,0,L|152:104,1,50,8|2,0:0|0:0,0:0:0:0:
272,28,51181,2,0,L|324:28,2,50,8|0|0,0:0|0:0|0:0,0:0:0:0:
204,28,51556,1,2,0:0:0:0:
396,192,51681,2,0,L|500:192,1,100,8|0,0:0|0:0,0:0:0:0:
436,192,52056,1,0,0:0:0:0:
244,192,52181,6,0,L|192:192,2,50,8|0|0,0:0|0:0|0:0,0:0:0:0:
352,192,52681,2,0,L|348:136,1,50,0|0,0:0|0:0,0:0:0:0:
284,88,52931,2,0,L|228:88,1,50,0|2,0:0|0:0,0:0:0:0:
112,40,53181,1,8,0:0:0:0:
110,89,53306,1,0,0:0:0:0:
108,139,53431,1,0,0:0:0:0:
292,192,53681,2,0,L|296:304,1,100,4|0,0:0|0:0,0:0:0:0:
180,368,54181,6,0,L|284:368,1,100,0|0,0:0|0:0,0:0:0:0:
388,292,54681,1,0,0:0:0:0:
328,292,54806,1,0,0:0:0:0:
448,292,55056,1,2,0:0:0:0:
328,292,55181,2,0,L|324:192,1,100,8|2,0:0|0:0,0:0:0:0:
136,192,55681,2,0,L|132:140,1,50,4|0,0:0|0:0,0:0:0:0:
200,192,55931,2,0,L|252:192,1,50,0|0,0:0|0:0,0:0:0:0:
192,192,56181,5,2,0:0:0:0:
384,192,56306,2,0,B|436:192|436:192|376:192,1,100,4|0,0:0|0:0,0:0:0:0:
328,192,56681,1,0,0:0:0:0:
396,192,56806,1,0,0:0:0:0:
396,192,57056,1,2,0:0:0:0:
276,192,57181,2,0,B|272:88,1,100,8|0,0:0|0:0,0:0:0:0:
160,52,57681,2,0,L|56:52,1,100,2|0,0:0|0:0,0:0:0:0:
180,52,58181,6,0,L|76:52,1,100,0|0,0:0|0:0,0:0:0:0:
140,52,58556,1,2,0:0:0:0:
260,52,58681,2,0,L|256:104,1,50,8|4,0:0|0:0,0:0:0:0:
136,192,58931,2,0,L|188:192,1,50,8|2,0:0|0:0,0:0:0:0:
308,324,59181,2,0,B|360:324|360:324|304:324,1,100,8|0,0:0|0:0,0:0:0:0:
252,324,59556,1,2,0:0:0:0:
444,324,59681,2,0,B|448:216,1,100,8|0,0:0|0:0,0:0:0:0:
136,192,60181,6,0,L|132:292,1,100,8|0,0:0|0:0,0:0:0:0:
252,324,60681,2,0,L|256:260,1,50,0|0,0:0|0:0,0:0:0:0:
196,192,60931,2,0,L|144:192,1,50,0|2,0:0|0:0,0:0:0:0:
264,56,61181,1,8,0:0:0:0:
316,92,61306,1,0,0:0:0:0:
316,156,61431,1,0,0:0:0:0:
264,192,61556,1,0,0:0:0:0:
146,192,61681,2,0,L|142:296,1,100,4|0,0:0|0:0,0:0:0:0:
264,344,62181,6,0,L|164:344,1,100,0|0,0:0|0:0,0:0:0:0:
164,344,62681,1,0,0:0:0:0:
228,344,62806,1,0,0:0:0:0:
108,344,63056,1,2,0:0:0:0:
228,344,63181,2,0,L|232:244,1,100,8|2,0:0|0:0,0:0:0:0:
424,44,63681,1,4,0:0:0:0:
316,44,63931,1,0,0:0:0:0:
376,44,64056,1,0,0:0:0:0:
184,44,64181,6,0,P|132:120|204:176,1,200,2|8,0:0|0:0,0:0:0:0:
264,176,64806,1,0,0:0:0:0:
324,176,64931,1,0,0:0:0:0:
140,276,65181,2,0,L|136:176,1,100,2|0,0:0|0:0,0:0:0:0:
336,304,65681,1,8,0:0:0:0:
336,304,65931,1,0,0:0:0:0:
16,192,66181,6,0,B|120:192,2,100,2|0|8,0:0|0:0|0:0,0:0:0:0:
116,192,66931,1,0,0:0:0:0:
216,192,67056,1,0,0:0:0:0:
316,192,67181,2,0,L|320:132,1,50,2|0,0:0|0:0,0:0:0:0:
196,56,67431,2,0,L|192:112,1,50,0|2,0:0|0:0,0:0:0:0:
388,192,67681,1,8,0:0:0:0:
388,192,67931,1,2,0:0:0:0:
188,288,68181,6,0,B|88:288,1,100,2|0,0:0|0:0,0:0:0:0:
288,348,68681,2,0,L|292:292,1,50,8|0,0:0|0:0,0:0:0:0:
216,288,68931,1,0,0:0:0:0:
20,288,69181,2,0,L|16:168,1,100,2|0,0:0|0:0,0:0:0:0:
216,192,69681,1,8,0:0:0:0:
152,192,69806,1,0,0:0:0:0:
88,192,69931,1,0,0:0:0:0:
400,192,70181,6,0,L|504:192,1,100,2|0,0:0|0:0,0:0:0:0:
172,192,70681,1,8,0:0:0:0:
112,192,70806,1,0,0:0:0:0:
172,192,70931,2,0,L|280:192,1,100,0|2,0:0|0:0,0:0:0:0:
76,192,71431,2,0,L|72:132,1,50,0|0,0:0|0:0,0:0:0:0:
268,60,71681,1,8,0:0:0:0:
168,28,71931,1,4,0:0:0:0:
484,160,72181,6,0,P|485:109|464:56,1,100,2|0,0:0|0:0,0:0:0:0:
408,60,72556,1,0,0:0:0:0:
288,60,72681,2,0,L|284:120,1,50,8|0,0:0|0:0,0:0:0:0:
352,156,72931,2,0,L|244:156,2,100,0|2|0,0:0|0:0|0:0,0:0:0:0:
36,156,73681,1,8,0:0:0:0:
36,156,73931,1,4,0:0:0:0:
352,240,74181,6,0,L|452:240,1,100,2|0,0:0|0:0,0:0:0:0:
392,240,74556,1,0,0:0:0:0:
200,240,74681,1,8,0:0:0:0:
162,209,74806,1,4,0:0:0:0:
169,162,74931,1,0,0:0:0:0:
213,143,75056,1,2,0:0:0:0:
340,128,75181,2,0,L|344:68,1,50,2|0,0:0|0:0,0:0:0:0:
268,52,75431,1,8,0:0:0:0:
340,128,75556,1,2,0:0:0:0:
148,52,75681,1,8,0:0:0:0:
328,128,75931,1,0,0:0:0:0:
16,52,76181,6,0,L|12:172,1,100,2|0,0:0|0:0,0:0:0:0:
212,268,76681,1,8,0:0:0:0:
164,252,76806,1,0,0:0:0:0:
116,237,76931,1,0,0:0:0:0:
316,144,77181,2,0,L|320:248,1,100,2|0,0:0|0:0,0:0:0:0:
120,336,77681,2,0,L|116:280,1,50,4|0,0:0|0:0,0:0:0:0:
188,252,77931,1,0,0:0:0:0:
120,336,78056,1,0,0:0:0:0:
312,348,78181,6,0,L|424:348,1,100,2|0,0:0|0:0,0:0:0:0:
216,192,78681,2,0,L|160:192,2,50,8|0|0,0:0|0:0|0:0,0:0:0:0:
396,192,79181,1,2,0:0:0:0:
276,192,79431,1,0,0:0:0:0:
344,192,79556,1,2,0:0:0:0:
148,192,79681,2,0,L|144:88,1,100,12|0,0:0|0:0,0:0:0:0:
340,28,80181,6,0,B|392:28|392:28|392:76,1,100,2|0,0:0|0:0,0:0:0:0:
340,76,80556,1,0,0:0:0:0:
220,76,80681,2,0,L|272:76,1,50,8|0,0:0|0:0,0:0:0:0:
464,76,80931,2,0,P|488:124|400:220,1,200,0|2,0:0|0:0,0:0:0:0:
208,308,81681,2,0,L|204:256,1,50,8|0,0:0|0:0,0:0:0:0:
280,236,81931,2,0,L|284:180,1,50,0|0,0:0|0:0,0:0:0:0:
92,192,82181,6,0,L|88:92,1,100,2|0,0:0|0:0,0:0:0:0:
288,24,82681,1,8,0:0:0:0:
299,88,82806,1,0,0:0:0:0:
276,150,82931,1,0,0:0:0:0:
224,191,83056,1,0,0:0:0:0:
104,192,83181,2,0,L|100:252,1,50,0|0,0:0|0:0,0:0:0:0:
176,264,83431,1,8,0:0:0:0:
104,192,83556,1,0,0:0:0:0:
296,192,83681,2,0,L|400:192,1,100,8|0,0:0|0:0,0:0:0:0:
76,192,84181,6,0,L|72:132,1,50,2|0,0:0|0:0,0:0:0:0:
176,192,84556,1,2,0:0:0:0:
296,192,84681,1,8,0:0:0:0:
356,192,84806,1,0,0:0:0:0:
364,192,84931,1,0,0:0:0:0:
48,52,85181,2,0,L|152:52,1,100,2|0,0:0|0:0,0:0:0:0:
464,192,85681,1,4,0:0:0:0:
464,192,86181,5,2,0:0:0:0:
404,192,86306,1,0,0:0:0:0:
284,192,86556,1,0,0:0:0:0:
404,192,86681,2,0,L|408:252,1,50,8|2,0:0|0:0,0:0:0:0:
352,288,86931,1,0,0:0:0:0:
164,272,87181,1,2,0:0:0:0:
224,272,87306,1,0,0:0:0:0:
64,272,87556,1,2,0:0:0:0:
264,272,87681,2,0,L|268:168,1,100,8|0,0:0|0:0,0:0:0:0:
68,192,88181,6,0,P|44:132|72:60,1,100,2|0,0:0|0:0,0:0:0:0:
88,52,88556,1,0,0:0:0:0:
148,48,88681,2,0,L|248:48,1,100,8|0,0:0|0:0,0:0:0:0:
128,152,89181,2,0,L|220:192,2,100,0|0|0,0:0|0:0|0:0,0:0:0:0:
444,192,89931,5,2,0:0:0:0:
292,192,90681,2,0,L|288:88,1,100,8|0,0:0|0:0,0:0:0:0:
376,288,91181,2,0,L|380:228,2,50,0|0|8,0:0|0:0|0:0,0:0:0:0:
176,320,91681,2,0,L|276:320,1,100,2|0,0:0|0:0,0:0:0:0:
396,320,92181,5,0,0:0:0:0:
236,320,92431,2,0,L|232:208,1,100,8|0,0:0|0:0,0:0:0:0:
348,192,92931,1,2,0:0:0:0:
236,320,93181,1,8,0:0:0:0:
356,192,93431,1,0,0:0:0:0:
176,192,93681,2,0,L|72:192,1,100,2|0,0:0|0:0,0:0:0:0:
400,192,94181,5,2,0:0:0:0:
256,192,94431,12,0,95931,0:0:0:0:
280,192,96181,6,0,L|404:192,1,119.999996337891,2|0,0:0|0:0,0:0:0:0:
340,192,96556,1,0,0:0:0:0:
112,192,96681,2,0,L|108:128,2,59.9999981689454,8|2|0,0:0|0:0|0:0,0:0:0:0:
324,84,97181,1,2,0:0:0:0:
128,192,97431,1,0,0:0:0:0:
488,192,97681,1,12,0:0:0:0:
488,192,98181,6,0,L|360:192,1,119.999996337891,2|0,0:0|0:0,0:0:0:0:
428,192,98556,1,0,0:0:0:0:
220,192,98681,2,0,L|216:128,1,59.9999981689454,8|4,0:0|0:0,0:0:0:0:
344,40,98931,2,0,L|408:40,1,59.9999981689454,2|0,0:0|0:0,0:0:0:0:
332,40,99181,1,2,0:0:0:0:
286,102,99306,1,0,0:0:0:0:
313,174,99431,1,0,0:0:0:0:
387,193,99556,1,0,0:0:0:0:
176,192,99681,2,0,L|56:192,1,119.999996337891,2|0,0:0|0:0,0:0:0:0:
416,192,100181,6,0,P|436:252|408:312,1,119.999996337891,2|0,0:0|0:0,0:0:0:0:
352,336,100556,1,0,0:0:0:0:
232,344,100681,2,0,L|172:344,2,59.9999981689454,8|0|0,0:0|0:0|0:0,0:0:0:0:
16,340,101181,2,0,L|12:216,1,119.999996337891,2|0,0:0|0:0,0:0:0:0:
352,192,101681,2,0,L|416:192,3,59.9999981689454,4|0|0|0,0:0|0:0|0:0|0:0,0:0:0:0:
204,192,102181,6,0,B|84:192,1,119.999996337891,2|0,0:0|0:0,0:0:0:0:
144,132,102556,1,0,0:0:0:0:
268,192,102681,2,0,L|272:128,1,59.9999981689454,8|0,0:0|0:0,0:0:0:0:
204,88,102931,1,0,0:0:0:0:
420,28,103181,2,0,L|296:28,1,119.999996337891,2|0,0:0|0:0,0:0:0:0:
360,28,103556,1,0,0:0:0:0:
132,28,103681,1,4,0:0:0:0:
132,28,103931,1,0,0:0:0:0:
192,28,104056,1,0,0:0:0:0:
404,120,104181,6,0,B|464:120|464:120|400:120,1,119.999996337891,2|0,0:0|0:0,0:0:0:0:
344,120,104556,1,0,0:0:0:0:
236,216,104681,2,0,L|296:216,2,59.9999981689454,8|0|0,0:0|0:0|0:0,0:0:0:0:
452,196,105181,2,0,L|456:332,1,119.999996337891,2|0,0:0|0:0,0:0:0:0:
96,192,105681,1,4,0:0:0:0:
96,192,106181,6,0,L|224:192,1,119.999996337891,2|0,0:0|0:0,0:0:0:0:
156,192,106556,1,0,0:0:0:0:
364,192,106681,2,0,L|368:128,1,59.9999981689454,8|4,0:0|0:0,0:0:0:0:
240,40,106931,2,0,L|244:100,1,59.9999981689454,2|2,0:0|0:0,0:0:0:0:
367,132,107181,1,2,0:0:0:0:
425,139,107306,1,0,0:0:0:0:
467,180,107431,1,0,0:0:0:0:
476,238,107556,1,2,0:0:0:0:
272,192,107681,2,0,L|152:192,1,119.999996337891,8|0,0:0|0:0,0:0:0:0:
372,192,108181,6,0,P|392:132|364:72,1,119.999996337891,2|0,0:0|0:0,0:0:0:0:
308,48,108556,1,0,0:0:0:0:
188,40,108681,2,0,L|128:40,2,59.9999981689454,8|0|0,0:0|0:0|0:0,0:0:0:0:
408,44,109181,2,0,L|412:168,1,119.999996337891,2|8,0:0|0:0,0:0:0:0:
72,192,109681,2,0,L|60:264,1,59.9999981689454,4|0,0:0|0:0,0:0:0:0:
144,248,109931,2,0,L|132:320,1,59.9999981689454,0|0,0:0|0:0,0:0:0:0:
360,336,110181,6,0,B|420:336|420:336|420:276,1,119.999996337891,2|0,0:0|0:0,0:0:0:0:
360,276,110556,1,0,0:0:0:0:
236,336,110681,2,0,L|232:272,1,59.9999981689454,8|0,0:0|0:0,0:0:0:0:
300,232,110931,1,0,0:0:0:0:
84,172,111181,2,0,L|208:172,1,119.999996337891,2|0,0:0|0:0,0:0:0:0:
144,172,111556,1,0,0:0:0:0:
336,164,111681,1,2,0:0:0:0:
174,168,111931,1,0,0:0:0:0:
