osu file format v14

[General]
AudioFilename: audio.mp3
AudioLeadIn: 0
PreviewTime: 80181
Countdown: 0
SampleSet: Soft
StackLeniency: 0.7
Mode: 2
LetterboxInBreaks: 0
WidescreenStoryboard: 1

[Editor]
Bookmarks: 181,16181,32181,48181,64181,80181,88181,96181,112181
DistanceSpacing: 1.3
BeatDivisor: 4
GridSize: 4
TimelineZoom: 1.5

[Metadata]
Title:trans rights
TitleUnicode:trans rights
Artist:in love with a ghost
ArtistUnicode:in love with a ghost
Creator:JBHyperion
Version:platter
Source:
Tags:Playful Spirits ilwag electronic instrumental lo-fi chillwave ambient chillout electronica transgender pride LGBT LGBTQ fa featured artist mappers' guild mpg
BeatmapID:3567710
BeatmapSetID:1744475

[Difficulty]
HPDrainRate:4
CircleSize:3.4
OverallDifficulty:6
ApproachRate:6
SliderMultiplier:1.9
SliderTickRate:2

[Events]
//Background and Video events
0,0,"trans-1792756.jpg",0,0
//Break Periods
2,88181,92631
//Storyboard Layer 0 (Background)
//Storyboard Layer 1 (Fail)
//Storyboard Layer 2 (Pass)
//Storyboard Layer 3 (Foreground)
//Storyboard Layer 4 (Overlay)
//Storyboard Sound Samples

[TimingPoints]
181,500,4,2,1,40,1,0
16681,-100,4,3,0,40,0,0
16931,-100,4,2,1,40,0,0
17931,-100,4,3,0,40,0,0
18181,-100,4,2,1,40,0,0
19931,-100,4,3,0,40,0,0
20181,-100,4,2,1,40,0,0
20681,-100,4,3,0,40,0,0
20931,-100,4,2,1,40,0,0
22681,-100,4,3,0,40,0,0
22931,-100,4,2,1,40,0,0
24681,-100,4,3,0,40,0,0
24931,-100,4,2,1,40,0,0
27556,-100,4,2,2,40,0,0
27681,-100,4,2,1,40,0,0
27931,-100,4,3,0,40,0,0
28181,-100,4,2,1,40,0,0
28681,-100,4,3,0,40,0,0
28931,-100,4,2,1,40,0,0
30681,-100,4,3,0,40,0,0
30931,-100,4,2,1,40,0,0
31931,-100,4,3,0,40,0,0
32181,-100,4,2,2,30,0,0
34556,-100,4,2,1,40,0,0
35556,-100,4,2,2,40,0,0
35681,-100,4,2,1,40,0,0
36681,-100,4,3,0,40,0,0
36931,-100,4,2,1,40,0,0
38681,-100,4,3,0,40,0,0
38931,-100,4,2,1,40,0,0
39931,-100,4,3,0,40,0,0
40181,-100,4,2,1,40,0,0
40681,-100,4,3,0,40,0,0
40931,-100,4,2,1,40,0,0
41931,-100,4,3,0,40,0,0
42181,-100,4,2,1,40,0,0
43556,-100,4,2,2,40,0,0
43681,-100,4,2,1,40,0,0
43931,-100,4,3,0,40,0,0
44181,-100,4,2,1,40,0,0
44681,-100,4,3,0,40,0,0
44931,-100,4,2,1,40,0,0
46681,-100,4,3,0,40,0,0
46931,-100,4,2,1,40,0,0
47931,-100,4,3,0,40,0,0
48181,-100,4,2,1,40,0,0
48681,-100,4,3,0,40,0,0
48931,-100,4,2,1,40,0,0
51556,-100,4,2,2,40,0,0
51681,-100,4,2,1,40,0,0
52681,-100,4,3,0,40,0,0
52931,-100,4,2,1,40,0,0
54681,-100,4,3,0,40,0,0
54931,-100,4,2,1,40,0,0
55931,-100,4,3,0,40,0,0
56181,-100,4,2,1,40,0,0
56681,-100,4,3,0,40,0,0
56931,-100,4,2,1,40,0,0
58056,-100,4,3,0,40,0,0
58306,-100,4,2,1,40,0,0
59556,-100,4,2,2,40,0,0
59681,-100,4,2,1,40,0,0
59931,-100,4,3,0,40,0,0
60056,-100,4,2,1,40,0,0
60181,-83.3333333333333,4,2,1,40,0,0
60681,-100,4,3,0,40,0,0
60931,-100,4,2,1,40,0,0
62681,-100,4,3,0,40,0,0
62931,-100,4,2,1,40,0,0
63931,-100,4,3,0,40,0,0
64181,-100,4,2,1,50,0,0
66181,-100,4,2,1,50,0,0
66556,-100,4,2,1,50,0,0
67431,-100,4,3,0,50,0,0
67556,-100,4,2,2,50,0,0
67681,-100,4,2,1,50,0,0
68806,-100,4,3,0,50,0,0
68931,-100,4,2,1,50,0,0
71556,-100,4,2,2,50,0,0
71681,-100,4,2,1,50,0,0
72806,-100,4,3,0,50,0,0
73056,-100,4,2,1,50,0,0
73931,-100,4,2,77,50,0,0
74181,-100,4,2,1,50,0,0
74431,-100,4,3,0,50,0,0
74681,-100,4,2,1,50,0,0
75556,-100,4,2,2,50,0,0
75681,-100,4,2,1,50,0,0
76806,-100,4,3,0,50,0,0
77056,-100,4,2,1,50,0,0
77806,-100,4,3,0,50,0,0
78056,-100,4,2,1,50,0,0
78181,-100,4,2,1,50,0,0
78431,-100,4,2,1,50,0,0
78806,-100,4,3,0,50,0,0
78931,-100,4,2,1,50,0,0
79556,-100,4,2,2,50,0,0
79681,-100,4,2,1,50,0,0
80806,-100,4,3,0,50,0,0
80931,-83.3333333333333,4,2,1,40,0,0
81431,-100,4,2,1,40,0,0
81806,-100,4,3,0,50,0,0
81931,-100,4,3,1,50,0,0
82056,-100,4,3,0,50,0,0
82181,-100,4,2,1,50,0,0
83181,-100,4,3,0,50,0,0
83431,-100,4,2,1,50,0,0
83556,-100,4,2,2,50,0,0
83681,-100,4,2,1,50,0,0
83931,-100,4,2,1,50,0,0
84806,-100,4,3,0,50,0,0
84931,-100,4,2,1,50,0,0
85181,-100,4,2,1,50,0,0
85431,-100,4,2,1,50,0,0
87431,-100,4,3,0,50,0,0
87556,-100,4,2,2,50,0,0
87681,-100,4,2,1,50,0,0
87931,-100,4,2,1,50,0,0
88181,-100,4,2,2,30,0,0
93681,-100,4,2,2,40,0,0
94056,-100,4,2,2,30,0,0
94181,-100,4,2,2,30,0,0
94431,-100,4,2,2,25,0,0
94931,-100,4,2,2,20,0,0
95431,-100,4,2,2,15,0,0
95931,-100,4,2,1,5,0,0
96181,-90.9090909090909,4,2,1,40,0,0
96556,-90.9090909090909,4,3,0,40,0,0
96681,-90.9090909090909,4,2,1,40,0,0
96931,-90.9090909090909,4,3,0,40,0,0
97181,-90.9090909090909,4,2,1,40,0,0
97431,-90.9090909090909,4,2,1,40,0,0
98556,-90.9090909090909,4,3,0,40,0,0
98681,-90.9090909090909,4,2,1,40,0,0
99681,-90.9090909090909,4,2,2,40,0,0
99931,-90.9090909090909,4,2,1,40,0,0
100806,-90.9090909090909,4,3,0,40,0,0
100931,-90.9090909090909,4,2,1,40,0,0
101181,-90.9090909090909,4,2,1,40,0,0
101431,-90.9090909090909,4,2,1,40,0,0
101931,-90.9090909090909,4,3,0,40,0,0
102181,-90.9090909090909,4,2,1,40,0,0
102806,-90.9090909090909,4,3,0,40,0,0
102931,-90.9090909090909,4,2,1,40,0,0
103556,-90.9090909090909,4,2,2,40,0,0
103681,-90.9090909090909,4,2,1,40,0,0
104181,-90.9090909090909,4,2,1,50,0,0
104806,-90.9090909090909,4,3,0,50,0,0
104931,-90.9090909090909,4,2,1,50,0,0
105181,-90.9090909090909,4,2,1,50,0,0
105431,-90.9090909090909,4,2,1,50,0,0
106181,-90.9090909090909,4,2,1,50,0,0
106431,-90.9090909090909,4,3,1,50,0,0
106681,-90.9090909090909,4,2,1,50,0,0
106931,-90.9090909090909,4,2,2,50,0,0
107056,-90.9090909090909,4,2,1,50,0,0
107431,-90.9090909090909,4,3,0,50,0,0
107556,-90.9090909090909,4,2,2,50,0,0
107681,-90.9090909090909,4,2,1,50,0,0
107931,-90.9090909090909,4,2,1,50,0,0
108806,-90.9090909090909,4,3,0,50,0,0
108931,-90.9090909090909,4,2,1,50,0,0
109181,-90.9090909090909,4,2,1,50,0,0
109431,-90.9090909090909,4,2,1,50,0,0
109931,-90.9090909090909,4,3,0,50,0,0
110181,-90.9090909090909,4,2,1,50,0,0
110806,-90.9090909090909,4,3,0,50,0,0
110931,-90.9090909090909,4,2,1,50,0,0
111556,-90.9090909090909,4,3,0,50,0,0
111681,-90.9090909090909,4,2,2,50,0,0
111931,-90.9090909090909,4,3,1,50,0,0

[Colours]
Combo1 : 247,168,184
Combo2 : 85,205,252
Combo3 : 220,220,220

[HitObjects]
308,192,16181,6,0,L|312:132,1,47.5,2|4,0:0|0:0,0:0:0:0:
216,192,16556,2,0,L|156:192,2,47.5,0|0|0,0:0|0:0|0:0,0:0:0:0:
312,192,17056,1,2,0:0:0:0:
196,276,17181,2,0,L|100:276,2,95,8|0|0,0:0|0:0|0:0,0:0:0:0:
292,276,17931,2,0,L|296:216,1,47.5,0|0,0:0|0:0,0:0:0:0:
232,192,18181,6,0,L|124:192,1,95,0|0,0:0|0:0,0:0:0:0:
344,48,18681,1,8,0:0:0:0:
232,48,18931,1,8,0:0:0:0:
356,48,19181,1,8,0:0:0:0:
232,48,19431,1,0,0:0:0:0:
172,48,19556,1,2,0:0:0:0:
56,48,19681,2,0,L|52:152,1,95,8|0,0:0|0:0,0:0:0:0:
384,192,20181,6,0,L|436:192,2,47.5,8|0|0,0:0|0:0|0:0,0:0:0:0:
272,192,20681,1,0,0:0:0:0:
254,132,20806,1,0,0:0:0:0:
278,74,20931,1,0,0:0:0:0:
332,44,21056,1,2,0:0:0:0:
448,44,21181,2,0,L|452:168,1,95,8|0,0:0|0:0,0:0:0:0:
252,192,21681,2,0,L|152:192,1,95,4|0,0:0|0:0,0:0:0:0:
44,192,22181,6,0,L|40:300,1,95,0|0,0:0|0:0,0:0:0:0:
156,328,22681,2,0,L|208:328,1,47.5,0|0,0:0|0:0,0:0:0:0:
108,328,23056,1,2,0:0:0:0:
224,328,23181,2,0,L|320:328,1,95,8|0,0:0|0:0,0:0:0:0:
128,328,23681,2,0,L|124:228,1,95,4|0,0:0|0:0,0:0:0:0:
440,192,24181,6,0,L|492:192,1,47.5,2|4,0:0|0:0,0:0:0:0:
372,120,24556,1,0,0:0:0:0:
429,104,24681,1,0,0:0:0:0:
486,88,24806,1,0,0:0:0:0:
372,120,25056,1,2,0:0:0:0:
256,120,25181,2,0,L|252:224,2,95,8|0|2,0:0|0:0|0:0,0:0:0:0:
400,312,26056,1,0,0:0:0:0:
340,312,26181,6,0,L|336:216,1,95,0|0,0:0|0:0,0:0:0:0:
128,48,26681,1,8,0:0:0:0:
252,48,26931,1,8,0:0:0:0:
116,48,27181,1,8,0:0:0:0:
240,48,27431,1,0,0:0:0:0:
176,48,27556,1,2,0:0:0:0:
60,48,27681,2,0,L|56:152,1,95,8|0,0:0|0:0,0:0:0:0:
376,192,28181,6,0,L|476:192,1,95,2|0,0:0|0:0,0:0:0:0:
356,192,28681,1,0,0:0:0:0:
300,192,28806,1,0,0:0:0:0:
244,192,28931,1,0,0:0:0:0:
188,192,29056,1,0,0:0:0:0:
300,192,29181,2,0,L|304:92,1,95,8|0,0:0|0:0,0:0:0:0:
100,192,29681,2,0,L|96:88,1,95,4|0,0:0|0:0,0:0:0:0:
212,24,30181,6,0,L|112:24,1,95,0|0,0:0|0:0,0:0:0:0:
232,24,30681,1,0,0:0:0:0:
288,24,30806,1,0,0:0:0:0:
192,24,31056,1,2,0:0:0:0:
308,24,31181,2,0,L|312:132,1,95,8|0,0:0|0:0,0:0:0:0:
112,192,31681,2,0,B|64:192|64:192|116:192,1,95,4|0,0:0|0:0,0:0:0:0:
168,192,32056,1,0,0:0:0:0:
120,192,32181,6,0,L|116:88,1,95,2|0,0:0|0:0,0:0:0:0:
220,192,32681,2,0,L|224:88,1,95,0|0,0:0|0:0,0:0:0:0:
328,96,33181,2,0,P|412:192|328:300,1,285,2|0,0:0|0:0,0:0:0:0:
224,300,34181,6,0,L|220:196,1,95,2|0,0:0|0:0,0:0:0:0:
424,192,34681,1,8,0:0:0:0:
464,156,34806,1,4,0:0:0:0:
468,104,34931,1,8,0:0:0:0:
436,64,35056,1,2,0:0:0:0:
388,48,35181,1,8,0:0:0:0:
208,48,35431,1,0,0:0:0:0:
404,48,35681,2,0,L|408:156,1,95,8|0,0:0|0:0,0:0:0:0:
88,200,36181,6,0,L|40:200,2,47.5,8|0|0,0:0|0:0|0:0,0:0:0:0:
192,200,36681,1,0,0:0:0:0:
131,214,36806,1,0,0:0:0:0:
90,261,36931,1,0,0:0:0:0:
83,323,37056,1,2,0:0:0:0:
200,352,37181,2,0,L|308:352,1,95,8|0,0:0|0:0,0:0:0:0:
92,324,37681,2,0,L|88:228,1,95,4|0,0:0|0:0,0:0:0:0:
204,192,38181,6,0,L|104:192,1,95,0|0,0:0|0:0,0:0:0:0:
232,192,38681,2,0,L|240:144,2,47.5,0|0|0,0:0|0:0|0:0,0:0:0:0:
432,192,39181,2,0,L|436:88,1,95,8|2,0:0|0:0,0:0:0:0:
244,40,39681,2,0,L|356:40,1,95,4|0,0:0|0:0,0:0:0:0:
20,40,40181,6,0,L|16:96,1,47.5,2|4,0:0|0:0,0:0:0:0:
136,131,40556,1,0,0:0:0:0:
76,111,40681,1,0,0:0:0:0:
16,87,40806,1,0,0:0:0:0:
136,131,41056,1,2,0:0:0:0:
252,132,41181,2,0,L|348:132,2,95,8|0|2,0:0|0:0|0:0,0:0:0:0:
108,132,42056,1,0,0:0:0:0:
168,132,42181,6,0,L|172:240,1,95,0|0,0:0|0:0,0:0:0:0:
372,308,42681,2,0,L|432:308,1,47.5,8|4,0:0|0:0,0:0:0:0:
360,232,42931,2,0,L|304:232,1,47.5,8|2,0:0|0:0,0:0:0:0:
372,308,43181,1,8,0:0:0:0:
372,308,43431,1,0,0:0:0:0:
312,308,43556,1,2,0:0:0:0:
196,308,43681,2,0,L|96:308,1,95,8|0,0:0|0:0,0:0:0:0:
432,192,44181,6,0,L|436:88,1,95,8|0,0:0|0:0,0:0:0:0:
324,192,44681,2,0,L|320:136,1,47.5,0|0,0:0|0:0,0:0:0:0:
252,192,44931,2,0,L|248:144,1,47.5,0|2,0:0|0:0,0:0:0:0:
132,192,45181,2,0,L|128:88,1,95,8|0,0:0|0:0,0:0:0:0:
328,308,45681,2,0,L|332:208,1,95,4|0,0:0|0:0,0:0:0:0:
452,192,46181,6,0,L|448:92,1,95,0|0,0:0|0:0,0:0:0:0:
332,212,46681,2,0,L|280:212,2,47.5,0|0|0,0:0|0:0|0:0,0:0:0:0:
132,212,47181,2,0,L|36:212,1,95,8|2,0:0|0:0,0:0:0:0:
240,112,47681,1,4,0:0:0:0:
116,112,47931,1,0,0:0:0:0:
432,112,48181,6,0,L|436:176,1,47.5,2|4,0:0|0:0,0:0:0:0:
316,192,48556,1,0,0:0:0:0:
256,192,48681,2,0,L|252:248,1,47.5,0|0,0:0|0:0,0:0:0:0:
372,192,49056,1,2,0:0:0:0:
252,239,49181,2,0,L|156:239,2,95,8|0|2,0:0|0:0|0:0,0:0:0:0:
108,240,50056,1,0,0:0:0:0:
164,240,50181,6,0,L|268:240,1,95,0|0,0:0|0:0,0:0:0:0:
60,240,50681,1,8,0:0:0:0:
36,192,50806,1,4,0:0:0:0:
42,140,50931,1,8,0:0:0:0:
74,98,51056,1,2,0:0:0:0:
123,80,51181,1,8,0:0:0:0:
320,192,51431,1,0,0:0:0:0:
272,192,51556,1,2,0:0:0:0:
225,192,51681,1,8,0:0:0:0:
340,192,51931,1,0,0:0:0:0:
28,192,52181,6,0,L|20:244,2,47.5,8|0|0,0:0|0:0|0:0,0:0:0:0:
140,192,52681,1,0,0:0:0:0:
132,252,52806,1,0,0:0:0:0:
88,296,52931,1,0,0:0:0:0:
28,300,53056,1,2,0:0:0:0:
144,360,53181,2,0,L|248:360,1,95,8|0,0:0|0:0,0:0:0:0:
444,360,53681,2,0,L|448:256,1,95,4|0,0:0|0:0,0:0:0:0:
328,192,54181,6,0,L|324:96,1,95,0|0,0:0|0:0,0:0:0:0:
200,96,54681,1,0,0:0:0:0:
260,96,54806,1,0,0:0:0:0:
384,96,55056,1,2,0:0:0:0:
268,96,55181,2,0,L|172:96,1,95,8|2,0:0|0:0,0:0:0:0:
376,192,55681,2,0,L|476:192,1,95,4|0,0:0|0:0,0:0:0:0:
424,192,56056,1,0,0:0:0:0:
232,272,56181,6,0,L|160:272,1,47.5,2|4,0:0|0:0,0:0:0:0:
184,272,56556,1,0,0:0:0:0:
232,272,56681,1,0,0:0:0:0:
280,272,56806,1,0,0:0:0:0:
280,272,57056,1,2,0:0:0:0:
164,272,57181,2,0,L|68:272,2,95,8|0|2,0:0|0:0|0:0,0:0:0:0:
308,192,58056,1,0,0:0:0:0:
252,192,58181,6,0,L|248:96,1,95,0|0,0:0|0:0,0:0:0:0:
452,32,58681,2,0,L|400:32,1,47.5,8|4,0:0|0:0,0:0:0:0:
356,112,58931,2,0,L|408:112,1,47.5,8|2,0:0|0:0,0:0:0:0:
460,112,59181,1,8,0:0:0:0:
272,112,59431,1,0,0:0:0:0:
476,112,59681,2,0,L|480:208,1,95,8|0,0:0|0:0,0:0:0:0:
164,44,60181,6,0,P|88:112|156:192,1,227.999993041992,8|0,0:0|0:0,0:0:0:0:
216,192,60806,1,0,0:0:0:0:
276,192,60931,1,0,0:0:0:0:
80,192,61181,2,0,L|76:308,1,95,8|0,0:0|0:0,0:0:0:0:
280,336,61681,2,0,L|380:336,1,95,4|0,0:0|0:0,0:0:0:0:
268,336,62181,6,0,L|260:232,1,95,0|0,0:0|0:0,0:0:0:0:
376,192,62681,2,0,L|380:144,1,47.5,0|0,0:0|0:0,0:0:0:0:
280,196,63056,1,2,0:0:0:0:
396,192,63181,2,0,L|404:96,1,95,8|2,0:0|0:0,0:0:0:0:
212,52,63681,1,4,0:0:0:0:
332,52,63931,1,0,0:0:0:0:
16,52,64181,6,0,P|0:128|80:192,1,190,2|8,0:0|0:0,0:0:0:0:
136,192,64806,1,0,0:0:0:0:
192,192,64931,1,0,0:0:0:0:
80,192,65181,2,0,L|76:300,1,95,2|0,0:0|0:0,0:0:0:0:
276,340,65681,1,8,0:0:0:0:
276,340,66181,6,0,L|168:340,1,95,2|0,0:0|0:0,0:0:0:0:
376,232,66681,2,0,B|424:232|424:232|420:164,1,95,8|0,0:0|0:0,0:0:0:0:
372,184,67056,1,0,0:0:0:0:
324,184,67181,1,2,0:0:0:0:
144,192,67431,1,0,0:0:0:0:
336,184,67681,2,0,L|340:80,1,95,8|2,0:0|0:0,0:0:0:0:
144,20,68181,6,0,P|136:72|164:124,1,95,2|0,0:0|0:0,0:0:0:0:
352,192,68681,1,8,0:0:0:0:
404,192,68806,1,0,0:0:0:0:
352,192,68931,1,0,0:0:0:0:
248,192,69181,1,2,0:0:0:0:
360,192,69431,1,0,0:0:0:0:
160,192,69681,2,0,L|108:192,2,47.5,8|0|0,0:0|0:0|0:0,0:0:0:0:
480,192,70181,6,0,B|484:144|484:144|460:100,1,95,2|0,0:0|0:0,0:0:0:0:
268,104,70681,1,8,0:0:0:0:
212,104,70806,1,0,0:0:0:0:
204,48,70931,1,0,0:0:0:0:
320,48,71181,1,2,0:0:0:0:
212,104,71431,2,0,L|208:160,1,47.5,0|0,0:0|0:0,0:0:0:0:
324,192,71681,1,8,0:0:0:0:
332,192,71931,1,4,0:0:0:0:
132,192,72181,6,0,P|108:264|184:336,1,190,2|8,0:0|0:0,0:0:0:0:
239,336,72806,1,0,0:0:0:0:
295,336,72931,2,0,L|199:336,2,95,0|2|0,0:0|0:0|0:0,0:0:0:0:
491,284,73681,1,8,0:0:0:0:
371,336,73931,1,4,0:0:0:0:
56,300,74181,6,0,L|52:192,1,95,2|0,0:0|0:0,0:0:0:0:
112,192,74556,1,0,0:0:0:0:
140,192,74681,1,8,0:0:0:0:
112,192,74806,1,4,0:0:0:0:
52,205,74931,1,0,0:0:0:0:
168,192,75181,2,0,L|272:192,1,95,2|8,0:0|0:0,0:0:0:0:
320,192,75556,1,2,0:0:0:0:
204,192,75681,1,8,0:0:0:0:
332,192,75931,1,0,0:0:0:0:
20,192,76181,6,0,L|16:88,1,95,2|0,0:0|0:0,0:0:0:0:
208,40,76681,1,8,0:0:0:0:
255,40,76806,1,0,0:0:0:0:
303,40,76931,1,0,0:0:0:0:
188,40,77181,2,0,L|184:140,1,95,2|0,0:0|0:0,0:0:0:0:
384,192,77681,1,4,0:0:0:0:
324,192,77806,1,0,0:0:0:0:
384,192,77931,1,0,0:0:0:0:
72,260,78181,6,0,B|24:260|24:260|76:260,1,95,2|0,0:0|0:0,0:0:0:0:
268,308,78681,1,8,0:0:0:0:
213,284,78806,1,0,0:0:0:0:
158,261,78931,1,0,0:0:0:0:
276,192,79181,1,2,0:0:0:0:
164,192,79431,1,0,0:0:0:0:
364,192,79681,2,0,L|368:88,1,95,12|0,0:0|0:0,0:0:0:0:
164,24,80181,6,0,L|60:24,1,95,2|0,0:0|0:0,0:0:0:0:
264,24,80681,2,0,L|316:24,1,47.5,8|0,0:0|0:0,0:0:0:0:
368,24,80931,2,0,P|444:92|368:156,1,227.999993041992,0|2,0:0|0:0,0:0:0:0:
172,192,81681,1,8,0:0:0:0:
124,228,81806,1,0,0:0:0:0:
124,288,81931,1,0,0:0:0:0:
164,336,82056,1,0,0:0:0:0:
220,336,82181,6,0,L|332:336,1,95,2|0,0:0|0:0,0:0:0:0:
120,260,82681,1,8,0:0:0:0:
232,192,82931,1,0,0:0:0:0:
176,192,83056,1,0,0:0:0:0:
120,192,83181,1,0,0:0:0:0:
312,192,83431,1,8,0:0:0:0:
112,192,83681,2,0,L|108:84,1,95,8|0,0:0|0:0,0:0:0:0:
420,36,84181,6,0,L|476:36,1,47.5,2|0,0:0|0:0,0:0:0:0:
467,36,84556,1,2,0:0:0:0:
352,36,84681,1,8,0:0:0:0:
296,36,84806,1,0,0:0:0:0:
240,36,84931,1,0,0:0:0:0:
436,36,85181,2,0,L|440:148,1,95,2|0,0:0|0:0,0:0:0:0:
108,192,85681,1,4,0:0:0:0:
108,192,86181,6,0,L|168:192,1,47.5,2|0,0:0|0:0,0:0:0:0:
268,192,86556,1,0,0:0:0:0:
207,179,86681,1,8,0:0:0:0:
166,132,86806,1,2,0:0:0:0:
163,70,86931,1,0,0:0:0:0:
360,16,87181,2,0,L|364:84,1,47.5,2|0,0:0|0:0,0:0:0:0:
244,132,87556,1,2,0:0:0:0:
360,148,87681,2,0,L|360:248,1,95,8|0,0:0|0:0,0:0:0:0:
256,192,93681,5,2,0:0:0:0:
256,192,94181,12,0,95931,0:0:0:0:
96,192,96181,6,0,P|80:128|108:80,1,104.500003189087,2|0,0:0|0:0,0:0:0:0:
148,60,96556,1,0,0:0:0:0:
264,56,96681,2,0,L|316:56,2,52.2500015945435,8|2|0,0:0|0:0|0:0,0:0:0:0:
368,56,97181,1,2,0:0:0:0:
176,56,97431,1,0,0:0:0:0:
488,56,97681,1,12,0:0:0:0:
488,56,98181,6,0,L|380:56,1,104.500003189087,2|0,0:0|0:0,0:0:0:0:
320,56,98556,1,0,0:0:0:0:
204,56,98681,2,0,L|200:112,1,52.2500015945435,8|4,0:0|0:0,0:0:0:0:
272,148,98931,1,2,0:0:0:0:
88,264,99181,2,0,L|84:160,1,104.500003189087,2|0,0:0|0:0,0:0:0:0:
148,160,99556,1,0,0:0:0:0:
212,160,99681,2,0,L|108:160,1,104.500003189087,2|0,0:0|0:0,0:0:0:0:
432,192,100181,6,0,P|472:276|388:344,1,209.000006378174,2|8,0:0|0:0,0:0:0:0:
332,344,100806,1,0,0:0:0:0:
396,344,100931,1,0,0:0:0:0:
216,344,101181,2,0,L|212:232,1,104.500003189087,2|0,0:0|0:0,0:0:0:0:
416,192,101681,2,0,L|420:128,1,52.2500015945435,4|0,0:0|0:0,0:0:0:0:
416,192,102056,1,0,0:0:0:0:
352,192,102181,6,0,L|236:192,1,104.500003189087,2|0,0:0|0:0,0:0:0:0:
48,192,102681,2,0,L|40:136,2,52.2500015945435,8|0|0,0:0|0:0|0:0,0:0:0:0:
172,192,103181,1,2,0:0:0:0:
56,192,103431,1,0,0:0:0:0:
252,192,103681,2,0,L|368:192,1,104.500003189087,4|0,0:0|0:0,0:0:0:0:
36,192,104181,6,0,P|40:136|96:84,1,104.500003189087,2|0,0:0|0:0,0:0:0:0:
124,84,104556,1,0,0:0:0:0:
240,84,104681,2,0,L|300:84,2,52.2500015945435,8|0|0,0:0|0:0|0:0,0:0:0:0:
124,84,105181,1,2,0:0:0:0:
336,84,105431,1,0,0:0:0:0:
16,68,105681,1,4,0:0:0:0:
16,68,106181,6,0,L|124:68,1,104.500003189087,2|0,0:0|0:0,0:0:0:0:
180,68,106556,1,0,0:0:0:0:
296,68,106681,2,0,L|300:124,1,52.2500015945435,8|4,0:0|0:0,0:0:0:0:
228,160,106931,1,2,0:0:0:0:
412,276,107181,2,0,L|416:172,1,104.500003189087,0|0,0:0|0:0,0:0:0:0:
352,172,107556,1,0,0:0:0:0:
288,172,107681,2,0,L|392:172,1,104.500003189087,8|0,0:0|0:0,0:0:0:0:
68,192,108181,6,0,P|40:280|128:348,1,209.000006378174,2|8,0:0|0:0,0:0:0:0:
184,348,108806,1,0,0:0:0:0:
120,348,108931,1,0,0:0:0:0:
300,348,109181,2,0,L|304:236,1,104.500003189087,2|8,0:0|0:0,0:0:0:0:
100,196,109681,2,0,L|96:132,1,52.2500015945435,4|0,0:0|0:0,0:0:0:0:
100,196,110056,1,0,0:0:0:0:
160,196,110181,6,0,L|264:196,1,104.500003189087,2|0,0:0|0:0,0:0:0:0:
460,192,110681,2,0,L|468:136,2,52.2500015945435,8|0|0,0:0|0:0|0:0,0:0:0:0:
336,192,111181,1,2,0:0:0:0:
452,192,111431,1,0,0:0:0:0:
136,192,111681,2,0,L|132:84,1,104.500003189087,2|0,0:0|0:0,0:0:0:0:
