osu file format v14

[General]
AudioFilename: audio.mp3
AudioLeadIn: 0
PreviewTime: 80181
Countdown: 0
SampleSet: Soft
StackLeniency: 0.7
Mode: 2
LetterboxInBreaks: 0
WidescreenStoryboard: 0

[Editor]
Bookmarks: 181,16181,32181,48181,64181,80181,88181,96181,112181
DistanceSpacing: 1
BeatDivisor: 4
GridSize: 4
TimelineZoom: 1.5

[Metadata]
Title:trans rights
TitleUnicode:trans rights
Artist:in love with a ghost
ArtistUnicode:in love with a ghost
Creator:JBHyperion
Version:overdose
Source:
Tags:Playful Spirits ilwag electronic instrumental lo-fi chillwave ambient chillout electronica transgender pride LGBT LGBTQ fa featured artist mappers' guild mpg
BeatmapID:3567709
BeatmapSetID:1744475

[Difficulty]
HPDrainRate:6
CircleSize:4
OverallDifficulty:7
ApproachRate:7
SliderMultiplier:2.2
SliderTickRate:2

[Events]
//Background and Video events
0,0,"trans-1792756.jpg",0,0
//Break Periods
//Storyboard Layer 0 (Background)
//Storyboard Layer 1 (Fail)
//Storyboard Layer 2 (Pass)
//Storyboard Layer 3 (Foreground)
//Storyboard Layer 4 (Overlay)
//Storyboard Sound Samples

[TimingPoints]
181,500,4,2,1,40,1,0
16681,-100,4,3,0,40,0,0
16931,-100,4,2,1,40,0,0
17931,-100,4,3,0,40,0,0
18181,-100,4,2,1,40,0,0
19931,-100,4,3,0,40,0,0
20181,-100,4,2,1,40,0,0
20681,-100,4,3,0,40,0,0
20931,-100,4,2,1,40,0,0
22681,-100,4,3,0,40,0,0
22931,-100,4,2,1,40,0,0
24681,-100,4,3,0,40,0,0
24931,-100,4,2,1,40,0,0
27556,-100,4,2,2,40,0,0
27681,-100,4,2,1,40,0,0
27931,-100,4,3,0,40,0,0
28181,-100,4,2,1,40,0,0
28681,-100,4,3,0,40,0,0
28931,-100,4,2,1,40,0,0
30681,-100,4,3,0,40,0,0
30931,-100,4,2,1,40,0,0
31931,-100,4,3,0,40,0,0
32181,-100,4,2,2,30,0,0
34556,-100,4,2,1,40,0,0
35556,-100,4,2,2,40,0,0
35681,-100,4,2,1,40,0,0
36681,-100,4,3,0,40,0,0
36931,-100,4,2,1,40,0,0
38681,-100,4,3,0,40,0,0
38931,-100,4,2,1,40,0,0
39931,-100,4,3,0,40,0,0
40181,-100,4,2,1,40,0,0
40681,-100,4,3,0,40,0,0
40931,-100,4,2,1,40,0,0
41931,-100,4,3,0,40,0,0
42181,-100,4,2,1,40,0,0
43556,-100,4,2,2,40,0,0
43681,-100,4,2,1,40,0,0
43931,-100,4,3,0,40,0,0
44181,-100,4,2,1,40,0,0
44681,-100,4,3,0,40,0,0
44931,-100,4,2,1,40,0,0
46681,-100,4,3,0,40,0,0
46931,-100,4,2,1,40,0,0
47931,-100,4,3,0,40,0,0
48181,-100,4,2,1,40,0,0
48681,-100,4,3,0,40,0,0
48931,-100,4,2,1,40,0,0
51556,-100,4,2,2,40,0,0
51681,-100,4,2,1,40,0,0
52681,-100,4,3,0,40,0,0
52931,-100,4,2,1,40,0,0
54681,-100,4,3,0,40,0,0
54931,-100,4,2,1,40,0,0
55931,-100,4,3,0,40,0,0
56181,-100,4,2,1,40,0,0
56681,-100,4,3,0,40,0,0
56931,-100,4,2,1,40,0,0
58056,-100,4,3,0,40,0,0
58306,-100,4,2,1,40,0,0
59556,-100,4,2,2,40,0,0
59681,-100,4,2,1,40,0,0
59931,-100,4,3,0,40,0,0
60056,-100,4,2,1,40,0,0
60681,-100,4,3,0,40,0,0
60931,-100,4,2,1,40,0,0
62681,-100,4,3,0,40,0,0
62931,-100,4,2,1,40,0,0
63931,-100,4,3,0,40,0,0
64181,-100,4,2,1,50,0,0
66181,-75.187969924812,4,2,1,50,0,0
66556,-100,4,2,1,50,0,0
67431,-100,4,3,0,50,0,0
67556,-100,4,2,2,50,0,0
67681,-100,4,2,1,50,0,0
68806,-100,4,3,0,50,0,0
68931,-100,4,2,1,50,0,0
71556,-100,4,2,2,50,0,0
71681,-100,4,2,1,50,0,0
72806,-100,4,3,0,50,0,0
73056,-100,4,2,1,50,0,0
73931,-100,4,2,77,50,0,0
74181,-100,4,2,1,50,0,0
74431,-100,4,3,0,50,0,0
74681,-100,4,2,1,50,0,0
75556,-100,4,2,2,50,0,0
75681,-100,4,2,1,50,0,0
76806,-100,4,3,0,50,0,0
77056,-100,4,2,1,50,0,0
77806,-100,4,3,0,50,0,0
78056,-100,4,2,1,50,0,0
78181,-80,4,2,1,50,0,0
78431,-100,4,2,1,50,0,0
78806,-100,4,3,0,50,0,0
78931,-100,4,2,1,50,0,0
79556,-100,4,2,2,50,0,0
79681,-100,4,2,1,50,0,0
80806,-100,4,3,0,50,0,0
81056,-100,4,2,1,50,0,0
81806,-100,4,3,0,50,0,0
81931,-100,4,3,1,50,0,0
82056,-100,4,3,0,50,0,0
82181,-100,4,2,1,50,0,0
83181,-100,4,3,0,50,0,0
83431,-100,4,2,1,50,0,0
83556,-100,4,2,2,50,0,0
83681,-80,4,2,1,50,0,0
83931,-100,4,2,1,50,0,0
84806,-100,4,3,0,50,0,0
84931,-100,4,2,1,50,0,0
85181,-83.3333333333333,4,2,1,50,0,0
85431,-100,4,2,1,50,0,0
87431,-100,4,3,0,50,0,0
87556,-100,4,2,2,50,0,0
87681,-66.6666666666667,4,2,1,50,0,0
87931,-80,4,2,1,50,0,0
88181,-100,4,2,2,30,0,0
93681,-100,4,2,2,40,0,0
94056,-100,4,2,2,30,0,0
94181,-100,4,2,2,30,0,0
94431,-100,4,2,2,25,0,0
94931,-100,4,2,2,20,0,0
95431,-100,4,2,2,15,0,0
95931,-100,4,2,1,5,0,0
96181,-83.3333333333333,4,2,1,40,0,0
96556,-83.3333333333333,4,3,0,40,0,0
96681,-83.3333333333333,4,2,1,40,0,0
96931,-83.3333333333333,4,3,0,40,0,0
97181,-66.6666666666667,4,2,1,40,0,0
97431,-83.3333333333333,4,2,1,40,0,0
98556,-83.3333333333333,4,3,0,40,0,0
98681,-83.3333333333333,4,2,1,40,0,0
99681,-66.6666666666667,4,2,2,40,0,0
99931,-83.3333333333333,4,2,1,40,0,0
100806,-83.3333333333333,4,3,0,40,0,0
100931,-83.3333333333333,4,2,1,40,0,0
101181,-50,4,2,1,40,0,0
101431,-83.3333333333333,4,2,1,40,0,0
101931,-83.3333333333333,4,3,0,40,0,0
102181,-83.3333333333333,4,2,1,40,0,0
102806,-83.3333333333333,4,3,0,40,0,0
102931,-83.3333333333333,4,2,1,40,0,0
103556,-66.6666666666667,4,2,2,40,0,0
103681,-83.3333333333333,4,2,1,40,0,0
104181,-83.3333333333333,4,2,1,50,0,0
104806,-83.3333333333333,4,3,0,50,0,0
104931,-83.3333333333333,4,2,1,50,0,0
105181,-66.6666666666667,4,2,1,50,0,0
105431,-83.3333333333333,4,2,1,50,0,0
106181,-50,4,2,1,50,0,0
106431,-83.3333333333333,4,3,1,50,0,0
106681,-83.3333333333333,4,2,1,50,0,0
106931,-83.3333333333333,4,2,2,50,0,0
107056,-83.3333333333333,4,2,1,50,0,0
107431,-83.3333333333333,4,3,0,50,0,0
107556,-83.3333333333333,4,2,2,50,0,0
107681,-66.6666666666667,4,2,1,50,0,0
107931,-83.3333333333333,4,2,1,50,0,0
108806,-83.3333333333333,4,3,0,50,0,0
108931,-83.3333333333333,4,2,1,50,0,0
109181,-28.5714285714286,4,2,1,50,0,0
109431,-83.3333333333333,4,2,1,50,0,0
109931,-83.3333333333333,4,3,0,50,0,0
110181,-83.3333333333333,4,2,1,50,0,0
110806,-83.3333333333333,4,3,0,50,0,0
110931,-83.3333333333333,4,2,1,50,0,0
111556,-83.3333333333333,4,3,0,50,0,0
111681,-83.3333333333333,4,2,2,50,0,0
111931,-83.3333333333333,4,3,1,50,0,0

[Colours]
Combo1 : 247,168,184
Combo2 : 85,205,252
Combo3 : 220,220,220

[HitObjects]
176,192,16181,5,2,0:0:0:0:
376,192,16306,2,0,P|436:168|428:136,1,110,4|0,0:0|0:0,0:0:0:0:
380,121,16681,1,0,0:0:0:0:
324,124,16806,1,0,0:0:0:0:
324,124,17056,1,2,0:0:0:0:
444,124,17181,2,0,L|448:12,2,110,8|0|0,0:0|0:0|0:0,0:0:0:0:
344,124,17931,1,0,0:0:0:0:
288,124,18056,1,0,0:0:0:0:
232,124,18181,5,0,0:0:0:0:
232,124,18431,1,0,0:0:0:0:
288,124,18556,1,2,0:0:0:0:
96,192,18681,2,0,L|40:192,1,55,8|4,0:0|0:0,0:0:0:0:
168,192,18931,2,0,L|112:192,1,55,8|2,0:0|0:0,0:0:0:0:
240,268,19181,2,0,L|244:328,1,55,8|0,0:0|0:0,0:0:0:0:
164,352,19431,2,0,L|220:352,1,55,0|2,0:0|0:0,0:0:0:0:
344,332,19681,2,0,B|400:332|400:332|340:332,1,110,8|0,0:0|0:0,0:0:0:0:
280,332,20056,1,0,0:0:0:0:
496,296,20181,6,0,L|500:236,2,55,8|0|0,0:0|0:0|0:0,0:0:0:0:
376,192,20681,2,0,L|372:136,1,55
300,192,20931,2,0,L|296:136,1,55,0|2,0:0|0:0,0:0:0:0:
176,192,21181,2,0,L|172:80,1,110,8|0,0:0|0:0,0:0:0:0:
472,192,21681,2,0,L|476:80,1,110,4|0,0:0|0:0,0:0:0:0:
368,92,22181,6,0,L|256:92,1,110
140,92,22681,1,0,0:0:0:0:
200,92,22806,1,0,0:0:0:0:
92,92,23056,1,2,0:0:0:0:
216,92,23181,2,0,L|328:92,1,110,8|0,0:0|0:0,0:0:0:0:
44,92,23681,2,0,P|52:152|104:176,1,110,4|0,0:0|0:0,0:0:0:0:
144,192,24056,1,0,0:0:0:0:
16,192,24181,5,2,0:0:0:0:
216,192,24306,2,0,L|328:192,1,110,4|0,0:0|0:0,0:0:0:0:
264,192,24681,1,0,0:0:0:0:
326,192,24806,1,0,0:0:0:0:
436,192,25056,1,2,0:0:0:0:
296,192,25181,2,0,L|292:312,2,110,8|0|2,0:0|0:0|0:0,0:0:0:0:
408,192,25931,2,0,L|412:264,1,55
348,192,26181,6,0,L|232:192,1,110
184,192,26556,1,2,0:0:0:0:
392,192,26681,2,0,L|448:192,1,55,8|4,0:0|0:0,0:0:0:0:
320,192,26931,2,0,L|380:192,1,55,8|2,0:0|0:0,0:0:0:0:
248,116,27181,2,0,L|244:60,1,55,8|0,0:0|0:0,0:0:0:0:
316,32,27431,1,0,0:0:0:0:
248,116,27556,1,2,0:0:0:0:
448,32,27681,2,0,B|504:32|504:32|444:32,1,110,8|0,0:0|0:0,0:0:0:0:
392,32,28056,1,0,0:0:0:0:
192,32,28181,6,0,L|80:32,1,110,2|0,0:0|0:0,0:0:0:0:
192,32,28681,2,0,L|196:96,1,55
272,84,28931,2,0,L|268:148,1,55
392,144,29181,2,0,L|396:256,1,110,8|0,0:0|0:0,0:0:0:0:
96,368,29681,2,0,L|92:244,1,110,4|0,0:0|0:0,0:0:0:0:
204,268,30181,6,0,L|316:268,1,110
204,268,30681,1,0,0:0:0:0:
260,268,30806,1,0,0:0:0:0:
344,192,31056,1,2,0:0:0:0:
220,192,31181,2,0,L|108:192,1,110,8|0,0:0|0:0,0:0:0:0:
432,72,31681,2,0,L|320:72,1,110,4|0,0:0|0:0,0:0:0:0:
268,72,32056,1,0,0:0:0:0:
212,72,32181,6,0,L|208:192,1,110,2|0,0:0|0:0,0:0:0:0:
368,192,32931,1,0,0:0:0:0:
268,192,33181,2,0,P|196:252|268:332,1,220,2|0,0:0|0:0,0:0:0:0:
368,332,33931,1,0,0:0:0:0:
260,332,34181,6,0,L|144:332,1,110,2|0,0:0|0:0,0:0:0:0:
212,332,34556,1,2,0:0:0:0:
16,192,34681,2,0,L|72:192,1,55,8|4,0:0|0:0,0:0:0:0:
191,240,34931,2,0,L|248:240,1,55,8|2,0:0|0:0,0:0:0:0:
39,192,35181,2,0,L|36:136,1,55,8|0,0:0|0:0,0:0:0:0:
107,116,35431,1,0,0:0:0:0:
39,192,35556,1,2,0:0:0:0:
239,116,35681,2,0,L|352:116,1,110,8|0,0:0|0:0,0:0:0:0:
288,116,36056,1,2,0:0:0:0:
483,116,36181,5,8,0:0:0:0:
484,66,36306,1,0,0:0:0:0:
486,16,36431,1,0,0:0:0:0:
371,16,36681,2,0,L|435:16,1,55
364,16,36931,2,0,L|304:16,1,55,0|2,0:0|0:0,0:0:0:0:
188,16,37181,2,0,L|152:68,2,55,8|0|0,0:0|0:0|0:0,0:0:0:0:
252,16,37556,1,0,0:0:0:0:
52,16,37681,2,0,L|48:128,1,110,4|0,0:0|0:0,0:0:0:0:
168,192,38181,6,0,L|280:192,1,110
388,192,38681,2,0,L|332:192,1,55
400,192,38931,2,0,L|404:256,1,55,0|2,0:0|0:0,0:0:0:0:
276,336,39181,2,0,L|164:336,1,110,8|2,0:0|0:0,0:0:0:0:
456,336,39681,2,0,L|460:272,1,55,4|0,0:0|0:0,0:0:0:0:
388,192,39931,2,0,L|328:192,1,55
476,192,40181,5,2,0:0:0:0:
276,192,40306,1,4,0:0:0:0:
216,164,40431,1,0,0:0:0:0:
193,104,40556,1,0,0:0:0:0:
219,44,40681,2,0,L|280:44,1,55
269,44,41056,1,2,0:0:0:0:
144,44,41181,2,0,L|32:44,2,110,8|0|2,0:0|0:0|0:0,0:0:0:0:
269,44,41931,1,0,0:0:0:0:
328,44,42056,1,0,0:0:0:0:
388,44,42181,6,0,P|388:96|340:136,1,110
280,136,42556,1,2,0:0:0:0:
480,192,42681,2,0,L|420:192,1,55,8|4,0:0|0:0,0:0:0:0:
304,236,42931,2,0,L|244:236,1,55,8|2,0:0|0:0,0:0:0:0:
456,332,43181,2,0,L|460:268,1,55,8|0,0:0|0:0,0:0:0:0:
384,236,43431,1,0,0:0:0:0:
456,332,43556,1,2,0:0:0:0:
256,236,43681,2,0,B|200:236|200:236|260:236,1,110,8|0,0:0|0:0,0:0:0:0:
308,236,44056,1,0,0:0:0:0:
112,236,44181,6,0,L|0:236,1,110,8|0,0:0|0:0,0:0:0:0:
64,236,44556,1,0,0:0:0:0:
124,236,44681,2,0,L|128:168,1,55
204,168,44931,2,0,L|208:108,1,55,0|2,0:0|0:0,0:0:0:0:
324,192,45181,2,0,L|440:192,1,110,8|0,0:0|0:0,0:0:0:0:
372,192,45556,1,0,0:0:0:0:
168,288,45681,2,0,L|164:228,2,55,4|0|0,0:0|0:0|0:0,0:0:0:0:
288,192,46181,6,0,L|292:80,1,110
172,108,46681,1,0,0:0:0:0:
236,108,46806,1,0,0:0:0:0:
236,108,47056,1,2,0:0:0:0:
104,108,47181,2,0,L|100:220,1,110,8|2,0:0|0:0,0:0:0:0:
384,304,47681,2,0,L|448:304,1,55,4|0,0:0|0:0,0:0:0:0:
354,304,47931,2,0,L|352:236,1,55
476,192,48181,5,2,0:0:0:0:
284,192,48306,2,0,L|168:192,1,110,4|0,0:0|0:0,0:0:0:0:
112,192,48681,1,0,0:0:0:0:
174,192,48806,1,0,0:0:0:0:
52,192,49056,1,2,0:0:0:0:
184,192,49181,2,0,L|188:80,1,110,8|0,0:0|0:0,0:0:0:0:
308,192,49681,2,0,P|296:140|244:116,1,110,2|0,0:0|0:0,0:0:0:0:
188,116,50056,1,0,0:0:0:0:
128,116,50181,6,0,L|244:116,1,110
176,116,50556,1,2,0:0:0:0:
380,192,50681,2,0,L|448:192,1,55,8|4,0:0|0:0,0:0:0:0:
300,192,50931,2,0,L|296:132,1,55,8|2,0:0|0:0,0:0:0:0:
96,252,51181,2,0,L|40:252,1,55,8|0,0:0|0:0,0:0:0:0:
164,192,51431,1,0,0:0:0:0:
41,252,51556,1,2,0:0:0:0:
260,192,51681,2,0,L|372:192,1,110,8|0,0:0|0:0,0:0:0:0:
370,192,52056,1,0,0:0:0:0:
148,192,52181,6,0,L|92:192,2,55,8|0|0,0:0|0:0|0:0,0:0:0:0:
268,192,52681,2,0,L|272:132,1,55
192,120,52931,2,0,L|196:56,1,55,0|2,0:0|0:0,0:0:0:0:
64,24,53181,1,8,0:0:0:0:
62,73,53306,1,0,0:0:0:0:
60,123,53431,1,0,0:0:0:0:
120,152,53556,1,0,0:0:0:0:
332,192,53681,2,0,L|336:308,1,110,4|0,0:0|0:0,0:0:0:0:
204,352,54181,6,0,L|200:240,1,110
332,192,54681,1,0,0:0:0:0:
272,192,54806,1,0,0:0:0:0:
392,192,55056,1,2,0:0:0:0:
272,192,55181,2,0,L|156:192,1,110,8|2,0:0|0:0,0:0:0:0:
464,192,55681,2,0,L|468:136,1,55,4|0,0:0|0:0,0:0:0:0:
400,80,55931,2,0,L|340:80,1,55
480,80,56181,5,2,0:0:0:0:
272,80,56306,2,0,L|216:80,2,55,4|0|0,0:0|0:0|0:0,0:0:0:0:
332,80,56681,1,0,0:0:0:0:
264,80,56806,1,0,0:0:0:0:
396,80,57056,1,2,0:0:0:0:
184,160,57181,2,0,B|128:160|128:160|188:160,1,110,8|0,0:0|0:0,0:0:0:0:
310,160,57681,2,0,L|198:160,1,110,2|0,0:0|0:0,0:0:0:0:
140,160,58056,1,0,0:0:0:0:
80,160,58181,6,0,L|76:48,1,110
136,60,58556,1,2,0:0:0:0:
16,160,58681,1,8,0:0:0:0:
216,192,58806,1,4,0:0:0:0:
104,192,58931,2,0,L|100:268,1,55,8|2,0:0|0:0,0:0:0:0:
312,324,59181,2,0,L|368:324,1,55,8|0,0:0|0:0,0:0:0:0:
244,324,59431,1,0,0:0:0:0:
372,324,59556,1,2,0:0:0:0:
156,324,59681,2,0,B|100:324|100:324|100:264,1,110,8|0,0:0|0:0,0:0:0:0:
156,268,60056,1,2,0:0:0:0:
372,192,60181,6,0,L|260:192,1,110,8|0,0:0|0:0,0:0:0:0:
200,192,60556,1,0,0:0:0:0:
262,192,60681,2,0,L|320:192,1,55
244,120,60931,2,0,L|304:120,1,55,0|2,0:0|0:0,0:0:0:0:
424,120,61181,1,8,0:0:0:0:
435,184,61306,1,0,0:0:0:0:
406,243,61431,1,0,0:0:0:0:
347,272,61556,1,0,0:0:0:0:
136,280,61681,2,0,L|24:280,1,110,4|0,0:0|0:0,0:0:0:0:
156,192,62181,6,0,L|44:192,1,110
108,192,62556,1,0,0:0:0:0:
176,192,62681,1,0,0:0:0:0:
108,192,62806,1,0,0:0:0:0:
228,192,63056,1,2,0:0:0:0:
100,192,63181,2,0,L|96:80,1,110,8|2,0:0|0:0,0:0:0:0:
372,48,63681,2,0,L|376:116,1,55,4|0,0:0|0:0,0:0:0:0:
240,192,63931,2,0,L|296:192,1,55
484,192,64181,6,0,P|504:264|440:316,1,165,2|0,0:0|0:0,0:0:0:0:
320,316,64681,2,0,L|256:316,1,55,8|0,0:0|0:0,0:0:0:0:
328,316,64931,2,0,L|332:248,1,55
216,316,65181,2,0,L|212:200,1,110,2|0,0:0|0:0,0:0:0:0:
432,192,65681,1,8,0:0:0:0:
432,192,65931,1,0,0:0:0:0:
372,192,66056,1,0,0:0:0:0:
172,192,66181,6,0,B|100:192|100:192|168:192|168:192|168:112,1,219.449990958939,2|0,0:0|0:0,0:0:0:0:
44,108,66681,1,8,0:0:0:0:
44,108,66931,1,0,0:0:0:0:
104,108,67056,1,0,0:0:0:0:
224,108,67181,2,0,L|228:172,1,55,2|0,0:0|0:0,0:0:0:0:
100,244,67431,2,0,L|156:244,1,55,0|2,0:0|0:0,0:0:0:0:
276,192,67681,1,8,0:0:0:0:
116,244,67931,1,2,0:0:0:0:
436,192,68181,6,0,B|440:84|440:84|384:80,1,165,2|0,0:0|0:0,0:0:0:0:
264,152,68681,2,0,L|260:92,1,55,8|0,0:0|0:0,0:0:0:0:
336,92,68931,1,0,0:0:0:0:
156,32,69181,2,0,L|152:156,1,110,2|0,0:0|0:0,0:0:0:0:
352,192,69681,2,0,L|420:192,2,55,8|0|0,0:0|0:0|0:0,0:0:0:0:
288,192,70056,1,0,0:0:0:0:
492,192,70181,6,0,B|496:136|496:136|440:120,1,110,2|0,0:0|0:0,0:0:0:0:
196,192,70681,1,8,0:0:0:0:
136,192,70806,1,0,0:0:0:0:
76,192,70931,1,0,0:0:0:0:
272,68,71181,2,0,B|328:68|328:68|268:68,1,110,2|0,0:0|0:0,0:0:0:0:
336,68,71556,1,0,0:0:0:0:
146,68,71681,1,8,0:0:0:0:
296,152,71931,2,0,L|300:188,1,27.5,4|0,0:0|0:0,0:0:0:0:
32,192,72181,6,0,B|24:248|24:248|72:272,1,110,2|0,0:0|0:0,0:0:0:0:
132,272,72556,1,0,0:0:0:0:
248,180,72681,1,8,0:0:0:0:
184,180,72806,1,0,0:0:0:0:
120,180,72931,1,0,0:0:0:0:
312,300,73181,2,0,L|424:300,1,110,2|0,0:0|0:0,0:0:0:0:
208,192,73681,1,8,0:0:0:0:
364,192,73931,1,6,0:0:0:0:
56,192,74181,6,0,B|0:192|0:192|60:192,1,110,2|0,0:0|0:0,0:0:0:0:
112,192,74556,1,0,0:0:0:0:
312,192,74681,2,0,L|248:192,1,55,8|4,0:0|0:0,0:0:0:0:
316,192,74931,2,0,L|372:192,1,55,0|2,0:0|0:0,0:0:0:0:
248,192,75181,2,0,L|136:192,1,110,2|8,0:0|0:0,0:0:0:0:
272,192,75556,1,2,0:0:0:0:
60,192,75681,2,0,L|56:132,1,55,8|0,0:0|0:0,0:0:0:0:
172,104,75931,2,0,L|176:44,1,55
384,28,76181,6,0,B|440:28|440:28|376:28,1,110,2|0,0:0|0:0,0:0:0:0:
180,192,76681,1,8,0:0:0:0:
120,192,76806,1,0,0:0:0:0:
184,192,76931,2,0,L|244:192,1,55
356,304,77181,2,0,L|360:188,1,110,2|0,0:0|0:0,0:0:0:0:
52,192,77681,2,0,L|48:136,1,55,4|0,0:0|0:0,0:0:0:0:
160,192,77931,2,0,L|164:128,1,55
352,192,78181,6,0,L|496:192,1,137.5,2|0,0:0|0:0,0:0:0:0:
177,192,78681,2,0,L|173:124,1,55,8|0,0:0|0:0,0:0:0:0:
248,112,78931,1,0,0:0:0:0:
444,112,79181,1,2,0:0:0:0:
324,112,79431,1,0,0:0:0:0:
444,112,79556,1,2,0:0:0:0:
236,112,79681,2,0,L|120:112,1,110,12|0,0:0|0:0,0:0:0:0:
336,112,80181,6,0,B|344:168|344:168|296:192,1,110,2|0,0:0|0:0,0:0:0:0:
240,192,80556,1,0,0:0:0:0:
108,192,80681,2,0,L|104:260,1,55,8|0,0:0|0:0,0:0:0:0:
328,340,80931,2,0,P|256:288|328:212,1,220,0|2,0:0|0:0,0:0:0:0:
384,208,81556,1,0,0:0:0:0:
184,192,81681,2,0,L|120:192,2,55,8|0|0,0:0|0:0|0:0,0:0:0:0:
120,192,82056,1,0,0:0:0:0:
324,96,82181,6,0,L|208:96,1,110,2|0,0:0|0:0,0:0:0:0:
424,96,82681,1,8,0:0:0:0:
352,40,82931,1,0,0:0:0:0:
424,96,83056,1,0,0:0:0:0:
304,40,83181,2,0,L|240:40,1,55
456,192,83431,2,0,L|400:192,1,55,8|0,0:0|0:0,0:0:0:0:
208,192,83681,2,0,L|348:192,1,137.5,8|0,0:0|0:0,0:0:0:0:
28,192,84181,6,0,L|24:256,1,55,2|0,0:0|0:0,0:0:0:0:
124,312,84556,1,2,0:0:0:0:
240,272,84681,2,0,L|244:212,1,55,8|0,0:0|0:0,0:0:0:0:
176,192,84931,1,0,0:0:0:0:
376,192,85181,2,0,L|508:192,1,131.99999597168,2|0,0:0|0:0,0:0:0:0:
124,192,85681,1,4,0:0:0:0:
124,192,86014,1,0,0:0:0:0:
172,192,86097,1,0,0:0:0:0:
344,192,86181,6,0,L|348:132,1,55,2|0,0:0|0:0,0:0:0:0:
272,80,86431,2,0,L|332:80,1,55
200,80,86681,2,0,L|140:80,2,55,8|2|0,0:0|0:0|0:0,0:0:0:0:
328,80,87181,1,2,0:0:0:0:
200,80,87306,1,0,0:0:0:0:
264,80,87431,1,0,0:0:0:0:
72,80,87556,1,2,0:0:0:0:
292,168,87681,2,0,L|460:168,1,165.000006294251,8|0,0:0|0:0,0:0:0:0:
216,336,88181,6,0,P|156:288|160:248,1,110,2|0,0:0|0:0,0:0:0:0:
176,208,88556,1,0,0:0:0:0:
228,192,88681,2,0,L|340:192,1,110,8|0,0:0|0:0,0:0:0:0:
136,104,89181,2,0,L|234:54,2,110
448,32,89931,6,0,L|448:148,1,110,2|0,0:0|0:0,0:0:0:0:
288,128,90681,2,0,L|284:240,1,110,8|0,0:0|0:0,0:0:0:0:
388,192,91181,1,0,0:0:0:0:
330,212,91306,1,0,0:0:0:0:
272,236,91431,1,8,0:0:0:0:
456,328,91681,2,0,L|361:272,1,110,2|0,0:0|0:0,0:0:0:0:
264,276,92181,5,0,0:0:0:0:
376,272,92431,1,8,0:0:0:0:
216,276,92681,1,0,0:0:0:0:
396,272,92931,1,2,0:0:0:0:
288,272,93181,2,0,L|284:160,1,110,8|0,0:0|0:0,0:0:0:0:
76,192,93681,2,0,P|40:136|104:80,1,165,2|0,0:0|0:0,0:0:0:0:
324,80,94181,5,2,0:0:0:0:
256,192,94431,12,0,95931,0:0:0:0:
128,192,96181,6,0,B|64:192|64:192|132:192,1,131.99999597168,2|0,0:0|0:0,0:0:0:0:
200,192,96556,1,0,0:0:0:0:
416,192,96681,2,0,L|344:192,2,65.9999979858399,8|2|0,0:0|0:0|0:0,0:0:0:0:
200,192,97181,2,0,L|368:192,1,165.000006294251,2|0,0:0|0:0,0:0:0:0:
32,192,97681,1,12,0:0:0:0:
32,192,98181,6,0,L|164:192,1,131.99999597168,2|0,0:0|0:0,0:0:0:0:
98,192,98556,1,0,0:0:0:0:
296,192,98681,2,0,L|300:120,1,65.9999979858399,8|4,0:0|0:0,0:0:0:0:
172,60,98931,2,0,L|240:60,1,65.9999979858399,2|0,0:0|0:0,0:0:0:0:
360,36,99181,2,0,L|364:120,1,65.9999979858399,2|0,0:0|0:0,0:0:0:0:
236,192,99431,1,0,0:0:0:0:
363,101,99556,1,0,0:0:0:0:
124,192,99681,2,0,B|40:192|40:192|40:276,1,165.000006294251,2|0,0:0|0:0,0:0:0:0:
276,368,100181,6,0,L|280:236,1,131.99999597168,2|0,0:0|0:0,0:0:0:0:
40,273,100681,1,8,0:0:0:0:
100,256,100806,1,0,0:0:0:0:
160,234,100931,1,0,0:0:0:0:
404,192,101181,2,0,L|184:192,1,220,2|0,0:0|0:0,0:0:0:0:
492,192,101681,2,0,L|496:124,1,65.9999979858399,4|0,0:0|0:0,0:0:0:0:
408,112,101931,2,0,L|412:44,1,65.9999979858399
200,32,102181,6,0,B|132:32|132:32|204:32,1,131.99999597168,2|0,0:0|0:0,0:0:0:0:
260,32,102556,1,0,0:0:0:0:
132,32,102681,2,0,L|124:104,2,65.9999979858399,8|0|0,0:0|0:0|0:0,0:0:0:0:
356,192,103181,1,2,0:0:0:0:
212,192,103431,1,0,0:0:0:0:
344,192,103556,1,0,0:0:0:0:
104,192,103681,1,4,0:0:0:0:
212,192,103931,2,0,L|280:192,1,65.9999979858399
484,192,104181,6,0,P|504:260|456:320,1,131.99999597168,2|0,0:0|0:0,0:0:0:0:
408,336,104556,1,0,0:0:0:0:
200,336,104681,1,8,0:0:0:0:
272,336,104806,1,0,0:0:0:0:
200,336,104931,1,0,0:0:0:0:
444,192,105181,2,0,L|448:20,1,165.000006294251,2|0,0:0|0:0,0:0:0:0:
88,192,105681,1,4,0:0:0:0:
88,192,106181,6,0,L|312:192,1,220,2|0,0:0|0:0,0:0:0:0:
376,192,106556,1,0,0:0:0:0:
152,192,106681,2,0,L|148:124,1,65.9999979858399,8|4,0:0|0:0,0:0:0:0:
268,60,106931,2,0,L|200:60,1,65.9999979858399,2|2,0:0|0:0,0:0:0:0:
328,60,107181,2,0,L|332:140,1,65.9999979858399
204,216,107431,1,0,0:0:0:0:
331,125,107556,1,2,0:0:0:0:
116,216,107681,2,0,P|60:272|116:320,1,165.000006294251,8|0,0:0|0:0,0:0:0:0:
452,352,108181,6,0,L|456:220,1,131.99999597168,2|0,0:0|0:0,0:0:0:0:
224,250,108681,1,8,0:0:0:0:
280,234,108806,1,0,0:0:0:0:
336,218,108931,1,0,0:0:0:0:
16,192,109181,2,0,L|412:192,1,385.000003671646,2|8,0:0|0:0,0:0:0:0:
80,100,109681,2,0,L|148:100,1,65.9999979858399,4|0,0:0|0:0,0:0:0:0:
68,100,109931,2,0,L|64:32,1,65.9999979858399
280,28,110181,6,0,B|344:28|344:28|344:96,1,131.99999597168,2|0,0:0|0:0,0:0:0:0:
280,96,110556,1,0,0:0:0:0:
76,192,110681,2,0,L|8:192,2,65.9999979858399,8|0|0,0:0|0:0|0:0,0:0:0:0:
292,192,111181,2,0,L|160:192,1,131.99999597168,2|0,0:0|0:0,0:0:0:0:
368,192,111556,1,0,0:0:0:0:
120,192,111681,1,2,0:0:0:0:
260,192,111931,2,0,L|264:264,1,65.9999979858399
