osu file format v14

[General]
AudioFilename: audio.mp3
AudioLeadIn: 0
PreviewTime: 80181
Countdown: 0
SampleSet: Soft
StackLeniency: 0.7
Mode: 2
LetterboxInBreaks: 0
WidescreenStoryboard: 1

[Editor]
Bookmarks: 181,16181,32181,48181,64181,80181,88181,96181,112181
DistanceSpacing: 1
BeatDivisor: 4
GridSize: 4
TimelineZoom: 1.5

[Metadata]
Title:trans rights
TitleUnicode:trans rights
Artist:in love with a ghost
ArtistUnicode:in love with a ghost
Creator:JBHyperion
Version:cup
Source:
Tags:Playful Spirits ilwag electronic instrumental lo-fi chillwave ambient chillout electronica transgender pride LGBT LGBTQ fa featured artist mappers' guild mpg
BeatmapID:3567708
BeatmapSetID:1744475

[Difficulty]
HPDrainRate:2
CircleSize:2.5
OverallDifficulty:5
ApproachRate:5
SliderMultiplier:1.7
SliderTickRate:2

[Events]
//Background and Video events
0,0,"trans-1792756.jpg",0,0
//Break Periods
2,88181,92481
//Storyboard Layer 0 (Background)
//Storyboard Layer 1 (Fail)
//Storyboard Layer 2 (Pass)
//Storyboard Layer 3 (Foreground)
//Storyboard Layer 4 (Overlay)
//Storyboard Sound Samples

[TimingPoints]
181,500,4,2,1,40,1,0
16681,-100,4,3,0,40,0,0
16931,-100,4,2,1,40,0,0
17931,-100,4,3,0,40,0,0
18181,-100,4,2,1,40,0,0
19931,-100,4,3,0,40,0,0
20181,-100,4,2,1,40,0,0
20681,-100,4,3,0,40,0,0
20931,-100,4,2,1,40,0,0
22681,-100,4,3,0,40,0,0
22931,-100,4,2,1,40,0,0
24681,-100,4,3,0,40,0,0
24931,-100,4,2,1,40,0,0
27556,-100,4,2,2,40,0,0
27681,-100,4,2,1,40,0,0
27931,-100,4,3,0,40,0,0
28181,-100,4,2,1,40,0,0
28681,-100,4,3,0,40,0,0
28931,-100,4,2,1,40,0,0
30681,-100,4,3,0,40,0,0
30931,-100,4,2,1,40,0,0
31931,-100,4,3,0,40,0,0
32181,-100,4,2,2,30,0,0
34556,-100,4,2,1,40,0,0
35556,-100,4,2,2,40,0,0
35681,-100,4,2,1,40,0,0
36681,-100,4,3,0,40,0,0
36931,-100,4,2,1,40,0,0
38681,-100,4,3,0,40,0,0
38931,-100,4,2,1,40,0,0
39931,-100,4,3,0,40,0,0
40181,-80,4,2,1,40,0,0
40681,-100,4,3,0,40,0,0
40931,-100,4,2,1,40,0,0
41931,-100,4,3,0,40,0,0
42181,-100,4,2,1,40,0,0
43556,-100,4,2,2,40,0,0
43681,-100,4,2,1,40,0,0
43931,-100,4,3,0,40,0,0
44181,-100,4,2,1,40,0,0
44681,-100,4,3,0,40,0,0
44931,-100,4,2,1,40,0,0
46681,-100,4,3,0,40,0,0
46931,-100,4,2,1,40,0,0
47931,-100,4,3,0,40,0,0
48181,-80,4,2,1,40,0,0
48681,-100,4,3,0,40,0,0
48931,-100,4,2,1,40,0,0
51556,-100,4,2,2,40,0,0
51681,-100,4,2,1,40,0,0
52681,-100,4,3,0,40,0,0
52931,-100,4,2,1,40,0,0
54681,-100,4,3,0,40,0,0
54931,-100,4,2,1,40,0,0
55931,-100,4,3,0,40,0,0
56181,-100,4,2,1,40,0,0
56681,-100,4,3,0,40,0,0
56931,-100,4,2,1,40,0,0
58056,-100,4,3,0,40,0,0
58306,-100,4,2,1,40,0,0
59556,-100,4,2,2,40,0,0
59681,-100,4,2,1,40,0,0
59931,-100,4,3,0,40,0,0
60056,-100,4,2,1,40,0,0
60681,-100,4,3,0,40,0,0
60931,-100,4,2,1,40,0,0
62681,-100,4,3,0,40,0,0
62931,-100,4,2,1,40,0,0
63931,-100,4,3,0,40,0,0
64181,-100,4,2,1,50,0,0
66181,-100,4,2,1,50,0,0
66556,-100,4,2,1,50,0,0
67431,-100,4,3,0,50,0,0
67556,-100,4,2,2,50,0,0
67681,-100,4,2,1,50,0,0
68806,-100,4,3,0,50,0,0
68931,-100,4,2,1,50,0,0
71556,-100,4,2,2,50,0,0
71681,-100,4,2,1,50,0,0
72806,-100,4,3,0,50,0,0
73056,-100,4,2,1,50,0,0
73931,-100,4,2,77,50,0,0
74181,-100,4,2,1,50,0,0
74431,-100,4,3,0,50,0,0
74681,-100,4,2,1,50,0,0
75556,-100,4,2,2,50,0,0
75681,-100,4,2,1,50,0,0
76806,-100,4,3,0,50,0,0
77056,-100,4,2,1,50,0,0
77806,-100,4,3,0,50,0,0
78056,-100,4,2,1,50,0,0
78181,-100,4,2,1,50,0,0
78431,-100,4,2,1,50,0,0
78806,-100,4,3,0,50,0,0
78931,-100,4,2,1,50,0,0
79556,-100,4,2,2,50,0,0
79681,-100,4,2,1,50,0,0
80806,-100,4,3,0,50,0,0
81056,-100,4,2,1,50,0,0
81806,-100,4,3,0,50,0,0
81931,-100,4,3,1,50,0,0
82056,-100,4,3,0,50,0,0
82181,-100,4,2,1,50,0,0
83181,-100,4,3,0,50,0,0
83431,-100,4,2,1,50,0,0
83556,-100,4,2,2,50,0,0
83681,-100,4,2,1,50,0,0
83931,-100,4,2,1,50,0,0
84806,-100,4,3,0,50,0,0
84931,-100,4,2,1,50,0,0
85181,-100,4,2,1,50,0,0
85431,-100,4,2,1,50,0,0
87431,-100,4,3,0,50,0,0
87556,-100,4,2,2,50,0,0
87681,-100,4,2,1,50,0,0
87931,-100,4,2,1,50,0,0
88181,-100,4,2,2,30,0,0
93681,-100,4,2,2,40,0,0
94056,-100,4,2,2,30,0,0
94181,-100,4,2,2,30,0,0
94431,-100,4,2,2,25,0,0
94931,-100,4,2,2,20,0,0
95431,-100,4,2,2,15,0,0
95681,-100,4,2,0,5,0,0
95931,-100,4,2,1,5,0,0
96181,-100,4,2,1,40,0,0
96556,-100,4,3,0,40,0,0
96681,-100,4,2,1,40,0,0
96931,-100,4,3,0,40,0,0
97181,-100,4,2,1,40,0,0
97431,-100,4,2,1,40,0,0
98556,-100,4,3,0,40,0,0
98681,-100,4,2,1,40,0,0
99681,-100,4,2,2,40,0,0
99931,-100,4,2,1,40,0,0
100806,-100,4,3,0,40,0,0
100931,-100,4,2,1,40,0,0
101181,-100,4,2,1,40,0,0
101431,-100,4,2,1,40,0,0
101931,-100,4,3,0,40,0,0
102181,-100,4,2,1,40,0,0
102806,-100,4,3,0,40,0,0
102931,-100,4,2,1,40,0,0
103556,-100,4,2,2,40,0,0
103681,-100,4,2,1,40,0,0
104181,-100,4,2,1,50,0,0
104806,-100,4,3,0,50,0,0
104931,-100,4,2,1,50,0,0
105181,-100,4,2,1,50,0,0
105431,-100,4,2,1,50,0,0
106181,-100,4,2,1,50,0,0
106431,-100,4,3,1,50,0,0
106681,-100,4,2,1,50,0,0
106931,-100,4,2,2,50,0,0
107056,-100,4,2,1,50,0,0
107431,-100,4,3,0,50,0,0
107556,-100,4,2,2,50,0,0
107681,-100,4,2,1,50,0,0
107931,-100,4,2,1,50,0,0
108806,-100,4,3,0,50,0,0
108931,-100,4,2,1,50,0,0
109181,-100,4,2,1,50,0,0
109431,-100,4,2,1,50,0,0
109931,-100,4,3,0,50,0,0
110181,-100,4,2,1,50,0,0
110806,-100,4,3,0,50,0,0
110931,-100,4,2,1,50,0,0
111556,-100,4,3,0,50,0,0
111681,-100,4,2,2,50,0,0
111931,-100,4,3,1,50,0,0

[Colours]
Combo1 : 247,168,184
Combo2 : 85,205,252
Combo3 : 220,220,220

[HitObjects]
184,192,16181,6,0,P|132:152|188:84,1,170,2|0,0:0|0:0,0:0:0:0:
280,84,16931,1,0,0:0:0:0:
372,84,17181,2,0,L|200:84,1,170,8|0,0:0|0:0,0:0:0:0:
32,84,18181,6,0,L|28:200,1,85,0|0,0:0|0:0,0:0:0:0:
124,192,18681,2,0,L|216:192,2,85,8|8|8,0:0|0:0|0:0,0:0:0:0:
29,168,19431,1,0,0:0:0:0:
132,192,19681,1,8,0:0:0:0:
304,192,20181,6,0,P|356:232|300:300,1,170,8|0,0:0|0:0,0:0:0:0:
208,300,20931,1,0,0:0:0:0:
116,300,21181,1,8,0:0:0:0:
303,299,21681,1,4,0:0:0:0:
132,300,22181,6,0,P|140:236|228:192,1,170,0|0,0:0|0:0,0:0:0:0:
312,192,22931,1,0,0:0:0:0:
396,192,23181,2,0,L|400:104,1,85,8|0,0:0|0:0,0:0:0:0:
296,88,23681,2,0,L|200:88,1,85,4|0,0:0|0:0,0:0:0:0:
126,88,24181,6,0,L|306:88,1,170,2|0,0:0|0:0,0:0:0:0:
380,88,24931,1,0,0:0:0:0:
288,88,25181,2,0,P|240:156|288:212,1,170,8|2,0:0|0:0,0:0:0:0:
460,332,26181,6,0,P|448:268|360:212,1,170,0|8,0:0|0:0,0:0:0:0:
264,212,26931,1,8,0:0:0:0:
164,212,27181,1,8,0:0:0:0:
248,212,27431,1,0,0:0:0:0:
148,212,27681,2,0,L|144:128,1,85,8|0,0:0|0:0,0:0:0:0:
232,76,28181,6,0,P|280:88|320:192,1,170,2|0,0:0|0:0,0:0:0:0:
236,192,28931,1,0,0:0:0:0:
152,192,29181,1,8,0:0:0:0:
340,192,29681,1,4,0:0:0:0:
152,344,30181,6,0,P|48:284|40:236,1,170,0|0,0:0|0:0,0:0:0:0:
68,168,30931,1,0,0:0:0:0:
149,139,31181,2,0,L|236:140,2,85,8|0|4,0:0|0:0|0:0,0:0:0:0:
352,140,32181,6,0,L|356:332,1,170,2|0,0:0|0:0,0:0:0:0:
152,308,33181,2,0,P|256:198|356:312,1,340,2|2,0:0|0:0,0:0:0:0:
152,308,34681,5,8,0:0:0:0:
252,308,34931,1,8,0:0:0:0:
352,308,35181,1,8,0:0:0:0:
260,308,35431,1,0,0:0:0:0:
360,308,35681,1,8,0:0:0:0:
172,308,36181,6,0,L|88:308,1,85,8|0,0:0|0:0,0:0:0:0:
80,308,36681,1,0,0:0:0:0:
250,308,37181,2,0,L|70:308,1,170,8|4,0:0|0:0,0:0:0:0:
268,308,38181,6,0,P|308:252|256:176,1,170,0|0,0:0|0:0,0:0:0:0:
172,176,38931,1,0,0:0:0:0:
88,176,39181,1,8,0:0:0:0:
276,176,39681,1,4,0:0:0:0:
72,176,40181,6,0,P|32:84|112:32,1,212.5,2|0,0:0|0:0,0:0:0:0:
204,32,40931,1,0,0:0:0:0:
296,32,41181,2,0,L|124:32,1,170,8|2,0:0|0:0,0:0:0:0:
126,32,42181,5,0,0:0:0:0:
312,112,42681,2,0,L|408:112,2,85,8|8|8,0:0|0:0|0:0,0:0:0:0:
220,112,43431,1,0,0:0:0:0:
320,112,43681,1,8,0:0:0:0:
132,112,44181,6,0,P|60:168|56:248,1,170,8|0,0:0|0:0,0:0:0:0:
112,304,44931,1,0,0:0:0:0:
196,304,45181,2,0,L|24:304,1,170,8|4,0:0|0:0,0:0:0:0:
26,304,46181,6,0,L|196:304,1,170,0|0,0:0|0:0,0:0:0:0:
280,304,46931,1,0,0:0:0:0:
364,304,47181,2,0,L|368:220,1,85,8|2,0:0|0:0,0:0:0:0:
268,192,47681,1,4,0:0:0:0:
456,192,48181,6,0,P|504:112|420:52,1,212.5,2|0,0:0|0:0,0:0:0:0:
337,52,48931,1,0,0:0:0:0:
252,52,49181,2,0,B|168:52|168:52|256:52,1,170,8|2,0:0|0:0,0:0:0:0:
424,52,50181,6,0,L|428:148,1,85,0|0,0:0|0:0,0:0:0:0:
328,160,50681,1,8,0:0:0:0:
265,214,50931,1,8,0:0:0:0:
254,296,51181,1,8,0:0:0:0:
301,364,51431,1,0,0:0:0:0:
382,384,51681,1,8,0:0:0:0:
382,384,52181,6,0,L|212:384,1,170,8|0,0:0|0:0,0:0:0:0:
128,384,52931,1,0,0:0:0:0:
212,384,53181,1,8,0:0:0:0:
36,308,53681,1,4,0:0:0:0:
204,280,54181,6,0,P|224:192|172:128,1,170,0|0,0:0|0:0,0:0:0:0:
88,132,54931,1,0,0:0:0:0:
180,132,55181,2,0,L|264:132,2,85,8|2|4,0:0|0:0|0:0,0:0:0:0:
368,32,56181,6,0,L|192:32,1,170,2|0,0:0|0:0,0:0:0:0:
104,32,56931,1,0,0:0:0:0:
208,32,57181,2,0,L|212:136,1,85,8|0,0:0|0:0,0:0:0:0:
116,120,57681,1,2,0:0:0:0:
304,116,58181,6,0,L|216:116,1,85,0|0,0:0|0:0,0:0:0:0:
312,116,58681,1,8,0:0:0:0:
393,136,58931,1,8,0:0:0:0:
440,204,59181,1,8,0:0:0:0:
429,286,59431,1,0,0:0:0:0:
366,340,59681,2,0,L|272:340,1,85,8|0,0:0|0:0,0:0:0:0:
188,336,60181,6,0,P|136:284|192:228,1,170,8|0,0:0|0:0,0:0:0:0:
288,228,60931,2,0,L|292:144,1,85,0|8,0:0|0:0,0:0:0:0:
104,112,61681,1,4,0:0:0:0:
274,112,62181,6,0,L|102:112,1,170,0|0,0:0|0:0,0:0:0:0:
20,112,62931,1,0,0:0:0:0:
112,112,63181,2,0,L|116:200,1,85,8|2,0:0|0:0,0:0:0:0:
16,200,63681,1,4,0:0:0:0:
115,196,63931,1,0,0:0:0:0:
216,196,64181,6,0,P|300:240|320:308,1,170,2|8,0:0|0:0,0:0:0:0:
228,312,64931,1,0,0:0:0:0:
136,312,65181,2,0,L|132:220,1,85,2|0,0:0|0:0,0:0:0:0:
228,312,65681,1,8,0:0:0:0:
424,192,66181,6,0,L|428:104,1,85,2|0,0:0|0:0,0:0:0:0:
336,108,66681,1,8,0:0:0:0:
244,112,66931,2,0,P|248:204|316:248,1,170,0|0,0:0|0:0,0:0:0:0:
400,248,67681,2,0,L|308:248,1,85,8|2,0:0|0:0,0:0:0:0:
220,248,68181,6,0,L|40:248,1,170,2|8,0:0|0:0,0:0:0:0:
144,248,68931,1,0,0:0:0:0:
236,248,69181,1,2,0:0:0:0:
48,248,69681,2,0,L|44:156,1,85,8|0,0:0|0:0,0:0:0:0:
148,120,70181,6,0,L|248:120,2,85,2|0|8,0:0|0:0|0:0,0:0:0:0:
56,116,70931,2,0,P|88:52|188:40,1,170,0|0,0:0|0:0,0:0:0:0:
272,36,71681,1,8,0:0:0:0:
460,192,72181,6,0,L|288:192,1,170,2|8,0:0|0:0,0:0:0:0:
196,192,72931,1,0,0:0:0:0:
296,192,73181,2,0,L|300:296,1,85,2|0,0:0|0:0,0:0:0:0:
204,276,73681,1,8,0:0:0:0:
28,192,74181,5,2,0:0:0:0:
36,112,74431,1,0,0:0:0:0:
92,56,74681,1,8,0:0:0:0:
168,24,74931,1,0,0:0:0:0:
252,12,75181,2,0,L|338:13,2,85,2|8|8,0:0|0:0|0:0,0:0:0:0:
438,13,76181,6,0,P|450:109|410:173,1,170,2|8,0:0|0:0,0:0:0:0:
322,181,76931,1,0,0:0:0:0:
230,181,77181,2,0,L|406:181,1,170,2|4,0:0|0:0,0:0:0:0:
198,181,78181,6,0,L|106:181,2,85,2|0|8,0:0|0:0|0:0,0:0:0:0:
290,181,78931,2,0,P|338:125|290:57,1,170,0|0,0:0|0:0,0:0:0:0:
194,57,79681,1,12,0:0:0:0:
194,57,80181,6,0,L|290:57,1,85,2|0,0:0|0:0,0:0:0:0:
374,57,80681,1,8,0:0:0:0:
282,57,80931,2,0,P|314:153|378:181,1,170,0|2,0:0|0:0,0:0:0:0:
466,181,81681,2,0,L|470:281,1,85,8|0,0:0|0:0,0:0:0:0:
378,289,82181,6,0,L|206:289,1,170,2|8,0:0|0:0,0:0:0:0:
394,289,83181,2,0,L|398:197,2,85,0|8|8,0:0|0:0|0:0,0:0:0:0:
222,289,84181,6,0,P|138:249|114:181,1,170,2|8,0:0|0:0,0:0:0:0:
206,181,84931,1,0,0:0:0:0:
298,181,85181,2,0,L|294:89,1,85,2|0,0:0|0:0,0:0:0:0:
194,77,85681,1,4,0:0:0:0:
194,77,86181,6,0,L|366:77,1,170,2|8,0:0|0:0,0:0:0:0:
450,77,86931,1,0,0:0:0:0:
358,77,87181,2,0,L|354:173,1,85,2|0,0:0|0:0,0:0:0:0:
458,181,87681,1,8,0:0:0:0:
256,192,93681,5,2,0:0:0:0:
256,192,94181,12,0,95681,0:0:0:0:
132,192,96181,6,0,P|76:136|132:88,1,170,2|8,0:0|0:0,0:0:0:0:
224,88,96931,1,0,0:0:0:0:
316,88,97181,2,0,L|228:88,1,85,2|0,0:0|0:0,0:0:0:0:
332,88,97681,1,12,0:0:0:0:
332,88,98181,6,0,B|416:88|416:88|416:176,1,170,2|8,0:0|0:0,0:0:0:0:
324,192,98931,1,2,0:0:0:0:
232,192,99181,2,0,L|228:288,1,85,2|0,0:0|0:0,0:0:0:0:
332,352,99681,2,0,L|328:264,1,85,2|0,0:0|0:0,0:0:0:0:
228,276,100181,6,0,L|56:276,1,170,2|8,0:0|0:0,0:0:0:0:
144,276,100931,1,0,0:0:0:0:
228,276,101181,2,0,L|232:188,1,85,2|0,0:0|0:0,0:0:0:0:
128,160,101681,1,4,0:0:0:0:
296,192,102181,6,0,P|348:128|296:76,1,170,2|8,0:0|0:0,0:0:0:0:
204,76,102931,1,0,0:0:0:0:
112,76,103181,2,0,L|200:76,1,85,2|0,0:0|0:0,0:0:0:0:
96,76,103681,1,4,0:0:0:0:
248,192,104181,6,0,L|424:192,1,170,2|8,0:0|0:0,0:0:0:0:
332,192,104931,1,0,0:0:0:0:
268,136,105181,1,2,0:0:0:0:
332,80,105431,1,0,0:0:0:0:
432,80,105681,1,4,0:0:0:0:
432,80,106181,6,0,L|260:80,1,170,2|8,0:0|0:0,0:0:0:0:
176,80,106931,1,2,0:0:0:0:
268,80,107181,2,0,L|272:180,1,85,0|0,0:0|0:0,0:0:0:0:
168,192,107681,2,0,L|80:192,1,85,8|0,0:0|0:0,0:0:0:0:
176,192,108181,6,0,P|224:256|176:320,1,170,2|8,0:0|0:0,0:0:0:0:
84,320,108931,1,0,0:0:0:0:
176,320,109181,2,0,L|180:228,1,85,2|8,0:0|0:0,0:0:0:0:
280,192,109681,1,4,0:0:0:0:
280,192,110181,6,0,B|196:192|196:192|196:104,1,170,2|8,0:0|0:0,0:0:0:0:
288,104,110931,1,0,0:0:0:0:
380,104,111181,2,0,L|288:104,1,85,2|0,0:0|0:0,0:0:0:0:
200,104,111681,2,0,L|196:192,1,85,2|0,0:0|0:0,0:0:0:0:
