osu file format v14

[General]
AudioFilename: audio.mp3
AudioLeadIn: 0
PreviewTime: 16056
Countdown: 0
SampleSet: Soft
StackLeniency: 0.7
Mode: 0
LetterboxInBreaks: 0
WidescreenStoryboard: 1

[Editor]
Bookmarks: 42931,64181
DistanceSpacing: 1.4
BeatDivisor: 4
GridSize: 32
TimelineZoom: 1.9

[Metadata]
Title:trans rights
TitleUnicode:trans rights
Artist:in love with a ghost
ArtistUnicode:in love with a ghost
Creator:Aakki
Version:easy
Source:
Tags:mappers' guild mpg playful spirits ilwag electronic instrumental lo-fi chillwave ambient chillout transgender pride month lgbt lgbtq fa featured artist
BeatmapID:3639933
BeatmapSetID:1776686

[Difficulty]
HPDrainRate:2
CircleSize:3
OverallDifficulty:3
ApproachRate:3
SliderMultiplier:0.9
SliderTickRate:1

[Events]
//Background and Video events
0,0,"trans-1792756.jpg",0,0
//Break Periods
2,88381,94741
//Storyboard Layer 0 (Background)
//Storyboard Layer 1 (Fail)
//Storyboard Layer 2 (Pass)
//Storyboard Layer 3 (Foreground)
//Storyboard Layer 4 (Overlay)
//Storyboard Sound Samples

[TimingPoints]
181,500,4,2,0,60,1,0
16181,-100,4,2,0,50,0,0
32181,-100,4,2,0,40,0,0
34431,-100,4,2,0,50,0,0
48181,-100,4,2,0,55,0,0
60181,-100,4,2,0,45,0,0
62181,-100,4,2,0,50,0,0
64181,-100,4,2,0,60,0,0
70181,-100,4,2,0,50,0,0
72181,-100,4,2,0,60,0,0
74181,-100,4,2,0,60,0,0
78181,-100,4,2,0,60,0,0
80181,-100,4,2,0,50,0,0
82681,-100,4,2,0,50,0,0
84181,-100,4,2,0,50,0,0
85681,-100,4,2,0,60,0,0
86181,-100,4,2,0,50,0,0
87681,-100,4,2,0,60,0,0
88181,-100,4,2,0,30,0,0
96181,-100,4,2,0,50,0,0

[Colours]
Combo1 : 247,168,184
Combo2 : 85,205,252
Combo3 : 220,220,220

[HitObjects]
256,192,10931,12,2,14931,0:0:0:0:
57,40,16181,6,0,L|197:68,1,135,4|0,1:2|0:0,0:0:0:0:
246,122,17181,1,10,0:0:0:0:
354,58,17681,1,0,3:0:0:0:
446,143,18181,1,2,3:0:0:0:
402,261,18681,2,0,L|387:355,1,90,8|8,0:0|0:0,0:0:0:0:
304,367,19431,2,0,L|254:377,1,45,8|14,3:0|0:0,0:0:0:0:
153,307,20181,6,0,P|131:271|144:208,1,90,10|0,0:0|3:0,0:0:0:0:
184,160,20931,1,0,3:0:0:0:
133,97,21181,2,0,B|112:29|112:29|77:16,1,90,10|2,0:0|0:1,0:0:0:0:
39,135,22181,6,0,B|24:181|24:181|36:239,1,90,0|0,3:0|3:0,0:0:0:0:
128,302,23181,2,0,B|168:310|168:310|204:360|204:360|252:373,1,135,8|0,0:0|0:0,0:0:0:0:
302,323,24181,6,0,B|310:303|310:303|272:231|272:231|279:195,1,135,0|0,1:0|0:0,0:0:0:0:
341,146,25181,1,10,0:0:0:0:
457,193,25681,1,0,3:0:0:0:
438,317,26181,6,0,P|413:325|391:332,1,45,2|0,3:0|0:0,0:0:0:0:
317,334,26681,2,0,P|295:302|302:250,1,90,8|8,0:0|0:0,0:0:0:0:
353,138,27681,1,14,0:0:0:0:
248,67,28181,6,0,B|200:119|200:119|93:74,1,180,0|8,1:0|0:0,0:0:0:0:
15,170,29681,1,2,0:1:0:0:
77,279,30181,2,0,P|99:261|123:255,1,45,2|2,0:0|0:0,0:0:0:0:
182,301,30681,2,0,P|219:319|268:334,1,90,0|8,3:0|0:0,0:0:0:0:
380,282,31681,2,0,P|394:237|379:183,1,90,10|2,0:1|0:0,0:0:0:0:
385,195,34681,6,0,P|343:207|332:211,1,45,8|8,0:0|0:0,0:0:0:0:
268,173,35181,2,0,P|252:148|241:69,1,90,8|14,0:0|0:0,0:0:0:0:
128,28,36181,6,0,L|105:124,1,90,0|8,1:0|3:0,0:0:0:0:
17,203,37181,1,8,0:0:0:0:
82,310,37681,1,2,0:1:0:0:
207,321,38181,2,0,P|240:311|251:293,1,45,0|0,3:0|3:0,0:0:0:0:
305,248,38681,2,0,P|341:220|391:217,1,90,0|8,3:0|0:0,0:0:0:0:
499,164,39681,1,10,0:1:0:0:
419,65,40181,6,0,B|327:76|355:9|239:22,1,180,0|10,1:0|0:0,0:0:0:0:
150,98,41681,1,0,3:0:0:0:
195,215,42181,2,0,P|218:194|228:179,1,45,2|0,3:0|0:0,0:0:0:0:
304,165,42681,2,0,L|388:212,1,90,8|8,0:0|0:0,0:0:0:0:
506,232,43681,2,0,L|492:181,1,45,14|0,0:0|0:0,0:0:0:0:
496,109,44181,6,0,P|448:107|318:50,1,180,10|10,0:0|0:0,0:0:0:0:
202,40,45681,1,2,0:1:0:0:
101,115,46181,2,0,B|115:156|115:156|130:168,1,45,0|0,3:0|3:0,0:0:0:0:
160,227,46681,2,0,P|195:233|225:288,1,90,0|8,3:0|0:0,0:0:0:0:
328,347,47681,2,0,L|339:286,1,45,2|0,0:1|3:0,0:0:0:0:
378,234,48181,6,0,B|360:169|296:174|293:184|288:196|211:180|169:111|181:104|186:98|165:44|97:40,1,360,4|2,1:2|0:0,0:0:0:0:
36,150,50681,2,0,L|53:204,1,45,8|8,0:0|0:0,0:0:0:0:
82,269,51181,1,8,0:0:0:0:
195,323,51681,1,14,0:0:0:0:
327,294,52181,6,0,B|280:276|280:276|259:30|259:30|197:1,1,360,0|0,1:0|3:0,0:0:0:0:
94,69,54681,2,0,P|77:99|72:119,1,45,0|0,3:0|3:0,0:0:0:0:
118,181,55181,2,0,P|135:214|144:276,1,90,8|10,0:0|0:1,0:0:0:0:
264,304,56181,6,0,P|287:351|398:208,1,360,4|2,1:2|0:0,0:0:0:0:
319,124,58681,2,0,P|288:135|265:134,1,45,8|8,0:0|0:0,0:0:0:0:
198,119,59181,2,0,L|175:215,1,90,8|14,0:0|0:0,0:0:0:0:
103,246,59931,1,0,0:0:0:0:
165,306,60181,6,2,B|247:286|290:362|290:362|344:220|458:248,1,360,2|2,1:0|0:0,0:1:0:0:
456,119,62681,2,0,P|430:144|418:152,1,45,0|0,3:0|0:0,0:0:0:0:
351,113,63181,2,0,P|313:102|264:59,1,90,8|10,0:0|0:1,0:0:0:0:
167,140,64181,5,6,1:2:0:0:
107,251,64681,1,10,0:0:0:0:
151,320,64931,2,0,L|299:296,1,135,2|8,0:3|0:0,0:0:0:0:
379,215,66181,6,0,L|366:164,2,45,2|2|10,1:2|0:0|0:0,0:0:0:0:
449,255,66931,2,0,P|488:238|487:185,1,90,2|2,0:0|3:0,0:0:0:0:
468,118,67681,1,8,0:0:0:0:
350,71,68181,6,0,P|310:110|295:156,1,90,2|8,1:2|0:0,0:0:0:0:
230,192,68931,2,0,P|249:226|264:277,1,90,2|2,0:0|0:1,0:0:0:0:
198,328,69681,1,10,0:1:0:0:
84,273,70181,6,0,P|71:242|70:219,2,45,2|2|10,1:2|0:0|0:0,0:0:0:0:
154,228,70931,2,0,P|196:206|193:151,1,90,2|0,0:0|0:0,0:0:0:0:
136,124,71681,1,8,0:0:0:0:
243,58,72181,6,0,B|265:32|265:32|364:60,1,135,6|2,1:2|3:3,0:0:0:0:
441,81,73181,1,2,1:2:0:0:
493,195,73681,1,8,0:0:0:0:
387,264,74181,6,0,L|403:317,2,45,2|2|8,1:2|3:2|0:0,0:0:0:0:
309,232,74931,2,0,P|256:221|224:245,1,90,0|0,3:0|0:0,0:0:0:0:
159,288,75681,1,10,1:3:0:0:
68,200,76181,5,0,1:3:0:0:
79,117,76431,2,0,P|73:93|41:32,1,90,0|2,3:0|0:0,0:0:0:0:
165,5,77431,1,2,0:1:0:0:
236,53,77681,2,0,L|290:34,1,45,10|0,0:1|0:0,0:0:0:0:
365,44,78181,6,0,B|419:83|419:83|390:201,1,180,2|2,1:2|1:2,0:0:0:0:
402,318,79681,1,10,0:0:0:0:
506,247,80181,6,0,P|494:197|505:141,1,90,2|10,1:2|0:0,0:0:0:0:
395,86,81181,2,0,L|412:37,2,45,0|2|8,1:0|0:1|0:1,0:0:0:0:
311,102,81931,1,2,0:0:0:0:
240,61,82181,6,2,B|93:102|93:102|98:177|185:174,1,270,2|0,1:2|0:0,0:1:0:0:
294,185,84181,6,0,P|333:174|374:144,1,90,2|8,1:2|0:0,0:0:0:0:
411,73,84931,1,2,0:0:0:0:
485,111,85181,2,0,P|492:144|501:167,1,45,0|2,1:0|0:1,0:0:0:0:
473,232,85681,1,10,0:0:0:0:
370,305,86181,6,0,L|276:334,1,90,2|8,1:2|0:0,0:0:0:0:
202,322,86931,2,0,P|166:293|166:288,1,45,2|0,0:0|1:0,0:0:0:0:
147,219,87431,2,0,P|162:189|179:183,1,45,0|14,3:0|0:0,0:0:0:0:
295,164,88181,5,6,1:0:0:0:
314,225,96181,6,0,L|411:202,1,90,6|8,1:2|0:0,0:0:0:0:
460,149,96931,2,0,P|470:123|445:68,1,90,2|2,3:0|0:1,0:0:0:0:
374,30,97681,1,10,0:1:0:0:
260,84,98181,6,0,L|123:122,2,135,2|2|10,1:2|3:0|0:0,0:0:0:0:
325,191,100181,2,0,P|290:253|282:280,1,90,0|8,1:0|0:0,0:0:0:0:
231,331,100931,2,0,P|202:322|170:263,1,90,2|0,0:0|0:0,0:0:0:0:
97,309,101681,1,10,1:1:0:0:
46,193,102181,6,0,B|85:179|85:179|119:129|80:96,1,135,2|2,1:2|3:0,0:0:0:0:
189,33,103431,1,2,0:0:0:0:
255,89,103681,2,0,L|235:149,1,45,10|0,0:0|0:0,0:0:0:0:
187,197,104181,6,0,B|219:261|219:261|221:279,1,90,6|8,1:2|0:0,0:0:0:0:
287,326,104931,2,0,P|353:319|372:290,1,90,2|2,3:0|0:1,0:0:0:0:
436,342,105681,1,10,0:1:0:0:
470,220,106181,6,0,B|459:191|459:191|500:88,2,135,2|2|10,1:2|3:0|0:0,0:0:0:0:
347,250,108181,2,0,P|320:223|320:173,1,90,0|8,1:0|0:0,0:0:0:0:
269,108,108931,2,0,P|239:73|189:71,1,90,2|0,0:0|0:0,0:0:0:0:
127,111,109681,1,10,1:1:0:0:
38,200,110181,6,0,B|62:232|53:266|53:266|90:257|122:281,2,135,2|2|10,1:2|3:0|0:0,0:0:0:0:
