osu file format v14

[General]
AudioFilename: audio.mp3
AudioLeadIn: 0
PreviewTime: 16056
Countdown: 0
SampleSet: Soft
StackLeniency: 0.7
Mode: 0
LetterboxInBreaks: 0
WidescreenStoryboard: 1

[Editor]
Bookmarks: 42931,64181
DistanceSpacing: 1.5
BeatDivisor: 4
GridSize: 32
TimelineZoom: 1.9

[Metadata]
Title:trans rights
TitleUnicode:trans rights
Artist:in love with a ghost
ArtistUnicode:in love with a ghost
Creator:Aakki
Version:normal
Source:
Tags:mappers' guild mpg playful spirits ilwag electronic instrumental lo-fi chillwave ambient chillout transgender pride month lgbt lgbtq fa featured artist
BeatmapID:3639224
BeatmapSetID:1776686

[Difficulty]
HPDrainRate:3
CircleSize:4
OverallDifficulty:4
ApproachRate:4.5
SliderMultiplier:0.95
SliderTickRate:1

[Events]
//Background and Video events
0,0,"trans-1792756.jpg",0,0
//Break Periods
2,88381,94921
//Storyboard Layer 0 (Background)
//Storyboard Layer 1 (Fail)
//Storyboard Layer 2 (Pass)
//Storyboard Layer 3 (Foreground)
//Storyboard Layer 4 (Overlay)
//Storyboard Sound Samples

[TimingPoints]
181,500,4,2,0,60,1,0
16181,-100,4,2,0,50,0,0
32181,-100,4,2,0,40,0,0
34431,-100,4,2,0,50,0,0
48181,-83.3333333333333,4,2,0,55,0,0
60181,-83.3333333333333,4,2,0,45,0,0
62181,-83.3333333333333,4,2,0,50,0,0
64181,-100,4,2,0,60,0,0
70181,-83.3333333333333,4,2,0,50,0,0
72181,-83.3333333333333,4,2,0,60,0,0
74181,-83.3333333333333,4,2,0,60,0,0
78181,-83.3333333333333,4,2,0,60,0,0
80181,-100,4,2,0,50,0,0
82681,-100,4,2,0,50,0,0
84181,-83.3333333333333,4,2,0,50,0,0
85681,-83.3333333333333,4,2,0,60,0,0
86181,-83.3333333333333,4,2,0,50,0,0
87681,-83.3333333333333,4,2,0,60,0,0
88181,-181.818181818181,4,2,0,30,0,0
96181,-83.3333333333333,4,2,0,50,0,0

[Colours]
Combo1 : 247,168,184
Combo2 : 85,205,252
Combo3 : 220,220,220

[HitObjects]
256,192,10931,12,0,14931,0:0:0:0:
34,68,16181,6,0,P|101:93|137:103,1,95,4|0,1:2|3:0,0:0:0:0:
176,154,16931,1,0,0:0:0:0:
122,207,17181,2,0,P|110:237|107:260,1,47.5,10|0,0:0|0:0,0:0:0:0:
140,320,17681,1,0,3:0:0:0:
287,355,18181,6,0,P|303:322|302:295,1,47.5,2|0,3:0|0:0,0:0:0:0:
257,251,18681,2,0,P|244:217|238:196,1,47.5,8|8,0:0|0:0,0:0:0:0:
275,138,19181,1,8,0:0:0:0:
275,138,19431,1,8,3:0:0:0:
203,106,19681,2,0,B|161:118|150:142|109:145,1,95,14|10,0:0|0:0,0:0:0:0:
23,38,20681,6,0,P|57:37|80:28,1,47.5,0|0,3:0|3:0,0:0:0:0:
144,12,21181,2,0,P|188:15|250:40,1,95,10|2,0:0|0:1,0:0:0:0:
347,86,22181,5,0,3:0:0:0:
301,146,22431,1,0,3:0:0:0:
319,219,22681,2,0,P|326:242|331:267,1,47.5,0|0,3:0|0:0,0:0:0:0:
394,306,23181,1,8,0:0:0:0:
462,273,23431,1,2,0:1:0:0:
463,197,23681,2,0,P|450:160|441:109,1,71.25,10|0,0:1|0:0,0:0:0:0:
425,94,24181,6,0,P|384:94|346:142,1,95,0|0,1:0|3:0,0:0:0:0:
323,203,24931,1,0,0:0:0:0:
248,185,25181,2,0,P|205:172|193:168,1,47.5,10|0,0:0|0:0,0:0:0:0:
143,122,25681,1,0,3:0:0:0:
24,217,26181,5,2,3:0:0:0:
8,291,26431,1,0,0:0:0:0:
66,339,26681,2,0,P|109:325|116:326,1,47.5,8|8,0:0|0:0,0:0:0:0:
184,339,27181,2,0,P|187:371|190:390,2,47.5,8|8|14,0:0|3:0|0:0,0:0:0:0:
96,214,28181,6,0,B|116:203|122:174|122:174|103:158|92:123,1,95,0|0,1:0|3:0,0:0:0:0:
138,72,28931,1,0,0:0:0:0:
200,115,29181,2,0,B|228:122|228:122|246:159|246:159|282:167,1,95,8|2,0:0|0:1,0:0:0:0:
413,110,30181,6,0,P|426:80|419:54,1,47.5,2|2,0:0|0:0,0:0:0:0:
362,21,30681,2,0,P|334:30|317:37,1,47.5,0|0,3:0|0:0,0:0:0:0:
242,22,31181,1,8,0:0:0:0:
214,92,31431,1,2,0:1:0:0:
274,138,31681,2,0,L|286:200,1,47.5,10|0,0:1|0:0,0:0:0:0:
266,254,32181,5,2,0:0:0:0:
275,239,34681,6,0,P|254:265|227:271,1,47.5,8|8,0:0|0:0,0:0:0:0:
166,258,35181,1,8,0:0:0:0:
125,193,35431,1,8,3:0:0:0:
168,130,35681,2,0,P|179:99|192:49,1,71.25,14|0,0:0|1:0,0:0:0:0:
180,24,36181,6,0,L|81:73,1,95,0|8,1:0|3:0,0:0:0:0:
38,117,36931,1,0,0:0:0:0:
25,191,37181,2,0,P|33:220|47:245,1,47.5,8|0,0:0|0:0,0:0:0:0:
14,307,37681,2,0,L|97:333,1,71.25,2|0,0:1|0:0,0:0:0:0:
112,305,38181,5,0,3:0:0:0:
254,358,38681,1,0,3:0:0:0:
311,308,38931,1,0,0:0:0:0:
278,239,39181,2,0,P|260:211|257:193,2,47.5,8|2|10,0:0|0:1|0:1,0:0:0:0:
421,289,40181,6,0,P|467:280|489:231,1,95,0|0,1:0|3:0,0:0:0:0:
467,167,40931,1,0,0:0:0:0:
391,159,41181,2,0,P|367:175|335:187,1,47.5,10|0,0:0|0:0,0:0:0:0:
345,258,41681,1,0,3:0:0:0:
199,214,42181,6,0,B|176:187|176:187|197:124,1,95,2|8,3:0|0:0,0:0:0:0:
176,56,42931,1,8,0:0:0:0:
243,20,43181,2,0,P|287:39|297:43,1,47.5,8|8,0:0|3:0,0:0:0:0:
331,100,43681,2,0,B|346:144|346:144|345:178,1,71.25,14|0,0:0|1:0,0:0:0:0:
360,203,44181,6,0,P|401:215|445:182,1,95,10|0,0:0|3:0,0:0:0:0:
495,241,44931,1,0,3:0:0:0:
455,305,45181,2,0,P|441:337|441:353,1,47.5,10|0,0:0|0:0,0:0:0:0:
365,363,45681,2,0,B|337:355|337:355|318:363|289:368,1,71.25,2|0,0:1|0:0,0:0:0:0:
263,347,46181,6,0,P|244:319|249:294,1,47.5,0|0,3:0|3:0,0:0:0:0:
278,238,46681,2,0,P|278:214|274:187,1,47.5,0|0,3:0|0:0,0:0:0:0:
200,180,47181,2,0,P|182:125|182:78,1,95,8|2,0:0|0:1,0:0:0:0:
219,21,47931,1,0,3:0:0:0:
146,4,48181,6,0,P|101:22|34:52,1,113.999996520996,4|0,1:2|3:0,0:0:0:0:
12,129,48931,1,0,0:0:0:0:
75,186,49181,2,0,P|114:175|125:142,1,56.9999982604981,8|0,0:0|0:0,0:0:0:0:
183,102,49681,2,0,P|214:115|237:123,1,56.9999982604981,0|0,3:0|0:0,0:0:0:0:
304,71,50181,6,0,B|359:57|359:57|408:104,1,113.999996520996,2|8,0:0|0:0,0:0:0:0:
454,163,50931,1,8,0:0:0:0:
386,215,51181,2,0,L|358:273,1,56.9999982604981,8|8,0:0|3:0,0:0:0:0:
402,341,51681,2,0,P|436:370|488:364,1,85.4999973907472,14|0,0:0|1:0,0:0:0:0:
510,346,52181,6,0,P|497:319|491:281,1,56.9999982604981,0|0,1:0|3:0,0:0:0:0:
461,212,52681,1,0,3:0:0:0:
488,131,52931,1,0,3:0:0:0:
402,107,53181,2,0,B|327:131|361:145|293:167,1,113.999996520996,8|2,0:0|0:1,0:0:0:0:
139,117,54181,6,0,P|115:81|117:47,1,56.9999982604981,0|0,3:0|3:0,0:0:0:0:
47,122,54681,2,0,P|54:156|41:183,1,56.9999982604981,0|0,3:0|3:0,0:0:0:0:
11,254,55181,1,8,0:0:0:0:
70,315,55431,1,2,0:1:0:0:
151,290,55681,2,0,B|207:274|207:274|219:245,1,85.4999973907472,10|0,0:1|0:0,0:0:0:0:
249,220,56181,6,0,P|231:195|226:109,1,113.999996520996,4|0,1:2|3:0,0:0:0:0:
277,47,56931,1,0,0:0:0:0:
356,77,57181,2,0,P|389:93|397:116,1,56.9999982604981,8|0,0:0|0:0,0:0:0:0:
441,182,57681,2,0,P|424:219|420:247,1,56.9999982604981,0|0,3:0|0:0,0:0:0:0:
460,311,58181,6,0,B|434:327|434:327|377:319|377:319|349:335,1,113.999996520996,2|8,0:0|0:0,0:0:0:0:
278,370,58931,1,8,0:0:0:0:
220,306,59181,1,8,0:0:0:0:
265,233,59431,1,8,3:0:0:0:
204,172,59681,2,0,P|150:186|124:195,1,56.9999982604981,14|0,0:0|0:0,0:0:0:0:
87,246,60181,6,2,B|64:328|64:328|79:352,1,113.999996520996,2|0,1:0|0:0,0:1:0:0:
249,367,61181,2,0,P|286:355|306:339,1,56.9999982604981,8|0,0:0|0:0,0:0:0:0:
361,284,61681,1,2,0:1:0:0:
266,141,62181,6,0,P|274:108|274:79,2,56.9999982604981,2|2|0,0:0|0:0|3:0,0:0:0:0:
204,200,62931,1,0,0:0:0:0:
130,156,63181,2,0,P|96:164|78:177,1,56.9999982604981,8|2,0:0|0:1,0:0:0:0:
53,258,63681,1,10,0:1:0:0:
157,355,64181,6,0,L|264:338,1,95,6|10,1:2|0:0,0:0:0:0:
304,285,64931,2,0,P|320:257|303:189,1,95,2|0,0:3|0:0,0:0:0:0:
242,162,65681,1,8,0:0:0:0:
102,222,66181,6,0,L|36:235,2,47.5,2|2|10,1:2|0:0|0:0,0:0:0:0:
117,147,66931,2,0,B|114:122|132:100|132:100|121:78|133:36,1,95,2|2,0:0|3:0,0:0:0:0:
196,12,67681,1,8,0:0:0:0:
335,72,68181,6,0,P|387:66|422:37,1,95,2|8,1:2|0:0,0:0:0:0:
488,72,68931,2,0,P|489:100|487:120,1,47.5,2|2,0:0|1:0,0:0:0:0:
452,187,69431,1,2,0:1:0:0:
376,177,69681,1,10,0:1:0:0:
218,269,70181,6,0,L|157:299,2,56.9999982604981,2|2|10,1:2|0:0|0:0,0:0:0:0:
258,187,70931,2,0,P|247:132|220:68,1,113.999996520996,2|0,0:0|0:0,0:0:0:0:
141,37,71681,1,8,0:0:0:0:
18,171,72181,6,0,B|48:191|48:191|121:136,1,113.999996520996,6|10,1:2|0:0,0:0:0:0:
191,185,72931,2,0,L|262:209,1,56.9999982604981,2|2,3:3|1:2,0:0:0:0:
308,137,73431,1,2,0:1:0:0:
255,62,73681,1,8,0:0:0:0:
428,5,74181,6,0,P|453:29|480:69,1,56.9999982604981,2|2,1:2|3:2,0:0:0:0:
414,126,74681,1,8,0:0:0:0:
442,212,74931,2,0,P|426:243|404:318,1,113.999996520996,0|0,3:0|0:0,0:0:0:0:
326,367,75681,2,2,P|299:341|303:308,1,56.9999982604981,10|2,1:3|0:0,0:3:0:0:
235,256,76181,6,0,B|226:222|215:199,2,56.9999982604981,0|0|8,1:3|3:0|0:0,3:0:0:0:
184,331,76931,2,0,P|152:348|126:354,1,56.9999982604981,2|0,0:0|1:0,0:0:0:0:
47,319,77431,1,2,0:1:0:0:
26,230,77681,1,10,0:1:0:0:
141,89,78181,6,0,P|121:55|114:28,2,56.9999982604981,2|2|10,1:2|0:3|0:0,0:0:0:0:
169,175,78931,2,0,P|207:219|266:221,1,113.999996520996
315,150,79681,1,10,0:0:0:0:
428,250,80181,6,0,L|405:351,1,95,2|10,1:2|0:0,0:0:0:0:
332,360,80931,2,0,L|282:378,1,47.5,2|0,3:0|1:0,0:0:0:0:
221,337,81431,1,2,0:1:0:0:
254,268,81681,2,0,L|233:195,1,71.25,8|0,0:1|0:0,0:0:0:0:
210,169,82181,6,2,L|229:63,1,95,2|8,1:2|0:0,0:1:0:0:
160,38,82931,2,0,P|134:52|122:72,1,47.5,2|0,0:0|1:0,0:0:0:0:
80,128,83431,1,0,0:0:0:0:
132,182,83681,1,0,3:0:0:0:
295,100,84181,6,0,L|416:73,1,113.999996520996,2|8,1:2|0:0,0:0:0:0:
485,120,84931,1,2,0:0:0:0:
459,207,85181,2,0,L|433:269,1,56.9999982604981,0|2,1:0|0:1,0:0:0:0:
393,339,85681,2,0,B|356:308|356:308|350:258,1,85.4999973907472,10|0,0:0|0:0,0:0:0:0:
319,238,86181,5,2,1:2:0:0:
157,323,86681,1,8,0:0:0:0:
82,269,86931,1,2,0:0:0:0:
87,177,87181,2,0,P|106:137|113:106,2,56.9999982604981,0|0|14,1:0|3:0|0:0,0:0:0:0:
0,301,88181,5,6,1:0:0:0:
0,301,96181,6,0,L|114:278,1,113.999996520996,6|8,1:2|0:0,0:0:0:0:
186,319,96931,2,0,P|225:330|251:344,1,56.9999982604981,2|2,3:0|1:2,0:0:0:0:
315,302,97431,1,2,0:1:0:0:
271,228,97681,2,0,L|259:135,1,85.4999973907472,10|0,0:1|0:0,0:0:0:0:
239,105,98181,6,0,P|260:67|330:76,1,113.999996520996,2|8,1:2|0:0,0:0:0:0:
392,121,98931,2,0,P|421:108|445:93,1,56.9999982604981,2|0,3:0|1:0,0:0:0:0:
508,148,99431,1,10,3:0:0:0:
472,225,99681,1,10,0:0:0:0:
364,343,100181,6,0,B|337:334|337:334|302:279|302:279|279:272,1,113.999996520996,0|8,1:0|0:0,0:0:0:0:
200,296,100931,2,0,P|183:324|187:348,1,56.9999982604981,2|0,0:0|1:0,0:0:0:0:
104,369,101431,1,0,0:0:0:0:
34,318,101681,2,0,B|42:286|42:286|71:220,1,85.4999973907472,10|0,1:1|3:0,0:0:0:0:
90,204,102181,6,0,P|65:183|53:103,1,113.999996520996,2|8,1:2|0:0,0:0:0:0:
114,47,102931,2,0,P|147:56|156:83,1,56.9999982604981,2|0,3:0|1:0,0:0:0:0:
198,149,103431,1,0,0:0:0:0:
282,135,103681,1,10,0:0:0:0:
425,227,104181,6,0,L|313:249,1,113.999996520996,6|8,1:2|0:0,0:0:0:0:
262,318,104931,2,0,P|223:329|197:343,1,56.9999982604981,2|2,3:0|1:2,0:0:0:0:
132,296,105431,1,2,0:1:0:0:
95,218,105681,2,0,L|83:125,1,85.4999973907472,10|0,0:1|0:0,0:0:0:0:
114,103,106181,6,0,P|135:65|205:74,1,113.999996520996,2|8,1:2|0:0,0:0:0:0:
263,124,106931,2,0,P|238:138|212:150,1,56.9999982604981,2|0,3:0|1:0,0:0:0:0:
155,214,107431,1,10,3:0:0:0:
208,281,107681,1,10,0:0:0:0:
378,290,108181,6,0,B|397:295|397:295|432:350|432:350|459:359,1,113.999996520996,0|8,1:0|0:0,0:0:0:0:
499,284,108931,2,0,P|509:264|511:225,1,56.9999982604981,2|0,0:0|1:0,0:0:0:0:
469,155,109431,1,0,0:0:0:0:
387,128,109681,2,0,B|365:176|365:176|357:208,1,85.4999973907472,10|0,1:1|3:0,0:0:0:0:
315,217,110181,6,0,P|313:272|276:314,1,113.999996520996,2|8,1:2|0:0,0:0:0:0:
193,336,110931,2,0,P|178:312|151:308,1,56.9999982604981,2|0,3:0|1:0,0:0:0:0:
78,262,111431,1,0,0:0:0:0:
105,181,111681,1,10,0:0:0:0:
