osu file format v14

[General]
AudioFilename: audio.mp3
AudioLeadIn: 0
PreviewTime: 17725
Countdown: 0
SampleSet: Soft
StackLeniency: 0.7
Mode: 2
LetterboxInBreaks: 0
WidescreenStoryboard: 1

[Editor]
DistanceSpacing: 2.4
BeatDivisor: 4
GridSize: 4
TimelineZoom: 1.4

[Metadata]
Title:introduction
TitleUnicode:introduction
Artist:in love with a ghost
ArtistUnicode:in love with a ghost
Creator:ZiRoX
Version:zonda's cup
Source:
Tags:healing ilwag electronic lofi lo-fi dream pop chillstep ambient chillout chillwave instrumental LGTB LGTBQ pride fa featured artist mappers' guild mpg bighzonda bigh
BeatmapID:3580553
BeatmapSetID:1750191

[Difficulty]
HPDrainRate:2
CircleSize:3.5
OverallDifficulty:5
ApproachRate:5
SliderMultiplier:2.1
SliderTickRate:1

[Events]
//Background and Video events
0,0,"introduction.jpg",0,0
//Break Periods
//Storyboard Layer 0 (Background)
//Storyboard Layer 1 (Fail)
//Storyboard Layer 2 (Pass)
//Storyboard Layer 3 (Foreground)
//Storyboard Layer 4 (Overlay)
//Storyboard Sound Samples

[TimingPoints]
180,550.45871559633,4,2,1,40,1,0
17794,-100,4,2,1,50,0,0
26602,-100,4,2,1,60,0,0

[Colours]
Combo1 : 255,238,182
Combo2 : 235,124,133
Combo3 : 234,167,140
Combo4 : 247,214,179

[HitObjects]
56,80,180,5,2,0:0:0:0:
392,88,1280,1,2,0:0:0:0:
56,80,2381,6,0,B|96:160|96:160|240:152,1,210,2|2,0:0|0:0,0:0:0:0:
320,144,3207,1,0,0:0:0:0:
216,112,3482,2,0,P|160:160|256:224,1,210,2|2,0:0|0:0,0:0:0:0:
456,80,4583,5,2,0:0:0:0:
120,88,5683,1,2,0:0:0:0:
456,80,6784,6,0,B|416:160|416:160|272:152,1,210,10|2,0:0|0:0,0:0:0:0:
192,144,7610,1,0,0:0:0:0:
296,144,7886,2,0,B|360:48|360:48|256:40,1,210,2|2,0:0|0:0,0:0:0:0:
160,40,8712,1,2,0:0:0:0:
56,80,8987,5,2,0:0:0:0:
392,84,10087,1,2,0:0:0:0:
56,64,11189,6,0,P|88:136|213:173,1,210,2|2,0:0|0:0,0:0:0:0:
312,152,12014,1,0,0:0:0:0:
417,144,12290,2,0,P|367:82|225:48,1,210,2|2,0:0|0:0,0:0:0:0:
456,80,13391,5,2,0:0:0:0:
120,88,14491,1,2,0:0:0:0:
456,80,15592,6,0,B|224:80,1,210,10|2,0:0|0:0,0:0:0:0:
246,80,16418,1,0,0:0:0:0:
352,80,16693,2,0,B|352:184|352:184|240:184,1,210,2|2,0:0|0:0,0:0:0:0:
246,184,17520,1,2,0:0:0:0:
384,136,17794,6,0,L|488:136,2,105,10|0|8,0:0|0:0|0:0,0:0:0:0:
272,136,18620,1,0,0:0:0:0:
168,128,18895,2,0,B|112:160|112:160|112:208|112:208|240:208,1,210,2|8,0:0|0:0,0:0:0:0:
424,120,19996,6,0,L|296:120,1,105,2|0,0:0|0:0,0:0:0:0:
216,48,20546,2,0,L|336:48,1,105,8|0,0:0|0:0,0:0:0:0:
426,48,21097,2,0,L|306:48,2,105,2|0|8,0:0|0:0|0:0,0:0:0:0:
320,48,21923,1,0,0:0:0:0:
194,144,22198,6,0,L|34:144,2,157.5,10|2|2,0:0|0:0|0:0,0:0:0:0:
296,152,23299,2,0,P|364:100|288:36,1,210,2|8,0:0|0:0,0:0:0:0:
68,116,24400,6,0,L|196:116,1,105,10|0,0:0|0:0,0:0:0:0:
276,44,24950,2,0,L|156:44,1,105,8|0,0:0|0:0,0:0:0:0:
66,44,25501,2,0,L|186:44,2,105,2|0|8,0:0|0:0|0:0,0:0:0:0:
172,44,26327,1,0,0:0:0:0:
313,92,26602,6,0,L|313:204,1,105,10|0,0:0|0:0,0:0:0:0:
209,92,27152,1,8,0:0:0:0:
0,92,27702,2,0,L|216:92,1,210,2|8,0:0|0:0,0:0:0:0:
417,92,28803,6,0,L|417:204,1,105,2|0,0:0|0:0,0:0:0:0:
313,92,29353,1,8,0:0:0:0:
512,92,29903,2,0,L|302:92,1,210,2|8,0:0|0:0,0:0:0:0:
88,88,31005,5,10,0:0:0:0:
193,88,31280,1,0,0:0:0:0:
298,88,31556,1,8,0:0:0:0:
88,88,32106,2,0,P|24:168|96:208,1,210,2|8,0:0|0:0,0:0:0:0:
304,96,33207,6,0,L|176:96,1,105,10|0,0:0|0:0,0:0:0:0:
96,24,33757,2,0,L|216:24,1,105,8|0,0:0|0:0,0:0:0:0:
306,24,34308,2,0,L|186:24,2,105,2|0|8,0:0|0:0|0:0,0:0:0:0:
200,24,35134,1,0,0:0:0:0:
64,24,35409,5,4,0:0:0:0:
